  0
SECTION
  2
HEADER
  9
$ACADVER
  1
AC1015
  9
$ACADMAINTVER
 70
     6
  9
$DWGCODEPAGE
  3
ANSI_1252
  9
$INSBASE
 10
0.0
 20
0.0
 30
0.0
  9
$EXTMIN
 10
-90.374630561825
 20
29.2647318498286
 30
0.0
  9
$EXTMAX
 10
35.8350280857537
 20
138.0341187671348
 30
0.0
  9
$LIMMIN
 10
0.0
 20
0.0
  9
$LIMMAX
 10
12.0
 20
9.0
  9
$ORTHOMODE
 70
     0
  9
$REGENMODE
 70
     1
  9
$FILLMODE
 70
     1
  9
$QTEXTMODE
 70
     0
  9
$MIRRTEXT
 70
     1
  9
$LTSCALE
 40
1.0
  9
$ATTMODE
 70
     1
  9
$TEXTSIZE
 40
0.2
  9
$TRACEWID
 40
0.05
  9
$TEXTSTYLE
  7
Standard
  9
$CLAYER
  8
0
  9
$CELTYPE
  6
ByLayer
  9
$CECOLOR
 62
   256
  9
$CELTSCALE
 40
1.0
  9
$DISPSILH
 70
     0
  9
$DIMSCALE
 40
1.0
  9
$DIMASZ
 40
0.18
  9
$DIMEXO
 40
0.0625
  9
$DIMDLI
 40
0.38
  9
$DIMRND
 40
0.0
  9
$DIMDLE
 40
0.0
  9
$DIMEXE
 40
0.18
  9
$DIMTP
 40
0.0
  9
$DIMTM
 40
0.0
  9
$DIMTXT
 40
0.18
  9
$DIMCEN
 40
0.09
  9
$DIMTSZ
 40
0.0
  9
$DIMTOL
 70
     0
  9
$DIMLIM
 70
     0
  9
$DIMTIH
 70
     1
  9
$DIMTOH
 70
     1
  9
$DIMSE1
 70
     0
  9
$DIMSE2
 70
     0
  9
$DIMTAD
 70
     0
  9
$DIMZIN
 70
     0
  9
$DIMBLK
  1

  9
$DIMASO
 70
     1
  9
$DIMSHO
 70
     1
  9
$DIMPOST
  1

  9
$DIMAPOST
  1

  9
$DIMALT
 70
     0
  9
$DIMALTD
 70
     2
  9
$DIMALTF
 40
25.4
  9
$DIMLFAC
 40
1.0
  9
$DIMTOFL
 70
     0
  9
$DIMTVP
 40
0.0
  9
$DIMTIX
 70
     0
  9
$DIMSOXD
 70
     0
  9
$DIMSAH
 70
     0
  9
$DIMBLK1
  1

  9
$DIMBLK2
  1

  9
$DIMSTYLE
  2
Standard
  9
$DIMCLRD
 70
     0
  9
$DIMCLRE
 70
     0
  9
$DIMCLRT
 70
     0
  9
$DIMTFAC
 40
1.0
  9
$DIMGAP
 40
0.09
  9
$DIMJUST
 70
     0
  9
$DIMSD1
 70
     0
  9
$DIMSD2
 70
     0
  9
$DIMTOLJ
 70
     1
  9
$DIMTZIN
 70
     0
  9
$DIMALTZ
 70
     0
  9
$DIMALTTZ
 70
     0
  9
$DIMUPT
 70
     0
  9
$DIMDEC
 70
     4
  9
$DIMTDEC
 70
     4
  9
$DIMALTU
 70
     2
  9
$DIMALTTD
 70
     2
  9
$DIMTXSTY
  7
Standard
  9
$DIMAUNIT
 70
     0
  9
$DIMADEC
 70
     0
  9
$DIMALTRND
 40
0.0
  9
$DIMAZIN
 70
     0
  9
$DIMDSEP
 70
    46
  9
$DIMATFIT
 70
     3
  9
$DIMFRAC
 70
     0
  9
$DIMLDRBLK
  1

  9
$DIMLUNIT
 70
     2
  9
$DIMLWD
 70
    -2
  9
$DIMLWE
 70
    -2
  9
$DIMTMOVE
 70
     0
  9
$LUNITS
 70
     2
  9
$LUPREC
 70
     4
  9
$SKETCHINC
 40
0.1
  9
$FILLETRAD
 40
0.5
  9
$AUNITS
 70
     0
  9
$AUPREC
 70
     0
  9
$MENU
  1
.
  9
$ELEVATION
 40
0.0
  9
$PELEVATION
 40
0.0
  9
$THICKNESS
 40
0.0
  9
$LIMCHECK
 70
     0
  9
$CHAMFERA
 40
0.5
  9
$CHAMFERB
 40
0.5
  9
$CHAMFERC
 40
1.0
  9
$CHAMFERD
 40
0.0
  9
$SKPOLY
 70
     0
  9
$TDCREATE
 40
2456332.562241933
  9
$TDUCREATE
 40
2456332.520575266
  9
$TDUPDATE
 40
2456332.562241944
  9
$TDUUPDATE
 40
2456332.520575278
  9
$TDINDWG
 40
0.0000000116
  9
$TDUSRTIMER
 40
0.0000000116
  9
$USRTIMER
 70
     1
  9
$ANGBASE
 50
0.0
  9
$ANGDIR
 70
     0
  9
$PDMODE
 70
     0
  9
$PDSIZE
 40
0.0
  9
$PLINEWID
 40
0.0
  9
$SPLFRAME
 70
     0
  9
$SPLINETYPE
 70
     6
  9
$SPLINESEGS
 70
     8
  9
$HANDSEED
  5
11B
  9
$SURFTAB1
 70
     6
  9
$SURFTAB2
 70
     6
  9
$SURFTYPE
 70
     6
  9
$SURFU
 70
     6
  9
$SURFV
 70
     6
  9
$UCSBASE
  2

  9
$UCSNAME
  2

  9
$UCSORG
 10
0.0
 20
0.0
 30
0.0
  9
$UCSXDIR
 10
1.0
 20
0.0
 30
0.0
  9
$UCSYDIR
 10
0.0
 20
1.0
 30
0.0
  9
$UCSORTHOREF
  2

  9
$UCSORTHOVIEW
 70
     0
  9
$UCSORGTOP
 10
0.0
 20
0.0
 30
0.0
  9
$UCSORGBOTTOM
 10
0.0
 20
0.0
 30
0.0
  9
$UCSORGLEFT
 10
0.0
 20
0.0
 30
0.0
  9
$UCSORGRIGHT
 10
0.0
 20
0.0
 30
0.0
  9
$UCSORGFRONT
 10
0.0
 20
0.0
 30
0.0
  9
$UCSORGBACK
 10
0.0
 20
0.0
 30
0.0
  9
$PUCSBASE
  2

  9
$PUCSNAME
  2

  9
$PUCSORG
 10
0.0
 20
0.0
 30
0.0
  9
$PUCSXDIR
 10
1.0
 20
0.0
 30
0.0
  9
$PUCSYDIR
 10
0.0
 20
1.0
 30
0.0
  9
$PUCSORTHOREF
  2

  9
$PUCSORTHOVIEW
 70
     0
  9
$PUCSORGTOP
 10
0.0
 20
0.0
 30
0.0
  9
$PUCSORGBOTTOM
 10
0.0
 20
0.0
 30
0.0
  9
$PUCSORGLEFT
 10
0.0
 20
0.0
 30
0.0
  9
$PUCSORGRIGHT
 10
0.0
 20
0.0
 30
0.0
  9
$PUCSORGFRONT
 10
0.0
 20
0.0
 30
0.0
  9
$PUCSORGBACK
 10
0.0
 20
0.0
 30
0.0
  9
$USERI1
 70
     0
  9
$USERI2
 70
     0
  9
$USERI3
 70
     0
  9
$USERI4
 70
     0
  9
$USERI5
 70
     0
  9
$USERR1
 40
16.5
  9
$USERR2
 40
0.0
  9
$USERR3
 40
0.0
  9
$USERR4
 40
0.0
  9
$USERR5
 40
0.0
  9
$WORLDVIEW
 70
     1
  9
$SHADEDGE
 70
     3
  9
$SHADEDIF
 70
    70
  9
$TILEMODE
 70
     1
  9
$MAXACTVP
 70
    64
  9
$PINSBASE
 10
0.0
 20
0.0
 30
0.0
  9
$PLIMCHECK
 70
     0
  9
$PEXTMIN
 10
1.00000000000000E+20
 20
1.00000000000000E+20
 30
1.00000000000000E+20
  9
$PEXTMAX
 10
-1.00000000000000E+20
 20
-1.00000000000000E+20
 30
-1.00000000000000E+20
  9
$PLIMMIN
 10
0.0
 20
0.0
  9
$PLIMMAX
 10
12.0
 20
9.0
  9
$UNITMODE
 70
     0
  9
$VISRETAIN
 70
     1
  9
$PLINEGEN
 70
     0
  9
$PSLTSCALE
 70
     1
  9
$TREEDEPTH
 70
  3020
  9
$CMLSTYLE
  2
Standard
  9
$CMLJUST
 70
     0
  9
$CMLSCALE
 40
1.0
  9
$PROXYGRAPHICS
 70
     1
  9
$MEASUREMENT
 70
     1
  9
$CELWEIGHT
370
    -1
  9
$ENDCAPS
280
     0
  9
$JOINSTYLE
280
     0
  9
$LWDISPLAY
290
     0
  9
$INSUNITS
 70
     1
  9
$HYPERLINKBASE
  1

  9
$STYLESHEET
  1

  9
$XEDIT
290
     1
  9
$CEPSNTYPE
380
     0
  9
$PSTYLEMODE
290
     1
  9
$FINGERPRINTGUID
  2
{034B7557-812A-4D6A-81FA-F772FFA1F501}
  9
$VERSIONGUID
  2
{FAEB1C32-E019-11D5-929B-00C0DF256EC4}
  9
$EXTNAMES
290
     1
  9
$PSVPSCALE
 40
0.0
  9
$OLESTARTUP
290
     0
  0
ENDSEC
  0
SECTION
  2
CLASSES
  0
CLASS
  1
ACDBDICTIONARYWDFLT
  2
AcDbDictionaryWithDefault
  3
ObjectDBX Classes
 90
        0
280
     0
281
     0
  0
CLASS
  1
VISUALSTYLE
  2
AcDbVisualStyle
  3
ObjectDBX Classes
 90
     4095
280
     0
281
     0
  0
CLASS
  1
SCALE
  2
AcDbScale
  3
ObjectDBX Classes
 90
     1153
280
     0
281
     0
  0
CLASS
  1

  2
exOdDbPolyline
  3

 90
        0
280
     0
281
     1
  0
CLASS
  1
DICTIONARYVAR
  2
AcDbDictionaryVar
  3
ObjectDBX Classes
 90
        0
280
     0
281
     0
  0
CLASS
  1
ACDBPLACEHOLDER
  2
AcDbPlaceHolder
  3
ObjectDBX Classes
 90
        0
280
     0
281
     0
  0
CLASS
  1
LAYOUT
  2
AcDbLayout
  3
ObjectDBX Classes
 90
        0
280
     0
281
     0
  0
ENDSEC
  0
SECTION
  2
TABLES
  0
TABLE
  2
VPORT
  5
8
330
0
100
AcDbSymbolTable
 70
     1
  0
VPORT
  5
29
330
8
100
AcDbSymbolTableRecord
100
AcDbViewportTableRecord
  2
*Active
 70
     0
 10
0.0
 20
0.0
 11
1.0
 21
1.0
 12
-27.26980123803565
 22
83.6494253084817
 13
0.0
 23
0.0
 14
0.5
 24
0.5
 15
0.5
 25
0.5
 16
0.0
 26
0.0
 36
1.0
 17
0.0
 27
0.0
 37
0.0
 40
119.6463256090368
 41
1.60267857142857
 42
50.0
 43
0.0
 44
0.0
 50
0.0
 51
0.0
 71
     0
 72
   100
 73
     1
 74
     3
 75
     0
 76
     0
 77
     0
 78
     0
281
     0
 65
     1
110
0.0
120
0.0
130
0.0
111
1.0
121
0.0
131
0.0
112
0.0
122
1.0
132
0.0
 79
     0
146
0.0
  0
ENDTAB
  0
TABLE
  2
LTYPE
  5
5
330
0
100
AcDbSymbolTable
 70
     8
  0
LTYPE
  5
14
330
5
100
AcDbSymbolTableRecord
100
AcDbLinetypeTableRecord
  2
ByBlock
 70
     0
  3

 72
    65
 73
     0
 40
0.0
  0
LTYPE
  5
15
330
5
100
AcDbSymbolTableRecord
100
AcDbLinetypeTableRecord
  2
ByLayer
 70
     0
  3

 72
    65
 73
     0
 40
0.0
  0
LTYPE
  5
16
330
5
100
AcDbSymbolTableRecord
100
AcDbLinetypeTableRecord
  2
Continuous
 70
     0
  3
Solid line
 72
    65
 73
     0
 40
0.0
  0
LTYPE
  5
3B
330
5
100
AcDbSymbolTableRecord
100
AcDbLinetypeTableRecord
  2
DASHED
 70
     0
  3
Dashed
 72
    65
 73
     2
 40
15.0
 49
7.0
 74
     0
 49
-8.0
 74
     0
  0
LTYPE
  5
3C
330
5
100
AcDbSymbolTableRecord
100
AcDbLinetypeTableRecord
  2
DOTTED
 70
     0
  3
Dotted
 72
    65
 73
     2
 40
1.0
 49
0.0
 74
     0
 49
-1.0
 74
     0
  0
LTYPE
  5
3D
330
5
100
AcDbSymbolTableRecord
100
AcDbLinetypeTableRecord
  2
DOT_CENTER
 70
     0
  3
Dot_Center
 72
    65
 73
     4
 40
14.0
 49
12.0
 74
     0
 49
-1.0
 74
     0
 49
0.0
 74
     0
 49
-1.0
 74
     0
  0
LTYPE
  5
3E
330
5
100
AcDbSymbolTableRecord
100
AcDbLinetypeTableRecord
  2
LONG_DASHED
 70
     0
  3
Long_Dashed
 72
    65
 73
     2
 40
15.0
 49
10.0
 74
     0
 49
-5.0
 74
     0
  0
LTYPE
  5
3F
330
5
100
AcDbSymbolTableRecord
100
AcDbLinetypeTableRecord
  2
DASH_CENTER
 70
     0
  3
Dash_Center
 72
    65
 73
     4
 40
14.0
 49
11.0
 74
     0
 49
-1.0
 74
     0
 49
1.0
 74
     0
 49
-1.0
 74
     0
  0
LTYPE
  5
40
330
5
100
AcDbSymbolTableRecord
100
AcDbLinetypeTableRecord
  2
PHANTOM
 70
     0
  3
Phantom
 72
    65
 73
     6
 40
13.0
 49
10.0
 74
     0
 49
-1.0
 74
     0
 49
0.0
 74
     0
 49
-1.0
 74
     0
 49
0.0
 74
     0
 49
-1.0
 74
     0
  0
LTYPE
  5
41
330
5
100
AcDbSymbolTableRecord
100
AcDbLinetypeTableRecord
  2
CENTER_DASH_DASH
 70
     0
  3
Center_Dash_Dash
 72
    65
 73
     6
 40
14.0
 49
9.0
 74
     0
 49
-1.0
 74
     0
 49
1.0
 74
     0
 49
-1.0
 74
     0
 49
1.0
 74
     0
 49
-1.0
 74
     0
  0
ENDTAB
  0
TABLE
  2
LAYER
  5
2
330
0
100
AcDbSymbolTable
 70
     3
  0
LAYER
  5
10
330
2
100
AcDbSymbolTableRecord
100
AcDbLayerTableRecord
  2
0
 70
     0
 62
     7
  6
Continuous
370
    -3
390
F
  0
LAYER
  5
42
330
2
100
AcDbSymbolTableRecord
100
AcDbLayerTableRecord
  2
1
 70
     0
 62
     7
  6
Continuous
370
    -3
390
F
  0
LAYER
  5
43
330
2
100
AcDbSymbolTableRecord
100
AcDbLayerTableRecord
  2
10
 70
     0
 62
     7
  6
Continuous
370
    -3
390
F
  0
ENDTAB
  0
TABLE
  2
STYLE
  5
3
330
0
100
AcDbSymbolTable
 70
     3
  0
STYLE
  5
11
330
3
100
AcDbSymbolTableRecord
100
AcDbTextStyleTableRecord
  2
Standard
 70
     0
 40
0.0
 41
1.0
 50
0.0
 71
     0
 42
0.2
  3
txt
  4

  0
STYLE
  5
C6
330
3
100
AcDbSymbolTableRecord
100
AcDbTextStyleTableRecord
  2
CONVERTER_11
 70
     0
 40
0.0
 41
0.72
 50
0.0
 71
     0
 42
0.2
  3
txt.shx
  4

  0
STYLE
  5
111
330
3
100
AcDbSymbolTableRecord
100
AcDbTextStyleTableRecord
  2
CONVERTER_12
 70
     0
 40
0.0
 41
0.76
 50
0.0
 71
     0
 42
0.2
  3
simplex.shx
  4

  0
ENDTAB
  0
TABLE
  2
VIEW
  5
6
330
0
100
AcDbSymbolTable
 70
     0
  0
ENDTAB
  0
TABLE
  2
UCS
  5
7
330
0
100
AcDbSymbolTable
 70
     0
  0
ENDTAB
  0
TABLE
  2
APPID
  5
9
330
0
100
AcDbSymbolTable
 70
     1
  0
APPID
  5
12
330
9
100
AcDbSymbolTableRecord
100
AcDbRegAppTableRecord
  2
ACAD
 70
     0
  0
ENDTAB
  0
TABLE
  2
DIMSTYLE
  5
A
330
0
100
AcDbSymbolTable
 70
     7
100
AcDbDimStyleTable
  0
DIMSTYLE
105
27
330
A
100
AcDbSymbolTableRecord
100
AcDbDimStyleTableRecord
  2
Standard
 70
     0
340
11
  0
DIMSTYLE
105
DB
102
{ACAD_REACTORS
330
DC
102
}
330
A
100
AcDbSymbolTableRecord
100
AcDbDimStyleTableRecord
  2
ME10_DIM_10
 70
     0
  3
<>
 41
3.5
 42
2.0
 44
2.0
 71
     1
 73
     0
 74
     0
 77
     1
 78
     8
140
3.5
146
0.7
147
2.0
172
     1
173
     1
176
     2
177
     2
178
     3
271
     2
272
     0
340
C6
  0
DIMSTYLE
105
E6
102
{ACAD_REACTORS
330
E7
102
}
330
A
100
AcDbSymbolTableRecord
100
AcDbDimStyleTableRecord
  2
ME10_DIM_11
 70
     0
  3
<>
 41
3.5
 42
2.0
 44
2.0
 71
     1
 73
     0
 74
     0
 77
     1
 78
     8
140
3.5
146
0.7
147
2.0
172
     1
173
     1
176
     2
177
     2
178
     3
271
     2
272
     0
340
C6
  0
DIMSTYLE
105
F3
102
{ACAD_REACTORS
330
F4
102
}
330
A
100
AcDbSymbolTableRecord
100
AcDbDimStyleTableRecord
  2
ME10_DIM_12
 70
     0
  3
\U+2300<>
 41
3.5
 42
2.0
 44
2.0
 71
     1
 73
     0
 74
     0
 77
     1
 78
     8
140
3.5
146
0.7
147
2.0
172
     1
173
     1
176
     2
177
     2
178
     3
271
     2
272
     0
340
C6
  0
DIMSTYLE
105
FE
102
{ACAD_REACTORS
330
FF
102
}
330
A
100
AcDbSymbolTableRecord
100
AcDbDimStyleTableRecord
  2
ME10_DIM_13
 70
     0
  3
\U+2300<>
 41
3.5
 42
2.0
 44
2.0
 71
     1
 73
     0
 74
     0
 77
     1
 78
     8
140
3.5
146
0.7
147
2.0
172
     1
173
     1
176
     2
177
     2
178
     3
271
     2
272
     0
340
C6
  0
DIMSTYLE
105
109
102
{ACAD_REACTORS
330
10A
102
}
330
A
100
AcDbSymbolTableRecord
100
AcDbDimStyleTableRecord
  2
ME10_DIM_14
 70
     0
 41
3.5
 42
2.0
 44
2.0
 73
     0
 74
     0
 77
     1
 78
     8
140
3.506
147
1.0518
172
     1
173
     1
176
     2
177
     2
178
     3
271
     2
340
C6
  0
DIMSTYLE
105
115
102
{ACAD_REACTORS
330
116
102
}
330
A
100
AcDbSymbolTableRecord
100
AcDbDimStyleTableRecord
  2
ME10_DIM_15
 70
     0
  3
<>
 41
3.5
 42
1.5
 44
1.5
 71
     1
 73
     0
 74
     0
 77
     1
 78
     8
140
3.5
146
0.7
147
1.25
172
     1
173
     1
176
     2
177
     2
178
     3
271
     2
272
     0
340
111
  0
ENDTAB
  0
TABLE
  2
BLOCK_RECORD
  5
1
330
0
100
AcDbSymbolTable
 70
     9
  0
BLOCK_RECORD
  5
1F
330
1
100
AcDbSymbolTableRecord
100
AcDbBlockTableRecord
  2
*Model_Space
340
22
  0
BLOCK_RECORD
  5
1B
330
1
100
AcDbSymbolTableRecord
100
AcDbBlockTableRecord
  2
*Paper_Space
340
1E
  0
BLOCK_RECORD
  5
23
330
1
100
AcDbSymbolTableRecord
100
AcDbBlockTableRecord
  2
*Paper_Space0
340
26
  0
BLOCK_RECORD
  5
44
330
1
100
AcDbSymbolTableRecord
100
AcDbBlockTableRecord
  2
A40_Aussen
340
0
102
{BLKREFS
331
6C
102
}
  0
BLOCK_RECORD
  5
47
330
1
100
AcDbSymbolTableRecord
100
AcDbBlockTableRecord
  2
Urheberrecht_DE-EN
340
0
102
{BLKREFS
331
6D
102
}
  0
BLOCK_RECORD
  5
D2
330
1
100
AcDbSymbolTableRecord
100
AcDbBlockTableRecord
  2
*D3
340
0
  0
BLOCK_RECORD
  5
DD
330
1
100
AcDbSymbolTableRecord
100
AcDbBlockTableRecord
  2
*D4
340
0
  0
BLOCK_RECORD
  5
E8
330
1
100
AcDbSymbolTableRecord
100
AcDbBlockTableRecord
  2
*D5
340
0
  0
BLOCK_RECORD
  5
F5
330
1
100
AcDbSymbolTableRecord
100
AcDbBlockTableRecord
  2
*D6
340
0
  0
BLOCK_RECORD
  5
100
330
1
100
AcDbSymbolTableRecord
100
AcDbBlockTableRecord
  2
*D7
340
0
  0
BLOCK_RECORD
  5
10B
330
1
100
AcDbSymbolTableRecord
100
AcDbBlockTableRecord
  2
*D8
340
0
  0
ENDTAB
  0
ENDSEC
  0
SECTION
  2
BLOCKS
  0
BLOCK
  5
20
330
1F
100
AcDbEntity
  8
0
100
AcDbBlockBegin
  2
*Model_Space
 70
     0
 10
0.0
 20
0.0
 30
0.0
  3
*Model_Space
  1

  0
ENDBLK
  5
21
330
1F
100
AcDbEntity
  8
0
100
AcDbBlockEnd
  0
BLOCK
  5
1C
330
1B
100
AcDbEntity
 67
     1
  8
0
100
AcDbBlockBegin
  2
*Paper_Space
 70
     0
 10
0.0
 20
0.0
 30
0.0
  3
*Paper_Space
  1

  0
ENDBLK
  5
1D
330
1B
100
AcDbEntity
 67
     1
  8
0
100
AcDbBlockEnd
  0
BLOCK
  5
24
330
23
100
AcDbEntity
  8
0
100
AcDbBlockBegin
  2
*Paper_Space0
 70
     0
 10
0.0
 20
0.0
 30
0.0
  3
*Paper_Space0
  1

  0
ENDBLK
  5
25
330
23
100
AcDbEntity
  8
0
100
AcDbBlockEnd
  0
BLOCK
  5
45
330
44
100
AcDbEntity
  8
0
100
AcDbBlockBegin
  2
A40_Aussen
 70
     0
 10
-48.992
 20
65.095
 30
0.0
  3
A40_Aussen
  1

  0
LWPOLYLINE
  5
6E
330
44
100
AcDbEntity
  8
1
  6
Continuous
 62
     7
100
AcDbPolyline
 90
        2
 70
     0
 43
0.5
 10
11.008
 20
63.595
 10
11.008
 20
66.595
  0
LWPOLYLINE
  5
6F
330
44
100
AcDbEntity
  8
1
  6
Continuous
 62
     7
100
AcDbPolyline
 90
        2
 70
     0
 43
0.5
 10
11.008
 20
66.595
 10
11.008
 20
67.309
  0
LWPOLYLINE
  5
70
330
44
100
AcDbEntity
  8
1
  6
Continuous
 62
     7
100
AcDbPolyline
 90
        2
 70
     0
 43
0.5
 10
10.271
 20
60.037
 10
-27.14896621512247
 20
57.09107790395148
  0
LWPOLYLINE
  5
71
330
44
100
AcDbEntity
  8
1
  6
Continuous
 62
     7
100
AcDbPolyline
 90
        2
 70
     0
 43
0.25
 10
10.271
 20
60.037
 10
11.00852097656891
 20
60.09518736753307
  0
LWPOLYLINE
  5
72
330
44
100
AcDbEntity
  8
1
  6
Continuous
 62
     7
100
AcDbPolyline
 90
        2
 70
     0
 43
0.25
 10
11.009
 20
60.835
 10
11.00852097656891
 20
60.09518736753307
  0
LWPOLYLINE
  5
73
330
44
100
AcDbEntity
  8
1
  6
Continuous
 62
     7
100
AcDbPolyline
 90
        2
 70
     0
 43
0.5
 10
11.009
 20
68.845
 10
11.009
 20
69.355
  0
LWPOLYLINE
  5
74
330
44
100
AcDbEntity
  8
1
  6
Continuous
 62
     7
100
AcDbPolyline
 90
        2
 70
     0
 43
0.5
 10
11.008
 20
62.881
 10
11.008
 20
63.595
  0
LWPOLYLINE
  5
75
330
44
100
AcDbEntity
  8
1
  6
Continuous
 62
     7
100
AcDbPolyline
 90
        2
 70
     0
 43
0.5
 10
11.008
 20
62.881
 10
11.00963616765354
 20
61.34497222432042
  0
LWPOLYLINE
  5
76
330
44
100
AcDbEntity
  8
1
  6
Continuous
 62
     7
100
AcDbPolyline
 90
        2
 70
     0
 43
0.5
 10
11.009
 20
61.345
 10
11.009
 20
60.835
  0
LWPOLYLINE
  5
77
330
44
100
AcDbEntity
  8
1
  6
DASHED
 62
     7
100
AcDbPolyline
 90
        2
 70
     0
 43
0.35
 10
2.007
 20
66.595
 10
2.007
 20
63.595
  0
LWPOLYLINE
  5
78
330
44
100
AcDbEntity
  8
1
  6
DASHED
 62
     7
100
AcDbPolyline
 90
        2
 70
     0
 43
0.35
 10
11.008
 20
63.595
 10
2.007
 20
63.595
  0
LWPOLYLINE
  5
79
330
44
100
AcDbEntity
  8
1
  6
DASHED
 62
     7
100
AcDbPolyline
 90
        2
 70
     0
 43
0.35
 10
2.007
 20
66.595
 10
11.008
 20
66.595
  0
LWPOLYLINE
  5
7A
330
44
100
AcDbEntity
  8
1
  6
Continuous
 62
     7
100
AcDbPolyline
 90
        2
 70
     0
 43
0.5
 10
11.008
 20
67.309
 10
11.009
 20
68.845
  0
LWPOLYLINE
  5
7B
330
44
100
AcDbEntity
  8
1
  6
Continuous
 62
     7
100
AcDbPolyline
 90
        2
 70
     0
 43
0.25
 10
11.009
 20
69.355
 10
11.00852097656889
 20
70.09481263246597
  0
LWPOLYLINE
  5
7C
330
44
100
AcDbEntity
  8
1
  6
Continuous
 62
     7
100
AcDbPolyline
 90
        2
 70
     0
 43
0.25
 10
10.271
 20
70.15299999999999
 10
11.00852097656889
 20
70.09481263246597
  0
LWPOLYLINE
  5
7D
330
44
100
AcDbEntity
  8
1
  6
Continuous
 62
     7
100
AcDbPolyline
 90
        2
 70
     0
 43
0.5
 10
10.271
 20
70.15299999999999
 10
-27.14896621512247
 20
73.09892209604853
  0
LWPOLYLINE
  5
7E
330
44
100
AcDbEntity
  8
1
  6
Continuous
 62
     7
100
AcDbPolyline
 90
        2
 70
     0
 43
0.25
 10
-27.14896621512247
 20
73.09892209604853
 10
-28.992
 20
73.24401666720398
  0
LWPOLYLINE
  5
7F
330
44
100
AcDbEntity
  8
1
  6
Continuous
 62
     7
100
AcDbPolyline
 90
        2
 70
     0
 43
0.25
 10
-28.992
 20
73.24401666720398
 10
-29.992
 20
73.24401666720398
  0
LWPOLYLINE
  5
80
330
44
100
AcDbEntity
  8
1
  6
DOT_CENTER
 62
     7
100
AcDbPolyline
 90
        2
 70
     0
 43
0.25
 10
-52.992
 20
50.095
 10
-52.992
 20
80.095
  0
LWPOLYLINE
  5
81
330
44
100
AcDbEntity
  8
1
  6
Continuous
 62
     7
100
AcDbPolyline
 90
        2
 70
     0
 43
0.5
 10
-52.992
 20
50.095
 10
-62.492
 20
50.56999999999999
  0
LWPOLYLINE
  5
82
330
44
100
AcDbEntity
  8
1
  6
DOT_CENTER
 62
     7
100
AcDbPolyline
 90
        2
 70
     0
 43
0.25
 10
-62.492
 20
50.56999999999999
 10
-62.492
 20
48.53399999999999
  0
LWPOLYLINE
  5
83
330
44
100
AcDbEntity
  8
1
  6
Continuous
 62
     7
100
AcDbPolyline
 90
        2
 70
     0
 43
0.5
 10
-62.492
 20
50.56999999999999
 10
-68.232
 20
50.857
  0
LWPOLYLINE
  5
84
330
44
100
AcDbEntity
  8
1
  6
Continuous
 62
     7
100
AcDbPolyline
 90
        2
 70
     0
 43
0.25
 10
-62.492
 20
50.56999999999999
 10
-63.93215569671467
 20
50.56999999999999
  0
LWPOLYLINE
  5
85
330
44
100
AcDbEntity
  8
1
  6
DOT_CENTER
 62
     7
100
AcDbPolyline
 90
        2
 70
     0
 43
0.25
 10
-52.992
 20
80.095
 10
-52.992
 20
82.30199999999999
  0
LWPOLYLINE
  5
86
330
44
100
AcDbEntity
  8
1
  6
Continuous
 62
     7
100
AcDbPolyline
 90
        2
 70
     0
 43
0.5
 10
-52.992
 20
80.095
 10
-62.492
 20
79.61999999999999
  0
LWPOLYLINE
  5
87
330
44
100
AcDbEntity
  8
1
  6
DOT_CENTER
 62
     7
100
AcDbPolyline
 90
        2
 70
     0
 43
0.25
 10
-62.492
 20
79.61999999999999
 10
-62.492
 20
50.56999999999999
  0
LWPOLYLINE
  5
88
330
44
100
AcDbEntity
  8
1
  6
Continuous
 62
     7
100
AcDbPolyline
 90
        2
 70
     0
 43
0.5
 10
-62.492
 20
79.61999999999999
 10
-68.232
 20
79.333
  0
LWPOLYLINE
  5
89
330
44
100
AcDbEntity
  8
1
  6
Continuous
 62
     7
100
AcDbPolyline
 90
        2
 70
     0
 43
0.25
 10
-62.492
 20
79.61999999999999
 10
-63.70854131780202
 20
79.61999999999999
  0
LWPOLYLINE
  5
8A
330
44
100
AcDbEntity
  8
1
  6
Continuous
 62
     7
100
AcDbPolyline
 90
        2
 70
     0
 43
0.5
 10
-68.99199999999999
 20
69.91999999999999
 10
-68.99199999999999
 20
51.65599999999998
  0
LWPOLYLINE
  5
8B
330
44
100
AcDbEntity
  8
1
  6
Continuous
 62
     7
100
AcDbPolyline
 90
        2
 70
     0
 43
0.5
 10
-68.99199999999999
 20
78.53399999999999
 10
-68.99199999999999
 20
69.91999999999999
  0
LWPOLYLINE
  5
8C
330
44
100
AcDbEntity
  8
1
  6
DOT_CENTER
 62
     7
100
AcDbPolyline
 90
        2
 70
     0
 43
0.25
 10
13.30800000000001
 20
65.095
 10
-55.19199999999994
 20
65.095
  0
LWPOLYLINE
  5
8D
330
44
100
AcDbEntity
  8
1
  6
DOT_CENTER
 62
     7
100
AcDbPolyline
 90
        2
 70
     0
 43
0.25
 10
-70.49199999999998
 20
65.095
 10
-54.992
 20
65.095
  0
LWPOLYLINE
  5
8E
330
44
100
AcDbEntity
  8
1
  6
Continuous
 62
     7
100
AcDbPolyline
 90
        2
 70
     0
 43
0.5
 10
-30.97099999999993
 20
45.095
 10
-31.992
 20
46.86299999999997
  0
LWPOLYLINE
  5
8F
330
44
100
AcDbEntity
  8
1
  6
Continuous
 62
     7
100
AcDbPolyline
 90
        2
 70
     0
 43
0.5
 10
-31.992
 20
46.99499999999998
 10
-31.992
 20
46.86299999999997
  0
LWPOLYLINE
  5
90
330
44
100
AcDbEntity
  8
1
  6
Continuous
 62
     7
100
AcDbPolyline
 90
        2
 70
     0
 43
0.5
 10
-33.29199999999996
 20
47.69499999999999
 10
-32.69199999999994
 20
47.69499999999999
  0
LWPOLYLINE
  5
91
330
44
100
AcDbEntity
  8
1
  6
Continuous
 62
     7
100
AcDbPolyline
 90
        2
 70
     0
 43
0.5
 10
-33.992
 20
46.99499999999998
 10
-33.992
 20
46.86299999999997
  0
LWPOLYLINE
  5
92
330
44
100
AcDbEntity
  8
1
  6
Continuous
 62
     7
100
AcDbPolyline
 90
        2
 70
     0
 43
0.5
 10
-35.01299999999996
 20
45.095
 10
-33.992
 20
46.86299999999997
  0
LWPOLYLINE
  5
93
330
44
100
AcDbEntity
  8
1
  6
Continuous
 62
     7
100
AcDbPolyline
 90
        2
 70
     0
 43
0.5
 10
-50.56599999999996
 20
50.095
 10
-49.29699999999995
 20
50.095
  0
LWPOLYLINE
  5
94
330
44
100
AcDbEntity
  8
1
  6
Continuous
 62
     7
100
AcDbPolyline
 90
        2
 70
     0
 43
0.5
 10
-50.992
 20
49.99499999999998
 10
-50.66999999999989
 20
50.08099999999999
  0
LWPOLYLINE
  5
95
330
44
100
AcDbEntity
  8
1
  6
Continuous
 62
     7
100
AcDbPolyline
 90
        2
 70
     0
 43
0.5
 10
-50.56599999999996
 20
80.095
 10
-49.29699999999995
 20
80.095
  0
LWPOLYLINE
  5
96
330
44
100
AcDbEntity
  8
1
  6
Continuous
 62
     7
100
AcDbPolyline
 90
        2
 70
     0
 43
0.5
 10
-50.992
 20
80.195
 10
-50.66999999999989
 20
80.109
  0
LWPOLYLINE
  5
97
330
44
100
AcDbEntity
  8
1
  6
Continuous
 62
     7
100
AcDbPolyline
 90
        2
 70
     0
 43
0.5
 10
-30.97099999999993
 20
85.095
 10
-31.992
 20
83.327
  0
LWPOLYLINE
  5
98
330
44
100
AcDbEntity
  8
1
  6
Continuous
 62
     7
100
AcDbPolyline
 90
        2
 70
     0
 43
0.5
 10
-31.992
 20
83.195
 10
-31.992
 20
83.327
  0
LWPOLYLINE
  5
99
330
44
100
AcDbEntity
  8
1
  6
Continuous
 62
     7
100
AcDbPolyline
 90
        2
 70
     0
 43
0.5
 10
-33.29199999999996
 20
82.49499999999998
 10
-32.69199999999994
 20
82.49499999999998
  0
LWPOLYLINE
  5
9A
330
44
100
AcDbEntity
  8
1
  6
Continuous
 62
     7
100
AcDbPolyline
 90
        2
 70
     0
 43
0.5
 10
-33.992
 20
83.195
 10
-33.992
 20
83.327
  0
LWPOLYLINE
  5
9B
330
44
100
AcDbEntity
  8
1
  6
Continuous
 62
     7
100
AcDbPolyline
 90
        2
 70
     0
 43
0.5
 10
-35.01299999999996
 20
85.095
 10
-33.992
 20
83.327
  0
LWPOLYLINE
  5
9C
330
44
100
AcDbEntity
  8
1
  6
DOT_CENTER
 62
     7
100
AcDbPolyline
 90
        2
 70
     0
 43
0.25
 10
-52.992
 20
47.67599999999999
 10
-52.992
 20
50.095
  0
LWPOLYLINE
  5
9D
330
44
100
AcDbEntity
  8
1
  6
Continuous
 62
     7
100
AcDbPolyline
 90
        2
 70
     0
 43
0.25
 10
-50.61799999999998
 20
50.20599999999999
 10
-50.61799999999998
 20
79.951
  0
LWPOLYLINE
  5
9E
330
44
100
AcDbEntity
  8
1
  6
Continuous
 62
     7
100
AcDbPolyline
 90
        2
 70
     0
 43
0.5
 10
-30.97099999999993
 20
45.095
 10
-28.992
 20
45.095
  0
LWPOLYLINE
  5
9F
330
44
100
AcDbEntity
  8
1
  6
Continuous
 62
     7
100
AcDbPolyline
 90
        2
 70
     0
 43
0.5
 10
-48.492
 20
45.095
 10
-35.01299999999996
 20
45.095
  0
LWPOLYLINE
  5
A0
330
44
100
AcDbEntity
  8
1
  6
DOT_CENTER
 62
     7
100
AcDbPolyline
 90
        2
 70
     0
 43
0.25
 10
-62.492
 20
81.34799999999998
 10
-62.492
 20
79.61999999999999
  0
LWPOLYLINE
  5
A1
330
44
100
AcDbEntity
  8
1
  6
Continuous
 62
     7
100
AcDbPolyline
 90
        2
 70
     0
 43
0.5
 10
-50.992
 20
49.99499999999998
 10
-52.992
 20
50.095
  0
LWPOLYLINE
  5
A2
330
44
100
AcDbEntity
  8
1
  6
Continuous
 62
     7
100
AcDbPolyline
 90
        2
 70
     0
 43
0.5
 10
-28.992
 20
85.095
 10
-28.992
 20
45.095
  0
LWPOLYLINE
  5
A3
330
44
100
AcDbEntity
  8
1
  6
Continuous
 62
     7
100
AcDbPolyline
 90
        2
 70
     0
 43
0.5
 10
-50.992
 20
80.195
 10
-50.992
 20
49.99499999999998
  0
LWPOLYLINE
  5
A4
330
44
100
AcDbEntity
  8
1
  6
DOT_CENTER
 62
     7
100
AcDbPolyline
 90
        2
 70
     0
 43
0.25
 10
-32.992
 20
88.25299999999999
 10
-32.992
 20
41.45499999999998
  0
LWPOLYLINE
  5
A5
330
44
100
AcDbEntity
  8
1
  6
Continuous
 62
     7
100
AcDbPolyline
 90
        2
 70
     0
 43
0.5
 10
-50.992
 20
80.195
 10
-52.992
 20
80.095
  0
LWPOLYLINE
  5
A6
330
44
100
AcDbEntity
  8
1
  6
Continuous
 62
     7
100
AcDbPolyline
 90
        2
 70
     0
 43
0.5
 10
-30.97099999999993
 20
85.095
 10
-28.992
 20
85.095
  0
LWPOLYLINE
  5
A7
330
44
100
AcDbEntity
  8
1
  6
Continuous
 62
     7
100
AcDbPolyline
 90
        2
 70
     0
 43
0.5
 10
-46.992
 20
85.095
 10
-35.01299999999996
 20
85.095
  0
LWPOLYLINE
  5
A8
330
44
100
AcDbEntity
  8
1
  6
Continuous
 62
     7
100
AcDbPolyline
 90
        2
 70
     0
 43
0.5
 10
-48.492
 20
85.095
 10
-46.992
 20
85.095
  0
LWPOLYLINE
  5
A9
330
44
100
AcDbEntity
  8
1
  6
Continuous
 62
     7
100
AcDbPolyline
 90
        2
 70
     0
 43
0.5
 10
-30.97099999999993
 20
69.595
 10
-30.97099999999993
 20
45.095
  0
LWPOLYLINE
  5
AA
330
44
100
AcDbEntity
  8
1
  6
Continuous
 62
     7
100
AcDbPolyline
 90
        2
 70
     0
 43
0.5
 10
-30.97099999999993
 20
85.095
 10
-30.97099999999993
 20
69.595
  0
LWPOLYLINE
  5
AB
330
44
100
AcDbEntity
  8
1
  6
Continuous
 62
     7
100
AcDbPolyline
 90
        2
 70
     0
 43
0.5
 10
-35.01299999999996
 20
60.595
 10
-35.01299999999996
 20
85.095
  0
LWPOLYLINE
  5
AC
330
44
100
AcDbEntity
  8
1
  6
Continuous
 62
     7
100
AcDbPolyline
 90
        2
 70
     0
 43
0.5
 10
-35.01299999999996
 20
53.095
 10
-35.01299999999996
 20
60.595
  0
LWPOLYLINE
  5
AD
330
44
100
AcDbEntity
  8
1
  6
Continuous
 62
     7
100
AcDbPolyline
 90
        2
 70
     0
 43
0.5
 10
-35.01299999999996
 20
45.095
 10
-35.01299999999996
 20
53.095
  0
LWPOLYLINE
  5
AE
330
44
100
AcDbEntity
  8
1
  6
Continuous
 62
     7
100
AcDbPolyline
 90
        2
 70
     0
 43
0.5
 10
-33.992
 20
52.49499999999998
 10
-33.992
 20
46.99499999999998
  0
LWPOLYLINE
  5
AF
330
44
100
AcDbEntity
  8
1
  6
Continuous
 62
     7
100
AcDbPolyline
 90
        2
 70
     0
 43
0.5
 10
-33.992
 20
69.595
 10
-33.992
 20
52.49499999999998
  0
LWPOLYLINE
  5
B0
330
44
100
AcDbEntity
  8
1
  6
Continuous
 62
     7
100
AcDbPolyline
 90
        2
 70
     0
 43
0.5
 10
-33.992
 20
83.195
 10
-33.992
 20
69.595
  0
LWPOLYLINE
  5
B1
330
44
100
AcDbEntity
  8
1
  6
Continuous
 62
     7
100
AcDbPolyline
 90
        2
 70
     0
 43
0.5
 10
-31.992
 20
60.595
 10
-31.992
 20
83.195
  0
LWPOLYLINE
  5
B2
330
44
100
AcDbEntity
  8
1
  6
Continuous
 62
     7
100
AcDbPolyline
 90
        2
 70
     0
 43
0.5
 10
-31.992
 20
51.369
 10
-31.992
 20
60.595
  0
LWPOLYLINE
  5
B3
330
44
100
AcDbEntity
  8
1
  6
Continuous
 62
     7
100
AcDbPolyline
 90
        2
 70
     0
 43
0.5
 10
-31.992
 20
46.99499999999998
 10
-31.992
 20
51.369
  0
LWPOLYLINE
  5
B4
330
44
100
AcDbEntity
  8
1
  6
Continuous
 62
     7
100
AcDbPolyline
 90
        2
 70
     0
 43
0.5
 10
-48.992
 20
45.595
 10
-48.492
 20
45.095
  0
LWPOLYLINE
  5
B5
330
44
100
AcDbEntity
  8
1
  6
Continuous
 62
     7
100
AcDbPolyline
 90
        2
 70
     0
 43
0.5
 10
-48.992
 20
84.595
 10
-48.992
 20
45.595
  0
LWPOLYLINE
  5
B6
330
44
100
AcDbEntity
  8
1
  6
Continuous
 62
     7
100
AcDbPolyline
 90
        2
 70
     0
 43
0.5
 10
-48.492
 20
85.095
 10
-48.992
 20
84.595
  0
LWPOLYLINE
  5
B7
330
44
100
AcDbEntity
  8
1
  6
Continuous
 62
     7
100
AcDbPolyline
 90
        2
 70
     0
 43
0.5
 10
-48.492
 20
85.095
 10
-48.492
 20
45.095
  0
LWPOLYLINE
  5
B8
330
44
100
AcDbEntity
  8
1
  6
Continuous
 62
     7
100
AcDbPolyline
 90
        2
 70
     0
 43
0.5
 10
10.271
 20
60.037
 42
0.39115017062398
 10
11.009
 20
60.835
 42
0.39115017062398
  0
LWPOLYLINE
  5
B9
330
44
100
AcDbEntity
  8
1
  6
Continuous
 62
     7
100
AcDbPolyline
 90
        2
 70
     0
 43
0.5
 10
11.009
 20
69.355
 42
0.39115017062397
 10
10.271
 20
70.15299999999999
 42
0.39115017062397
  0
LWPOLYLINE
  5
BA
330
44
100
AcDbEntity
  8
1
  6
Continuous
 62
     7
100
AcDbPolyline
 90
        2
 70
     0
 43
0.5
 10
-31.992
 20
46.99499999999998
 42
0.4142135623731
 10
-32.69199999999994
 20
47.69499999999999
 42
0.4142135623731
  0
LWPOLYLINE
  5
BB
330
44
100
AcDbEntity
  8
1
  6
Continuous
 62
     7
100
AcDbPolyline
 90
        2
 70
     0
 43
0.5
 10
-33.29199999999996
 20
47.69499999999999
 42
0.4142135623731
 10
-33.992
 20
46.99499999999998
 42
0.4142135623731
  0
LWPOLYLINE
  5
BC
330
44
100
AcDbEntity
  8
1
  6
Continuous
 62
     7
100
AcDbPolyline
 90
        2
 70
     0
 43
0.5
 10
-48.99199874114986
 20
49.95379387855527
 42
0.22025476962292
 10
-49.29699999999995
 20
50.095
 42
0.22025476962292
  0
LWPOLYLINE
  5
BD
330
44
100
AcDbEntity
  8
1
  6
Continuous
 62
     7
100
AcDbPolyline
 90
        2
 70
     0
 43
0.5
 10
-50.56599999999996
 20
50.095
 42
0.06587087523618
 10
-50.66999999999989
 20
50.08099999999999
 42
0.06587087523618
  0
LWPOLYLINE
  5
BE
330
44
100
AcDbEntity
  8
1
  6
Continuous
 62
     7
100
AcDbPolyline
 90
        2
 70
     0
 43
0.5
 10
-49.29699999999995
 20
80.095
 42
0.22025525570698
 10
-48.9919982643127
 20
80.2362066936493
 42
0.22025525570698
  0
LWPOLYLINE
  5
BF
330
44
100
AcDbEntity
  8
1
  6
Continuous
 62
     7
100
AcDbPolyline
 90
        2
 70
     0
 43
0.5
 10
-50.66999999999989
 20
80.109
 42
0.06587087523618
 10
-50.56599999999996
 20
80.095
 42
0.06587087523618
  0
LWPOLYLINE
  5
C0
330
44
100
AcDbEntity
  8
1
  6
Continuous
 62
     7
100
AcDbPolyline
 90
        2
 70
     0
 43
0.5
 10
-32.69199999999994
 20
82.49499999999998
 42
0.4142135623731
 10
-31.992
 20
83.195
 42
0.4142135623731
  0
LWPOLYLINE
  5
C1
330
44
100
AcDbEntity
  8
1
  6
Continuous
 62
     7
100
AcDbPolyline
 90
        2
 70
     0
 43
0.5
 10
-33.992
 20
83.195
 42
0.4142135623731
 10
-33.29199999999996
 20
82.49499999999998
 42
0.4142135623731
  0
LWPOLYLINE
  5
C2
330
44
100
AcDbEntity
  8
1
  6
Continuous
 62
     7
100
AcDbPolyline
 90
        2
 70
     0
 43
0.5
 10
-68.232
 20
79.333
 42
0.39963776093386
 10
-68.99199999999999
 20
78.53399999999999
 42
0.39963776093386
  0
LWPOLYLINE
  5
C3
330
44
100
AcDbEntity
  8
1
  6
Continuous
 62
     7
100
AcDbPolyline
 90
        2
 70
     0
 43
0.5
 10
-68.99199999999999
 20
51.65599999999998
 42
0.39963776093386
 10
-68.232
 20
50.857
 42
0.39963776093386
  0
LWPOLYLINE
  5
C4
330
44
100
AcDbEntity
  8
1
  6
Continuous
 62
     7
100
AcDbPolyline
 90
        2
 70
     0
 43
0.5
 10
-27.14896621512247
 20
57.09107790395148
 42
0.39138551152715
 10
-28.992
 20
55.0972470166117
 42
0.39138551152715
  0
LWPOLYLINE
  5
C5
330
44
100
AcDbEntity
  8
1
  6
Continuous
 62
     7
100
AcDbPolyline
 90
        2
 70
     0
 43
0.5
 10
-28.992
 20
75.09275298338831
 42
0.39138551152715
 10
-27.14896621512247
 20
73.09892209604853
 42
0.39138551152715
  0
ENDBLK
  5
46
330
44
100
AcDbEntity
  8
0
100
AcDbBlockEnd
  0
BLOCK
  5
48
330
47
100
AcDbEntity
  8
0
100
AcDbBlockBegin
  2
Urheberrecht_DE-EN
 70
     0
 10
-76.374630561825
 20
85.5541187671348
 30
0.0
  3
Urheberrecht_DE-EN
  1

  0
MTEXT
  5
C7
330
47
100
AcDbEntity
  8
1
 62
     1
100
AcDbMText
 10
-76.374630561825
 20
29.2647318498286
 30
0.0
 40
2.0
 41
0.0
 71
     7
 72
     1
  1
F\U+00fcr diese Unterlage behalten wir das Ur-\Pheberrecht. Sie darf nur f\U+00fcr den von uns \Pbestimmten Zweck benutzt und ohne unsere \PZustimmung weder vervielf\U+00e4ltigt noch\PDritten zug\U+00e4nglich gemacht werden.
  7
CONVERTER_11
 11
0.0
 21
1.0
 31
0.0
 73
     1
 44
0.90036014405762
  0
MTEXT
  5
C8
330
47
100
AcDbEntity
  8
1
 62
     1
100
AcDbMText
 10
-76.374630561825
 20
85.5541187671348
 30
0.0
 40
2.0
 41
0.0
 71
     7
 72
     1
  1
We own the copyright of this document. It \Pdetermined and may neither be copied or \Pmade accessible to outsiders without our\Ppermission.
  7
CONVERTER_11
 11
0.0
 21
1.0
 31
0.0
 73
     1
 44
0.90036014405762
  0
ENDBLK
  5
49
330
47
100
AcDbEntity
  8
0
100
AcDbBlockEnd
  0
BLOCK
  5
D9
330
D2
100
AcDbEntity
  8
0
100
AcDbBlockBegin
  2
*D3
 70
     1
 10
0.0
 20
0.0
 30
0.0
  3
*D3
  1

  0
LINE
  5
D3
330
D2
100
AcDbEntity
  8
1
  6
Continuous
 62
     2
100
AcDbLine
 10
11.00852097656889
 20
119.396353435689
 30
0.0
 11
-68.99199999999999
 21
119.396353435689
 31
0.0
  0
LINE
  5
D4
330
D2
100
AcDbEntity
  8
1
  6
Continuous
 62
     2
100
AcDbLine
 10
-68.99199999999999
 20
80.53399999999999
 30
0.0
 11
-68.99199999999999
 21
121.396353435689
 31
0.0
  0
LINE
  5
D5
330
D2
100
AcDbEntity
  8
1
  6
Continuous
 62
     2
100
AcDbLine
 10
11.00852097656889
 20
72.09481263246597
 30
0.0
 11
11.00852097656889
 21
121.396353435689
 31
0.0
  0
SOLID
  5
D6
330
D2
100
AcDbEntity
  8
1
 62
     2
100
AcDbTrace
 10
7.50852097656889
 20
118.9355696941331
 30
0.0
 11
7.50852097656889
 21
119.8571371772449
 31
0.0
 12
11.00852097656889
 22
119.396353435689
 32
0.0
 13
11.00852097656889
 23
119.396353435689
 33
0.0
  0
SOLID
  5
D7
330
D2
100
AcDbEntity
  8
1
 62
     2
100
AcDbTrace
 10
-65.49199999999999
 20
119.8571371772449
 30
0.0
 11
-65.49199999999999
 21
118.9355696941331
 31
0.0
 12
-68.99199999999999
 22
119.396353435689
 32
0.0
 13
-68.99199999999999
 23
119.396353435689
 33
0.0
  0
MTEXT
  5
D8
330
D2
100
AcDbEntity
  8
1
 62
     3
100
AcDbMText
 10
-29.2718124878259
 20
121.396353435689
 30
0.0
 40
3.5
 41
0.0
 71
     7
 72
     1
  1
\C3;\C3;\C3;80\C2;\H2.45;\S^ ;\C3;
  7
CONVERTER_11
 11
0.9999999999970619
 21
2.424068405545306E-6
 31
0.0
 73
     1
 44
0.60024009603842
  0
ENDBLK
  5
DA
330
D2
100
AcDbEntity
  8
0
100
AcDbBlockEnd
  0
BLOCK
  5
E4
330
DD
100
AcDbEntity
  8
0
100
AcDbBlockBegin
  2
*D4
 70
     1
 10
0.0
 20
0.0
 30
0.0
  3
*D4
  1

  0
LINE
  5
DE
330
DD
100
AcDbEntity
  8
1
  6
Continuous
 62
     2
100
AcDbLine
 10
11.00852097656889
 20
111.769409640721
 30
0.0
 11
-48.992
 21
111.769409640721
 31
0.0
  0
LINE
  5
DF
330
DD
100
AcDbEntity
  8
1
  6
Continuous
 62
     2
100
AcDbLine
 10
-48.992
 20
86.595
 30
0.0
 11
-48.992
 21
113.769409640721
 31
0.0
  0
LINE
  5
E0
330
DD
100
AcDbEntity
  8
1
  6
Continuous
 62
     2
100
AcDbLine
 10
11.00852097656889
 20
72.09481263246597
 30
0.0
 11
11.00852097656889
 21
113.769409640721
 31
0.0
  0
SOLID
  5
E1
330
DD
100
AcDbEntity
  8
1
 62
     2
100
AcDbTrace
 10
7.50852097656889
 20
111.3086258991651
 30
0.0
 11
7.50852097656889
 21
112.2301933822769
 31
0.0
 12
11.00852097656889
 22
111.769409640721
 32
0.0
 13
11.00852097656889
 23
111.769409640721
 33
0.0
  0
SOLID
  5
E2
330
DD
100
AcDbEntity
  8
1
 62
     2
100
AcDbTrace
 10
-45.492
 20
112.2301933822769
 30
0.0
 11
-45.492
 21
111.3086258991651
 31
0.0
 12
-48.992
 22
111.769409640721
 32
0.0
 13
-48.992
 23
111.769409640721
 33
0.0
  0
MTEXT
  5
E3
330
DD
100
AcDbEntity
  8
1
 62
     3
100
AcDbMText
 10
-21.0395556932572
 20
113.769409640721
 30
0.0
 40
3.5
 41
0.0
 71
     7
 72
     1
  1
\C3;\C3;\C3;60\C2;\H2.45;\S^ ;\C3;
  7
CONVERTER_11
 11
0.9999999999970619
 21
2.424068405545306E-6
 31
0.0
 73
     1
 44
0.60024009603842
  0
ENDBLK
  5
E5
330
DD
100
AcDbEntity
  8
0
100
AcDbBlockEnd
  0
BLOCK
  5
F1
330
E8
100
AcDbEntity
  8
0
100
AcDbBlockBegin
  2
*D5
 70
     1
 10
0.0
 20
0.0
 30
0.0
  3
*D5
  1

  0
LINE
  5
E9
330
E8
100
AcDbEntity
  8
1
  6
Continuous
 62
     2
100
AcDbLine
 10
22.9726385601223
 20
66.595
 30
0.0
 11
22.9726385601223
 21
77.4269405689613
 31
0.0
  0
LINE
  5
EA
330
E8
100
AcDbEntity
  8
1
  6
Continuous
 62
     2
100
AcDbLine
 10
22.9726385601223
 20
63.595
 30
0.0
 11
22.9726385601223
 21
66.595
 31
0.0
  0
LINE
  5
EB
330
E8
100
AcDbEntity
  8
1
  6
Continuous
 62
     2
100
AcDbLine
 10
22.9726385601223
 20
56.595
 30
0.0
 11
22.9726385601223
 21
63.595
 31
0.0
  0
LINE
  5
EC
330
E8
100
AcDbEntity
  8
1
  6
Continuous
 62
     2
100
AcDbLine
 10
13.008
 20
66.595
 30
0.0
 11
24.9726385601223
 21
66.595
 31
0.0
  0
LINE
  5
ED
330
E8
100
AcDbEntity
  8
1
  6
Continuous
 62
     2
100
AcDbLine
 10
13.008
 20
63.595
 30
0.0
 11
24.9726385601223
 21
63.595
 31
0.0
  0
SOLID
  5
EE
330
E8
100
AcDbEntity
  8
1
 62
     2
100
AcDbTrace
 10
23.43342230167818
 20
60.095
 30
0.0
 11
22.51185481856641
 21
60.095
 31
0.0
 12
22.9726385601223
 22
63.595
 32
0.0
 13
22.9726385601223
 23
63.595
 33
0.0
  0
SOLID
  5
EF
330
E8
100
AcDbEntity
  8
1
 62
     2
100
AcDbTrace
 10
22.51185481856641
 20
70.095
 30
0.0
 11
23.43342230167818
 21
70.095
 31
0.0
 12
22.9726385601223
 22
66.595
 32
0.0
 13
22.9726385601223
 23
66.595
 33
0.0
  0
MTEXT
  5
F0
330
E8
100
AcDbEntity
  8
1
 62
     3
100
AcDbMText
 10
20.9726385601223
 20
67.13694056896131
 30
0.0
 40
3.5
 41
0.0
 71
     7
 72
     1
  1
\C3;%%c\C3;\C3;3\C2;\H2.45;\S^ ;\C3;
  7
CONVERTER_11
 11
0.0
 21
1.0
 31
0.0
 73
     1
 44
0.60024009603842
  0
ENDBLK
  5
F2
330
E8
100
AcDbEntity
  8
0
100
AcDbBlockEnd
  0
BLOCK
  5
FC
330
F5
100
AcDbEntity
  8
0
100
AcDbBlockBegin
  2
*D6
 70
     1
 10
0.0
 20
0.0
 30
0.0
  3
*D6
  1

  0
LINE
  5
F6
330
F5
100
AcDbEntity
  8
1
  6
Continuous
 62
     2
100
AcDbLine
 10
33.8350280857537
 20
70.09481263246597
 30
0.0
 11
33.8350280857537
 21
60.09518736753307
 31
0.0
  0
LINE
  5
F7
330
F5
100
AcDbEntity
  8
1
  6
Continuous
 62
     2
100
AcDbLine
 10
13.00852097656891
 20
60.09518736753307
 30
0.0
 11
35.8350280857537
 21
60.09518736753307
 31
0.0
  0
LINE
  5
F8
330
F5
100
AcDbEntity
  8
1
  6
Continuous
 62
     2
100
AcDbLine
 10
13.00852097656889
 20
70.09481263246597
 30
0.0
 11
35.8350280857537
 21
70.09481263246597
 31
0.0
  0
SOLID
  5
F9
330
F5
100
AcDbEntity
  8
1
 62
     2
100
AcDbTrace
 10
34.29581182730958
 20
66.59481263246597
 30
0.0
 11
33.37424434419781
 21
66.59481263246597
 31
0.0
 12
33.8350280857537
 22
70.09481263246597
 32
0.0
 13
33.8350280857537
 23
70.09481263246597
 33
0.0
  0
SOLID
  5
FA
330
F5
100
AcDbEntity
  8
1
 62
     2
100
AcDbTrace
 10
33.37424434419781
 20
63.59518736753307
 30
0.0
 11
34.29581182730958
 21
63.59518736753307
 31
0.0
 12
33.8350280857537
 22
60.09518736753307
 32
0.0
 13
33.8350280857537
 23
60.09518736753307
 33
0.0
  0
MTEXT
  5
FB
330
F5
100
AcDbEntity
  8
1
 62
     3
100
AcDbMText
 10
31.8350280857537
 20
56.7777497481123
 30
0.0
 40
3.5
 41
0.0
 71
     7
 72
     1
  1
\C3;%%c\C3;\C3;10\C2;\H2.45;\S^ ;\C3;
  7
CONVERTER_11
 11
0.0
 21
1.0
 31
0.0
 73
     1
 44
0.60024009603842
  0
ENDBLK
  5
FD
330
F5
100
AcDbEntity
  8
0
100
AcDbBlockEnd
  0
BLOCK
  5
107
330
100
100
AcDbEntity
  8
0
100
AcDbBlockBegin
  2
*D7
 70
     1
 10
0.0
 20
0.0
 30
0.0
  3
*D7
  1

  0
LINE
  5
101
330
100
100
AcDbEntity
  8
10
  6
Continuous
 62
     2
100
AcDbLine
 10
-28.992
 20
103.757
 30
0.0
 11
11.008
 21
103.757
 31
0.0
  0
LINE
  5
102
330
100
100
AcDbEntity
  8
10
  6
Continuous
 62
     2
100
AcDbLine
 10
-28.992
 20
83.095
 30
0.0
 11
-28.992
 21
105.757
 31
0.0
  0
LINE
  5
103
330
100
100
AcDbEntity
  8
10
  6
Continuous
 62
     2
100
AcDbLine
 10
11.008
 20
76.654
 30
0.0
 11
11.008
 21
105.757
 31
0.0
  0
SOLID
  5
104
330
100
100
AcDbEntity
  8
10
 62
     2
100
AcDbTrace
 10
7.508
 20
103.2962162584441
 30
0.0
 11
7.508
 21
104.2177837415559
 31
0.0
 12
11.008
 22
103.757
 32
0.0
 13
11.008
 23
103.757
 33
0.0
  0
SOLID
  5
105
330
100
100
AcDbEntity
  8
10
 62
     2
100
AcDbTrace
 10
-25.492
 20
104.2177837415559
 30
0.0
 11
-25.492
 21
103.2962162584441
 31
0.0
 12
-28.992
 22
103.757
 32
0.0
 13
-28.992
 23
103.757
 33
0.0
  0
MTEXT
  5
106
330
100
100
AcDbEntity
  8
10
 62
     3
100
AcDbMText
 10
-15.1143708377843
 20
104.957244745618
 30
0.0
 40
3.506
 41
0.0
 71
     7
 72
     1
  1
40
  7
CONVERTER_11
 11
0.9999999999970619
 21
2.424068405545306E-6
 31
0.0
 73
     1
 44
0.60024009603842
  0
ENDBLK
  5
108
330
100
100
AcDbEntity
  8
0
100
AcDbBlockEnd
  0
BLOCK
  5
113
330
10B
100
AcDbEntity
  8
0
100
AcDbBlockBegin
  2
*D8
 70
     1
 10
0.0
 20
0.0
 30
0.0
  3
*D8
  1

  0
LINE
  5
10C
330
10B
100
AcDbEntity
  8
1
  6
Continuous
 62
     2
100
AcDbLine
 10
-27.492
 20
73.24401666720398
 30
0.0
 11
-2.17665935056198
 21
73.24401666720398
 31
0.0
  0
LINE
  5
10D
330
10B
100
AcDbEntity
  8
1
  6
Continuous
 62
     2
100
AcDbLine
 10
-2.17665935056198
 20
73.24401666720398
 30
0.0
 11
-0.67665935056198
 21
73.24401666720398
 31
0.0
  0
ARC
  5
10E
330
10B
100
AcDbEntity
  8
1
  6
Continuous
 62
     2
100
AcDbCircle
 10
-28.99200000000003
 20
73.24401666720398
 30
0.0
 40
26.81534064943805
100
AcDbArc
 50
344.2810543818923
 51
25.07100380562385
  0
SOLID
  5
10F
330
10B
100
AcDbEntity
  8
1
 62
     2
100
AcDbTrace
 10
-2.30500063131243
 20
67.60955892299818
 30
0.0
 11
-3.2170529243407
 21
67.74164692665796
 31
0.0
 12
-2.25937277930628
 22
71.13946540272303
 32
0.0
 13
-2.25937277930628
 23
71.13946540272303
 33
0.0
  0
SOLID
  5
110
330
10B
100
AcDbEntity
  8
1
 62
     2
100
AcDbTrace
 10
-2.86471412431226
 20
76.70651609461213
 30
0.0
 11
-1.94510843095906
 21
76.76661596716889
 31
0.0
 12
-2.17665935056198
 22
73.24401666720398
 32
0.0
 13
-2.17665935056198
 23
73.24401666720398
 33
0.0
  0
MTEXT
  5
112
330
10B
100
AcDbEntity
  8
1
 62
     3
100
AcDbMText
 10
-3.03283697602613
 20
85.3394017093741
 30
0.0
 40
3.5
 41
0.0
 71
     7
 72
     1
  1
\C3;\C3;\C3;4,5%%d\C2;\H2.45;\S^ ;\C3;
  7
CONVERTER_12
 11
0.3060564147988405
 21
-0.9520133775113038
 31
0.0
 73
     1
 44
0.60024009603842
  0
ENDBLK
  5
114
330
10B
100
AcDbEntity
  8
0
100
AcDbBlockEnd
  0
ENDSEC
  0
SECTION
  2
ENTITIES
  0
INSERT
  5
6C
330
1F
100
AcDbEntity
  8
0
100
AcDbBlockReference
  2
A40_Aussen
 10
-48.992
 20
65.095
 30
0.0
  0
INSERT
  5
6D
330
1F
100
AcDbEntity
  8
0
100
AcDbBlockReference
  2
Urheberrecht_DE-EN
 10
-76.374630561825
 20
85.5541187671348
 30
0.0
  0
POINT
  5
C9
330
1F
100
AcDbEntity
  8
10
 62
   250
100
AcDbPoint
 10
11.008
 20
61.836
 30
0.0
  0
POINT
  5
CA
330
1F
100
AcDbEntity
  8
10
 62
   250
100
AcDbPoint
 10
-28.992
 20
50.46199999999999
 30
0.0
  0
POINT
  5
CB
330
1F
100
AcDbEntity
  8
10
 62
   250
100
AcDbPoint
 10
-48.992
 20
51.16199999999999
 30
0.0
  0
POINT
  5
CC
330
1F
100
AcDbEntity
  8
10
 62
   250
100
AcDbPoint
 10
-32.95100000000001
 20
67.595
 30
0.0
  0
POINT
  5
CD
330
1F
100
AcDbEntity
  8
10
 62
   250
100
AcDbPoint
 10
-32.95100000000001
 20
62.595
 30
0.0
  0
POINT
  5
CE
330
1F
100
AcDbEntity
  8
10
 62
   250
100
AcDbPoint
 10
-28.992
 20
81.095
 30
0.0
  0
POINT
  5
CF
330
1F
100
AcDbEntity
  8
10
 62
   250
100
AcDbPoint
 10
11.008
 20
74.654
 30
0.0
  0
POINT
  5
D0
330
1F
100
AcDbEntity
  8
10
 62
   250
100
AcDbPoint
 10
11.008
 20
61.836
 30
0.0
  0
POINT
  5
D1
330
1F
100
AcDbEntity
  8
1
 62
   250
100
AcDbPoint
 10
-48.992
 20
65.095
 30
0.0
  0
DIMENSION
  5
DC
330
1F
100
AcDbEntity
  8
1
100
AcDbDimension
  2
*D3
 10
11.00852097656889
 20
119.396353435689
 30
0.0
 11
-27.1718124878259
 21
123.146353435689
 31
0.0
 70
    32
  1
<>
 71
     5
 42
-1.0
 53
0.00013888888889
  3
ME10_DIM_10
100
AcDbAlignedDimension
 13
-68.99199999999999
 23
78.53399999999999
 33
0.0
 14
11.00852097656889
 24
70.09481263246597
 34
0.0
100
AcDbRotatedDimension
  0
DIMENSION
  5
E7
330
1F
100
AcDbEntity
  8
1
100
AcDbDimension
  2
*D4
 10
11.00852097656889
 20
111.769409640721
 30
0.0
 11
-18.9395556932572
 21
115.519409640721
 31
0.0
 70
    32
  1
<>
 71
     5
 42
-1.0
 53
0.00013888888889
  3
ME10_DIM_11
100
AcDbAlignedDimension
 13
-48.992
 23
84.595
 33
0.0
 14
11.00852097656889
 24
70.09481263246597
 34
0.0
100
AcDbRotatedDimension
  0
DIMENSION
  5
F4
330
1F
100
AcDbEntity
  8
1
100
AcDbDimension
  2
*D5
 10
22.9726385601223
 20
63.595
 30
0.0
 11
19.2226385601223
 21
74.7319405689613
 31
0.0
 70
    32
  1
<>
 71
     5
 42
-1.0
 53
90.0
  3
ME10_DIM_12
100
AcDbAlignedDimension
 13
11.008
 23
66.595
 33
0.0
 14
11.008
 24
63.595
 34
0.0
 50
90.0
100
AcDbRotatedDimension
  0
DIMENSION
  5
FF
330
1F
100
AcDbEntity
  8
1
100
AcDbDimension
  2
*D6
 10
33.8350280857537
 20
70.09481263246597
 30
0.0
 11
30.0850280857537
 21
65.2127497481123
 31
0.0
 70
    32
  1
<>
 71
     5
 42
-1.0
 53
90.0
  3
ME10_DIM_13
100
AcDbAlignedDimension
 13
11.00852097656891
 23
60.09518736753307
 33
0.0
 14
11.00852097656889
 24
70.09481263246597
 34
0.0
 50
90.0
100
AcDbRotatedDimension
  0
DIMENSION
  5
10A
330
1F
100
AcDbEntity
  8
10
100
AcDbDimension
  2
*D7
 10
11.008
 20
103.757
 30
0.0
 11
-13.0107708377843
 21
106.710244745618
 31
0.0
 70
    32
  1
<>
 71
     5
 42
-1.0
 53
0.00013888888889
  3
ME10_DIM_14
100
AcDbAlignedDimension
 13
-28.992
 23
81.095
 33
0.0
 14
11.008
 24
74.654
 34
0.0
100
AcDbRotatedDimension
  0
DIMENSION
  5
116
330
1F
100
AcDbEntity
  8
1
100
AcDbDimension
  2
*D8
 10
-2.19734568684694
 20
72.19092864427772
 30
0.0
 11
-0.44079450561397
 21
82.42275280496692
 31
0.0
 70
    37
  1
<>
 71
     5
 42
-1.0
  3
ME10_DIM_15
100
AcDb3PointAngularDimension
 13
-2.25937277930629
 23
71.13946540272303
 33
0.0
 14
-26.31046593505623
 24
73.24401666720398
 34
0.0
 15
-28.99200000000003
 25
73.24401666720398
 35
0.0
  0
ENDSEC
  0
SECTION
  2
OBJECTS
  0
DICTIONARY
  5
C
330
0
100
AcDbDictionary
281
     1
  3
ACAD_GROUP
350
D
  3
ACAD_LAYOUT
350
1A
  3
ACAD_MLEADERSTYLE
350
119
  3
ACAD_MLINESTYLE
350
17
  3
ACAD_PLOTSETTINGS
350
19
  3
ACAD_PLOTSTYLENAME
350
E
  3
ACAD_SCALELIST
350
4A
  3
ACAD_VISUALSTYLE
350
2A
  3
AcDbVariableDictionary
350
117
  0
DICTIONARY
  5
D
102
{ACAD_REACTORS
330
C
102
}
330
C
100
AcDbDictionary
281
     1
  0
DICTIONARY
  5
1A
102
{ACAD_REACTORS
330
C
102
}
330
C
100
AcDbDictionary
281
     1
  3
Layout1
350
1E
  3
Layout2
350
26
  3
Model
350
22
  0
DICTIONARY
  5
119
102
{ACAD_REACTORS
330
C
102
}
330
C
100
AcDbDictionary
281
     1
  0
DICTIONARY
  5
17
102
{ACAD_REACTORS
330
C
102
}
330
C
100
AcDbDictionary
281
     1
  3
Standard
350
18
  0
DICTIONARY
  5
19
102
{ACAD_REACTORS
330
C
102
}
330
C
100
AcDbDictionary
281
     1
  0
ACDBDICTIONARYWDFLT
  5
E
102
{ACAD_REACTORS
330
C
102
}
330
C
100
AcDbDictionary
281
     1
  3
Normal
350
F
100
AcDbDictionaryWithDefault
340
F
  0
DICTIONARY
  5
4A
102
{ACAD_REACTORS
330
C
102
}
330
C
100
AcDbDictionary
281
     1
  3
A0
350
4B
  3
A1
350
4C
  3
A2
350
4D
  3
A3
350
4E
  3
A4
350
4F
  3
A5
350
50
  3
A6
350
51
  3
A7
350
52
  3
A8
350
53
  3
A9
350
54
  3
B0
350
55
  3
B1
350
56
  3
B2
350
57
  3
B3
350
58
  3
B4
350
59
  3
B5
350
5A
  3
B6
350
5B
  3
B7
350
5C
  3
B8
350
5D
  3
B9
350
5E
  3
C0
350
5F
  3
C1
350
60
  3
C2
350
61
  3
C3
350
62
  3
C4
350
63
  3
C5
350
64
  3
C6
350
65
  3
C7
350
66
  3
C8
350
67
  3
C9
350
68
  3
D0
350
69
  3
D1
350
6A
  3
D2
350
6B
  0
DICTIONARY
  5
2A
102
{ACAD_REACTORS
330
C
102
}
330
C
100
AcDbDictionary
281
     1
  3
2dWireframe
350
2F
  3
3D Hidden
350
31
  3
3dWireframe
350
30
  3
Basic
350
32
  3
Brighten
350
36
  3
ColorChange
350
3A
  3
Conceptual
350
34
  3
Dim
350
35
  3
Facepattern
350
39
  3
Flat
350
2B
  3
FlatWithEdges
350
2C
  3
Gouraud
350
2D
  3
GouraudWithEdges
350
2E
  3
Linepattern
350
38
  3
Realistic
350
33
  3
Thicken
350
37
  0
DICTIONARY
  5
117
102
{ACAD_REACTORS
330
C
102
}
330
C
100
AcDbDictionary
281
     1
  3
CANNOSCALE
350
11A
  0
LAYOUT
  5
1E
102
{ACAD_REACTORS
330
1A
102
}
330
1A
100
AcDbPlotSettings
  1

  2
none_device
  4

  6

 40
0.0
 41
0.0
 42
0.0
 43
0.0
 44
0.0
 45
0.0
 46
0.0
 47
0.0
 48
0.0
 49
0.0
140
0.0
141
0.0
142
1.0
143
1.0
 70
   688
 72
     0
 73
     0
 74
     5
  7

 75
    16
147
1.0
148
0.0
149
0.0
100
AcDbLayout
  1
Layout1
 70
     1
 71
     1
 10
0.0
 20
0.0
 11
12.0
 21
9.0
 12
0.0
 22
0.0
 32
0.0
 14
1.00000000000000E+20
 24
1.00000000000000E+20
 34
1.00000000000000E+20
 15
-1.00000000000000E+20
 25
-1.00000000000000E+20
 35
-1.00000000000000E+20
146
0.0
 13
0.0
 23
0.0
 33
0.0
 16
1.0
 26
0.0
 36
0.0
 17
0.0
 27
1.0
 37
0.0
 76
     0
330
1B
  0
LAYOUT
  5
26
102
{ACAD_REACTORS
330
1A
102
}
330
1A
100
AcDbPlotSettings
  1

  2
none_device
  4

  6

 40
0.0
 41
0.0
 42
0.0
 43
0.0
 44
0.0
 45
0.0
 46
0.0
 47
0.0
 48
0.0
 49
0.0
140
0.0
141
0.0
142
1.0
143
1.0
 70
   688
 72
     0
 73
     0
 74
     5
  7

 75
    16
147
1.0
148
0.0
149
0.0
100
AcDbLayout
  1
Layout2
 70
     1
 71
     2
 10
0.0
 20
0.0
 11
0.0
 21
0.0
 12
0.0
 22
0.0
 32
0.0
 14
0.0
 24
0.0
 34
0.0
 15
0.0
 25
0.0
 35
0.0
146
0.0
 13
0.0
 23
0.0
 33
0.0
 16
1.0
 26
0.0
 36
0.0
 17
0.0
 27
1.0
 37
0.0
 76
     0
330
23
  0
LAYOUT
  5
22
102
{ACAD_REACTORS
330
1A
102
}
330
1A
100
AcDbPlotSettings
  1

  2
none_device
  4

  6

 40
0.0
 41
0.0
 42
0.0
 43
0.0
 44
0.0
 45
0.0
 46
0.0
 47
0.0
 48
0.0
 49
0.0
140
0.0
141
0.0
142
1.0
143
1.0
 70
  1712
 72
     0
 73
     0
 74
     0
  7

 75
     0
147
1.0
148
0.0
149
0.0
100
AcDbLayout
  1
Model
 70
     1
 71
     0
 10
0.0
 20
0.0
 11
12.0
 21
9.0
 12
0.0
 22
0.0
 32
0.0
 14
-90.374630561825
 24
29.2647318498286
 34
0.0
 15
35.8350280857537
 25
138.0341187671348
 35
0.0
146
0.0
 13
0.0
 23
0.0
 33
0.0
 16
1.0
 26
0.0
 36
0.0
 17
0.0
 27
1.0
 37
0.0
 76
     0
330
1F
331
29
  0
MLINESTYLE
  5
18
102
{ACAD_REACTORS
330
17
102
}
330
17
100
AcDbMlineStyle
  2
Standard
 70
     0
  3

 62
   256
 51
90.0
 52
90.0
 71
     2
 49
0.5
 62
   256
  6
BYLAYER
 49
-0.5
 62
   256
  6
BYLAYER
  0
ACDBPLACEHOLDER
  5
F
102
{ACAD_REACTORS
330
E
102
}
330
E
  0
SCALE
  5
4B
102
{ACAD_REACTORS
330
4A
102
}
330
4A
100
AcDbScale
 70
     0
300
1:1
140
1.0
141
1.0
290
     1
  0
SCALE
  5
4C
102
{ACAD_REACTORS
330
4A
102
}
330
4A
100
AcDbScale
 70
     0
300
1:2
140
1.0
141
2.0
290
     0
  0
SCALE
  5
4D
102
{ACAD_REACTORS
330
4A
102
}
330
4A
100
AcDbScale
 70
     0
300
1:4
140
1.0
141
4.0
290
     0
  0
SCALE
  5
4E
102
{ACAD_REACTORS
330
4A
102
}
330
4A
100
AcDbScale
 70
     0
300
1:5
140
1.0
141
5.0
290
     0
  0
SCALE
  5
4F
102
{ACAD_REACTORS
330
4A
102
}
330
4A
100
AcDbScale
 70
     0
300
1:8
140
1.0
141
8.0
290
     0
  0
SCALE
  5
50
102
{ACAD_REACTORS
330
4A
102
}
330
4A
100
AcDbScale
 70
     0
300
1:10
140
1.0
141
10.0
290
     0
  0
SCALE
  5
51
102
{ACAD_REACTORS
330
4A
102
}
330
4A
100
AcDbScale
 70
     0
300
1:16
140
1.0
141
16.0
290
     0
  0
SCALE
  5
52
102
{ACAD_REACTORS
330
4A
102
}
330
4A
100
AcDbScale
 70
     0
300
1:20
140
1.0
141
20.0
290
     0
  0
SCALE
  5
53
102
{ACAD_REACTORS
330
4A
102
}
330
4A
100
AcDbScale
 70
     0
300
1:30
140
1.0
141
30.0
290
     0
  0
SCALE
  5
54
102
{ACAD_REACTORS
330
4A
102
}
330
4A
100
AcDbScale
 70
     0
300
1:40
140
1.0
141
40.0
290
     0
  0
SCALE
  5
55
102
{ACAD_REACTORS
330
4A
102
}
330
4A
100
AcDbScale
 70
     0
300
1:50
140
1.0
141
50.0
290
     0
  0
SCALE
  5
56
102
{ACAD_REACTORS
330
4A
102
}
330
4A
100
AcDbScale
 70
     0
300
1:100
140
1.0
141
100.0
290
     0
  0
SCALE
  5
57
102
{ACAD_REACTORS
330
4A
102
}
330
4A
100
AcDbScale
 70
     0
300
2:1
140
2.0
141
1.0
290
     0
  0
SCALE
  5
58
102
{ACAD_REACTORS
330
4A
102
}
330
4A
100
AcDbScale
 70
     0
300
4:1
140
4.0
141
1.0
290
     0
  0
SCALE
  5
59
102
{ACAD_REACTORS
330
4A
102
}
330
4A
100
AcDbScale
 70
     0
300
8:1
140
8.0
141
1.0
290
     0
  0
SCALE
  5
5A
102
{ACAD_REACTORS
330
4A
102
}
330
4A
100
AcDbScale
 70
     0
300
10:1
140
10.0
141
1.0
290
     0
  0
SCALE
  5
5B
102
{ACAD_REACTORS
330
4A
102
}
330
4A
100
AcDbScale
 70
     0
300
100:1
140
100.0
141
1.0
290
     0
  0
SCALE
  5
5C
102
{ACAD_REACTORS
330
4A
102
}
330
4A
100
AcDbScale
 70
     0
300
1/128" = 1'-0"
140
0.0078125
141
12.0
290
     0
  0
SCALE
  5
5D
102
{ACAD_REACTORS
330
4A
102
}
330
4A
100
AcDbScale
 70
     0
300
1/64" = 1'-0"
140
0.015625
141
12.0
290
     0
  0
SCALE
  5
5E
102
{ACAD_REACTORS
330
4A
102
}
330
4A
100
AcDbScale
 70
     0
300
1/32" = 1'-0"
140
0.03125
141
12.0
290
     0
  0
SCALE
  5
5F
102
{ACAD_REACTORS
330
4A
102
}
330
4A
100
AcDbScale
 70
     0
300
1/16" = 1'-0"
140
0.0625
141
12.0
290
     0
  0
SCALE
  5
60
102
{ACAD_REACTORS
330
4A
102
}
330
4A
100
AcDbScale
 70
     0
300
3/32" = 1'-0"
140
0.09375
141
12.0
290
     0
  0
SCALE
  5
61
102
{ACAD_REACTORS
330
4A
102
}
330
4A
100
AcDbScale
 70
     0
300
1/8" = 1'-0"
140
0.125
141
12.0
290
     0
  0
SCALE
  5
62
102
{ACAD_REACTORS
330
4A
102
}
330
4A
100
AcDbScale
 70
     0
300
3/16" = 1'-0"
140
0.1875
141
12.0
290
     0
  0
SCALE
  5
63
102
{ACAD_REACTORS
330
4A
102
}
330
4A
100
AcDbScale
 70
     0
300
1/4" = 1'-0"
140
0.25
141
12.0
290
     0
  0
SCALE
  5
64
102
{ACAD_REACTORS
330
4A
102
}
330
4A
100
AcDbScale
 70
     0
300
3/8" = 1'-0"
140
0.375
141
12.0
290
     0
  0
SCALE
  5
65
102
{ACAD_REACTORS
330
4A
102
}
330
4A
100
AcDbScale
 70
     0
300
1/2" = 1'-0"
140
0.5
141
12.0
290
     0
  0
SCALE
  5
66
102
{ACAD_REACTORS
330
4A
102
}
330
4A
100
AcDbScale
 70
     0
300
3/4" = 1'-0"
140
0.75
141
12.0
290
     0
  0
SCALE
  5
67
102
{ACAD_REACTORS
330
4A
102
}
330
4A
100
AcDbScale
 70
     0
300
1" = 1'-0"
140
1.0
141
12.0
290
     0
  0
SCALE
  5
68
102
{ACAD_REACTORS
330
4A
102
}
330
4A
100
AcDbScale
 70
     0
300
1-1/2" = 1'-0"
140
1.5
141
12.0
290
     0
  0
SCALE
  5
69
102
{ACAD_REACTORS
330
4A
102
}
330
4A
100
AcDbScale
 70
     0
300
3" = 1'-0"
140
3.0
141
12.0
290
     0
  0
SCALE
  5
6A
102
{ACAD_REACTORS
330
4A
102
}
330
4A
100
AcDbScale
 70
     0
300
6" = 1'-0"
140
6.0
141
12.0
290
     0
  0
SCALE
  5
6B
102
{ACAD_REACTORS
330
4A
102
}
330
4A
100
AcDbScale
 70
     0
300
1'-0" = 1'-0"
140
12.0
141
12.0
290
     0
  0
VISUALSTYLE
  5
2F
102
{ACAD_REACTORS
330
2A
102
}
330
2A
100
AcDbVisualStyle
  2
2dWireframe
 70
     4
 71
     0
 72
     2
 73
     0
 90
        0
 40
-0.6
 41
-30.0
 62
     5
 63
     7
 74
     1
 91
        4
 64
     7
 65
   257
 75
     1
175
     1
 42
1.0
 92
        0
 66
   257
 43
1.0
 76
     1
 77
     6
 78
     2
 67
     7
 79
     5
170
     0
171
     0
290
     0
174
     0
 93
        1
 44
0.0
173
     0
291
     0
 45
0.0
1001
ACAD
1000
AcDbSavedByObjectVersion
1070
     0
  0
VISUALSTYLE
  5
31
102
{ACAD_REACTORS
330
2A
102
}
330
2A
100
AcDbVisualStyle
  2
3D Hidden
 70
     6
 71
     1
 72
     2
 73
     2
 90
        0
 40
-0.6
 41
-30.0
 62
     5
 63
     7
 74
     2
 91
        2
 64
     7
 65
   257
 75
     2
175
     1
 42
40.0
 92
        0
 66
   257
 43
1.0
 76
     1
 77
     6
 78
     2
 67
     7
 79
     3
170
     0
171
     0
290
     0
174
     0
 93
        1
 44
0.0
173
     0
291
     0
 45
0.0
1001
ACAD
1000
AcDbSavedByObjectVersion
1070
     0
  0
VISUALSTYLE
  5
30
102
{ACAD_REACTORS
330
2A
102
}
330
2A
100
AcDbVisualStyle
  2
3dWireframe
 70
     5
 71
     0
 72
     2
 73
     0
 90
        0
 40
-0.6
 41
-30.0
 62
     5
 63
     7
 74
     1
 91
        4
 64
     7
 65
   257
 75
     1
175
     1
 42
1.0
 92
        0
 66
   257
 43
1.0
 76
     1
 77
     6
 78
     2
 67
     7
 79
     5
170
     0
171
     0
290
     0
174
     0
 93
        1
 44
0.0
173
     0
291
     0
 45
0.0
1001
ACAD
1000
AcDbSavedByObjectVersion
1070
     0
  0
VISUALSTYLE
  5
32
102
{ACAD_REACTORS
330
2A
102
}
330
2A
100
AcDbVisualStyle
  2
Basic
 70
     7
 71
     1
 72
     0
 73
     1
 90
        0
 40
-0.6
 41
-30.0
 62
     5
 63
     7
 74
     0
 91
        4
 64
     7
 65
   257
 75
     1
175
     1
 42
1.0
 92
        8
 66
     7
 43
1.0
 76
     1
 77
     6
 78
     2
 67
     7
 79
     5
170
     0
171
     0
290
     0
174
     0
 93
        1
 44
0.0
173
     0
291
     1
 45
0.0
1001
ACAD
1000
AcDbSavedByObjectVersion
1070
     0
  0
VISUALSTYLE
  5
36
102
{ACAD_REACTORS
330
2A
102
}
330
2A
100
AcDbVisualStyle
  2
Brighten
 70
    12
 71
     2
 72
     2
 73
     0
 90
        0
 40
-0.6
 41
-30.0
 62
     5
 63
     7
 74
     1
 91
        4
 64
     7
 65
   257
 75
     1
175
     1
 42
1.0
 92
        8
 66
     7
 43
1.0
 76
     1
 77
     6
 78
     2
 67
     7
 79
     5
170
     0
171
     0
290
     0
174
     0
 93
        1
 44
50.0
173
     0
291
     1
 45
0.0
1001
ACAD
1000
AcDbSavedByObjectVersion
1070
     0
  0
VISUALSTYLE
  5
3A
102
{ACAD_REACTORS
330
2A
102
}
330
2A
100
AcDbVisualStyle
  2
ColorChange
 70
    16
 71
     2
 72
     2
 73
     3
 90
        0
 40
-0.6
 41
-30.0
 62
     5
 63
     8
 74
     1
 91
        4
 64
     7
 65
   257
 75
     1
175
     1
 42
1.0
 92
        8
 66
     8
 43
1.0
 76
     1
 77
     6
 78
     2
 67
     7
 79
     5
170
     0
171
     0
290
     0
174
     0
 93
        1
 44
0.0
173
     0
291
     1
 45
0.0
1001
ACAD
1000
AcDbSavedByObjectVersion
1070
     0
  0
VISUALSTYLE
  5
34
102
{ACAD_REACTORS
330
2A
102
}
330
2A
100
AcDbVisualStyle
  2
Conceptual
 70
     9
 71
     3
 72
     2
 73
     0
 90
        0
 40
-0.6
 41
-30.0
 62
     5
 63
     7
 74
     2
 91
        2
 64
     7
 65
   257
 75
     1
175
     1
 42
40.0
 92
        8
 66
     7
 43
1.0
 76
     1
 77
     6
 78
     2
 67
     7
 79
     3
170
     0
171
     0
290
     0
174
     0
 93
        1
 44
0.0
173
     0
291
     0
 45
0.0
1001
ACAD
1000
AcDbSavedByObjectVersion
1070
     0
  0
VISUALSTYLE
  5
35
102
{ACAD_REACTORS
330
2A
102
}
330
2A
100
AcDbVisualStyle
  2
Dim
 70
    11
 71
     2
 72
     2
 73
     0
 90
        0
 40
-0.6
 41
-30.0
 62
     5
 63
     7
 74
     1
 91
        4
 64
     7
 65
   257
 75
     1
175
     1
 42
1.0
 92
        8
 66
     7
 43
1.0
 76
     1
 77
     6
 78
     2
 67
     7
 79
     5
170
     0
171
     0
290
     0
174
     0
 93
        1
 44
-50.0
173
     0
291
     1
 45
0.0
1001
ACAD
1000
AcDbSavedByObjectVersion
1070
     0
  0
VISUALSTYLE
  5
39
102
{ACAD_REACTORS
330
2A
102
}
330
2A
100
AcDbVisualStyle
  2
Facepattern
 70
    15
 71
     2
 72
     2
 73
     0
 90
        0
 40
-0.6
 41
-30.0
 62
     5
 63
     7
 74
     1
 91
        4
 64
     7
 65
   257
 75
     1
175
     1
 42
1.0
 92
        8
 66
     7
 43
1.0
 76
     1
 77
     6
 78
     2
 67
     7
 79
     5
170
     0
171
     0
290
     0
174
     0
 93
        1
 44
0.0
173
     0
291
     1
 45
0.0
1001
ACAD
1000
AcDbSavedByObjectVersion
1070
     0
  0
VISUALSTYLE
  5
2B
102
{ACAD_REACTORS
330
2A
102
}
330
2A
100
AcDbVisualStyle
  2
Flat
 70
     0
 71
     2
 72
     1
 73
     1
 90
        2
 40
-0.6
 41
30.0
 62
     5
 63
     7
 74
     0
 91
        4
 64
     7
 65
   257
 75
     1
175
     1
 42
1.0
 92
        8
 66
     7
 43
1.0
 76
     1
 77
     6
 78
     2
 67
     7
 79
     5
170
     0
171
     0
290
     0
174
     0
 93
       13
 44
0.0
173
     0
291
     1
 45
0.0
1001
ACAD
1000
AcDbSavedByObjectVersion
1070
     0
  0
VISUALSTYLE
  5
2C
102
{ACAD_REACTORS
330
2A
102
}
330
2A
100
AcDbVisualStyle
  2
FlatWithEdges
 70
     1
 71
     2
 72
     1
 73
     1
 90
        2
 40
-0.6
 41
30.0
 62
     5
 63
     7
 74
     1
 91
        4
 64
     7
 65
   257
 75
     1
175
     1
 42
1.0
 92
        0
 66
   257
 43
1.0
 76
     1
 77
     6
 78
     2
 67
     7
 79
     5
170
     0
171
     0
290
     0
174
     0
 93
       13
 44
0.0
173
     0
291
     1
 45
0.0
1001
ACAD
1000
AcDbSavedByObjectVersion
1070
     0
  0
VISUALSTYLE
  5
2D
102
{ACAD_REACTORS
330
2A
102
}
330
2A
100
AcDbVisualStyle
  2
Gouraud
 70
     2
 71
     2
 72
     2
 73
     1
 90
        2
 40
-0.6
 41
30.0
 62
     5
 63
     7
 74
     0
 91
        4
 64
     7
 65
   257
 75
     1
175
     1
 42
1.0
 92
        0
 66
     7
 43
1.0
 76
     1
 77
     6
 78
     2
 67
     7
 79
     5
170
     0
171
     0
290
     0
174
     0
 93
       13
 44
0.0
173
     0
291
     1
 45
0.0
1001
ACAD
1000
AcDbSavedByObjectVersion
1070
     0
  0
VISUALSTYLE
  5
2E
102
{ACAD_REACTORS
330
2A
102
}
330
2A
100
AcDbVisualStyle
  2
GouraudWithEdges
 70
     3
 71
     2
 72
     2
 73
     1
 90
        2
 40
-0.6
 41
30.0
 62
     5
 63
     7
 74
     1
 91
        4
 64
     7
 65
   257
 75
     1
175
     1
 42
1.0
 92
        0
 66
   257
 43
1.0
 76
     1
 77
     6
 78
     2
 67
     7
 79
     5
170
     0
171
     0
290
     0
174
     0
 93
       13
 44
0.0
173
     0
291
     1
 45
0.0
1001
ACAD
1000
AcDbSavedByObjectVersion
1070
     0
  0
VISUALSTYLE
  5
38
102
{ACAD_REACTORS
330
2A
102
}
330
2A
100
AcDbVisualStyle
  2
Linepattern
 70
    14
 71
     2
 72
     2
 73
     0
 90
        0
 40
-0.6
 41
-30.0
 62
     5
 63
     7
 74
     1
 91
        4
 64
     7
 65
   257
 75
     7
175
     7
 42
1.0
 92
        8
 66
     7
 43
1.0
 76
     1
 77
     6
 78
     2
 67
     7
 79
     5
170
     0
171
     0
290
     0
174
     0
 93
        1
 44
0.0
173
     0
291
     1
 45
0.0
1001
ACAD
1000
AcDbSavedByObjectVersion
1070
     0
  0
VISUALSTYLE
  5
33
102
{ACAD_REACTORS
330
2A
102
}
330
2A
100
AcDbVisualStyle
  2
Realistic
 70
     8
 71
     2
 72
     2
 73
     0
 90
        0
 40
-0.6
 41
-30.0
 62
     5
 63
     7
 74
     1
 91
        0
 64
     7
 65
   257
 75
     1
175
     1
 42
1.0
 92
        8
 66
     8
 43
1.0
 76
     1
 77
     6
 78
     2
 67
     7
 79
     5
170
     0
171
     0
290
     0
174
     0
 93
       13
 44
0.0
173
     0
291
     0
 45
0.0
1001
ACAD
1000
AcDbSavedByObjectVersion
1070
     0
  0
VISUALSTYLE
  5
37
102
{ACAD_REACTORS
330
2A
102
}
330
2A
100
AcDbVisualStyle
  2
Thicken
 70
    13
 71
     2
 72
     2
 73
     0
 90
        0
 40
-0.6
 41
-30.0
 62
     5
 63
     7
 74
     1
 91
        4
 64
     7
 65
   257
 75
     1
175
     1
 42
1.0
 92
       12
 66
     7
 43
1.0
 76
     1
 77
     6
 78
     2
 67
     7
 79
     5
170
     0
171
     0
290
     0
174
     0
 93
        1
 44
0.0
173
     0
291
     1
 45
0.0
1001
ACAD
1000
AcDbSavedByObjectVersion
1070
     0
  0
DICTIONARYVAR
  5
11A
102
{ACAD_REACTORS
330
117
102
}
330
117
100
DictionaryVariables
280
     0
  1
1:1
  0
ENDSEC
  0
EOF
