999
DXF file: 200_e40-170-08-bmg.dxf
999
Pro/ENGINEER 2011490 by Parametric Technology Corporation
  0
SECTION
  2
HEADER
  9
$ACADVER
  1
AC1021
  9
$DWGCODEPAGE
  3
ANSI_1252
  9
$EXTMAX
 10
420.0
 20
297.0
 30
0.0
  9
$EXTMIN
 10
0.0
 20
0.0
 30
0.0
  9
$LIMMIN
 10
0.0
 20
0.0
  9
$LIMMAX
 10
420.0
 20
297.0
  9
$VIEWCTR
 10
210.0
 20
148.5
  9
$VIEWSIZE
 40
297.0
  9
$CLAYER
  8
0
  9
$LTSCALE
 40
23.1
  9
$CELTYPE
  6
BYLAYER
  9
$DIMSCALE
 40
1.0
  9
$DIMASZ
 40
3.5
  9
$DIMEXO
 40
2.625
  9
$DIMDLI
 40
15.96
  9
$DIMEXE
 40
7.56
  9
$DIMCEN
 40
3.78
  9
$DIMLFAC
 40
1.0
  9
$DIMBLK
  1
_FILLED
  9
$DIMTXT
 40
3.5
  9
$DIMTOL
 70
0
  9
$DIMLIM
 70
0
  9
$DIMTFAC
 40
1.0
  9
$PDMODE
 70
3
  9
$PDSIZE
 40
0.3125
  9
$HANDSEED
  5
2BC
  9
$TILEMODE
 70
1
  9
$MEASUREMENT
 70
1
  9
$INSUNITS
 70
4
  0
ENDSEC
  0
SECTION
  2
CLASSES
  0
CLASS
  1
ACDBDICTIONARYWDFLT
  2
AcDbDictionaryWithDefault
  3
AutoCAD 2000
 90
0
 91
1
280
0
281
0
  0
CLASS
  1
ACDBPLACEHOLDER
  2
AcDbPlaceHolder
  3
AutoCAD 2000
 90
0
 91
1
280
0
281
0
  0
CLASS
  1
LAYOUT
  2
AcDbLayout
  3
AutoCAD 2000
 90
0
 91
0
280
0
281
0
  0
ENDSEC
  0
SECTION
  2
TABLES
  0
TABLE
  2
VPORT
  5
8
100
AcDbSymbolTable
 70
2
  0
VPORT
  5
1F4
100
AcDbSymbolTableRecord
100
AcDbViewportTableRecord
  2
*ACTIVE
 70
0
 10
0.0
 20
0.0
 11
1.0
 21
1.0
 12
210.0
 22
148.5
 13
0.0
 23
0.0
 14
1.0
 24
1.0
 15
0.0
 25
0.0
 16
0.0
 26
0.0
 36
1.0
 17
0.0
 27
0.0
 37
0.0
 40
297.0
 41
1.4141414141
 42
50.0
 43
0.0
 44
0.0
 50
0.0
 51
0.0
 71
0
 72
100
 73
1
 74
1
 75
0
 76
0
 77
0
 78
0
  0
ENDTAB
  0
TABLE
  2
LTYPE
  5
5
100
AcDbSymbolTable
 70
6
  0
LTYPE
  5
14
100
AcDbSymbolTableRecord
100
AcDbLinetypeTableRecord
  2
BYBLOCK
 70
0
  3

 72
65
 73
0
 40
0.0
  0
LTYPE
  5
15
100
AcDbSymbolTableRecord
100
AcDbLinetypeTableRecord
  2
BYLAYER
 70
0
  3

 72
65
 73
0
 40
0.0
  0
LTYPE
  5
16
100
AcDbSymbolTableRecord
100
AcDbLinetypeTableRecord
  2
CONTINUOUS
 70
64
  3
Solid line
 72
65
 73
0
 40
0.0
  0
LTYPE
  5
1F5
100
AcDbSymbolTableRecord
100
AcDbLinetypeTableRecord
  2
CENTER
 70
64
  3
____ _ ____ _ ____ _ ____ _ ____ _ ____ _ ____
 72
65
 73
4
 40
0.6
 49
0.375
 74
0
 49
-0.075
 74
0
 49
0.075
 74
0
 49
-0.075
 74
0
  0
LTYPE
  5
1F6
100
AcDbSymbolTableRecord
100
AcDbLinetypeTableRecord
  2
HIDDEN
 70
64
  3
- - - - - - - - - - - - - - - - - - - -
 72
65
 73
2
 40
0.2
 49
0.1
 74
0
 49
-0.1
 74
0
  0
LTYPE
  5
1F7
100
AcDbSymbolTableRecord
100
AcDbLinetypeTableRecord
  2
PHANTOM
 70
64
  3
_____ _ _ _____ _ _ _____ _ _ _____
 72
65
 73
6
 40
0.8
 49
0.45
 74
0
 49
-0.05
 74
0
 49
0.1
 74
0
 49
-0.05
 74
0
 49
0.1
 74
0
 49
-0.05
 74
0
  0
LTYPE
  5
1F8
100
AcDbSymbolTableRecord
100
AcDbLinetypeTableRecord
  2
DOT
 70
64
  3
. . . . . . . . . . . . . . . . . . . .
 72
65
 73
2
 40
0.2
 49
0.1
 74
0
 49
-0.1
 74
0
  0
LTYPE
  5
1F9
100
AcDbSymbolTableRecord
100
AcDbLinetypeTableRecord
  2
DASHED
 70
64
  3
- - - - - - - - - - - - - - - - - - - -
 72
65
 73
2
 40
0.2
 49
0.1
 74
0
 49
-0.1
 74
0
  0
ENDTAB
  0
TABLE
  2
LAYER
  5
2
100
AcDbSymbolTable
 70
36
  0
LAYER
  5
10
100
AcDbSymbolTableRecord
100
AcDbLayerTableRecord
  2
0
 70
0
 62
7
  6
CONTINUOUS
370
-3
390
F
  0
LAYER
  5
1FA
100
AcDbSymbolTableRecord
100
AcDbLayerTableRecord
  2
DEFAULT_1
 70
0
 62
7
  6
CENTER
370
-3
390
F
  0
LAYER
  5
1FB
100
AcDbSymbolTableRecord
100
AcDbLayerTableRecord
  2
DEFAULT_2
 70
0
 62
8
  6
HIDDEN
370
-3
390
F
  0
LAYER
  5
1FC
100
AcDbSymbolTableRecord
100
AcDbLayerTableRecord
  2
DEFAULT_3
 70
0
 62
7
  6
PHANTOM
370
-3
390
F
  0
LAYER
  5
1FD
100
AcDbSymbolTableRecord
100
AcDbLayerTableRecord
  2
1
 70
0
 62
7
  6
CONTINUOUS
370
-3
390
F
  0
LAYER
  5
1FE
100
AcDbSymbolTableRecord
100
AcDbLayerTableRecord
  2
2
 70
0
 62
7
  6
CONTINUOUS
370
-3
390
F
  0
LAYER
  5
1FF
100
AcDbSymbolTableRecord
100
AcDbLayerTableRecord
  2
4
 70
0
 62
7
  6
CONTINUOUS
370
-3
390
F
  0
LAYER
  5
200
100
AcDbSymbolTableRecord
100
AcDbLayerTableRecord
  2
5
 70
0
 62
7
  6
CONTINUOUS
370
-3
390
F
  0
LAYER
  5
201
100
AcDbSymbolTableRecord
100
AcDbLayerTableRecord
  2
6
 70
0
 62
7
  6
CONTINUOUS
370
-3
390
F
  0
LAYER
  5
202
100
AcDbSymbolTableRecord
100
AcDbLayerTableRecord
  2
ACHSEN
 70
0
 62
7
  6
CONTINUOUS
370
-3
390
F
  0
LAYER
  5
203
100
AcDbSymbolTableRecord
100
AcDbLayerTableRecord
  2
ANALYSEN
 70
0
 62
7
  6
CONTINUOUS
370
-3
390
F
  0
LAYER
  5
204
100
AcDbSymbolTableRecord
100
AcDbLayerTableRecord
  2
AUFMASS_WEICHBEARBEITUNG
 70
0
 62
7
  6
CONTINUOUS
370
-3
390
F
  0
LAYER
  5
205
100
AcDbSymbolTableRecord
100
AcDbLayerTableRecord
  2
AUFMASS_WEICHBE_INNENKONTUR
 70
0
 62
7
  6
CONTINUOUS
370
-3
390
F
  0
LAYER
  5
206
100
AcDbSymbolTableRecord
100
AcDbLayerTableRecord
  2
AUSSENKONTUR
 70
0
 62
7
  6
CONTINUOUS
370
-3
390
F
  0
LAYER
  5
207
100
AcDbSymbolTableRecord
100
AcDbLayerTableRecord
  2
BEZUGSACHSEN
 70
0
 62
7
  6
CONTINUOUS
370
-3
390
F
  0
LAYER
  5
208
100
AcDbSymbolTableRecord
100
AcDbLayerTableRecord
  2
BEZUGSACHSENKENNZEICHEN
 70
0
 62
7
  6
CONTINUOUS
370
-3
390
F
  0
LAYER
  5
209
100
AcDbSymbolTableRecord
100
AcDbLayerTableRecord
  2
BEZUGSEBENEN
 70
0
 62
7
  6
CONTINUOUS
370
-3
390
F
  0
LAYER
  5
20A
100
AcDbSymbolTableRecord
100
AcDbLayerTableRecord
  2
BEZUGSEBENE_B
 70
0
 62
7
  6
CONTINUOUS
370
-3
390
F
  0
LAYER
  5
20B
100
AcDbSymbolTableRecord
100
AcDbLayerTableRecord
  2
BEZUGSPUNKTE
 70
0
 62
7
  6
CONTINUOUS
370
-3
390
F
  0
LAYER
  5
20C
100
AcDbSymbolTableRecord
100
AcDbLayerTableRecord
  2
BOHRUNGEN
 70
0
 62
7
  6
CONTINUOUS
370
-3
390
F
  0
LAYER
  5
20D
100
AcDbSymbolTableRecord
100
AcDbLayerTableRecord
  2
EBENEN
 70
0
 62
7
  6
CONTINUOUS
370
-3
390
F
  0
LAYER
  5
20E
100
AcDbSymbolTableRecord
100
AcDbLayerTableRecord
  2
FASEN
 70
0
 62
7
  6
CONTINUOUS
370
-3
390
F
  0
LAYER
  5
20F
100
AcDbSymbolTableRecord
100
AcDbLayerTableRecord
  2
FLAECHEN
 70
0
 62
7
  6
CONTINUOUS
370
-3
390
F
  0
LAYER
  5
210
100
AcDbSymbolTableRecord
100
AcDbLayerTableRecord
  2
FORM_LAGE_TOLERANZEN
 70
0
 62
7
  6
CONTINUOUS
370
-3
390
F
  0
LAYER
  5
211
100
AcDbSymbolTableRecord
100
AcDbLayerTableRecord
  2
GEWINDE
 70
0
 62
7
  6
CONTINUOUS
370
-3
390
F
  0
LAYER
  5
212
100
AcDbSymbolTableRecord
100
AcDbLayerTableRecord
  2
HILFEN
 70
0
 62
7
  6
CONTINUOUS
370
-3
390
F
  0
LAYER
  5
213
100
AcDbSymbolTableRecord
100
AcDbLayerTableRecord
  2
INNENKONTUR
 70
0
 62
7
  6
CONTINUOUS
370
-3
390
F
  0
LAYER
  5
214
100
AcDbSymbolTableRecord
100
AcDbLayerTableRecord
  2
KOORDINATENSYSTEME
 70
0
 62
7
  6
CONTINUOUS
370
-3
390
F
  0
LAYER
  5
215
100
AcDbSymbolTableRecord
100
AcDbLayerTableRecord
  2
KOORDSYS
 70
0
 62
7
  6
CONTINUOUS
370
-3
390
F
  0
LAYER
  5
216
100
AcDbSymbolTableRecord
100
AcDbLayerTableRecord
  2
KURVEN
 70
0
 62
7
  6
CONTINUOUS
370
-3
390
F
  0
LAYER
  5
217
100
AcDbSymbolTableRecord
100
AcDbLayerTableRecord
  2
KURVE_FUER_GTOL_DETAILANSICHT
 70
0
 62
7
  6
CONTINUOUS
370
-3
390
F
  0
LAYER
  5
218
100
AcDbSymbolTableRecord
100
AcDbLayerTableRecord
  2
KURVE_GAUGE2_POLIGON_INNENEINST
 70
0
 62
7
  6
CONTINUOUS
370
-3
390
F
  0
LAYER
  5
219
100
AcDbSymbolTableRecord
100
AcDbLayerTableRecord
  2
KURVE_PHANTOM1_GAUGE_PIN_1
 70
0
 62
7
  6
CONTINUOUS
370
-3
390
F
  0
LAYER
  5
21A
100
AcDbSymbolTableRecord
100
AcDbLayerTableRecord
  2
KURVE_PHANTOM2_GAUGE_PIN1
 70
0
 62
7
  6
CONTINUOUS
370
-3
390
F
  0
LAYER
  5
21B
100
AcDbSymbolTableRecord
100
AcDbLayerTableRecord
  2
KURVE_POLIGON_BEMASUNG
 70
0
 62
7
  6
CONTINUOUS
370
-3
390
F
  0
LAYER
  5
21C
100
AcDbSymbolTableRecord
100
AcDbLayerTableRecord
  2
NOCUT
 70
0
 62
7
  6
CONTINUOUS
370
-3
390
F
  0
LAYER
  5
21D
100
AcDbSymbolTableRecord
100
AcDbLayerTableRecord
  2
PLATZIERUNG
 70
0
 62
7
  6
CONTINUOUS
370
-3
390
F
  0
LAYER
  5
21E
100
AcDbSymbolTableRecord
100
AcDbLayerTableRecord
  2
PUNKTE
 70
0
 62
7
  6
CONTINUOUS
370
-3
390
F
  0
LAYER
  5
21F
100
AcDbSymbolTableRecord
100
AcDbLayerTableRecord
  2
RUNDUNGEN
 70
0
 62
7
  6
CONTINUOUS
370
-3
390
F
  0
LAYER
  5
220
100
AcDbSymbolTableRecord
100
AcDbLayerTableRecord
  2
SK1
 70
0
 62
7
  6
CONTINUOUS
370
-3
390
F
  0
LAYER
  5
221
100
AcDbSymbolTableRecord
100
AcDbLayerTableRecord
  2
SK2
 70
0
 62
7
  6
CONTINUOUS
370
-3
390
F
  0
LAYER
  5
222
100
AcDbSymbolTableRecord
100
AcDbLayerTableRecord
  2
SK4
 70
0
 62
7
  6
CONTINUOUS
370
-3
390
F
  0
LAYER
  5
223
100
AcDbSymbolTableRecord
100
AcDbLayerTableRecord
  2
S_ACHSEN
 70
0
 62
7
  6
CONTINUOUS
370
-3
390
F
  0
LAYER
  5
224
100
AcDbSymbolTableRecord
100
AcDbLayerTableRecord
  2
S_EBENEN
 70
0
 62
7
  6
CONTINUOUS
370
-3
390
F
  0
LAYER
  5
225
100
AcDbSymbolTableRecord
100
AcDbLayerTableRecord
  2
S_KOORDSYS
 70
0
 62
7
  6
CONTINUOUS
370
-3
390
F
  0
LAYER
  5
226
100
AcDbSymbolTableRecord
100
AcDbLayerTableRecord
  2
TEIL_STARTBEZUEGE
 70
0
 62
7
  6
CONTINUOUS
370
-3
390
F
  0
LAYER
  5
227
100
AcDbSymbolTableRecord
100
AcDbLayerTableRecord
  2
TOL_BEZUEGE
 70
0
 62
7
  6
CONTINUOUS
370
-3
390
F
  0
LAYER
  5
228
100
AcDbSymbolTableRecord
100
AcDbLayerTableRecord
  2
VERBFLAECHE
 70
0
 62
7
  6
CONTINUOUS
370
-3
390
F
  0
LAYER
  5
229
100
AcDbSymbolTableRecord
100
AcDbLayerTableRecord
  2
VERERBUNG
 70
0
 62
7
  6
CONTINUOUS
370
-3
390
F
  0
LAYER
  5
22A
100
AcDbSymbolTableRecord
100
AcDbLayerTableRecord
  2
VOLGEOM
 70
0
 62
7
  6
CONTINUOUS
370
-3
390
F
  0
LAYER
  5
22B
100
AcDbSymbolTableRecord
100
AcDbLayerTableRecord
  2
VOLUMEN
 70
0
 62
7
  6
CONTINUOUS
370
-3
390
F
  0
LAYER
  5
22C
100
AcDbSymbolTableRecord
100
AcDbLayerTableRecord
  2
XSEC_DATUMS
 70
0
 62
7
  6
CONTINUOUS
370
-3
390
F
  0
LAYER
  5
22D
100
AcDbSymbolTableRecord
100
AcDbLayerTableRecord
  2
ZEICHNUNG
 70
0
 62
7
  6
CONTINUOUS
370
-3
390
F
  0
ENDTAB
  0
TABLE
  2
STYLE
  5
3
100
AcDbSymbolTable
 70
1
  0
STYLE
  5
11
100
AcDbSymbolTableRecord
100
AcDbTextStyleTableRecord
  2
STANDARD
 70
0
 40
0.0
 41
0.7
 50
0.0
 71
0
 42
0.2
  3
txt
  4

  0
STYLE
  5
22E
100
AcDbSymbolTableRecord
100
AcDbTextStyleTableRecord
  2
TEXTSTYLE_1
 70
0
 40
0.0
 41
0.8
 50
0.0
 71
0
 42
0.2
  3
gdt
  4

  0
STYLE
  5
22F
100
AcDbSymbolTableRecord
100
AcDbTextStyleTableRecord
  2
TEXTSTYLE_2
 70
0
 40
0.0
 41
0.7
 50
0.0
 71
0
 42
0.2
  3
gdt
  4

  0
ENDTAB
  0
TABLE
  2
VIEW
  5
6
100
AcDbSymbolTable
 70
0
  0
ENDTAB
  0
TABLE
  2
UCS
  5
7
100
AcDbSymbolTable
 70
0
  0
ENDTAB
  0
TABLE
  2
APPID
  5
9
100
AcDbSymbolTable
 70
1
  0
APPID
  5
230
100
AcDbSymbolTableRecord
100
AcDbRegAppTableRecord
  2
ACAD
 70
0
  0
ENDTAB
  0
TABLE
  2
BLOCK_RECORD
  5
1
100
AcDbSymbolTable
 70
0
  0
BLOCK_RECORD
  5
231
100
AcDbSymbolTableRecord
100
AcDbBlockTableRecord
  2
*Model_Space
  0
BLOCK_RECORD
  5
232
100
AcDbSymbolTableRecord
100
AcDbBlockTableRecord
  2
*Paper_Space
  0
BLOCK_RECORD
  5
233
100
AcDbSymbolTableRecord
100
AcDbBlockTableRecord
  2
_FILLED
  0
BLOCK_RECORD
  5
234
100
AcDbSymbolTableRecord
100
AcDbBlockTableRecord
  2
*D0
  0
BLOCK_RECORD
  5
235
100
AcDbSymbolTableRecord
100
AcDbBlockTableRecord
  2
*D1
  0
BLOCK_RECORD
  5
236
100
AcDbSymbolTableRecord
100
AcDbBlockTableRecord
  2
*D2
  0
BLOCK_RECORD
  5
237
100
AcDbSymbolTableRecord
100
AcDbBlockTableRecord
  2
*D3
  0
BLOCK_RECORD
  5
238
100
AcDbSymbolTableRecord
100
AcDbBlockTableRecord
  2
*D4
  0
BLOCK_RECORD
  5
239
100
AcDbSymbolTableRecord
100
AcDbBlockTableRecord
  2
*D5
  0
ENDTAB
  0
TABLE
  2
DIMSTYLE
  5
A
100
AcDbSymbolTable
 70
1
100
AcDbDimStyleTable
 71
0
  0
DIMSTYLE
105
23A
100
AcDbSymbolTableRecord
100
AcDbDimStyleTableRecord
  2
STANDARD
 70
0
  3

  4

 40
1.0
 41
3.5
 42
0.0625
 43
0.38
 44
0.18
 45
0.0
 46
0.0
 47
0.005
 48
0.005
140
3.5
141
0.09
142
0.0
143
25.4
144
1.0
145
0.0
146
1.0
147
0.09
 71
0.0
 72
0.0
 73
0
 74
0
 75
0
 76
0
 77
1
 78
8
170
0
171
2
172
0
173
0
174
0
175
0
176
0
177
0
178
5
270
2
271
3
272
3
273
2
274
2
275
0
280
0
281
0
282
0
283
1
284
8
285
0
286
0
287
3
288
0
340
11
341
233
342
233
343
233
344
233
  0
DIMSTYLE
105
23B
100
AcDbSymbolTableRecord
100
AcDbDimStyleTableRecord
  2
DIMSTYLE_1
 70
0
  3

  4

 40
1.0
 41
3.5
 42
0.0625
 43
0.38
 44
0.18
 45
0.0
 46
0.0
 47
0.0
 48
0.0
140
3.5
141
0.09
142
0.0
143
25.4
144
1.0
145
0.0
146
1.0
147
0.09
 71
0.0
 72
0.0
 73
0
 74
0
 75
0
 76
0
 77
1
 78
8
170
0
171
2
172
0
173
0
174
0
175
0
176
0
177
0
178
5
270
2
271
2
272
2
273
2
274
2
275
0
280
0
281
0
282
0
283
1
284
8
285
0
286
0
287
3
288
0
340
11
341
233
342
233
343
233
344
233
  0
DIMSTYLE
105
23C
100
AcDbSymbolTableRecord
100
AcDbDimStyleTableRecord
  2
DIMSTYLE_2
 70
0
  3

  4

 40
1.0
 41
3.5
 42
0.0625
 43
0.38
 44
0.18
 45
0.0
 46
0.0
 47
0.0
 48
0.0
140
3.5
141
0.09
142
0.0
143
25.4
144
1.0
145
0.0
146
1.0
147
0.09
 71
0.0
 72
0.0
 73
0
 74
0
 75
0
 76
0
 77
1
 78
8
170
0
171
2
172
0
173
0
174
0
175
0
176
0
177
0
178
5
270
2
271
2
272
2
273
2
274
2
275
0
280
0
281
0
282
0
283
1
284
8
285
0
286
0
287
3
288
0
340
11
341
233
342
233
343
233
344
233
  0
DIMSTYLE
105
23D
100
AcDbSymbolTableRecord
100
AcDbDimStyleTableRecord
  2
DIMSTYLE_3
 70
0
  3

  4

 40
1.0
 41
3.5
 42
0.0625
 43
0.38
 44
0.18
 45
0.0
 46
0.0
 47
0.0
 48
0.0
140
3.5
141
0.09
142
0.0
143
25.4
144
1.0
145
0.0
146
1.0
147
0.09
 71
0.0
 72
0.0
 73
0
 74
0
 75
0
 76
0
 77
1
 78
8
170
0
171
2
172
0
173
0
174
0
175
0
176
0
177
0
178
5
270
2
271
3
272
3
273
2
274
2
275
0
280
0
281
0
282
0
283
1
284
8
285
0
286
0
287
3
288
0
340
11
341
233
342
233
343
233
344
233
  0
ENDTAB
  0
ENDSEC
  0
SECTION
  2
BLOCKS
  0
BLOCK
  5
20
100
AcDbEntity
  8
0
100
AcDbBlockBegin
  2
*Model_Space
 70
0
 10
0.0
 20
0.0
 30
0.0
  3
*Model_Space
  1

  0
ENDBLK
  5
21
100
AcDbEntity
  8
0
100
AcDbBlockEnd
  0
BLOCK
  5
1C
100
AcDbEntity
  8
0
100
AcDbBlockBegin
  2
*Paper_Space
 70
0
 10
0.0
 20
0.0
 30
0.0
  3
*Paper_Space
  1

  0
ENDBLK
  5
1D
100
AcDbEntity
  8
0
100
AcDbBlockEnd
  0
BLOCK
  5
23E
100
AcDbEntity
  8
0
100
AcDbBlockBegin
  2
_FILLED
 70
64
 10
0.0
 20
0.0
  3
_FILLED
  1

  0
SOLID
  5
23F
100
AcDbEntity
  8
0
  6
BYBLOCK
 62
0
100
AcDbTrace
 10
0.0
 20
0.0
 11
-1.0
 21
0.125
 12
-1.0
 22
-0.125
 13
-1.0
 23
-0.125
  0
ENDBLK
  5
240
100
AcDbEntity
  8
0
  6
BYBLOCK
 62
0
100
AcDbBlockEnd
  0
BLOCK
  5
241
100
AcDbEntity
  8
SK2
100
AcDbBlockBegin
 62
2
  6
CONTINUOUS
  2
*D0
 70
65
 10
0.0
 20
0.0
  3
*D0
  1

  0
MTEXT
  5
242
100
AcDbEntity
  8
SK2
100
AcDbMText
 62
5
  6
CONTINUOUS
  7
STANDARD
 71
2
 72
1
 10
185.3608756249
 20
197.5554378124
 30
0.0
 11
1.0
 21
0.0
 31
0.0
 44
0.9
  1
70
 40
3.5
 41
5.5
  0
LINE
  5
243
100
AcDbEntity
  8
SK2
100
AcDbLine
 62
2
  6
CONTINUOUS
 10
150.3608756249
 20
161.8957484424
 11
150.3608756249
 21
194.6804378124
  0
LINE
  5
244
100
AcDbEntity
  8
SK2
100
AcDbLine
 62
2
  6
CONTINUOUS
 10
220.3608756249
 20
161.8957484424
 11
220.3608756249
 21
194.6804378124
  0
LINE
  5
245
100
AcDbEntity
  8
SK2
100
AcDbLine
 62
2
  6
CONTINUOUS
 10
150.3608756249
 20
193.1804378124
 11
185.3608756249
 21
193.1804378124
  0
LINE
  5
246
100
AcDbEntity
  8
SK2
100
AcDbLine
 62
2
  6
CONTINUOUS
 10
220.3608756249
 20
193.1804378124
 11
185.3608756249
 21
193.1804378124
  0
INSERT
  5
247
100
AcDbEntity
  8
SK2
100
AcDbBlockReference
 62
2
  6
CONTINUOUS
  2
_FILLED
 10
150.3608756249
 20
193.1804378124
 41
3.5
 42
3.5
 43
3.5
 50
180.0
  0
INSERT
  5
248
100
AcDbEntity
  8
SK2
100
AcDbBlockReference
 62
2
  6
CONTINUOUS
  2
_FILLED
 10
220.3608756249
 20
193.1804378124
 41
3.5
 42
3.5
 43
3.5
  0
ENDBLK
  5
249
100
AcDbEntity
  8
0
  6
BYBLOCK
 62
0
100
AcDbBlockEnd
  0
BLOCK
  5
24A
100
AcDbEntity
  8
SK2
100
AcDbBlockBegin
 62
2
  6
CONTINUOUS
  2
*D1
 70
65
 10
0.0
 20
0.0
  3
*D1
  1

  0
MTEXT
  5
24B
100
AcDbEntity
  8
SK2
100
AcDbMText
 62
5
  6
CONTINUOUS
  7
STANDARD
 71
2
 72
1
 10
195.3608756249
 20
190.5554378124
 30
0.0
 11
1.0
 21
0.0
 31
0.0
 44
0.9
  1
50
 40
3.5
 41
5.25
  0
LINE
  5
24C
100
AcDbEntity
  8
SK2
100
AcDbLine
 62
2
  6
CONTINUOUS
 10
220.3608756249
 20
161.8957484424
 11
220.3608756249
 21
187.6804378124
  0
LINE
  5
24D
100
AcDbEntity
  8
SK2
100
AcDbLine
 62
2
  6
CONTINUOUS
 10
170.3608756249
 20
176.6804378124
 11
170.3608756249
 21
187.6804378124
  0
LINE
  5
24E
100
AcDbEntity
  8
SK2
100
AcDbLine
 62
2
  6
CONTINUOUS
 10
220.3608756249
 20
186.1804378124
 11
195.3608756249
 21
186.1804378124
  0
LINE
  5
24F
100
AcDbEntity
  8
SK2
100
AcDbLine
 62
2
  6
CONTINUOUS
 10
170.3608756249
 20
186.1804378124
 11
195.3608756249
 21
186.1804378124
  0
INSERT
  5
250
100
AcDbEntity
  8
SK2
100
AcDbBlockReference
 62
2
  6
CONTINUOUS
  2
_FILLED
 10
220.3608756249
 20
186.1804378124
 41
3.5
 42
3.5
 43
3.5
  0
INSERT
  5
251
100
AcDbEntity
  8
SK2
100
AcDbBlockReference
 62
2
  6
CONTINUOUS
  2
_FILLED
 10
170.3608756249
 20
186.1804378124
 41
3.5
 42
3.5
 43
3.5
 50
180.0
  0
ENDBLK
  5
252
100
AcDbEntity
  8
0
  6
BYBLOCK
 62
0
100
AcDbBlockEnd
  0
BLOCK
  5
253
100
AcDbEntity
  8
SK2
100
AcDbBlockBegin
 62
2
  6
CONTINUOUS
  2
*D2
 70
65
 10
0.0
 20
0.0
  3
*D2
  1

  0
MTEXT
  5
254
100
AcDbEntity
  8
SK2
100
AcDbMText
 62
5
  6
CONTINUOUS
  7
TEXTSTYLE_2
 71
3
 72
1
 10
233.9858756249
 20
134.1804378124
 30
0.0
 11
0.0
 21
1.0
 31
0.0
 44
0.9
  1
{\Fgdt;n}\Ftxt;11
 40
3.5
 41
8.6666666667
  0
LINE
  5
255
100
AcDbEntity
  8
SK2
100
AcDbLine
 62
2
  6
CONTINUOUS
 10
221.8608756249
 20
149.6804378124
 11
228.3608756249
 21
149.6804378124
  0
LINE
  5
256
100
AcDbEntity
  8
SK2
100
AcDbLine
 62
2
  6
CONTINUOUS
 10
234.3608756249
 20
149.6804378124
 11
239.8608756249
 21
149.6804378124
  0
LINE
  5
257
100
AcDbEntity
  8
SK2
100
AcDbLine
 62
2
  6
CONTINUOUS
 10
221.8608756249
 20
160.6804378124
 11
239.8608756249
 21
160.6804378124
  0
LINE
  5
258
100
AcDbEntity
  8
SK2
100
AcDbLine
 62
2
  6
CONTINUOUS
 10
238.3608756249
 20
149.6804378124
 11
238.3608756249
 21
125.5137711458
  0
LINE
  5
259
100
AcDbEntity
  8
SK2
100
AcDbLine
 62
2
  6
CONTINUOUS
 10
238.3608756249
 20
125.5137711458
 11
238.3608756249
 21
155.1804378124
  0
LINE
  5
25A
100
AcDbEntity
  8
SK2
100
AcDbLine
 62
2
  6
CONTINUOUS
 10
238.3608756249
 20
160.6804378124
 11
238.3608756249
 21
166.6804378124
  0
LINE
  5
25B
100
AcDbEntity
  8
SK2
100
AcDbLine
 62
2
  6
CONTINUOUS
 10
238.3608756249
 20
166.6804378124
 11
238.3608756249
 21
155.1804378124
  0
INSERT
  5
25C
100
AcDbEntity
  8
SK2
100
AcDbBlockReference
 62
2
  6
CONTINUOUS
  2
_FILLED
 10
238.3608756249
 20
149.6804378124
 41
3.5
 42
3.5
 43
3.5
 50
90.0
  0
INSERT
  5
25D
100
AcDbEntity
  8
SK2
100
AcDbBlockReference
 62
2
  6
CONTINUOUS
  2
_FILLED
 10
238.3608756249
 20
160.6804378124
 41
3.5
 42
3.5
 43
3.5
 50
270.0
  0
ENDBLK
  5
25E
100
AcDbEntity
  8
0
  6
BYBLOCK
 62
0
100
AcDbBlockEnd
  0
BLOCK
  5
25F
100
AcDbEntity
  8
SK2
100
AcDbBlockBegin
 62
2
  6
CONTINUOUS
  2
*D3
 70
65
 10
0.0
 20
0.0
  3
*D3
  1

  0
MTEXT
  5
260
100
AcDbEntity
  8
SK2
100
AcDbMText
 62
5
  6
CONTINUOUS
  7
STANDARD
 71
2
 72
1
 10
201.6688718191
 20
181.3751563117
 30
0.0
 11
0.7421026428
 21
0.670286258
 31
0.0
 44
0.9
  1
3\Fgdt;{\Fgdt;~}
 40
3.5
 41
4.8333333333
  0
LINE
  5
261
100
AcDbEntity
  8
SK2
100
AcDbLine
 62
2
  6
CONTINUOUS
 10
218.5786321096
 20
160.7738412372
 11
198.004957106
 21
161.8520618559
  0
LINE
  5
262
100
AcDbEntity
  8
SK2
100
AcDbLine
 62
2
  6
CONTINUOUS
 10
218.8608756249
 20
160.6804378124
 11
197.9742770507
 21
160.6804378124
  0
ARC
  5
263
100
AcDbEntity
  8
SK2
100
AcDbCircle
 62
2
  6
CONTINUOUS
 10
220.3608756249
 20
160.6804378124
 40
20.8865985742
100
AcDbArc
 50
132.0891621738
 51
177.0
  0
ARC
  5
264
100
AcDbEntity
  8
SK2
100
AcDbCircle
 62
2
  6
CONTINUOUS
 10
220.3608756249
 20
160.6804378124
 40
20.8865985742
100
AcDbArc
 50
180.0
 51
196.4591029917
  0
ARC
  5
265
100
AcDbEntity
  8
SK2
100
AcDbCircle
 62
2
  6
CONTINUOUS
 10
220.3608756249
 20
160.6804378124
 40
20.8865985742
100
AcDbArc
 50
177.0
 51
180.0
  0
SOLID
  5
266
100
AcDbEntity
  8
SK2
100
AcDbTrace
 62
2
  6
CONTINUOUS
 10
199.5444889243
 20
165.3005505113
 11
199.5029014081
 21
161.7735579215
 12
200.4113920998
 22
165.1817907353
 13
200.4113920998
 23
165.1817907353
  0
SOLID
  5
267
100
AcDbEntity
  8
SK2
100
AcDbTrace
 62
2
  6
CONTINUOUS
 10
200.203149564
 20
157.2293291342
 11
199.4742770507
 21
160.6804378124
 12
199.3312190428
 22
157.156102321
 13
199.3312190428
 23
157.156102321
  0
ENDBLK
  5
268
100
AcDbEntity
  8
0
  6
BYBLOCK
 62
0
100
AcDbBlockEnd
  0
BLOCK
  5
269
100
AcDbEntity
  8
2
100
AcDbBlockBegin
 62
2
  6
CONTINUOUS
  2
*D4
 70
65
 10
0.0
 20
0.0
  3
*D4
  1

  0
MTEXT
  5
26A
100
AcDbEntity
  8
2
100
AcDbMText
 62
5
  6
CONTINUOUS
  7
TEXTSTYLE_2
 71
3
 72
1
 10
226.9858756249
 20
134.1804378124
 30
0.0
 11
0.0
 21
1.0
 31
0.0
 44
0.9
  1
{\Fgdt;n}\Ftxt;8
 40
3.5
 41
7.4166666667
  0
LINE
  5
26B
100
AcDbEntity
  8
2
100
AcDbLine
 62
2
  6
CONTINUOUS
 10
221.8608756249
 20
151.1889378124
 11
232.8608756249
 21
151.1889378124
  0
LINE
  5
26C
100
AcDbEntity
  8
2
100
AcDbLine
 62
2
  6
CONTINUOUS
 10
221.8608756249
 20
159.1719378124
 11
232.8608756249
 21
159.1719378124
  0
LINE
  5
26D
100
AcDbEntity
  8
2
100
AcDbLine
 62
2
  6
CONTINUOUS
 10
231.3608756249
 20
151.1889378124
 11
231.3608756249
 21
126.7637711458
  0
LINE
  5
26E
100
AcDbEntity
  8
2
100
AcDbLine
 62
2
  6
CONTINUOUS
 10
231.3608756249
 20
126.7637711458
 11
231.3608756249
 21
155.1804378124
  0
LINE
  5
26F
100
AcDbEntity
  8
2
100
AcDbLine
 62
2
  6
CONTINUOUS
 10
231.3608756249
 20
159.1719378124
 11
231.3608756249
 21
165.1719378124
  0
LINE
  5
270
100
AcDbEntity
  8
2
100
AcDbLine
 62
2
  6
CONTINUOUS
 10
231.3608756249
 20
165.1719378124
 11
231.3608756249
 21
155.1804378124
  0
INSERT
  5
271
100
AcDbEntity
  8
2
100
AcDbBlockReference
 62
2
  6
CONTINUOUS
  2
_FILLED
 10
231.3608756249
 20
151.1889378124
 41
3.5
 42
3.5
 43
3.5
 50
90.0
  0
INSERT
  5
272
100
AcDbEntity
  8
2
100
AcDbBlockReference
 62
2
  6
CONTINUOUS
  2
_FILLED
 10
231.3608756249
 20
159.1719378124
 41
3.5
 42
3.5
 43
3.5
 50
270.0
  0
ENDBLK
  5
273
100
AcDbEntity
  8
0
  6
BYBLOCK
 62
0
100
AcDbBlockEnd
  0
BLOCK
  5
274
100
AcDbEntity
  8
2
100
AcDbBlockBegin
 62
2
  6
CONTINUOUS
  2
*D5
 70
65
 10
0.0
 20
0.0
  3
*D5
  1

  0
MTEXT
  5
275
100
AcDbEntity
  8
2
100
AcDbMText
 62
5
  6
CONTINUOUS
  7
STANDARD
 71
2
 72
1
 10
175.4108756249
 20
204.5554378124
 30
0.0
 11
1.0
 21
0.0
 31
0.0
 44
0.9
  1
90
 40
3.5
 41
5.5
  0
LINE
  5
276
100
AcDbEntity
  8
2
100
AcDbLine
 62
2
  6
CONTINUOUS
 10
220.3608756249
 20
161.8957484424
 11
220.3608756249
 21
201.6804378124
  0
LINE
  5
277
100
AcDbEntity
  8
2
100
AcDbLine
 62
2
  6
CONTINUOUS
 10
130.4608756249
 20
156.6804378124
 11
130.4608756249
 21
201.6804378124
  0
LINE
  5
278
100
AcDbEntity
  8
2
100
AcDbLine
 62
2
  6
CONTINUOUS
 10
220.3608756249
 20
200.1804378124
 11
175.4108756249
 21
200.1804378124
  0
LINE
  5
279
100
AcDbEntity
  8
2
100
AcDbLine
 62
2
  6
CONTINUOUS
 10
130.4608756249
 20
200.1804378124
 11
175.4108756249
 21
200.1804378124
  0
INSERT
  5
27A
100
AcDbEntity
  8
2
100
AcDbBlockReference
 62
2
  6
CONTINUOUS
  2
_FILLED
 10
220.3608756249
 20
200.1804378124
 41
3.5
 42
3.5
 43
3.5
  0
INSERT
  5
27B
100
AcDbEntity
  8
2
100
AcDbBlockReference
 62
2
  6
CONTINUOUS
  2
_FILLED
 10
130.4608756249
 20
200.1804378124
 41
3.5
 42
3.5
 43
3.5
 50
180.0
  0
ENDBLK
  5
27C
100
AcDbEntity
  8
0
  6
BYBLOCK
 62
0
100
AcDbBlockEnd
  0
ENDSEC
  0
SECTION
  2
ENTITIES
  0
DIMENSION
  5
27D
100
AcDbEntity
  8
SK2
100
AcDbDimension
 62
2
  6
CONTINUOUS
  2
*D0
 10
220.3608756249
 20
193.1804378124
 11
182.6108756249
 21
195.8054378124
 70
160
 71
2
 42
70.0
  3
DIMSTYLE_1
100
AcDbAlignedDimension
 13
150.3608756249
 23
161.8957484424
 14
220.3608756249
 24
161.8957484424
100
AcDbRotatedDimension
  0
DIMENSION
  5
27E
100
AcDbEntity
  8
SK2
100
AcDbDimension
 62
2
  6
CONTINUOUS
  2
*D1
 10
170.3608756249
 20
186.1804378124
 11
192.7358756249
 21
188.8054378124
 70
160
 71
2
 42
50.0
  3
DIMSTYLE_1
100
AcDbAlignedDimension
 13
220.3608756249
 23
161.8957484424
 14
170.3608756249
 24
176.6804378124
 50
180.0
100
AcDbRotatedDimension
  0
DIMENSION
  5
27F
100
AcDbEntity
  8
SK2
100
AcDbDimension
 62
2
  6
CONTINUOUS
  2
*D2
 10
238.3608756249
 20
160.6804378124
 11
237.6775279614
 21
125.9731189368
 70
160
 71
3
 42
11.0
  1
%%c<>
  3
DIMSTYLE_1
100
AcDbAlignedDimension
 13
221.8608756249
 23
149.6804378124
 14
221.8608756249
 24
160.6804378124
 50
90.0
100
AcDbRotatedDimension
  0
DIMENSION
  5
280
100
AcDbEntity
  8
SK2
100
AcDbDimension
 62
2
  6
CONTINUOUS
  2
*D3
 10
197.9742770507
 20
160.6804378124
 11
203.2246554037
 21
181.2225774243
 70
162
 71
2
 42
0.0523598776
  3
DIMSTYLE_2
100
AcDb2LineAngularDimension
 13
198.004957106
 23
161.8520618559
 14
218.5786321096
 24
160.7738412372
 15
218.8608756249
 25
160.6804378124
 16
199.4814343664
 26
161.2271852236
  0
DIMENSION
  5
281
100
AcDbEntity
  8
2
100
AcDbDimension
 62
2
  6
CONTINUOUS
  2
*D4
 10
231.3608756249
 20
159.1719378124
 11
230.3974819514
 21
127.1568668516
 70
160
 71
3
 42
7.983
  1
%%c<>
  3
DIMSTYLE_3
100
AcDbAlignedDimension
 13
221.8608756249
 23
151.1889378124
 14
221.8608756249
 24
159.1719378124
 50
90.0
100
AcDbRotatedDimension
  0
DIMENSION
  5
282
100
AcDbEntity
  8
2
100
AcDbDimension
 62
2
  6
CONTINUOUS
  2
*D5
 10
130.4608756249
 20
200.1804378124
 11
172.6608756249
 21
202.8054378124
 70
160
 71
2
 42
89.9
  3
DIMSTYLE_1
100
AcDbAlignedDimension
 13
220.3608756249
 23
161.8957484424
 14
130.4608756249
 24
156.6804378124
 50
180.0
100
AcDbRotatedDimension
  0
MTEXT
  5
283
100
AcDbEntity
  8
6
100
AcDbMText
 62
5
  6
CONTINUOUS
  7
STANDARD
 71
1
 72
1
 10
139.5741815328
 20
82.3507156451
 30
0.0
 11
1.0
 21
0.0
 31
0.0
 44
0.9
  3
Für diese Unterlage behalten wir das Ur-\Pheberrecht. Sie darf nur für den von uns\Pbestimmten Zweck benutzt und ohne unsere \PZustimmung weder vervielfältigt noch \PDritten zugänglich gemacht werden.\P \PWe own the copyright of this document. It\Pde
  1
termined and may neither be copied or\Pmade accessible to outsiders without our\Ppermission.\P \PCe plan reste notre propriété. Il ne peut\Pétre utilisé, copié ou reproduit sans notre\Paccord.
 40
3.5
 41
103.5833333333
  0
LINE
  5
284
100
AcDbEntity
  8
1
100
AcDbLine
 62
9
  6
CONTINUOUS
 10
130.4608756249
 20
168.6264244377
 11
130.4608756249
 21
141.7344511872
  0
LINE
  5
285
100
AcDbEntity
  8
1
100
AcDbLine
 62
9
  6
CONTINUOUS
 10
131.220845831
 20
169.4254223198
 11
131.220845831
 21
140.9354533051
  0
LINE
  5
286
100
AcDbEntity
  8
1
100
AcDbLine
 62
6
  6
CONTINUOUS
 10
148.3608756249
 20
170.2841378124
 11
148.3608756249
 21
140.0767378124
  0
LINE
  5
287
100
AcDbEntity
  8
1
100
AcDbLine
 62
9
  6
CONTINUOUS
 10
149.0564191674
 20
140.263108143
 11
149.0564191674
 21
170.0977674819
  0
LINE
  5
288
100
AcDbEntity
  8
1
100
AcDbLine
 62
9
  6
CONTINUOUS
 10
149.1599467854
 20
140.2767378124
 11
149.1599467854
 21
170.0841378124
  0
LINE
  5
289
100
AcDbEntity
  8
1
100
AcDbLine
 62
9
  6
CONTINUOUS
 10
150.2066984616
 20
140.2767378124
 11
150.2066984616
 21
170.0841378124
  0
LINE
  5
28A
100
AcDbEntity
  8
1
100
AcDbLine
 62
6
  6
CONTINUOUS
 10
150.3608756249
 20
175.1804378124
 11
150.3608756249
 21
135.1804378124
  0
LINE
  5
28B
100
AcDbEntity
  8
1
100
AcDbLine
 62
6
  6
CONTINUOUS
 10
170.3108756249
 20
135.1804378124
 11
168.3960353238
 21
135.1804378124
  0
LINE
  5
28C
100
AcDbEntity
  8
1
100
AcDbLine
 62
6
  6
CONTINUOUS
 10
164.325715926
 20
135.1804378124
 11
150.3608756249
 21
135.1804378124
  0
LINE
  5
28D
100
AcDbEntity
  8
1
100
AcDbLine
 62
6
  6
CONTINUOUS
 10
167.3983756249
 20
173.4524405253
 11
168.3960353238
 21
175.1804378124
  0
LINE
  5
28E
100
AcDbEntity
  8
1
100
AcDbLine
 62
6
  6
CONTINUOUS
 10
165.5733756249
 20
137.8054378124
 11
167.1483756249
 21
137.8054378124
  0
LINE
  5
28F
100
AcDbEntity
  8
1
100
AcDbLine
 62
6
  6
CONTINUOUS
 10
148.3608756249
 20
140.0767378124
 11
131.220845831
 21
140.9354533051
  0
LINE
  5
290
100
AcDbEntity
  8
1
100
AcDbLine
 62
6
  6
CONTINUOUS
 10
167.3983756249
 20
136.9084350996
 11
168.3960353238
 21
135.1804378124
  0
LINE
  5
291
100
AcDbEntity
  8
1
100
AcDbLine
 62
6
  6
CONTINUOUS
 10
150.2066984616
 20
140.2767378124
 11
149.1599467854
 21
140.2767378124
  0
LINE
  5
292
100
AcDbEntity
  8
1
100
AcDbLine
 62
6
  6
CONTINUOUS
 10
164.325715926
 20
175.1804378124
 11
164.325715926
 21
135.1804378124
  0
LINE
  5
293
100
AcDbEntity
  8
1
100
AcDbLine
 62
6
  6
CONTINUOUS
 10
165.3233756249
 20
173.4524405253
 11
165.3233756249
 21
136.9084350996
  0
LINE
  5
294
100
AcDbEntity
  8
1
100
AcDbLine
 62
9
  6
CONTINUOUS
 10
165.5733756249
 20
172.5554378124
 11
165.5733756249
 21
137.8054378124
  0
LINE
  5
295
100
AcDbEntity
  8
1
100
AcDbLine
 62
6
  6
CONTINUOUS
 10
149.0564191674
 20
140.263108143
 11
149.1599467854
 21
140.2767378124
  0
LINE
  5
296
100
AcDbEntity
  8
1
100
AcDbLine
 62
9
  6
CONTINUOUS
 10
167.1483756249
 20
172.5554378124
 11
167.1483756249
 21
137.8054378124
  0
LINE
  5
297
100
AcDbEntity
  8
1
100
AcDbLine
 62
6
  6
CONTINUOUS
 10
167.3983756249
 20
173.4524405253
 11
167.3983756249
 21
136.9084350996
  0
LINE
  5
298
100
AcDbEntity
  8
1
100
AcDbLine
 62
6
  6
CONTINUOUS
 10
168.3960353238
 20
175.1804378124
 11
168.3960353238
 21
135.1804378124
  0
LINE
  5
299
100
AcDbEntity
  8
1
100
AcDbLine
 62
6
  6
CONTINUOUS
 10
149.0564191674
 20
140.263108143
 11
148.3608756249
 21
140.0767378124
  0
LINE
  5
29A
100
AcDbEntity
  8
1
100
AcDbLine
 62
6
  6
CONTINUOUS
 10
220.0765764118
 20
149.640538322
 11
175.0491958437
 21
147.2807532995
  0
LINE
  5
29B
100
AcDbEntity
  8
1
100
AcDbLine
 62
6
  6
CONTINUOUS
 10
170.3108756249
 20
175.1804378124
 11
170.3108756249
 21
135.1804378124
  0
LINE
  5
29C
100
AcDbEntity
  8
1
100
AcDbLine
 62
9
  6
CONTINUOUS
 10
175.0491958437
 20
163.0801223254
 11
175.0491958437
 21
147.2807532995
  0
LINE
  5
29D
100
AcDbEntity
  8
1
100
AcDbLine
 62
6
  6
CONTINUOUS
 10
164.325715926
 20
135.1804378124
 11
165.3233756249
 21
136.9084350996
  0
LINE
  5
29E
100
AcDbEntity
  8
4
100
AcDbLine
 62
7
  6
CENTER
 10
231.3608756249
 20
155.1804378124
 11
127.4608756249
 21
155.1804378124
  0
LINE
  5
29F
100
AcDbEntity
  8
1
100
AcDbLine
 62
6
  6
CONTINUOUS
 10
164.325715926
 20
175.1804378124
 11
165.3233756249
 21
173.4524405253
  0
LINE
  5
2A0
100
AcDbEntity
  8
1
100
AcDbLine
 62
6
  6
CONTINUOUS
 10
220.0765764118
 20
160.7203373029
 11
175.0491958437
 21
163.0801223254
  0
LINE
  5
2A1
100
AcDbEntity
  8
1
100
AcDbLine
 62
6
  6
CONTINUOUS
 10
149.0564191674
 20
170.0977674819
 11
148.3608756249
 21
170.2841378124
  0
LINE
  5
2A2
100
AcDbEntity
  8
1
100
AcDbLine
 62
6
  6
CONTINUOUS
 10
149.0564191674
 20
170.0977674819
 11
149.1599467854
 21
170.0841378124
  0
LINE
  5
2A3
100
AcDbEntity
  8
1
100
AcDbLine
 62
6
  6
CONTINUOUS
 10
148.3608756249
 20
170.2841378124
 11
131.220845831
 21
169.4254223198
  0
LINE
  5
2A4
100
AcDbEntity
  8
1
100
AcDbLine
 62
6
  6
CONTINUOUS
 10
150.2066984616
 20
170.0841378124
 11
149.1599467854
 21
170.0841378124
  0
LINE
  5
2A5
100
AcDbEntity
  8
1
100
AcDbLine
 62
6
  6
CONTINUOUS
 10
167.1483756249
 20
172.5554378124
 11
165.5733756249
 21
172.5554378124
  0
LINE
  5
2A6
100
AcDbEntity
  8
1
100
AcDbLine
 62
6
  6
CONTINUOUS
 10
170.3108756249
 20
175.1804378124
 11
168.3960353238
 21
175.1804378124
  0
LINE
  5
2A7
100
AcDbEntity
  8
1
100
AcDbLine
 62
6
  6
CONTINUOUS
 10
164.325715926
 20
175.1804378124
 11
150.3608756249
 21
175.1804378124
  0
LINE
  5
2A8
100
AcDbEntity
  8
1
100
AcDbLine
 62
9
  6
CONTINUOUS
 10
220.0765764118
 20
160.7203373029
 11
220.0765764118
 21
149.640538322
  0
LINE
  5
2A9
100
AcDbEntity
  8
1
100
AcDbLine
 62
9
  6
CONTINUOUS
 10
220.3608756249
 20
160.4207484424
 11
220.3608756249
 21
149.9401271825
  0
LINE
  5
2AA
100
AcDbEntity
  8
SK1
100
AcDbLine
 62
8
  6
HIDDEN
 10
194.8608756249
 20
151.25
 11
220.3608756249
 21
151.25
  0
LINE
  5
2AB
100
AcDbEntity
  8
SK1
100
AcDbLine
 62
8
  6
HIDDEN
 10
194.8608756249
 20
158.75
 11
220.3608756249
 21
158.75
  0
LINE
  5
2AC
100
AcDbEntity
  8
SK1
100
AcDbLine
 62
8
  6
HIDDEN
 10
194.8608756249
 20
158.75
 11
194.8608756249
 21
151.25
  0
ARC
  5
2AD
100
AcDbEntity
  8
1
100
AcDbCircle
 62
6
  6
CONTINUOUS
 10
175.3108756249
 20
142.2876056258
 40
5.0
100
AcDbArc
 50
93.0
 51
180.0
  0
ARC
  5
2AE
100
AcDbEntity
  8
1
100
AcDbCircle
 62
6
  6
CONTINUOUS
 10
131.2608756249
 20
141.7344511872
 40
0.8
100
AcDbArc
 50
180.0
 51
267.1318795127
  0
ARC
  5
2AF
100
AcDbEntity
  8
1
100
AcDbCircle
 62
6
  6
CONTINUOUS
 10
150.2066984616
 20
139.8767378124
 40
0.4
100
AcDbArc
 50
67.3015645404
 51
90.0
  0
ARC
  5
2B0
100
AcDbEntity
  8
1
100
AcDbCircle
 62
6
  6
CONTINUOUS
 10
165.5733756249
 20
137.5554378124
 40
0.25
100
AcDbArc
 50
90.0
 51
180.0
  0
ARC
  5
2B1
100
AcDbEntity
  8
1
100
AcDbCircle
 62
6
  6
CONTINUOUS
 10
167.1483756249
 20
137.5554378124
 40
0.25
100
AcDbArc
 50
0.0
 51
90.0
  0
ARC
  5
2B2
100
AcDbEntity
  8
1
100
AcDbCircle
 62
6
  6
CONTINUOUS
 10
131.2608756249
 20
168.6264244377
 40
0.8
100
AcDbArc
 50
92.8681204873
 51
180.0
  0
ARC
  5
2B3
100
AcDbEntity
  8
1
100
AcDbCircle
 62
6
  6
CONTINUOUS
 10
149.1599467854
 20
170.4841378124
 40
0.4
100
AcDbArc
 50
255.0
 51
270.0
  0
ARC
  5
2B4
100
AcDbEntity
  8
1
100
AcDbCircle
 62
6
  6
CONTINUOUS
 10
150.2066984616
 20
170.4841378124
 40
0.4
100
AcDbArc
 50
270.0
 51
292.6984354596
  0
ARC
  5
2B5
100
AcDbEntity
  8
1
100
AcDbCircle
 62
6
  6
CONTINUOUS
 10
175.3108756249
 20
168.0732699991
 40
5.0
100
AcDbArc
 50
180.0
 51
267.0
  0
ARC
  5
2B6
100
AcDbEntity
  8
1
100
AcDbCircle
 62
6
  6
CONTINUOUS
 10
165.5733756249
 20
172.8054378124
 40
0.25
100
AcDbArc
 50
180.0
 51
270.0
  0
ARC
  5
2B7
100
AcDbEntity
  8
1
100
AcDbCircle
 62
6
  6
CONTINUOUS
 10
167.1483756249
 20
172.8054378124
 40
0.25
100
AcDbArc
 50
270.0
 51
360.0
  0
ARC
  5
2B8
100
AcDbEntity
  8
1
100
AcDbCircle
 62
6
  6
CONTINUOUS
 10
220.0608756249
 20
149.9401271825
 40
0.3
100
AcDbArc
 50
273.0
 51
360.0
  0
ARC
  5
2B9
100
AcDbEntity
  8
1
100
AcDbCircle
 62
6
  6
CONTINUOUS
 10
220.0608756249
 20
160.4207484424
 40
0.3
100
AcDbArc
 50
0.0
 51
87.0
  0
ENDSEC
  0
SECTION
  2
OBJECTS
  0
DICTIONARY
  5
C
100
AcDbDictionary
280
0
281
1
  3
ACAD_GROUP
350
D
  3
ACAD_MLINESTYLE
350
17
  3
ACAD_LAYOUT
350
1A
  3
ACAD_PLOTSETTINGS
350
19
  3
ACAD_PLOTSTYLENAME
350
E
  0
DICTIONARY
  5
D
102
{ACAD_REACTORS
330
C
102
}
100
AcDbDictionary
280
0
281
1
  0
ACDBDICTIONARYWDFLT
  5
E
102
{ACAD_REACTORS
330
C
102
}
100
AcDbDictionary
281
1
  3
Normal
350
F
100
AcDbDictionaryWithDefault
340
F
  0
DICTIONARY
  5
17
102
{ACAD_REACTORS
330
C
102
}
100
AcDbDictionary
280
0
281
1
  3
Standard
350
18
  0
DICTIONARY
  5
19
102
{ACAD_REACTORS
330
C
102
}
100
AcDbDictionary
281
1
  0
DICTIONARY
  5
1A
102
{ACAD_REACTORS
330
C
102
}
100
AcDbDictionary
281
1
  3
Model
350
2BA
  3
Layout1
350
2BB
  0
ACDBPLACEHOLDER
  5
F
102
{ACAD_REACTORS
330
E
102
}
  0
MLINESTYLE
  5
18
102
{ACAD_REACTORS
330
17
102
}
100
AcDbMlineStyle
  2
STANDARD
 70
0
  3

 62
256
 51
90.0
 52
90.0
 71
2
 49
0.5
 62
256
  6
BYLAYER
 49
-0.5
 62
256
  6
BYLAYER
  0
LAYOUT
  5
2BA
102
{ACAD_REACTORS
330
1A
102
}
100
AcDbPlotSettings
  1

  2
none_device
  4
ISO_A3_(420.00_x_297.00_MM)
  6

 40
0.0
 41
0.0
 42
0.0
 43
0.0
 44
420.0
 45
297.0
 46
0.0
 47
0.0
 48
0.0
 49
0.0
140
0.0
141
0.0
142
1.0
143
1.0
 70
1024
 72
1
 73
0
 74
0
  7

 75
0
147
1.0
148
0.0
149
0.0
100
AcDbLayout
  1
Model
 70
0
 71
0
 10
0.0
 20
0.0
 11
420.0
 21
297.0
 12
0.0
 22
0.0
 32
0.0
 14
0.0
 24
0.0
 34
0.0
 15
0.0
 25
0.0
 35
0.0
146
0.0
 13
0.0
 23
0.0
 33
0.0
 16
1.0
 26
0.0
 36
0.0
 17
0.0
 27
1.0
 37
0.0
 76
0
330
231
345
0
346
0
  0
LAYOUT
  5
2BB
102
{ACAD_REACTORS
330
1A
102
}
100
AcDbPlotSettings
  1

  2
none_device
  4
ISO_A3_(420.00_x_297.00_MM)
  6

 40
0.0
 41
0.0
 42
0.0
 43
0.0
 44
420.0
 45
297.0
 46
0.0
 47
0.0
 48
0.0
 49
0.0
140
0.0
141
0.0
142
1.0
143
1.0
 70
0
 72
1
 73
0
 74
0
  7

 75
0
147
1.0
148
0.0
149
0.0
100
AcDbLayout
  1
Layout1
 70
0
 71
1
 10
0.0
 20
0.0
 11
420.0
 21
297.0
 12
0.0
 22
0.0
 32
0.0
 14
0.0
 24
0.0
 34
0.0
 15
0.0
 25
0.0
 35
0.0
146
0.0
 13
0.0
 23
0.0
 33
0.0
 16
1.0
 26
0.0
 36
0.0
 17
0.0
 27
1.0
 37
0.0
 76
0
330
232
345
0
346
0
  0
ENDSEC
  0
EOF
