999
DXF file: 200_a100-142-08-3-bmg.dxf
999
Pro/ENGINEER 2010430 by Parametric Technology Corporation
  0
SECTION
  2
HEADER
  9
$ACADVER
  1
AC1021
  9
$DWGCODEPAGE
  3
ANSI_1252
  9
$EXTMAX
 10
420.0
 20
297.0
 30
0.0
  9
$EXTMIN
 10
0.0
 20
0.0
 30
0.0
  9
$LIMMIN
 10
0.0
 20
0.0
  9
$LIMMAX
 10
420.0
 20
297.0
  9
$VIEWCTR
 10
210.0
 20
148.5
  9
$VIEWSIZE
 40
297.0
  9
$CLAYER
  8
0
  9
$LTSCALE
 40
23.1
  9
$CELTYPE
  6
BYLAYER
  9
$DIMSCALE
 40
1.0
  9
$DIMASZ
 40
3.5
  9
$DIMEXO
 40
2.625
  9
$DIMDLI
 40
15.96
  9
$DIMEXE
 40
7.56
  9
$DIMCEN
 40
3.78
  9
$DIMLFAC
 40
1.0
  9
$DIMBLK
  1
_FILLED
  9
$DIMTXT
 40
3.5
  9
$DIMTOL
 70
0
  9
$DIMLIM
 70
0
  9
$DIMTFAC
 40
1.0
  9
$PDMODE
 70
3
  9
$PDSIZE
 40
0.3125
  9
$HANDSEED
  5
331
  9
$TILEMODE
 70
1
  9
$MEASUREMENT
 70
1
  9
$INSUNITS
 70
4
  0
ENDSEC
  0
SECTION
  2
CLASSES
  0
CLASS
  1
ACDBDICTIONARYWDFLT
  2
AcDbDictionaryWithDefault
  3
AutoCAD 2000
 90
0
 91
1
280
0
281
0
  0
CLASS
  1
ACDBPLACEHOLDER
  2
AcDbPlaceHolder
  3
AutoCAD 2000
 90
0
 91
1
280
0
281
0
  0
CLASS
  1
LAYOUT
  2
AcDbLayout
  3
AutoCAD 2000
 90
0
 91
0
280
0
281
0
  0
ENDSEC
  0
SECTION
  2
TABLES
  0
TABLE
  2
VPORT
  5
8
100
AcDbSymbolTable
 70
2
  0
VPORT
  5
1F4
100
AcDbSymbolTableRecord
100
AcDbViewportTableRecord
  2
*ACTIVE
 70
0
 10
0.0
 20
0.0
 11
1.0
 21
1.0
 12
210.0
 22
148.5
 13
0.0
 23
0.0
 14
1.0
 24
1.0
 15
0.0
 25
0.0
 16
0.0
 26
0.0
 36
1.0
 17
0.0
 27
0.0
 37
0.0
 40
297.0
 41
1.4141414141
 42
50.0
 43
0.0
 44
0.0
 50
0.0
 51
0.0
 71
0
 72
100
 73
1
 74
1
 75
0
 76
0
 77
0
 78
0
  0
ENDTAB
  0
TABLE
  2
LTYPE
  5
5
100
AcDbSymbolTable
 70
6
  0
LTYPE
  5
14
100
AcDbSymbolTableRecord
100
AcDbLinetypeTableRecord
  2
BYBLOCK
 70
0
  3

 72
65
 73
0
 40
0.0
  0
LTYPE
  5
15
100
AcDbSymbolTableRecord
100
AcDbLinetypeTableRecord
  2
BYLAYER
 70
0
  3

 72
65
 73
0
 40
0.0
  0
LTYPE
  5
16
100
AcDbSymbolTableRecord
100
AcDbLinetypeTableRecord
  2
CONTINUOUS
 70
64
  3
Solid line
 72
65
 73
0
 40
0.0
  0
LTYPE
  5
1F5
100
AcDbSymbolTableRecord
100
AcDbLinetypeTableRecord
  2
CENTER
 70
64
  3
____ _ ____ _ ____ _ ____ _ ____ _ ____ _ ____
 72
65
 73
4
 40
0.6
 49
0.375
 74
0
 49
-0.075
 74
0
 49
0.075
 74
0
 49
-0.075
 74
0
  0
LTYPE
  5
1F6
100
AcDbSymbolTableRecord
100
AcDbLinetypeTableRecord
  2
HIDDEN
 70
64
  3
- - - - - - - - - - - - - - - - - - - -
 72
65
 73
2
 40
0.2
 49
0.1
 74
0
 49
-0.1
 74
0
  0
LTYPE
  5
1F7
100
AcDbSymbolTableRecord
100
AcDbLinetypeTableRecord
  2
PHANTOM
 70
64
  3
_____ _ _ _____ _ _ _____ _ _ _____
 72
65
 73
6
 40
0.8
 49
0.45
 74
0
 49
-0.05
 74
0
 49
0.1
 74
0
 49
-0.05
 74
0
 49
0.1
 74
0
 49
-0.05
 74
0
  0
LTYPE
  5
1F8
100
AcDbSymbolTableRecord
100
AcDbLinetypeTableRecord
  2
DOT
 70
64
  3
. . . . . . . . . . . . . . . . . . . .
 72
65
 73
2
 40
0.2
 49
0.1
 74
0
 49
-0.1
 74
0
  0
LTYPE
  5
1F9
100
AcDbSymbolTableRecord
100
AcDbLinetypeTableRecord
  2
DASHED
 70
64
  3
- - - - - - - - - - - - - - - - - - - -
 72
65
 73
2
 40
0.2
 49
0.1
 74
0
 49
-0.1
 74
0
  0
ENDTAB
  0
TABLE
  2
LAYER
  5
2
100
AcDbSymbolTable
 70
36
  0
LAYER
  5
10
100
AcDbSymbolTableRecord
100
AcDbLayerTableRecord
  2
0
 70
0
 62
7
  6
CONTINUOUS
370
-3
390
F
  0
LAYER
  5
1FA
100
AcDbSymbolTableRecord
100
AcDbLayerTableRecord
  2
DEFAULT_1
 70
0
 62
7
  6
CENTER
370
-3
390
F
  0
LAYER
  5
1FB
100
AcDbSymbolTableRecord
100
AcDbLayerTableRecord
  2
DEFAULT_2
 70
0
 62
8
  6
HIDDEN
370
-3
390
F
  0
LAYER
  5
1FC
100
AcDbSymbolTableRecord
100
AcDbLayerTableRecord
  2
DEFAULT_3
 70
0
 62
7
  6
PHANTOM
370
-3
390
F
  0
LAYER
  5
1FD
100
AcDbSymbolTableRecord
100
AcDbLayerTableRecord
  2
1
 70
0
 62
7
  6
CONTINUOUS
370
-3
390
F
  0
LAYER
  5
1FE
100
AcDbSymbolTableRecord
100
AcDbLayerTableRecord
  2
2
 70
0
 62
7
  6
CONTINUOUS
370
-3
390
F
  0
LAYER
  5
1FF
100
AcDbSymbolTableRecord
100
AcDbLayerTableRecord
  2
4
 70
0
 62
7
  6
CONTINUOUS
370
-3
390
F
  0
LAYER
  5
200
100
AcDbSymbolTableRecord
100
AcDbLayerTableRecord
  2
5
 70
0
 62
7
  6
CONTINUOUS
370
-3
390
F
  0
LAYER
  5
201
100
AcDbSymbolTableRecord
100
AcDbLayerTableRecord
  2
6
 70
0
 62
7
  6
CONTINUOUS
370
-3
390
F
  0
LAYER
  5
202
100
AcDbSymbolTableRecord
100
AcDbLayerTableRecord
  2
ACHSEN
 70
0
 62
7
  6
CONTINUOUS
370
-3
390
F
  0
LAYER
  5
203
100
AcDbSymbolTableRecord
100
AcDbLayerTableRecord
  2
ANALYSEN
 70
0
 62
7
  6
CONTINUOUS
370
-3
390
F
  0
LAYER
  5
204
100
AcDbSymbolTableRecord
100
AcDbLayerTableRecord
  2
AUFMASS_WEICHBEARBEITUNG
 70
0
 62
7
  6
CONTINUOUS
370
-3
390
F
  0
LAYER
  5
205
100
AcDbSymbolTableRecord
100
AcDbLayerTableRecord
  2
AUFMASS_WEICHBE_INNENKONTUR
 70
0
 62
7
  6
CONTINUOUS
370
-3
390
F
  0
LAYER
  5
206
100
AcDbSymbolTableRecord
100
AcDbLayerTableRecord
  2
AUSSENKONTUR
 70
0
 62
7
  6
CONTINUOUS
370
-3
390
F
  0
LAYER
  5
207
100
AcDbSymbolTableRecord
100
AcDbLayerTableRecord
  2
BEZUGSACHSEN
 70
0
 62
7
  6
CONTINUOUS
370
-3
390
F
  0
LAYER
  5
208
100
AcDbSymbolTableRecord
100
AcDbLayerTableRecord
  2
BEZUGSACHSENKENNZEICHEN
 70
0
 62
7
  6
CONTINUOUS
370
-3
390
F
  0
LAYER
  5
209
100
AcDbSymbolTableRecord
100
AcDbLayerTableRecord
  2
BEZUGSEBENEN
 70
0
 62
7
  6
CONTINUOUS
370
-3
390
F
  0
LAYER
  5
20A
100
AcDbSymbolTableRecord
100
AcDbLayerTableRecord
  2
BEZUGSEBENE_B
 70
0
 62
7
  6
CONTINUOUS
370
-3
390
F
  0
LAYER
  5
20B
100
AcDbSymbolTableRecord
100
AcDbLayerTableRecord
  2
BEZUGSPUNKTE
 70
0
 62
7
  6
CONTINUOUS
370
-3
390
F
  0
LAYER
  5
20C
100
AcDbSymbolTableRecord
100
AcDbLayerTableRecord
  2
BOHRUNGEN
 70
0
 62
7
  6
CONTINUOUS
370
-3
390
F
  0
LAYER
  5
20D
100
AcDbSymbolTableRecord
100
AcDbLayerTableRecord
  2
EBENEN
 70
0
 62
7
  6
CONTINUOUS
370
-3
390
F
  0
LAYER
  5
20E
100
AcDbSymbolTableRecord
100
AcDbLayerTableRecord
  2
FASEN
 70
0
 62
7
  6
CONTINUOUS
370
-3
390
F
  0
LAYER
  5
20F
100
AcDbSymbolTableRecord
100
AcDbLayerTableRecord
  2
FLAECHEN
 70
0
 62
7
  6
CONTINUOUS
370
-3
390
F
  0
LAYER
  5
210
100
AcDbSymbolTableRecord
100
AcDbLayerTableRecord
  2
FORM_LAGE_TOLERANZEN
 70
0
 62
7
  6
CONTINUOUS
370
-3
390
F
  0
LAYER
  5
211
100
AcDbSymbolTableRecord
100
AcDbLayerTableRecord
  2
GEWINDE
 70
0
 62
7
  6
CONTINUOUS
370
-3
390
F
  0
LAYER
  5
212
100
AcDbSymbolTableRecord
100
AcDbLayerTableRecord
  2
HILFEN
 70
0
 62
7
  6
CONTINUOUS
370
-3
390
F
  0
LAYER
  5
213
100
AcDbSymbolTableRecord
100
AcDbLayerTableRecord
  2
INNENKONTUR
 70
0
 62
7
  6
CONTINUOUS
370
-3
390
F
  0
LAYER
  5
214
100
AcDbSymbolTableRecord
100
AcDbLayerTableRecord
  2
KOORDINATENSYSTEME
 70
0
 62
7
  6
CONTINUOUS
370
-3
390
F
  0
LAYER
  5
215
100
AcDbSymbolTableRecord
100
AcDbLayerTableRecord
  2
KOORDSYS
 70
0
 62
7
  6
CONTINUOUS
370
-3
390
F
  0
LAYER
  5
216
100
AcDbSymbolTableRecord
100
AcDbLayerTableRecord
  2
KURVEN
 70
0
 62
7
  6
CONTINUOUS
370
-3
390
F
  0
LAYER
  5
217
100
AcDbSymbolTableRecord
100
AcDbLayerTableRecord
  2
KURVE_FUER_GTOL_DETAILANSICHT
 70
0
 62
7
  6
CONTINUOUS
370
-3
390
F
  0
LAYER
  5
218
100
AcDbSymbolTableRecord
100
AcDbLayerTableRecord
  2
KURVE_GAUGE2_POLIGON_INNENEINST
 70
0
 62
7
  6
CONTINUOUS
370
-3
390
F
  0
LAYER
  5
219
100
AcDbSymbolTableRecord
100
AcDbLayerTableRecord
  2
KURVE_PHANTOM1_GAUGE_PIN_1
 70
0
 62
7
  6
CONTINUOUS
370
-3
390
F
  0
LAYER
  5
21A
100
AcDbSymbolTableRecord
100
AcDbLayerTableRecord
  2
KURVE_PHANTOM2_GAUGE_PIN1
 70
0
 62
7
  6
CONTINUOUS
370
-3
390
F
  0
LAYER
  5
21B
100
AcDbSymbolTableRecord
100
AcDbLayerTableRecord
  2
KURVE_POLIGON_BEMASUNG
 70
0
 62
7
  6
CONTINUOUS
370
-3
390
F
  0
LAYER
  5
21C
100
AcDbSymbolTableRecord
100
AcDbLayerTableRecord
  2
NOCUT
 70
0
 62
7
  6
CONTINUOUS
370
-3
390
F
  0
LAYER
  5
21D
100
AcDbSymbolTableRecord
100
AcDbLayerTableRecord
  2
PLATZIERUNG
 70
0
 62
7
  6
CONTINUOUS
370
-3
390
F
  0
LAYER
  5
21E
100
AcDbSymbolTableRecord
100
AcDbLayerTableRecord
  2
PUNKTE
 70
0
 62
7
  6
CONTINUOUS
370
-3
390
F
  0
LAYER
  5
21F
100
AcDbSymbolTableRecord
100
AcDbLayerTableRecord
  2
RUNDUNGEN
 70
0
 62
7
  6
CONTINUOUS
370
-3
390
F
  0
LAYER
  5
220
100
AcDbSymbolTableRecord
100
AcDbLayerTableRecord
  2
SK1
 70
0
 62
7
  6
CONTINUOUS
370
-3
390
F
  0
LAYER
  5
221
100
AcDbSymbolTableRecord
100
AcDbLayerTableRecord
  2
SK2
 70
0
 62
7
  6
CONTINUOUS
370
-3
390
F
  0
LAYER
  5
222
100
AcDbSymbolTableRecord
100
AcDbLayerTableRecord
  2
SK4
 70
0
 62
7
  6
CONTINUOUS
370
-3
390
F
  0
LAYER
  5
223
100
AcDbSymbolTableRecord
100
AcDbLayerTableRecord
  2
S_ACHSEN
 70
0
 62
7
  6
CONTINUOUS
370
-3
390
F
  0
LAYER
  5
224
100
AcDbSymbolTableRecord
100
AcDbLayerTableRecord
  2
S_EBENEN
 70
0
 62
7
  6
CONTINUOUS
370
-3
390
F
  0
LAYER
  5
225
100
AcDbSymbolTableRecord
100
AcDbLayerTableRecord
  2
S_KOORDSYS
 70
0
 62
7
  6
CONTINUOUS
370
-3
390
F
  0
LAYER
  5
226
100
AcDbSymbolTableRecord
100
AcDbLayerTableRecord
  2
TEIL_STARTBEZUEGE
 70
0
 62
7
  6
CONTINUOUS
370
-3
390
F
  0
LAYER
  5
227
100
AcDbSymbolTableRecord
100
AcDbLayerTableRecord
  2
TOL_BEZUEGE
 70
0
 62
7
  6
CONTINUOUS
370
-3
390
F
  0
LAYER
  5
228
100
AcDbSymbolTableRecord
100
AcDbLayerTableRecord
  2
VERBFLAECHE
 70
0
 62
7
  6
CONTINUOUS
370
-3
390
F
  0
LAYER
  5
229
100
AcDbSymbolTableRecord
100
AcDbLayerTableRecord
  2
VERERBUNG
 70
0
 62
7
  6
CONTINUOUS
370
-3
390
F
  0
LAYER
  5
22A
100
AcDbSymbolTableRecord
100
AcDbLayerTableRecord
  2
VOLGEOM
 70
0
 62
7
  6
CONTINUOUS
370
-3
390
F
  0
LAYER
  5
22B
100
AcDbSymbolTableRecord
100
AcDbLayerTableRecord
  2
VOLUMEN
 70
0
 62
7
  6
CONTINUOUS
370
-3
390
F
  0
LAYER
  5
22C
100
AcDbSymbolTableRecord
100
AcDbLayerTableRecord
  2
XSEC_DATUMS
 70
0
 62
7
  6
CONTINUOUS
370
-3
390
F
  0
LAYER
  5
22D
100
AcDbSymbolTableRecord
100
AcDbLayerTableRecord
  2
ZEICHNUNG
 70
0
 62
7
  6
CONTINUOUS
370
-3
390
F
  0
ENDTAB
  0
TABLE
  2
STYLE
  5
3
100
AcDbSymbolTable
 70
1
  0
STYLE
  5
11
100
AcDbSymbolTableRecord
100
AcDbTextStyleTableRecord
  2
STANDARD
 70
0
 40
0.0
 41
0.7
 50
0.0
 71
0
 42
0.2
  3
txt
  4

  0
STYLE
  5
22E
100
AcDbSymbolTableRecord
100
AcDbTextStyleTableRecord
  2
TEXTSTYLE_1
 70
0
 40
0.0
 41
0.8
 50
0.0
 71
0
 42
0.2
  3
gdt
  4

  0
STYLE
  5
22F
100
AcDbSymbolTableRecord
100
AcDbTextStyleTableRecord
  2
TEXTSTYLE_2
 70
0
 40
0.0
 41
0.7
 50
0.0
 71
0
 42
0.2
  3
gdt
  4

  0
ENDTAB
  0
TABLE
  2
VIEW
  5
6
100
AcDbSymbolTable
 70
0
  0
ENDTAB
  0
TABLE
  2
UCS
  5
7
100
AcDbSymbolTable
 70
0
  0
ENDTAB
  0
TABLE
  2
APPID
  5
9
100
AcDbSymbolTable
 70
1
  0
APPID
  5
230
100
AcDbSymbolTableRecord
100
AcDbRegAppTableRecord
  2
ACAD
 70
0
  0
ENDTAB
  0
TABLE
  2
BLOCK_RECORD
  5
1
100
AcDbSymbolTable
 70
0
  0
BLOCK_RECORD
  5
231
100
AcDbSymbolTableRecord
100
AcDbBlockTableRecord
  2
*Model_Space
  0
BLOCK_RECORD
  5
232
100
AcDbSymbolTableRecord
100
AcDbBlockTableRecord
  2
*Paper_Space
  0
BLOCK_RECORD
  5
233
100
AcDbSymbolTableRecord
100
AcDbBlockTableRecord
  2
_FILLED
  0
BLOCK_RECORD
  5
234
100
AcDbSymbolTableRecord
100
AcDbBlockTableRecord
  2
*D0
  0
BLOCK_RECORD
  5
235
100
AcDbSymbolTableRecord
100
AcDbBlockTableRecord
  2
*D1
  0
BLOCK_RECORD
  5
236
100
AcDbSymbolTableRecord
100
AcDbBlockTableRecord
  2
*D2
  0
BLOCK_RECORD
  5
237
100
AcDbSymbolTableRecord
100
AcDbBlockTableRecord
  2
*D3
  0
BLOCK_RECORD
  5
238
100
AcDbSymbolTableRecord
100
AcDbBlockTableRecord
  2
*D4
  0
BLOCK_RECORD
  5
239
100
AcDbSymbolTableRecord
100
AcDbBlockTableRecord
  2
*D5
  0
BLOCK_RECORD
  5
23A
100
AcDbSymbolTableRecord
100
AcDbBlockTableRecord
  2
*D6
  0
BLOCK_RECORD
  5
23B
100
AcDbSymbolTableRecord
100
AcDbBlockTableRecord
  2
*D7
  0
ENDTAB
  0
TABLE
  2
DIMSTYLE
  5
A
100
AcDbSymbolTable
 70
1
100
AcDbDimStyleTable
 71
0
  0
DIMSTYLE
105
23C
100
AcDbSymbolTableRecord
100
AcDbDimStyleTableRecord
  2
STANDARD
 70
0
  3

  4

 40
1.0
 41
3.5
 42
0.0625
 43
0.38
 44
0.18
 45
0.0
 46
0.0
 47
0.005
 48
0.005
140
3.5
141
0.09
142
0.0
143
25.4
144
1.0
145
0.0
146
1.0
147
0.09
 71
0.0
 72
0.0
 73
0
 74
0
 75
0
 76
0
 77
1
 78
8
170
0
171
2
172
0
173
0
174
0
175
0
176
0
177
0
178
5
270
2
271
3
272
3
273
2
274
2
275
0
280
0
281
0
282
0
283
1
284
8
285
0
286
0
287
3
288
0
340
11
341
233
342
233
343
233
344
233
  0
DIMSTYLE
105
23D
100
AcDbSymbolTableRecord
100
AcDbDimStyleTableRecord
  2
DIMSTYLE_1
 70
0
  3

  4

 40
1.0
 41
3.5
 42
0.0625
 43
0.38
 44
0.18
 45
0.0
 46
0.0
 47
0.0
 48
0.0
140
3.5
141
0.09
142
0.0
143
25.4
144
1.0
145
0.0
146
1.0
147
0.09
 71
0.0
 72
0.0
 73
0
 74
0
 75
0
 76
0
 77
1
 78
8
170
0
171
2
172
0
173
0
174
0
175
0
176
0
177
0
178
5
270
2
271
3
272
3
273
2
274
2
275
0
280
0
281
0
282
0
283
1
284
8
285
0
286
0
287
3
288
0
340
11
341
233
342
233
343
233
344
233
  0
DIMSTYLE
105
23E
100
AcDbSymbolTableRecord
100
AcDbDimStyleTableRecord
  2
DIMSTYLE_2
 70
0
  3

  4

 40
1.0
 41
3.5
 42
0.0625
 43
0.38
 44
0.18
 45
0.0
 46
0.0
 47
0.0
 48
0.0
140
3.5
141
0.09
142
0.0
143
25.4
144
1.0
145
0.0
146
1.0
147
0.09
 71
0.0
 72
0.0
 73
0
 74
0
 75
0
 76
0
 77
1
 78
8
170
0
171
2
172
0
173
0
174
0
175
0
176
0
177
0
178
5
270
2
271
2
272
2
273
2
274
2
275
0
280
0
281
0
282
0
283
1
284
8
285
0
286
0
287
3
288
0
340
11
341
233
342
233
343
233
344
233
  0
DIMSTYLE
105
23F
100
AcDbSymbolTableRecord
100
AcDbDimStyleTableRecord
  2
DIMSTYLE_3
 70
0
  3

  4

 40
1.0
 41
3.5
 42
0.0625
 43
0.38
 44
0.18
 45
0.0
 46
0.0
 47
0.0
 48
0.0
140
3.5
141
0.09
142
0.0
143
25.4
144
1.0
145
0.0
146
1.0
147
0.09
 71
0.0
 72
0.0
 73
0
 74
0
 75
0
 76
0
 77
1
 78
8
170
0
171
2
172
0
173
0
174
0
175
0
176
0
177
0
178
5
270
2
271
2
272
2
273
2
274
2
275
0
280
0
281
0
282
0
283
1
284
8
285
0
286
0
287
3
288
0
340
11
341
233
342
233
343
233
344
233
  0
DIMSTYLE
105
240
100
AcDbSymbolTableRecord
100
AcDbDimStyleTableRecord
  2
DIMSTYLE_4
 70
0
  3

  4

 40
1.0
 41
3.5
 42
0.0625
 43
0.38
 44
0.18
 45
0.0
 46
0.0
 47
0.0
 48
0.0
140
3.5
141
0.09
142
0.0
143
25.4
144
1.0
145
0.0
146
1.0
147
0.09
 71
0.0
 72
0.0
 73
0
 74
0
 75
0
 76
0
 77
1
 78
8
170
0
171
2
172
0
173
0
174
0
175
0
176
0
177
0
178
5
270
2
271
2
272
2
273
2
274
2
275
0
280
0
281
0
282
0
283
1
284
8
285
0
286
0
287
3
288
0
340
11
341
233
342
233
343
233
344
233
  0
ENDTAB
  0
ENDSEC
  0
SECTION
  2
BLOCKS
  0
BLOCK
  5
20
100
AcDbEntity
  8
0
100
AcDbBlockBegin
  2
*Model_Space
 70
0
 10
0.0
 20
0.0
 30
0.0
  3
*Model_Space
  1

  0
ENDBLK
  5
21
100
AcDbEntity
  8
0
100
AcDbBlockEnd
  0
BLOCK
  5
1C
100
AcDbEntity
  8
0
100
AcDbBlockBegin
  2
*Paper_Space
 70
0
 10
0.0
 20
0.0
 30
0.0
  3
*Paper_Space
  1

  0
ENDBLK
  5
1D
100
AcDbEntity
  8
0
100
AcDbBlockEnd
  0
BLOCK
  5
241
100
AcDbEntity
  8
0
100
AcDbBlockBegin
  2
_FILLED
 70
64
 10
0.0
 20
0.0
  3
_FILLED
  1

  0
SOLID
  5
242
100
AcDbEntity
  8
0
  6
BYBLOCK
 62
0
100
AcDbTrace
 10
0.0
 20
0.0
 11
-1.0
 21
0.125
 12
-1.0
 22
-0.125
 13
-1.0
 23
-0.125
  0
ENDBLK
  5
243
100
AcDbEntity
  8
0
  6
BYBLOCK
 62
0
100
AcDbBlockEnd
  0
BLOCK
  5
244
100
AcDbEntity
  8
2
100
AcDbBlockBegin
 62
2
  6
CONTINUOUS
  2
*D0
 70
65
 10
0.0
 20
0.0
  3
*D0
  1

  0
MTEXT
  5
245
100
AcDbEntity
  8
2
100
AcDbMText
 62
5
  6
CONTINUOUS
  7
TEXTSTYLE_2
 71
3
 72
1
 10
316.9858756249
 20
141.7113799966
 30
0.0
 11
0.0
 21
1.0
 31
0.0
 44
0.9
  1
{\Fgdt;n}\Ftxt;8
 40
3.5
 41
7.4166666667
  0
LINE
  5
246
100
AcDbEntity
  8
2
100
AcDbLine
 62
2
  6
CONTINUOUS
 10
311.8108756249
 20
151.1804378124
 11
322.8608756249
 21
151.1804378124
  0
LINE
  5
247
100
AcDbEntity
  8
2
100
AcDbLine
 62
2
  6
CONTINUOUS
 10
311.8108756249
 20
159.1804378124
 11
322.8608756249
 21
159.1804378124
  0
LINE
  5
248
100
AcDbEntity
  8
2
100
AcDbLine
 62
2
  6
CONTINUOUS
 10
321.3608756249
 20
151.1804378124
 11
321.3608756249
 21
134.2947133299
  0
LINE
  5
249
100
AcDbEntity
  8
2
100
AcDbLine
 62
2
  6
CONTINUOUS
 10
321.3608756249
 20
134.2947133299
 11
321.3608756249
 21
155.1804378124
  0
LINE
  5
24A
100
AcDbEntity
  8
2
100
AcDbLine
 62
2
  6
CONTINUOUS
 10
321.3608756249
 20
159.1804378124
 11
321.3608756249
 21
165.1804378124
  0
LINE
  5
24B
100
AcDbEntity
  8
2
100
AcDbLine
 62
2
  6
CONTINUOUS
 10
321.3608756249
 20
165.1804378124
 11
321.3608756249
 21
155.1804378124
  0
INSERT
  5
24C
100
AcDbEntity
  8
2
100
AcDbBlockReference
 62
2
  6
CONTINUOUS
  2
_FILLED
 10
321.3608756249
 20
151.1804378124
 41
3.5
 42
3.5
 43
3.5
 50
90.0
  0
INSERT
  5
24D
100
AcDbEntity
  8
2
100
AcDbBlockReference
 62
2
  6
CONTINUOUS
  2
_FILLED
 10
321.3608756249
 20
159.1804378124
 41
3.5
 42
3.5
 43
3.5
 50
270.0
  0
ENDBLK
  5
24E
100
AcDbEntity
  8
0
  6
BYBLOCK
 62
0
100
AcDbBlockEnd
  0
BLOCK
  5
24F
100
AcDbEntity
  8
SK2
100
AcDbBlockBegin
 62
2
  6
CONTINUOUS
  2
*D1
 70
65
 10
0.0
 20
0.0
  3
*D1
  1

  0
MTEXT
  5
250
100
AcDbEntity
  8
SK2
100
AcDbMText
 62
5
  6
CONTINUOUS
  7
TEXTSTYLE_2
 71
2
 72
1
 10
323.9858756249
 20
155.1804378124
 30
0.0
 11
0.0
 21
1.0
 31
0.0
 44
0.9
  1
{\Fgdt;n}\Ftxt;21
 40
3.5
 41
9.4166666667
  0
LINE
  5
251
100
AcDbEntity
  8
SK2
100
AcDbLine
 62
2
  6
CONTINUOUS
 10
311.8108756249
 20
144.6804378124
 11
318.3608756249
 21
144.6804378124
  0
LINE
  5
252
100
AcDbEntity
  8
SK2
100
AcDbLine
 62
2
  6
CONTINUOUS
 10
324.3608756249
 20
144.6804378124
 11
329.8608756249
 21
144.6804378124
  0
LINE
  5
253
100
AcDbEntity
  8
SK2
100
AcDbLine
 62
2
  6
CONTINUOUS
 10
311.8108756249
 20
165.6804378124
 11
329.8608756249
 21
165.6804378124
  0
LINE
  5
254
100
AcDbEntity
  8
SK2
100
AcDbLine
 62
2
  6
CONTINUOUS
 10
328.3608756249
 20
144.6804378124
 11
328.3608756249
 21
155.1804378124
  0
LINE
  5
255
100
AcDbEntity
  8
SK2
100
AcDbLine
 62
2
  6
CONTINUOUS
 10
328.3608756249
 20
165.6804378124
 11
328.3608756249
 21
155.1804378124
  0
INSERT
  5
256
100
AcDbEntity
  8
SK2
100
AcDbBlockReference
 62
2
  6
CONTINUOUS
  2
_FILLED
 10
328.3608756249
 20
144.6804378124
 41
3.5
 42
3.5
 43
3.5
 50
270.0
  0
INSERT
  5
257
100
AcDbEntity
  8
SK2
100
AcDbBlockReference
 62
2
  6
CONTINUOUS
  2
_FILLED
 10
328.3608756249
 20
165.6804378124
 41
3.5
 42
3.5
 43
3.5
 50
90.0
  0
ENDBLK
  5
258
100
AcDbEntity
  8
0
  6
BYBLOCK
 62
0
100
AcDbBlockEnd
  0
BLOCK
  5
259
100
AcDbEntity
  8
SK2
100
AcDbBlockBegin
 62
2
  6
CONTINUOUS
  2
*D2
 70
65
 10
0.0
 20
0.0
  3
*D2
  1

  0
MTEXT
  5
25A
100
AcDbEntity
  8
SK2
100
AcDbMText
 62
5
  6
CONTINUOUS
  7
STANDARD
 71
2
 72
1
 10
244.8108756249
 20
220.5554378124
 30
0.0
 11
1.0
 21
0.0
 31
0.0
 44
0.9
  1
131
 40
3.5
 41
6.5
  0
LINE
  5
25B
100
AcDbEntity
  8
SK2
100
AcDbLine
 62
2
  6
CONTINUOUS
 10
179.3108756249
 20
206.1804378124
 11
179.3108756249
 21
217.6804378124
  0
LINE
  5
25C
100
AcDbEntity
  8
SK2
100
AcDbLine
 62
2
  6
CONTINUOUS
 10
310.3108756249
 20
166.2560473208
 11
310.3108756249
 21
217.6804378124
  0
LINE
  5
25D
100
AcDbEntity
  8
SK2
100
AcDbLine
 62
2
  6
CONTINUOUS
 10
179.3108756249
 20
216.1804378124
 11
244.8108756249
 21
216.1804378124
  0
LINE
  5
25E
100
AcDbEntity
  8
SK2
100
AcDbLine
 62
2
  6
CONTINUOUS
 10
310.3108756249
 20
216.1804378124
 11
244.8108756249
 21
216.1804378124
  0
INSERT
  5
25F
100
AcDbEntity
  8
SK2
100
AcDbBlockReference
 62
2
  6
CONTINUOUS
  2
_FILLED
 10
179.3108756249
 20
216.1804378124
 41
3.5
 42
3.5
 43
3.5
 50
180.0
  0
INSERT
  5
260
100
AcDbEntity
  8
SK2
100
AcDbBlockReference
 62
2
  6
CONTINUOUS
  2
_FILLED
 10
310.3108756249
 20
216.1804378124
 41
3.5
 42
3.5
 43
3.5
  0
ENDBLK
  5
261
100
AcDbEntity
  8
0
  6
BYBLOCK
 62
0
100
AcDbBlockEnd
  0
BLOCK
  5
262
100
AcDbEntity
  8
2
100
AcDbBlockBegin
 62
2
  6
CONTINUOUS
  2
*D3
 70
65
 10
0.0
 20
0.0
  3
*D3
  1

  0
MTEXT
  5
263
100
AcDbEntity
  8
2
100
AcDbMText
 62
5
  6
CONTINUOUS
  7
STANDARD
 71
2
 72
1
 10
230.3108756249
 20
227.5554378124
 30
0.0
 11
1.0
 21
0.0
 31
0.0
 44
0.9
  1
160
 40
3.5
 41
7.5
  0
LINE
  5
264
100
AcDbEntity
  8
2
100
AcDbLine
 62
2
  6
CONTINUOUS
 10
310.3108756249
 20
166.2560473208
 11
310.3108756249
 21
224.6804378124
  0
LINE
  5
265
100
AcDbEntity
  8
2
100
AcDbLine
 62
2
  6
CONTINUOUS
 10
150.3108756249
 20
206.1804378124
 11
150.3108756249
 21
224.6804378124
  0
LINE
  5
266
100
AcDbEntity
  8
2
100
AcDbLine
 62
2
  6
CONTINUOUS
 10
310.3108756249
 20
223.1804378124
 11
230.3108756249
 21
223.1804378124
  0
LINE
  5
267
100
AcDbEntity
  8
2
100
AcDbLine
 62
2
  6
CONTINUOUS
 10
150.3108756249
 20
223.1804378124
 11
230.3108756249
 21
223.1804378124
  0
INSERT
  5
268
100
AcDbEntity
  8
2
100
AcDbBlockReference
 62
2
  6
CONTINUOUS
  2
_FILLED
 10
310.3108756249
 20
223.1804378124
 41
3.5
 42
3.5
 43
3.5
  0
INSERT
  5
269
100
AcDbEntity
  8
2
100
AcDbBlockReference
 62
2
  6
CONTINUOUS
  2
_FILLED
 10
150.3108756249
 20
223.1804378124
 41
3.5
 42
3.5
 43
3.5
 50
180.0
  0
ENDBLK
  5
26A
100
AcDbEntity
  8
0
  6
BYBLOCK
 62
0
100
AcDbBlockEnd
  0
BLOCK
  5
26B
100
AcDbEntity
  8
SK2
100
AcDbBlockBegin
 62
2
  6
CONTINUOUS
  2
*D4
 70
65
 10
0.0
 20
0.0
  3
*D4
  1

  0
MTEXT
  5
26C
100
AcDbEntity
  8
SK2
100
AcDbMText
 62
5
  6
CONTINUOUS
  7
STANDARD
 71
2
 72
1
 10
205.3608756249
 20
234.5554378124
 30
0.0
 11
1.0
 21
0.0
 31
0.0
 44
0.9
  1
210
 40
3.5
 41
7.5
  0
LINE
  5
26D
100
AcDbEntity
  8
SK2
100
AcDbLine
 62
2
  6
CONTINUOUS
 10
310.3108756249
 20
166.2560473208
 11
310.3108756249
 21
231.6804378124
  0
LINE
  5
26E
100
AcDbEntity
  8
SK2
100
AcDbLine
 62
2
  6
CONTINUOUS
 10
100.4108756249
 20
165.1804378124
 11
100.4108756249
 21
231.6804378124
  0
LINE
  5
26F
100
AcDbEntity
  8
SK2
100
AcDbLine
 62
2
  6
CONTINUOUS
 10
310.3108756249
 20
230.1804378124
 11
205.3608756249
 21
230.1804378124
  0
LINE
  5
270
100
AcDbEntity
  8
SK2
100
AcDbLine
 62
2
  6
CONTINUOUS
 10
100.4108756249
 20
230.1804378124
 11
205.3608756249
 21
230.1804378124
  0
INSERT
  5
271
100
AcDbEntity
  8
SK2
100
AcDbBlockReference
 62
2
  6
CONTINUOUS
  2
_FILLED
 10
310.3108756249
 20
230.1804378124
 41
3.5
 42
3.5
 43
3.5
  0
INSERT
  5
272
100
AcDbEntity
  8
SK2
100
AcDbBlockReference
 62
2
  6
CONTINUOUS
  2
_FILLED
 10
100.4108756249
 20
230.1804378124
 41
3.5
 42
3.5
 43
3.5
 50
180.0
  0
ENDBLK
  5
273
100
AcDbEntity
  8
0
  6
BYBLOCK
 62
0
100
AcDbBlockEnd
  0
BLOCK
  5
274
100
AcDbEntity
  8
SK2
100
AcDbBlockBegin
 62
2
  6
CONTINUOUS
  2
*D5
 70
65
 10
0.0
 20
0.0
  3
*D5
  1

  0
MTEXT
  5
275
100
AcDbEntity
  8
SK2
100
AcDbMText
 62
5
  6
CONTINUOUS
  7
STANDARD
 71
1
 72
1
 10
312.4084513115
 20
172.5700634489
 30
0.0
 11
0.7985195092
 21
0.6019689306
 31
0.0
 44
0.9
  1
R1
 40
3.5
 41
4.75
  0
LINE
  5
276
100
AcDbEntity
  8
SK2
100
AcDbLine
 62
2
  6
CONTINUOUS
 10
310.1093951341
 20
165.3580162514
 11
318.8350330517
 21
171.9358930166
  0
INSERT
  5
277
100
AcDbEntity
  8
SK2
100
AcDbBlockReference
 62
2
  6
CONTINUOUS
  2
_FILLED
 10
310.1093951341
 20
165.3580162514
 41
3.5
 42
3.5
 43
3.5
 50
217.0110424444
  0
ENDBLK
  5
278
100
AcDbEntity
  8
0
  6
BYBLOCK
 62
0
100
AcDbBlockEnd
  0
BLOCK
  5
279
100
AcDbEntity
  8
2
100
AcDbBlockBegin
 62
2
  6
CONTINUOUS
  2
*D6
 70
65
 10
0.0
 20
0.0
  3
*D6
  1

  0
MTEXT
  5
27A
100
AcDbEntity
  8
2
100
AcDbMText
 62
5
  6
CONTINUOUS
  7
TEXTSTYLE_2
 71
2
 72
1
 10
330.9858756249
 20
155.1804378124
 30
0.0
 11
0.0
 21
1.0
 31
0.0
 44
0.9
  1
{\Fgdt;n}\Ftxt;83
 40
3.5
 41
9.9166666667
  0
LINE
  5
27B
100
AcDbEntity
  8
2
100
AcDbLine
 62
2
  6
CONTINUOUS
 10
181.8108756249
 20
196.6554378124
 11
336.8608756249
 21
196.6554378124
  0
LINE
  5
27C
100
AcDbEntity
  8
2
100
AcDbLine
 62
2
  6
CONTINUOUS
 10
181.8108756249
 20
113.7054378124
 11
336.8608756249
 21
113.7054378124
  0
LINE
  5
27D
100
AcDbEntity
  8
2
100
AcDbLine
 62
2
  6
CONTINUOUS
 10
335.3608756249
 20
196.6554378124
 11
335.3608756249
 21
155.1804378124
  0
LINE
  5
27E
100
AcDbEntity
  8
2
100
AcDbLine
 62
2
  6
CONTINUOUS
 10
335.3608756249
 20
113.7054378124
 11
335.3608756249
 21
155.1804378124
  0
INSERT
  5
27F
100
AcDbEntity
  8
2
100
AcDbBlockReference
 62
2
  6
CONTINUOUS
  2
_FILLED
 10
335.3608756249
 20
196.6554378124
 41
3.5
 42
3.5
 43
3.5
 50
90.0
  0
INSERT
  5
280
100
AcDbEntity
  8
2
100
AcDbBlockReference
 62
2
  6
CONTINUOUS
  2
_FILLED
 10
335.3608756249
 20
113.7054378124
 41
3.5
 42
3.5
 43
3.5
 50
270.0
  0
ENDBLK
  5
281
100
AcDbEntity
  8
0
  6
BYBLOCK
 62
0
100
AcDbBlockEnd
  0
BLOCK
  5
282
100
AcDbEntity
  8
SK2
100
AcDbBlockBegin
 62
2
  6
CONTINUOUS
  2
*D7
 70
65
 10
0.0
 20
0.0
  3
*D7
  1

  0
MTEXT
  5
283
100
AcDbEntity
  8
SK2
100
AcDbMText
 62
5
  6
CONTINUOUS
  7
STANDARD
 71
2
 72
1
 10
289.3662723712
 20
182.5280529156
 30
0.0
 11
0.0392598158
 21
0.9992290362
 31
0.0
 44
0.9
  1
4.5\Fgdt;{\Fgdt;~}
 40
3.5
 41
9.5833333333
  0
LINE
  5
284
100
AcDbEntity
  8
SK2
100
AcDbLine
 62
2
  6
CONTINUOUS
 10
296.3608756249
 20
166.7783266226
 11
293.9571126496
 21
166.9675068716
  0
LINE
  5
285
100
AcDbEntity
  8
SK2
100
AcDbLine
 62
2
  6
CONTINUOUS
 10
296.3608756249
 20
197.6804378124
 11
298.1638269928
 21
197.6804378124
  0
ARC
  5
286
100
AcDbEntity
  8
SK2
100
AcDbCircle
 62
2
  6
CONTINUOUS
 10
-96.2876759327
 20
197.6804378124
 40
392.9515029255
100
AcDbArc
 50
355.5
 51
357.75
  0
ARC
  5
287
100
AcDbEntity
  8
SK2
100
AcDbCircle
 62
2
  6
CONTINUOUS
 10
-96.2876759327
 20
197.6804378124
 40
392.9515029255
100
AcDbArc
 50
357.75
 51
360.0
  0
SOLID
  5
288
100
AcDbEntity
  8
SK2
100
AcDbTrace
 62
2
  6
CONTINUOUS
 10
295.2752538211
 20
170.3726003764
 11
295.4524886502
 21
166.849818228
 12
296.1478535754
 22
170.3078341144
 13
296.1478535754
 23
170.3078341144
  0
SOLID
  5
289
100
AcDbEntity
  8
SK2
100
AcDbTrace
 62
2
  6
CONTINUOUS
 10
297.0857355405
 20
194.1785241317
 11
296.6638269928
 21
197.6804378124
 12
296.2107442177
 22
194.1824209101
 13
296.2107442177
 23
194.1824209101
  0
ENDBLK
  5
28A
100
AcDbEntity
  8
0
  6
BYBLOCK
 62
0
100
AcDbBlockEnd
  0
ENDSEC
  0
SECTION
  2
ENTITIES
  0
DIMENSION
  5
28B
100
AcDbEntity
  8
2
100
AcDbDimension
 62
2
  6
CONTINUOUS
  2
*D0
 10
321.3608756249
 20
159.1804378124
 11
320.3974819514
 21
134.6878090357
 70
160
 71
3
 42
8.0
  1
%%c<>
  3
DIMSTYLE_1
100
AcDbAlignedDimension
 13
311.8108756249
 23
151.1804378124
 14
311.8108756249
 24
159.1804378124
 50
90.0
100
AcDbRotatedDimension
  0
DIMENSION
  5
28C
100
AcDbEntity
  8
SK2
100
AcDbDimension
 62
2
  6
CONTINUOUS
  2
*D1
 10
328.3608756249
 20
165.6804378124
 11
326.7907155962
 21
153.0758206669
 70
160
 71
2
 42
21.0
  1
%%c<>
  3
DIMSTYLE_2
100
AcDbAlignedDimension
 13
311.8108756249
 23
144.6804378124
 14
311.8108756249
 24
165.6804378124
 50
90.0
100
AcDbRotatedDimension
  0
DIMENSION
  5
28D
100
AcDbEntity
  8
SK2
100
AcDbDimension
 62
2
  6
CONTINUOUS
  2
*D2
 10
310.3108756249
 20
216.1804378124
 11
241.5608756249
 21
218.8054378124
 70
160
 71
2
 42
131.0
  3
DIMSTYLE_2
100
AcDbAlignedDimension
 13
179.3108756249
 23
206.1804378124
 14
310.3108756249
 24
166.2560473208
100
AcDbRotatedDimension
  0
DIMENSION
  5
28E
100
AcDbEntity
  8
2
100
AcDbDimension
 62
2
  6
CONTINUOUS
  2
*D3
 10
150.3108756249
 20
223.1804378124
 11
226.5608756249
 21
225.8054378124
 70
160
 71
2
 42
160.0
  3
DIMSTYLE_2
100
AcDbAlignedDimension
 13
310.3108756249
 23
166.2560473208
 14
150.3108756249
 24
206.1804378124
 50
180.0
100
AcDbRotatedDimension
  0
DIMENSION
  5
28F
100
AcDbEntity
  8
SK2
100
AcDbDimension
 62
2
  6
CONTINUOUS
  2
*D4
 10
100.4108756249
 20
230.1804378124
 11
201.6108756249
 21
232.8054378124
 70
160
 71
2
 42
209.9
  3
DIMSTYLE_2
100
AcDbAlignedDimension
 13
310.3108756249
 23
166.2560473208
 14
100.4108756249
 24
165.1804378124
 50
180.0
100
AcDbRotatedDimension
  0
DIMENSION
  5
290
100
AcDbEntity
  8
SK2
100
AcDbDimension
 62
2
  6
CONTINUOUS
  2
*D5
 10
309.3108756249
 20
164.7560473208
 11
315.3583807745
 21
172.602330518
 70
164
 71
1
 42
1.0
  1
<>
  3
DIMSTYLE_3
100
AcDbRadialDimension
 15
310.1093951341
 25
165.3580162514
  0
DIMENSION
  5
291
100
AcDbEntity
  8
2
100
AcDbDimension
 62
2
  6
CONTINUOUS
  2
*D6
 10
335.3608756249
 20
113.7054378124
 11
333.8467247982
 21
152.9640710839
 70
160
 71
2
 42
82.95
  1
%%c<>
  3
DIMSTYLE_2
100
AcDbAlignedDimension
 13
181.8108756249
 23
196.6554378124
 14
181.8108756249
 24
113.7054378124
 50
270.0
100
AcDbRotatedDimension
  0
DIMENSION
  5
292
100
AcDbEntity
  8
SK2
100
AcDbDimension
 62
2
  6
CONTINUOUS
  2
*D7
 10
298.1638269928
 20
197.6804378124
 11
288.7740433949
 21
182.9695434667
 70
162
 71
2
 42
0.0785398163
  3
DIMSTYLE_4
100
AcDb2LineAngularDimension
 13
293.9571126496
 23
166.9675068716
 14
296.3608756249
 24
166.7783266226
 15
296.3608756249
 25
197.6804378124
 16
296.3608756249
 26
182.2532342053
  0
MTEXT
  5
293
100
AcDbEntity
  8
6
100
AcDbMText
 62
5
  6
CONTINUOUS
  7
STANDARD
 71
1
 72
1
 10
139.5741815328
 20
82.3507156451
 30
0.0
 11
1.0
 21
0.0
 31
0.0
 44
0.9
  3
Für diese Unterlage behalten wir das Ur-\Pheberrecht. Sie darf nur für den von uns\Pbestimmten Zweck benutzt und ohne unsere \PZustimmung weder vervielfältigt noch \PDritten zugänglich gemacht werden.\P \PWe own the copyright of this document. It\Pde
  1
termined and may neither be copied or\Pmade accessible to outsiders without our\Ppermission.\P \PCe plan reste notre propriété. Il ne peut\Pétre utilisé, copié ou reproduit sans notre\Paccord.
 40
3.5
 41
103.5833333333
  0
LINE
  5
294
100
AcDbEntity
  8
1
100
AcDbLine
 62
9
  6
CONTINUOUS
 10
100.4608756249
 20
121.5752362495
 11
100.4608756249
 21
140.7810459498
  0
LINE
  5
295
100
AcDbEntity
  8
1
100
AcDbLine
 62
6
  6
CONTINUOUS
 10
100.4608756249
 20
140.7810459498
 11
100.4608756249
 21
143.0204378124
  0
LINE
  5
296
100
AcDbEntity
  8
1
100
AcDbLine
 62
6
  6
CONTINUOUS
 10
100.4608756249
 20
167.3404378124
 11
100.4608756249
 21
169.579829675
  0
LINE
  5
297
100
AcDbEntity
  8
1
100
AcDbLine
 62
9
  6
CONTINUOUS
 10
100.4608756249
 20
169.579829675
 11
100.4608756249
 21
188.7856393747
  0
LINE
  5
298
100
AcDbEntity
  8
1
100
AcDbLine
 62
9
  6
CONTINUOUS
 10
102.3608011402
 20
190.7831340808
 11
102.3608011402
 21
170.263192255
  0
LINE
  5
299
100
AcDbEntity
  8
1
100
AcDbLine
 62
9
  6
CONTINUOUS
 10
102.3608011402
 20
140.0976833699
 11
102.3608011402
 21
119.5777415441
  0
LINE
  5
29A
100
AcDbEntity
  8
1
100
AcDbLine
 62
6
  6
CONTINUOUS
 10
102.6108756249
 20
143.1012027996
 11
102.6108756249
 21
145.1704378124
  0
LINE
  5
29B
100
AcDbEntity
  8
1
100
AcDbLine
 62
6
  6
CONTINUOUS
 10
102.6108756249
 20
165.1904378124
 11
102.6108756249
 21
167.2596728253
  0
LINE
  5
29C
100
AcDbEntity
  8
1
100
AcDbLine
 62
9
  6
CONTINUOUS
 10
108.6608756249
 20
139.3670279971
 11
108.6608756249
 21
145.1704378124
  0
LINE
  5
29D
100
AcDbEntity
  8
1
100
AcDbLine
 62
9
  6
CONTINUOUS
 10
108.6608756249
 20
165.1904378124
 11
108.6608756249
 21
170.9938476278
  0
LINE
  5
29E
100
AcDbEntity
  8
1
100
AcDbLine
 62
6
  6
CONTINUOUS
 10
110.5608756249
 20
167.7611687927
 11
110.5608756249
 21
142.5997068322
  0
LINE
  5
29F
100
AcDbEntity
  8
BEZUGSACHSEN
100
AcDbLine
 62
7
  6
CENTER
 10
135.3608756249
 20
155.1804378124
 11
135.3608756249
 21
146.1804378124
  0
LINE
  5
2A0
100
AcDbEntity
  8
BEZUGSACHSEN
100
AcDbLine
 62
7
  6
CENTER
 10
135.3608756249
 20
155.1804378124
 11
135.3608756249
 21
164.1804378124
  0
LINE
  5
2A1
100
AcDbEntity
  8
1
100
AcDbLine
 62
9
  6
CONTINUOUS
 10
100.4608756249
 20
143.0204378124
 11
102.6108756249
 21
145.1704378124
  0
LINE
  5
2A2
100
AcDbEntity
  8
1
100
AcDbLine
 62
9
  6
CONTINUOUS
 10
102.6108756249
 20
165.1904378124
 11
100.4608756249
 21
167.3404378124
  0
LINE
  5
2A3
100
AcDbEntity
  8
1
100
AcDbLine
 62
6
  6
CONTINUOUS
 10
147.8608756249
 20
193.0626878124
 11
147.8608756249
 21
117.2981878124
  0
LINE
  5
2A4
100
AcDbEntity
  8
1
100
AcDbLine
 62
9
  6
CONTINUOUS
 10
148.4801192389
 20
117.4641136387
 11
148.4801192389
 21
192.8967619862
  0
LINE
  5
2A5
100
AcDbEntity
  8
1
100
AcDbLine
 62
9
  6
CONTINUOUS
 10
148.738938284
 20
117.4981878124
 11
148.738938284
 21
192.8626878124
  0
LINE
  5
2A6
100
AcDbEntity
  8
1
100
AcDbLine
 62
9
  6
CONTINUOUS
 10
149.6603043362
 20
117.4981878124
 11
149.6603043362
 21
192.8626878124
  0
LINE
  5
2A7
100
AcDbEntity
  8
1
100
AcDbLine
 62
6
  6
CONTINUOUS
 10
150.3608756249
 20
205.1804378124
 11
150.3608756249
 21
105.1804378124
  0
LINE
  5
2A8
100
AcDbEntity
  8
1
100
AcDbLine
 62
6
  6
CONTINUOUS
 10
172.2733756249
 20
202.8429849819
 11
173.6229046458
 21
205.1804378124
  0
LINE
  5
2A9
100
AcDbEntity
  8
1
100
AcDbLine
 62
6
  6
CONTINUOUS
 10
167.098846604
 20
105.1804378124
 11
150.3608756249
 21
105.1804378124
  0
LINE
  5
2AA
100
AcDbEntity
  8
1
100
AcDbLine
 62
6
  6
CONTINUOUS
 10
173.6229046458
 20
105.1804378124
 11
179.3108756249
 21
105.1804378124
  0
LINE
  5
2AB
100
AcDbEntity
  8
1
100
AcDbLine
 62
6
  6
CONTINUOUS
 10
172.2733756249
 20
107.517890643
 11
173.6229046458
 21
105.1804378124
  0
LINE
  5
2AC
100
AcDbEntity
  8
1
100
AcDbLine
 62
9
  6
CONTINUOUS
 10
164.9880845903
 20
123.8304378124
 11
164.9880845903
 21
123.4304378124
  0
LINE
  5
2AD
100
AcDbEntity
  8
1
100
AcDbLine
 62
9
  6
CONTINUOUS
 10
165.3318756249
 20
145.1594378124
 11
165.3318756249
 21
145.5594378124
  0
LINE
  5
2AE
100
AcDbEntity
  8
1
100
AcDbLine
 62
9
  6
CONTINUOUS
 10
165.3318756249
 20
164.8014378124
 11
165.3318756249
 21
165.2014378124
  0
LINE
  5
2AF
100
AcDbEntity
  8
1
100
AcDbLine
 62
6
  6
CONTINUOUS
 10
167.098846604
 20
205.1804378124
 11
167.098846604
 21
165.2014378124
  0
LINE
  5
2B0
100
AcDbEntity
  8
1
100
AcDbLine
 62
6
  6
CONTINUOUS
 10
167.098846604
 20
145.1594378124
 11
167.098846604
 21
123.8304378124
  0
LINE
  5
2B1
100
AcDbEntity
  8
1
100
AcDbLine
 62
6
  6
CONTINUOUS
 10
167.098846604
 20
116.2294750516
 11
167.098846604
 21
105.1804378124
  0
LINE
  5
2B2
100
AcDbEntity
  8
1
100
AcDbLine
 62
9
  6
CONTINUOUS
 10
100.4608756249
 20
141.8628534713
 11
102.6108756249
 21
143.1012027996
  0
LINE
  5
2B3
100
AcDbEntity
  8
1
100
AcDbLine
 62
6
  6
CONTINUOUS
 10
169.1983756249
 20
109.2054378124
 11
171.5233756249
 21
109.2054378124
  0
LINE
  5
2B4
100
AcDbEntity
  8
1
100
AcDbLine
 62
6
  6
CONTINUOUS
 10
189.3608756249
 20
113.7054378124
 11
180.3108756249
 21
113.7054378124
  0
LINE
  5
2B5
100
AcDbEntity
  8
1
100
AcDbLine
 62
6
  6
CONTINUOUS
 10
155.6926770248
 20
116.2294750516
 11
167.098846604
 21
116.2294750516
  0
LINE
  5
2B6
100
AcDbEntity
  8
1
100
AcDbLine
 62
6
  6
CONTINUOUS
 10
173.6229046458
 20
116.2294750516
 11
179.3108756249
 21
116.2294750516
  0
LINE
  5
2B7
100
AcDbEntity
  8
1
100
AcDbLine
 62
6
  6
CONTINUOUS
 10
147.8608756249
 20
117.2981878124
 11
102.3608011402
 21
119.5777415441
  0
LINE
  5
2B8
100
AcDbEntity
  8
1
100
AcDbLine
 62
9
  6
CONTINUOUS
 10
102.6108756249
 20
167.2596728253
 11
100.4608756249
 21
168.4980221536
  0
LINE
  5
2B9
100
AcDbEntity
  8
1
100
AcDbLine
 62
6
  6
CONTINUOUS
 10
168.4483756249
 20
202.8429641642
 11
168.4483756249
 21
165.2014378124
  0
LINE
  5
2BA
100
AcDbEntity
  8
1
100
AcDbLine
 62
6
  6
CONTINUOUS
 10
168.4483756249
 20
145.1594378124
 11
168.4483756249
 21
123.8304378124
  0
LINE
  5
2BB
100
AcDbEntity
  8
1
100
AcDbLine
 62
6
  6
CONTINUOUS
 10
168.4483756249
 20
107.5179149518
 11
168.4483756249
 21
120.5336035415
  0
LINE
  5
2BC
100
AcDbEntity
  8
1
100
AcDbLine
 62
9
  6
CONTINUOUS
 10
169.1983756249
 20
109.2054378124
 11
169.1983756249
 21
121.5519063994
  0
LINE
  5
2BD
100
AcDbEntity
  8
1
100
AcDbLine
 62
9
  6
CONTINUOUS
 10
169.1983756249
 20
123.8304378124
 11
169.1983756249
 21
145.1594378124
  0
LINE
  5
2BE
100
AcDbEntity
  8
1
100
AcDbLine
 62
9
  6
CONTINUOUS
 10
169.1983756249
 20
165.2014378124
 11
169.1983756249
 21
201.1554378124
  0
LINE
  5
2BF
100
AcDbEntity
  8
1
100
AcDbLine
 62
9
  6
CONTINUOUS
 10
171.5233756249
 20
109.2054378124
 11
171.5233756249
 21
121.5519063994
  0
LINE
  5
2C0
100
AcDbEntity
  8
1
100
AcDbLine
 62
9
  6
CONTINUOUS
 10
171.5233756249
 20
123.8304378124
 11
171.5233756249
 21
145.1594378124
  0
LINE
  5
2C1
100
AcDbEntity
  8
1
100
AcDbLine
 62
9
  6
CONTINUOUS
 10
171.5233756249
 20
165.2014378124
 11
171.5233756249
 21
201.1554378124
  0
LINE
  5
2C2
100
AcDbEntity
  8
1
100
AcDbLine
 62
6
  6
CONTINUOUS
 10
172.2733756249
 20
107.5179149518
 11
172.2733756249
 21
120.5336035415
  0
LINE
  5
2C3
100
AcDbEntity
  8
1
100
AcDbLine
 62
6
  6
CONTINUOUS
 10
172.2733756249
 20
123.8304378124
 11
172.2733756249
 21
145.1594378124
  0
LINE
  5
2C4
100
AcDbEntity
  8
1
100
AcDbLine
 62
6
  6
CONTINUOUS
 10
172.2733756249
 20
165.2014378124
 11
172.2733756249
 21
202.8429641642
  0
LINE
  5
2C5
100
AcDbEntity
  8
1
100
AcDbLine
 62
6
  6
CONTINUOUS
 10
173.6229046458
 20
205.1804378124
 11
173.6229046458
 21
165.2014378124
  0
LINE
  5
2C6
100
AcDbEntity
  8
1
100
AcDbLine
 62
6
  6
CONTINUOUS
 10
173.6229046458
 20
145.1594378124
 11
173.6229046458
 21
123.8304378124
  0
LINE
  5
2C7
100
AcDbEntity
  8
1
100
AcDbLine
 62
6
  6
CONTINUOUS
 10
173.6229046458
 20
116.2294750516
 11
173.6229046458
 21
105.1804378124
  0
LINE
  5
2C8
100
AcDbEntity
  8
1
100
AcDbLine
 62
6
  6
CONTINUOUS
 10
149.6603043362
 20
117.4981878124
 11
148.738938284
 21
117.4981878124
  0
LINE
  5
2C9
100
AcDbEntity
  8
1
100
AcDbLine
 62
6
  6
CONTINUOUS
 10
169.1983756249
 20
121.5519063994
 11
171.5233756249
 21
121.5519063994
  0
LINE
  5
2CA
100
AcDbEntity
  8
1
100
AcDbLine
 62
6
  6
CONTINUOUS
 10
179.3108756249
 20
123.4304378124
 11
164.9880845903
 21
123.4304378124
  0
LINE
  5
2CB
100
AcDbEntity
  8
1
100
AcDbLine
 62
6
  6
CONTINUOUS
 10
164.9880845903
 20
123.8304378124
 11
179.3108756249
 21
123.8304378124
  0
LINE
  5
2CC
100
AcDbEntity
  8
1
100
AcDbLine
 62
6
  6
CONTINUOUS
 10
179.3108756249
 20
105.1804379826
 11
179.3108756249
 21
205.1804312905
  0
LINE
  5
2CD
100
AcDbEntity
  8
1
100
AcDbLine
 62
9
  6
CONTINUOUS
 10
180.3108756249
 20
196.6554378124
 11
180.3108756249
 21
113.7054378124
  0
LINE
  5
2CE
100
AcDbEntity
  8
1
100
AcDbLine
 62
6
  6
CONTINUOUS
 10
189.3608756249
 20
196.6554378124
 11
189.3608756249
 21
113.7054378124
  0
LINE
  5
2CF
100
AcDbEntity
  8
1
100
AcDbLine
 62
6
  6
CONTINUOUS
 10
148.4801192389
 20
117.4641136387
 11
147.8608756249
 21
117.2981878124
  0
LINE
  5
2D0
100
AcDbEntity
  8
1
100
AcDbLine
 62
6
  6
CONTINUOUS
 10
309.4393347206
 20
144.5954109704
 11
262.3853792072
 21
140.8921843586
  0
LINE
  5
2D1
100
AcDbEntity
  8
1
100
AcDbLine
 62
6
  6
CONTINUOUS
 10
258.0241133371
 20
135.2054378124
 11
250.3227558402
 21
135.2054378124
  0
LINE
  5
2D2
100
AcDbEntity
  8
1
100
AcDbLine
 62
9
  6
CONTINUOUS
 10
109.9538223539
 20
140.2904378124
 11
101.888225874
 21
140.2904378124
  0
LINE
  5
2D3
100
AcDbEntity
  8
1
100
AcDbLine
 62
6
  6
CONTINUOUS
 10
167.098846604
 20
105.1804378124
 11
168.4483756249
 21
107.517890643
  0
LINE
  5
2D4
100
AcDbEntity
  8
1
100
AcDbLine
 62
6
  6
CONTINUOUS
 10
165.3318756249
 20
145.1594378124
 11
179.3108756249
 21
145.1594378124
  0
LINE
  5
2D5
100
AcDbEntity
  8
1
100
AcDbLine
 62
6
  6
CONTINUOUS
 10
108.6608756249
 20
145.1704378124
 11
102.6108756249
 21
145.1704378124
  0
LINE
  5
2D6
100
AcDbEntity
  8
1
100
AcDbLine
 62
6
  6
CONTINUOUS
 10
179.3108756249
 20
145.5594378124
 11
165.3318756249
 21
145.5594378124
  0
LINE
  5
2D7
100
AcDbEntity
  8
1
100
AcDbLine
 62
6
  6
CONTINUOUS
 10
167.098846604
 20
205.1804378124
 11
168.4483756249
 21
202.8429849819
  0
LINE
  5
2D8
100
AcDbEntity
  8
DEFAULT_1
100
AcDbLine
 62
7
  6
CENTER
 10
313.3608756249
 20
155.1804378124
 11
176.3108756249
 21
155.1804378124
  0
LINE
  5
2D9
100
AcDbEntity
  8
BEZUGSACHSEN
100
AcDbLine
 62
7
  6
CENTER
 10
135.3608756249
 20
155.1804378124
 11
126.3608756249
 21
155.1804378124
  0
LINE
  5
2DA
100
AcDbEntity
  8
4
100
AcDbLine
 62
7
  6
CENTER
 10
321.3608756249
 20
155.1804378124
 11
97.4608756249
 21
155.1804378124
  0
LINE
  5
2DB
100
AcDbEntity
  8
TEIL_STARTBEZUEGE
100
AcDbLine
 62
7
  6
CENTER
 10
182.3108756249
 20
155.1804378124
 11
97.4608756249
 21
155.1804378124
  0
LINE
  5
2DC
100
AcDbEntity
  8
BEZUGSACHSEN
100
AcDbLine
 62
7
  6
CENTER
 10
135.3608756249
 20
155.1804378124
 11
144.3608756249
 21
155.1804378124
  0
LINE
  5
2DD
100
AcDbEntity
  8
1
100
AcDbLine
 62
6
  6
CONTINUOUS
 10
165.3318756249
 20
164.8014378124
 11
179.3108756249
 21
164.8014378124
  0
LINE
  5
2DE
100
AcDbEntity
  8
1
100
AcDbLine
 62
9
  6
CONTINUOUS
 10
108.6608756249
 20
165.1904378124
 11
102.6108756249
 21
165.1904378124
  0
LINE
  5
2DF
100
AcDbEntity
  8
1
100
AcDbLine
 62
6
  6
CONTINUOUS
 10
165.3318756249
 20
165.2014378124
 11
179.3108756249
 21
165.2014378124
  0
LINE
  5
2E0
100
AcDbEntity
  8
1
100
AcDbLine
 62
9
  6
CONTINUOUS
 10
101.888225874
 20
170.0704378124
 11
109.9538223539
 21
170.0704378124
  0
LINE
  5
2E1
100
AcDbEntity
  8
1
100
AcDbLine
 62
6
  6
CONTINUOUS
 10
258.0241133371
 20
175.1554378124
 11
250.3227558402
 21
175.1554378124
  0
LINE
  5
2E2
100
AcDbEntity
  8
1
100
AcDbLine
 62
6
  6
CONTINUOUS
 10
309.4393347206
 20
165.7654646545
 11
262.3853792072
 21
169.4686912663
  0
LINE
  5
2E3
100
AcDbEntity
  8
1
100
AcDbLine
 62
6
  6
CONTINUOUS
 10
148.4801192389
 20
192.8967619862
 11
147.8608756249
 21
193.0626878124
  0
LINE
  5
2E4
100
AcDbEntity
  8
1
100
AcDbLine
 62
6
  6
CONTINUOUS
 10
248.9850712731
 20
134.0833673843
 11
189.3608756249
 21
113.7054378124
  0
LINE
  5
2E5
100
AcDbEntity
  8
1
100
AcDbLine
 62
6
  6
CONTINUOUS
 10
149.6603043362
 20
192.8626878124
 11
148.738938284
 21
192.8626878124
  0
LINE
  5
2E6
100
AcDbEntity
  8
1
100
AcDbLine
 62
6
  6
CONTINUOUS
 10
248.9850712731
 20
176.2775082405
 11
189.3608756249
 21
196.6554378124
  0
LINE
  5
2E7
100
AcDbEntity
  8
1
100
AcDbLine
 62
9
  6
CONTINUOUS
 10
248.9850712731
 20
176.2775082405
 11
248.9850712731
 21
134.0833673843
  0
LINE
  5
2E8
100
AcDbEntity
  8
1
100
AcDbLine
 62
9
  6
CONTINUOUS
 10
249.419166758
 20
175.920500012
 11
249.419166758
 21
134.4403756129
  0
LINE
  5
2E9
100
AcDbEntity
  8
1
100
AcDbLine
 62
9
  6
CONTINUOUS
 10
249.6299355172
 20
175.5554378124
 11
249.6299355172
 21
134.8054378124
  0
LINE
  5
2EA
100
AcDbEntity
  8
1
100
AcDbLine
 62
9
  6
CONTINUOUS
 10
250.3227558402
 20
175.1554378124
 11
250.3227558402
 21
135.2054378124
  0
LINE
  5
2EB
100
AcDbEntity
  8
1
100
AcDbLine
 62
6
  6
CONTINUOUS
 10
147.8608756249
 20
193.0626878124
 11
102.3608011402
 21
190.7831340808
  0
LINE
  5
2EC
100
AcDbEntity
  8
1
100
AcDbLine
 62
6
  6
CONTINUOUS
 10
189.3608756249
 20
196.6554378124
 11
180.3108756249
 21
196.6554378124
  0
LINE
  5
2ED
100
AcDbEntity
  8
1
100
AcDbLine
 62
6
  6
CONTINUOUS
 10
169.1983756249
 20
201.1554378124
 11
171.5233756249
 21
201.1554378124
  0
LINE
  5
2EE
100
AcDbEntity
  8
1
100
AcDbLine
 62
9
  6
CONTINUOUS
 10
258.0241133371
 20
175.1554378124
 11
258.0241133371
 21
135.2054378124
  0
LINE
  5
2EF
100
AcDbEntity
  8
1
100
AcDbLine
 62
9
  6
CONTINUOUS
 10
258.8901387409
 20
174.6554378124
 11
258.8901387409
 21
135.7054378124
  0
LINE
  5
2F0
100
AcDbEntity
  8
1
100
AcDbLine
 62
9
  6
CONTINUOUS
 10
261.5978128991
 20
169.9656086
 11
261.5978128991
 21
140.3952670249
  0
LINE
  5
2F1
100
AcDbEntity
  8
1
100
AcDbLine
 62
6
  6
CONTINUOUS
 10
249.6299355172
 20
134.8054378124
 11
249.419166758
 21
134.4403756129
  0
LINE
  5
2F2
100
AcDbEntity
  8
1
100
AcDbLine
 62
6
  6
CONTINUOUS
 10
261.5978128991
 20
140.3952670249
 11
258.8901387409
 21
135.7054378124
  0
LINE
  5
2F3
100
AcDbEntity
  8
1
100
AcDbLine
 62
6
  6
CONTINUOUS
 10
167.098846604
 20
205.1804378124
 11
150.3608756249
 21
205.1804378124
  0
LINE
  5
2F4
100
AcDbEntity
  8
1
100
AcDbLine
 62
6
  6
CONTINUOUS
 10
173.6229046458
 20
205.1804378124
 11
179.3108756249
 21
205.1804378124
  0
LINE
  5
2F5
100
AcDbEntity
  8
1
100
AcDbLine
 62
6
  6
CONTINUOUS
 10
249.419166758
 20
175.920500012
 11
249.6299355172
 21
175.5554378124
  0
LINE
  5
2F6
100
AcDbEntity
  8
1
100
AcDbLine
 62
6
  6
CONTINUOUS
 10
258.8901387409
 20
174.6554378124
 11
261.5978128991
 21
169.9656086
  0
LINE
  5
2F7
100
AcDbEntity
  8
1
100
AcDbLine
 62
9
  6
CONTINUOUS
 10
262.3853792072
 20
169.4686912663
 11
262.3853792072
 21
140.8921843586
  0
LINE
  5
2F8
100
AcDbEntity
  8
1
100
AcDbLine
 62
9
  6
CONTINUOUS
 10
309.4393347206
 20
165.7654646545
 11
309.4393347206
 21
144.5954109704
  0
LINE
  5
2F9
100
AcDbEntity
  8
1
100
AcDbLine
 62
6
  6
CONTINUOUS
 10
310.3608756249
 20
164.7685473208
 11
310.3608756249
 21
145.5923283041
  0
LINE
  5
2FA
100
AcDbEntity
  8
SK1
100
AcDbLine
 62
8
  6
HIDDEN
 10
272.8608756249
 20
151.25
 11
310.3608756249
 21
151.25
  0
LINE
  5
2FB
100
AcDbEntity
  8
SK1
100
AcDbLine
 62
8
  6
HIDDEN
 10
272.8608756249
 20
158.75
 11
310.3608756249
 21
158.75
  0
LINE
  5
2FC
100
AcDbEntity
  8
SK1
100
AcDbLine
 62
8
  6
HIDDEN
 10
272.8608756249
 20
158.75
 11
272.8608756249
 21
151.25
  0
ARC
  5
2FD
100
AcDbEntity
  8
1
100
AcDbCircle
 62
6
  6
CONTINUOUS
 10
164.9880845903
 20
113.8304378124
 40
10.0
100
AcDbArc
 50
90.0
 51
164.190522726
  0
ARC
  5
2FE
100
AcDbEntity
  8
1
100
AcDbCircle
 62
6
  6
CONTINUOUS
 10
164.9880845903
 20
113.8304378124
 40
9.5999990356
100
AcDbArc
 50
90.0
 51
165.5284207501
  0
ARC
  5
2FF
100
AcDbEntity
  8
1
100
AcDbCircle
 62
6
  6
CONTINUOUS
 10
102.4608756249
 20
121.5752362494
 40
2.0
100
AcDbArc
 50
180.0
 51
267.1318795127
  0
ARC
  5
300
100
AcDbEntity
  8
1
100
AcDbCircle
 62
9
  6
CONTINUOUS
 10
108.6608756249
 20
147.0704378124
 40
1.9
100
AcDbArc
 50
270.0
 51
355.2355361865
  0
ARC
  5
301
100
AcDbEntity
  8
1
100
AcDbCircle
 62
6
  6
CONTINUOUS
 10
148.738938284
 20
116.4981878124
 40
1.0
100
AcDbArc
 50
90.0
 51
105.0
  0
ARC
  5
302
100
AcDbEntity
  8
1
100
AcDbCircle
 62
6
  6
CONTINUOUS
 10
149.6603043362
 20
116.4981878124
 40
1.0
100
AcDbArc
 50
45.4902612013
 51
90.0
  0
ARC
  5
303
100
AcDbEntity
  8
1
100
AcDbCircle
 62
6
  6
CONTINUOUS
 10
169.1983756249
 20
108.4554378124
 40
0.75
100
AcDbArc
 50
90.0
 51
174.375
  0
ARC
  5
304
100
AcDbEntity
  8
1
100
AcDbCircle
 62
6
  6
CONTINUOUS
 10
-77.1961052933
 20
226.1540525098
 40
267.8869841032
100
AcDbArc
 50
335.7738444502
 51
336.4871427587
  0
ARC
  5
305
100
AcDbEntity
  8
1
100
AcDbCircle
 62
6
  6
CONTINUOUS
 10
165.3318756249
 20
155.1804378124
 40
10.021
100
AcDbArc
 50
90.0
 51
270.0
  0
ARC
  5
306
100
AcDbEntity
  8
1
100
AcDbCircle
 62
6
  6
CONTINUOUS
 10
165.3318756249
 20
155.1804378124
 40
9.621
100
AcDbArc
 50
89.9999999865
 51
270.0000000153
  0
CIRCLE
  5
307
100
AcDbEntity
  8
1
100
AcDbCircle
 62
6
  6
CONTINUOUS
 10
135.3608756249
 20
155.1804378124
 40
6.0
  0
ARC
  5
308
100
AcDbEntity
  8
1
100
AcDbCircle
 62
6
  6
CONTINUOUS
 10
102.4608756249
 20
188.7856393755
 40
2.0
100
AcDbArc
 50
92.8681204873
 51
180.0
  0
ARC
  5
309
100
AcDbEntity
  8
1
100
AcDbCircle
 62
9
  6
CONTINUOUS
 10
108.6608756249
 20
163.2904378124
 40
1.9
100
AcDbArc
 50
4.7644637835
 51
90.0
  0
ARC
  5
30A
100
AcDbEntity
  8
1
100
AcDbCircle
 62
6
  6
CONTINUOUS
 10
148.738938284
 20
193.8626878124
 40
1.0
100
AcDbArc
 50
255.0
 51
270.0
  0
ARC
  5
30B
100
AcDbEntity
  8
1
100
AcDbCircle
 62
6
  6
CONTINUOUS
 10
149.6603043362
 20
193.8626878124
 40
1.0
100
AcDbArc
 50
270.0
 51
314.5097387987
  0
ARC
  5
30C
100
AcDbEntity
  8
1
100
AcDbCircle
 62
6
  6
CONTINUOUS
 10
169.1983756249
 20
201.9054378124
 40
0.75
100
AcDbArc
 50
180.0
 51
270.0
  0
ARC
  5
30D
100
AcDbEntity
  8
1
100
AcDbCircle
 62
6
  6
CONTINUOUS
 10
170.4156224194
 20
131.3224145661
 40
21.084637637
100
AcDbArc
 50
224.4587337376
 51
225.7109637539
  0
ARC
  5
30E
100
AcDbEntity
  8
1
100
AcDbCircle
 62
6
  6
CONTINUOUS
 10
180.3108756249
 20
112.7054378124
 40
1.0
100
AcDbArc
 50
90.0
 51
174.6662961832
  0
ARC
  5
30F
100
AcDbEntity
  8
1
100
AcDbCircle
 62
6
  6
CONTINUOUS
 10
171.5233756249
 20
108.4554378124
 40
0.75
100
AcDbArc
 50
5.625
 51
90.0
  0
ARC
  5
310
100
AcDbEntity
  8
1
100
AcDbCircle
 62
6
  6
CONTINUOUS
 10
271.3838247284
 20
-1259.6109716674
 40
1439.829471554
100
AcDbArc
 50
96.48917138
 51
96.7415536538
  0
ARC
  5
311
100
AcDbEntity
  8
1
100
AcDbCircle
 62
6
  6
CONTINUOUS
 10
258.0241133371
 20
136.2054378124
 40
1.0
100
AcDbArc
 50
270.0
 51
330.0
  0
ARC
  5
312
100
AcDbEntity
  8
1
100
AcDbCircle
 62
6
  6
CONTINUOUS
 10
262.4638383029
 20
139.8952670249
 40
1.0
100
AcDbArc
 50
94.5
 51
150.0
  0
ARC
  5
313
100
AcDbEntity
  8
1
100
AcDbCircle
 62
6
  6
CONTINUOUS
 10
248.726346435
 20
134.8403756129
 40
0.8
100
AcDbArc
 50
288.8690338039
 51
330.0
  0
ARC
  5
314
100
AcDbEntity
  8
1
100
AcDbCircle
 62
6
  6
CONTINUOUS
 10
250.3227558402
 20
134.4054378124
 40
0.8
100
AcDbArc
 50
90.0
 51
150.0
  0
ARC
  5
315
100
AcDbEntity
  8
1
100
AcDbCircle
 62
6
  6
CONTINUOUS
 10
309.3608756249
 20
145.5923283041
 40
1.0
100
AcDbArc
 50
274.5
 51
360.0
  0
ARC
  5
316
100
AcDbEntity
  8
1
100
AcDbCircle
 62
6
  6
CONTINUOUS
 10
262.4638383029
 20
170.4656086
 40
1.0
100
AcDbArc
 50
210.0
 51
265.5
  0
ARC
  5
317
100
AcDbEntity
  8
1
100
AcDbCircle
 62
6
  6
CONTINUOUS
 10
258.0241133371
 20
174.1554378124
 40
1.0
100
AcDbArc
 50
30.0
 51
90.0
  0
ARC
  5
318
100
AcDbEntity
  8
1
100
AcDbCircle
 62
6
  6
CONTINUOUS
 10
180.3108756249
 20
197.6554378124
 40
1.0
100
AcDbArc
 50
180.0
 51
270.0
  0
ARC
  5
319
100
AcDbEntity
  8
1
100
AcDbCircle
 62
6
  6
CONTINUOUS
 10
250.3227558402
 20
175.9554378124
 40
0.8
100
AcDbArc
 50
210.0
 51
270.0
  0
ARC
  5
31A
100
AcDbEntity
  8
1
100
AcDbCircle
 62
6
  6
CONTINUOUS
 10
248.726346435
 20
175.520500012
 40
0.8
100
AcDbArc
 50
30.0
 51
71.1309661961
  0
ARC
  5
31B
100
AcDbEntity
  8
1
100
AcDbCircle
 62
6
  6
CONTINUOUS
 10
171.5233756249
 20
201.9054378124
 40
0.75
100
AcDbArc
 50
270.0
 51
360.0
  0
ARC
  5
31C
100
AcDbEntity
  8
1
100
AcDbCircle
 62
6
  6
CONTINUOUS
 10
271.3838247278
 20
1569.9718472871
 40
1439.8294715488
100
AcDbArc
 50
263.2584463462
 51
263.51082862
  0
ARC
  5
31D
100
AcDbEntity
  8
1
100
AcDbCircle
 62
6
  6
CONTINUOUS
 10
417.9178565439
 20
226.1540525102
 40
267.886984104
100
AcDbArc
 50
203.5128572413
 51
204.2261555498
  0
ARC
  5
31E
100
AcDbEntity
  8
1
100
AcDbCircle
 62
6
  6
CONTINUOUS
 10
309.3608756249
 20
164.7685473208
 40
1.0
100
AcDbArc
 50
0.0
 51
85.5
  0
SPLINE
  5
31F
100
AcDbEntity
  8
1
100
AcDbSpline
 62
6
  6
CONTINUOUS
 70
0
 71
3
 72
12
 73
8
 74
0
 42
0.0000001
 43
0.0000001
 44
0.0000000001
 40
0.0
 40
0.0
 40
0.0
 40
0.0
 40
0.1312475159
 40
0.2608837127
 40
0.5122538744
 40
0.7575061754
 40
1.0
 40
1.0
 40
1.0
 40
1.0
 10
108.6608756249
 20
170.9938476278
 30
0.0
 10
108.7342134498
 20
171.0021932047
 30
0.0
 10
108.8826136847
 20
171.0014722397
 30
0.0
 10
109.1645025981
 20
170.9315208146
 30
0.0
 10
109.4700197556
 20
170.7399349009
 30
0.0
 10
109.748162408
 20
170.4271116438
 30
0.0
 10
109.8908790126
 20
170.1914171496
 30
0.0
 10
109.9538223539
 20
170.0704378124
 30
0.0
  0
SPLINE
  5
320
100
AcDbEntity
  8
1
100
AcDbSpline
 62
6
  6
CONTINUOUS
 70
0
 71
3
 72
12
 73
8
 74
0
 42
0.0000001
 43
0.0000001
 44
0.0000000001
 40
0.0
 40
0.0
 40
0.0
 40
0.0
 40
0.2424982076
 40
0.4877558538
 40
0.7391384508
 40
0.8687641438
 40
1.0
 40
1.0
 40
1.0
 40
1.0
 10
109.9538223539
 20
140.2904378124
 30
0.0
 10
109.890877893
 20
140.1694563235
 30
0.0
 10
109.7481585237
 20
139.9337572365
 30
0.0
 10
109.4700054177
 20
139.6209257569
 30
0.0
 10
109.1644786241
 20
139.4293466203
 30
0.0
 10
108.8825943852
 20
139.359400503
 30
0.0
 10
108.7342069134
 20
139.358683164
 30
0.0
 10
108.6608756249
 20
139.3670279971
 30
0.0
  0
SPLINE
  5
321
100
AcDbEntity
  8
1
100
AcDbSpline
 62
6
  6
CONTINUOUS
 70
0
 71
3
 72
13
 73
9
 74
0
 42
0.0000001
 43
0.0000001
 44
0.0000000001
 40
0.0
 40
0.0
 40
0.0
 40
0.0
 40
0.2499260649
 40
0.4996335914
 40
0.6248106577
 40
0.7499427758
 40
0.8749995651
 40
1.0
 40
1.0
 40
1.0
 40
1.0
 10
172.2733756249
 20
120.5336035415
 30
0.0
 10
172.2733756249
 20
120.6495632049
 30
0.0
 10
172.2440110308
 20
120.882323011
 30
0.0
 10
172.1303872575
 20
121.1542341994
 30
0.0
 10
171.9888818343
 20
121.3396675354
 30
0.0
 10
171.8559191923
 20
121.4545206716
 30
0.0
 10
171.6981466168
 20
121.5329567232
 30
0.0
 10
171.5813728104
 20
121.5519063994
 30
0.0
 10
171.5233756249
 20
121.5519063994
 30
0.0
  0
SPLINE
  5
322
100
AcDbEntity
  8
1
100
AcDbSpline
 62
6
  6
CONTINUOUS
 70
0
 71
3
 72
10
 73
6
 74
0
 42
0.0000001
 43
0.0000001
 44
0.0000000001
 40
0.0
 40
0.0
 40
0.0
 40
0.0
 40
0.2521478311
 40
0.627040777
 40
1.0
 40
1.0
 40
1.0
 40
1.0
 10
110.5608756249
 20
142.5997068322
 30
0.0
 10
110.5608756249
 20
142.3973428674
 30
0.0
 10
110.5224439005
 20
141.893606276
 30
0.0
 10
110.3294542993
 20
141.1101375987
 30
0.0
 10
110.0919744733
 20
140.5559710914
 30
0.0
 10
109.9538223539
 20
140.2904378124
 30
0.0
  0
SPLINE
  5
323
100
AcDbEntity
  8
1
100
AcDbSpline
 62
6
  6
CONTINUOUS
 70
0
 71
3
 72
13
 73
9
 74
0
 42
0.0000001
 43
0.0000001
 44
0.0000000001
 40
0.0
 40
0.0
 40
0.0
 40
0.0
 40
0.1250005675
 40
0.2500572499
 40
0.3751896135
 40
0.5003666907
 40
0.7500740304
 40
1.0
 40
1.0
 40
1.0
 40
1.0
 10
169.1983756249
 20
121.5519063994
 30
0.0
 10
169.140378377
 20
121.5519063994
 30
0.0
 10
169.0236044917
 20
121.5329569464
 30
0.0
 10
168.8658319885
 20
121.4545204307
 30
0.0
 10
168.732869216
 20
121.3396673766
 30
0.0
 10
168.5913638616
 20
121.1542339152
 30
0.0
 10
168.4777401937
 20
120.8823228447
 30
0.0
 10
168.4483756249
 20
120.6495631622
 30
0.0
 10
168.4483756249
 20
120.5336035415
 30
0.0
  0
SPLINE
  5
324
100
AcDbEntity
  8
1
100
AcDbSpline
 62
6
  6
CONTINUOUS
 70
0
 71
3
 72
17
 73
13
 74
0
 42
0.0000001
 43
0.0000001
 44
0.0000000001
 40
0.0
 40
0.0
 40
0.0
 40
0.0
 40
0.1389412848
 40
0.261438998
 40
0.3169538191
 40
0.3697627229
 40
0.4215057719
 40
0.4739900026
 40
0.5860886021
 40
0.7118884743
 40
0.8506723845
 40
1.0
 40
1.0
 40
1.0
 40
1.0
 10
100.4608756249
 20
169.579829675
 30
0.0
 10
100.4608756249
 20
169.6664672195
 30
0.0
 10
100.4723467678
 20
169.8298971266
 30
0.0
 10
100.5319073298
 20
170.0218558754
 30
0.0
 10
100.6112865863
 20
170.1430581982
 30
0.0
 10
100.6832116618
 20
170.2135129082
 30
0.0
 10
100.7680180444
 20
170.2642604138
 30
0.0
 10
100.8975007668
 20
170.3057239003
 30
0.0
 10
101.082556212
 20
170.3054369421
 30
0.0
 10
101.3102581952
 20
170.2419154501
 30
0.0
 10
101.543961549
 20
170.1302451369
 30
0.0
 10
101.6956052753
 20
170.0332293123
 30
0.0
 10
101.7717332968
 20
169.9796127088
 30
0.0
  0
SPLINE
  5
325
100
AcDbEntity
  8
1
100
AcDbSpline
 62
6
  6
CONTINUOUS
 70
0
 71
3
 72
9
 73
5
 74
0
 42
0.0000001
 43
0.0000001
 44
0.0000000001
 40
0.0
 40
0.0
 40
0.0
 40
0.0
 40
0.5002524096
 40
1.0
 40
1.0
 40
1.0
 40
1.0
 10
101.888225874
 20
170.0704378124
 30
0.0
 10
101.9580775434
 20
170.1202351873
 30
0.0
 10
102.1078154734
 20
170.2068185777
 30
0.0
 10
102.27569595
 20
170.253127667
 30
0.0
 10
102.3608011402
 20
170.263192255
 30
0.0
  0
SPLINE
  5
326
100
AcDbEntity
  8
1
100
AcDbSpline
 62
6
  6
CONTINUOUS
 70
0
 71
3
 72
8
 73
4
 74
0
 42
0.0000001
 43
0.0000001
 44
0.0000000001
 40
0.0
 40
0.0
 40
0.0
 40
0.0
 40
1.0
 40
1.0
 40
1.0
 40
1.0
 10
101.7717332968
 20
169.9796127088
 30
0.0
 10
101.8093289086
 20
170.0114086726
 30
0.0
 10
101.8481327674
 20
170.041855368
 30
0.0
 10
101.888225874
 20
170.0704378124
 30
0.0
  0
SPLINE
  5
327
100
AcDbEntity
  8
1
100
AcDbSpline
 62
6
  6
CONTINUOUS
 70
0
 71
3
 72
17
 73
13
 74
0
 42
0.0000001
 43
0.0000001
 44
0.0000000001
 40
0.0
 40
0.0
 40
0.0
 40
0.0
 40
0.1493280667
 40
0.2881121534
 40
0.4139118677
 40
0.5260102938
 40
0.57849446
 40
0.6302375078
 40
0.6830463678
 40
0.738561139
 40
0.8610587699
 40
1.0
 40
1.0
 40
1.0
 40
1.0
 10
101.7717332968
 20
140.381262916
 30
0.0
 10
101.6956050453
 20
140.3276461506
 30
0.0
 10
101.5439609608
 20
140.2306301476
 30
0.0
 10
101.3102572812
 20
140.1189598474
 30
0.0
 10
101.0825553168
 20
140.0554385407
 30
0.0
 10
100.897500146
 20
140.0551519588
 30
0.0
 10
100.7680175742
 20
140.0966153739
 30
0.0
 10
100.683211255
 20
140.1473629011
 30
0.0
 10
100.6112864597
 20
140.2178177927
 30
0.0
 10
100.5319070894
 20
140.3390198888
 30
0.0
 10
100.4723468184
 20
140.5309786553
 30
0.0
 10
100.4608756249
 20
140.6944084396
 30
0.0
 10
100.4608756249
 20
140.7810459498
 30
0.0
  0
SPLINE
  5
328
100
AcDbEntity
  8
1
100
AcDbSpline
 62
6
  6
CONTINUOUS
 70
0
 71
3
 72
8
 73
4
 74
0
 42
0.0000001
 43
0.0000001
 44
0.0000000001
 40
0.0
 40
0.0
 40
0.0
 40
0.0
 40
1.0
 40
1.0
 40
1.0
 40
1.0
 10
101.888225874
 20
140.2904378124
 30
0.0
 10
101.8481327674
 20
140.3190202569
 30
0.0
 10
101.8093289086
 20
140.3494669523
 30
0.0
 10
101.7717332968
 20
140.381262916
 30
0.0
  0
SPLINE
  5
329
100
AcDbEntity
  8
1
100
AcDbSpline
 62
6
  6
CONTINUOUS
 70
0
 71
3
 72
9
 73
5
 74
0
 42
0.0000001
 43
0.0000001
 44
0.0000000001
 40
0.0
 40
0.0
 40
0.0
 40
0.0
 40
0.4997500132
 40
1.0
 40
1.0
 40
1.0
 40
1.0
 10
102.3608011402
 20
140.0976833699
 30
0.0
 10
102.2756955329
 20
140.1077480072
 30
0.0
 10
102.1078149795
 20
140.1540570065
 30
0.0
 10
101.9580772088
 20
140.2406406761
 30
0.0
 10
101.888225874
 20
140.2904378124
 30
0.0
  0
SPLINE
  5
32A
100
AcDbEntity
  8
1
100
AcDbSpline
 62
6
  6
CONTINUOUS
 70
0
 71
3
 72
27
 73
23
 74
0
 42
0.0000001
 43
0.0000001
 44
0.0000000001
 40
0.0
 40
0.0
 40
0.0
 40
0.0
 40
0.0623964649
 40
0.0937036139
 40
0.1250215593
 40
0.1876502527
 40
0.2502885719
 40
0.2815657005
 40
0.3127856268
 40
0.3750490606
 40
0.4372784138
 40
0.4997025555
 40
0.5623084566
 40
0.6250203296
 40
0.6878482078
 40
0.7193351903
 40
0.7508216851
 40
0.8136064122
 40
0.876014697
 40
0.90711917
 40
0.9381748987
 40
1.0
 40
1.0
 40
1.0
 40
1.0
 10
128.7615829801
 20
155.1804377912
 30
0.0
 10
128.7614085503
 20
155.610882741
 30
0.0
 10
128.8255969563
 20
156.2596153308
 30
0.0
 10
129.035420955
 20
157.0971850317
 30
0.0
 10
129.3271368378
 20
157.9118824299
 30
0.0
 10
129.8405432405
 20
158.8707344316
 30
0.0
 10
130.5321266417
 20
159.7098790311
 30
0.0
 10
131.1741078078
 20
160.2888158587
 30
0.0
 10
131.8675306052
 20
160.8006377068
 30
0.0
 10
132.822357168
 20
161.3088015871
 30
0.0
 10
134.0641520131
 20
161.6847211321
 30
0.0
 10
135.3578394869
 20
161.8134182207
 30
0.0
 10
136.6552868115
 20
161.6880397136
 30
0.0
 10
137.9059297576
 20
161.3112926532
 30
0.0
 10
138.8684633108
 20
160.7977636622
 30
0.0
 10
139.5662106145
 20
160.2796513341
 30
0.0
 10
140.2091149194
 20
159.6952850713
 30
0.0
 10
140.8972546199
 20
158.8520119122
 30
0.0
 10
141.4050344388
 20
157.8925046785
 30
0.0
 10
141.6919429147
 20
157.0811488651
 30
0.0
 10
141.8975481903
 20
156.2499214407
 30
0.0
 10
141.9603098998
 20
155.6069411774
 30
0.0
 10
141.960179681
 20
155.1804377909
 30
0.0
  0
SPLINE
  5
32B
100
AcDbEntity
  8
1
100
AcDbSpline
 62
6
  6
CONTINUOUS
 70
0
 71
3
 72
27
 73
23
 74
0
 42
0.0000001
 43
0.0000001
 44
0.0000000001
 40
0.0
 40
0.0
 40
0.0
 40
0.0
 40
0.0617958656
 40
0.0928471332
 40
0.1239511223
 40
0.1863618391
 40
0.2491529042
 40
0.280640792
 40
0.3121279725
 40
0.3749576524
 40
0.4376543678
 40
0.500244109
 40
0.5626733426
 40
0.624910023
 40
0.6871747477
 40
0.718396146
 40
0.7496739606
 40
0.8123127291
 40
0.8749452752
 40
0.906265754
 40
0.9375780393
 40
1.0
 40
1.0
 40
1.0
 40
1.0
 10
141.9601664038
 20
155.180437833
 30
0.0
 10
141.9603290852
 20
154.7541361402
 30
0.0
 10
141.8975915998
 20
154.1113906179
 30
0.0
 10
141.6921361964
 20
153.2803710796
 30
0.0
 10
141.4053174121
 20
152.4690013081
 30
0.0
 10
140.8976096025
 20
151.5093910151
 30
0.0
 10
140.2095021138
 20
150.6659982542
 30
0.0
 10
139.5666028716
 20
150.081544694
 30
0.0
 10
138.8688740558
 20
149.5633681907
 30
0.0
 10
137.9064579044
 20
149.0498122561
 30
0.0
 10
136.6560507233
 20
148.673007656
 30
0.0
 10
135.3588068444
 20
148.5474634092
 30
0.0
 10
134.0651233889
 20
148.675954563
 30
0.0
 10
132.8231826023
 20
149.0517266448
 30
0.0
 10
131.8682293386
 20
149.5598024787
 30
0.0
 10
131.1747256469
 20
150.071555072
 30
0.0
 10
130.5326623309
 20
150.6504276749
 30
0.0
 10
129.8409565647
 20
151.489516228
 30
0.0
 10
129.3274221956
 20
152.4483554442
 30
0.0
 10
129.0356000298
 20
153.263098742
 30
0.0
 10
128.8256341236
 20
154.1008710984
 30
0.0
 10
128.7614296763
 20
154.7498169867
 30
0.0
 10
128.7615693626
 20
155.1804378346
 30
0.0
  0
SPLINE
  5
32C
100
AcDbEntity
  8
1
100
AcDbSpline
 62
6
  6
CONTINUOUS
 70
0
 71
3
 72
10
 73
6
 74
0
 42
0.0000001
 43
0.0000001
 44
0.0000000001
 40
0.0
 40
0.0
 40
0.0
 40
0.0
 40
0.248655593
 40
0.6227810278
 40
1.0
 40
1.0
 40
1.0
 40
1.0
 10
109.9538223539
 20
170.0704378124
 30
0.0
 10
110.0459176875
 20
169.8934273112
 30
0.0
 10
110.2542500413
 20
169.4381660848
 30
0.0
 10
110.4918702243
 20
168.6680383505
 30
0.0
 10
110.5608756249
 20
168.0638703553
 30
0.0
 10
110.5608756249
 20
167.7611687927
 30
0.0
  0
ELLIPSE
  5
32D
100
AcDbEntity
  8
1
100
AcDbEllipse
 62
6
  6
CONTINUOUS
 10
97.7308756249
 20
170.0704378124
 30
0.0
 11
4.3319125763
 21
-4.3319125763
 31
0.0
 40
0.5187046472
 41
0.4784991097
 42
1.0736844408
  0
ELLIPSE
  5
32E
100
AcDbEntity
  8
1
100
AcDbEllipse
 62
6
  6
CONTINUOUS
 10
97.7308756249
 20
140.2904378124
 30
0.0
 11
4.3319125763
 21
4.3319125763
 31
0.0
 40
0.5187046472
 41
-1.0736844408
 42
-0.4784991097
  0
ENDSEC
  0
SECTION
  2
OBJECTS
  0
DICTIONARY
  5
C
100
AcDbDictionary
280
0
281
1
  3
ACAD_GROUP
350
D
  3
ACAD_MLINESTYLE
350
17
  3
ACAD_LAYOUT
350
1A
  3
ACAD_PLOTSETTINGS
350
19
  3
ACAD_PLOTSTYLENAME
350
E
  0
DICTIONARY
  5
D
102
{ACAD_REACTORS
330
C
102
}
100
AcDbDictionary
280
0
281
1
  0
ACDBDICTIONARYWDFLT
  5
E
102
{ACAD_REACTORS
330
C
102
}
100
AcDbDictionary
281
1
  3
Normal
350
F
100
AcDbDictionaryWithDefault
340
F
  0
DICTIONARY
  5
17
102
{ACAD_REACTORS
330
C
102
}
100
AcDbDictionary
280
0
281
1
  3
Standard
350
18
  0
DICTIONARY
  5
19
102
{ACAD_REACTORS
330
C
102
}
100
AcDbDictionary
281
1
  0
DICTIONARY
  5
1A
102
{ACAD_REACTORS
330
C
102
}
100
AcDbDictionary
281
1
  3
Model
350
32F
  3
Layout1
350
330
  0
ACDBPLACEHOLDER
  5
F
102
{ACAD_REACTORS
330
E
102
}
  0
MLINESTYLE
  5
18
102
{ACAD_REACTORS
330
17
102
}
100
AcDbMlineStyle
  2
STANDARD
 70
0
  3

 62
256
 51
90.0
 52
90.0
 71
2
 49
0.5
 62
256
  6
BYLAYER
 49
-0.5
 62
256
  6
BYLAYER
  0
LAYOUT
  5
32F
102
{ACAD_REACTORS
330
1A
102
}
100
AcDbPlotSettings
  1

  2
none_device
  4
ISO_A3_(420.00_x_297.00_MM)
  6

 40
0.0
 41
0.0
 42
0.0
 43
0.0
 44
420.0
 45
297.0
 46
0.0
 47
0.0
 48
0.0
 49
0.0
140
0.0
141
0.0
142
1.0
143
1.0
 70
1024
 72
1
 73
0
 74
0
  7

 75
0
147
1.0
148
0.0
149
0.0
100
AcDbLayout
  1
Model
 70
0
 71
0
 10
0.0
 20
0.0
 11
420.0
 21
297.0
 12
0.0
 22
0.0
 32
0.0
 14
0.0
 24
0.0
 34
0.0
 15
0.0
 25
0.0
 35
0.0
146
0.0
 13
0.0
 23
0.0
 33
0.0
 16
1.0
 26
0.0
 36
0.0
 17
0.0
 27
1.0
 37
0.0
 76
0
330
231
345
0
346
0
  0
LAYOUT
  5
330
102
{ACAD_REACTORS
330
1A
102
}
100
AcDbPlotSettings
  1

  2
none_device
  4
ISO_A3_(420.00_x_297.00_MM)
  6

 40
0.0
 41
0.0
 42
0.0
 43
0.0
 44
420.0
 45
297.0
 46
0.0
 47
0.0
 48
0.0
 49
0.0
140
0.0
141
0.0
142
1.0
143
1.0
 70
0
 72
1
 73
0
 74
0
  7

 75
0
147
1.0
148
0.0
149
0.0
100
AcDbLayout
  1
Layout1
 70
0
 71
1
 10
0.0
 20
0.0
 11
420.0
 21
297.0
 12
0.0
 22
0.0
 32
0.0
 14
0.0
 24
0.0
 34
0.0
 15
0.0
 25
0.0
 35
0.0
146
0.0
 13
0.0
 23
0.0
 33
0.0
 16
1.0
 26
0.0
 36
0.0
 17
0.0
 27
1.0
 37
0.0
 76
0
330
232
345
0
346
0
  0
ENDSEC
  0
EOF
