999
DXF file: 200_50-646-16-3-bmg.dxf
999
Pro/ENGINEER 2010430 by Parametric Technology Corporation
  0
SECTION
  2
HEADER
  9
$ACADVER
  1
AC1021
  9
$DWGCODEPAGE
  3
ANSI_1252
  9
$EXTMAX
 10
420.0
 20
297.0
 30
0.0
  9
$EXTMIN
 10
0.0
 20
0.0
 30
0.0
  9
$LIMMIN
 10
0.0
 20
0.0
  9
$LIMMAX
 10
420.0
 20
297.0
  9
$VIEWCTR
 10
210.0
 20
148.5
  9
$VIEWSIZE
 40
297.0
  9
$CLAYER
  8
0
  9
$LTSCALE
 40
23.1
  9
$CELTYPE
  6
BYLAYER
  9
$DIMSCALE
 40
1.0
  9
$DIMASZ
 40
3.5
  9
$DIMEXO
 40
2.625
  9
$DIMDLI
 40
15.96
  9
$DIMEXE
 40
7.56
  9
$DIMCEN
 40
3.78
  9
$DIMLFAC
 40
1.0
  9
$DIMBLK
  1
_FILLED
  9
$DIMTXT
 40
3.5
  9
$DIMTOL
 70
0
  9
$DIMLIM
 70
0
  9
$DIMTFAC
 40
1.0
  9
$PDMODE
 70
3
  9
$PDSIZE
 40
0.3125
  9
$HANDSEED
  5
304
  9
$TILEMODE
 70
1
  9
$MEASUREMENT
 70
1
  9
$INSUNITS
 70
4
  0
ENDSEC
  0
SECTION
  2
CLASSES
  0
CLASS
  1
ACDBDICTIONARYWDFLT
  2
AcDbDictionaryWithDefault
  3
AutoCAD 2000
 90
0
 91
1
280
0
281
0
  0
CLASS
  1
ACDBPLACEHOLDER
  2
AcDbPlaceHolder
  3
AutoCAD 2000
 90
0
 91
1
280
0
281
0
  0
CLASS
  1
LAYOUT
  2
AcDbLayout
  3
AutoCAD 2000
 90
0
 91
0
280
0
281
0
  0
ENDSEC
  0
SECTION
  2
TABLES
  0
TABLE
  2
VPORT
  5
8
100
AcDbSymbolTable
 70
2
  0
VPORT
  5
1F4
100
AcDbSymbolTableRecord
100
AcDbViewportTableRecord
  2
*ACTIVE
 70
0
 10
0.0
 20
0.0
 11
1.0
 21
1.0
 12
210.0
 22
148.5
 13
0.0
 23
0.0
 14
1.0
 24
1.0
 15
0.0
 25
0.0
 16
0.0
 26
0.0
 36
1.0
 17
0.0
 27
0.0
 37
0.0
 40
297.0
 41
1.4141414141
 42
50.0
 43
0.0
 44
0.0
 50
0.0
 51
0.0
 71
0
 72
100
 73
1
 74
1
 75
0
 76
0
 77
0
 78
0
  0
ENDTAB
  0
TABLE
  2
LTYPE
  5
5
100
AcDbSymbolTable
 70
6
  0
LTYPE
  5
14
100
AcDbSymbolTableRecord
100
AcDbLinetypeTableRecord
  2
BYBLOCK
 70
0
  3

 72
65
 73
0
 40
0.0
  0
LTYPE
  5
15
100
AcDbSymbolTableRecord
100
AcDbLinetypeTableRecord
  2
BYLAYER
 70
0
  3

 72
65
 73
0
 40
0.0
  0
LTYPE
  5
16
100
AcDbSymbolTableRecord
100
AcDbLinetypeTableRecord
  2
CONTINUOUS
 70
64
  3
Solid line
 72
65
 73
0
 40
0.0
  0
LTYPE
  5
1F5
100
AcDbSymbolTableRecord
100
AcDbLinetypeTableRecord
  2
CENTER
 70
64
  3
____ _ ____ _ ____ _ ____ _ ____ _ ____ _ ____
 72
65
 73
4
 40
0.6
 49
0.375
 74
0
 49
-0.075
 74
0
 49
0.075
 74
0
 49
-0.075
 74
0
  0
LTYPE
  5
1F6
100
AcDbSymbolTableRecord
100
AcDbLinetypeTableRecord
  2
HIDDEN
 70
64
  3
- - - - - - - - - - - - - - - - - - - -
 72
65
 73
2
 40
0.2
 49
0.1
 74
0
 49
-0.1
 74
0
  0
LTYPE
  5
1F7
100
AcDbSymbolTableRecord
100
AcDbLinetypeTableRecord
  2
PHANTOM
 70
64
  3
_____ _ _ _____ _ _ _____ _ _ _____
 72
65
 73
6
 40
0.8
 49
0.45
 74
0
 49
-0.05
 74
0
 49
0.1
 74
0
 49
-0.05
 74
0
 49
0.1
 74
0
 49
-0.05
 74
0
  0
LTYPE
  5
1F8
100
AcDbSymbolTableRecord
100
AcDbLinetypeTableRecord
  2
DOT
 70
64
  3
. . . . . . . . . . . . . . . . . . . .
 72
65
 73
2
 40
0.2
 49
0.1
 74
0
 49
-0.1
 74
0
  0
LTYPE
  5
1F9
100
AcDbSymbolTableRecord
100
AcDbLinetypeTableRecord
  2
DASHED
 70
64
  3
- - - - - - - - - - - - - - - - - - - -
 72
65
 73
2
 40
0.2
 49
0.1
 74
0
 49
-0.1
 74
0
  0
ENDTAB
  0
TABLE
  2
LAYER
  5
2
100
AcDbSymbolTable
 70
36
  0
LAYER
  5
10
100
AcDbSymbolTableRecord
100
AcDbLayerTableRecord
  2
0
 70
0
 62
7
  6
CONTINUOUS
370
-3
390
F
  0
LAYER
  5
1FA
100
AcDbSymbolTableRecord
100
AcDbLayerTableRecord
  2
DEFAULT_1
 70
0
 62
7
  6
CENTER
370
-3
390
F
  0
LAYER
  5
1FB
100
AcDbSymbolTableRecord
100
AcDbLayerTableRecord
  2
DEFAULT_2
 70
0
 62
8
  6
HIDDEN
370
-3
390
F
  0
LAYER
  5
1FC
100
AcDbSymbolTableRecord
100
AcDbLayerTableRecord
  2
DEFAULT_3
 70
0
 62
7
  6
PHANTOM
370
-3
390
F
  0
LAYER
  5
1FD
100
AcDbSymbolTableRecord
100
AcDbLayerTableRecord
  2
1
 70
0
 62
7
  6
CONTINUOUS
370
-3
390
F
  0
LAYER
  5
1FE
100
AcDbSymbolTableRecord
100
AcDbLayerTableRecord
  2
2
 70
0
 62
7
  6
CONTINUOUS
370
-3
390
F
  0
LAYER
  5
1FF
100
AcDbSymbolTableRecord
100
AcDbLayerTableRecord
  2
4
 70
0
 62
7
  6
CONTINUOUS
370
-3
390
F
  0
LAYER
  5
200
100
AcDbSymbolTableRecord
100
AcDbLayerTableRecord
  2
5
 70
0
 62
7
  6
CONTINUOUS
370
-3
390
F
  0
LAYER
  5
201
100
AcDbSymbolTableRecord
100
AcDbLayerTableRecord
  2
6
 70
0
 62
7
  6
CONTINUOUS
370
-3
390
F
  0
LAYER
  5
202
100
AcDbSymbolTableRecord
100
AcDbLayerTableRecord
  2
ACHSEN
 70
0
 62
7
  6
CONTINUOUS
370
-3
390
F
  0
LAYER
  5
203
100
AcDbSymbolTableRecord
100
AcDbLayerTableRecord
  2
ANALYSEN
 70
0
 62
7
  6
CONTINUOUS
370
-3
390
F
  0
LAYER
  5
204
100
AcDbSymbolTableRecord
100
AcDbLayerTableRecord
  2
AUFMASS_WEICHBEARBEITUNG
 70
0
 62
7
  6
CONTINUOUS
370
-3
390
F
  0
LAYER
  5
205
100
AcDbSymbolTableRecord
100
AcDbLayerTableRecord
  2
AUFMASS_WEICHBE_INNENKONTUR
 70
0
 62
7
  6
CONTINUOUS
370
-3
390
F
  0
LAYER
  5
206
100
AcDbSymbolTableRecord
100
AcDbLayerTableRecord
  2
AUSSENKONTUR
 70
0
 62
7
  6
CONTINUOUS
370
-3
390
F
  0
LAYER
  5
207
100
AcDbSymbolTableRecord
100
AcDbLayerTableRecord
  2
BEZUGSACHSEN
 70
0
 62
7
  6
CONTINUOUS
370
-3
390
F
  0
LAYER
  5
208
100
AcDbSymbolTableRecord
100
AcDbLayerTableRecord
  2
BEZUGSACHSENKENNZEICHEN
 70
0
 62
7
  6
CONTINUOUS
370
-3
390
F
  0
LAYER
  5
209
100
AcDbSymbolTableRecord
100
AcDbLayerTableRecord
  2
BEZUGSEBENEN
 70
0
 62
7
  6
CONTINUOUS
370
-3
390
F
  0
LAYER
  5
20A
100
AcDbSymbolTableRecord
100
AcDbLayerTableRecord
  2
BEZUGSEBENE_B
 70
0
 62
7
  6
CONTINUOUS
370
-3
390
F
  0
LAYER
  5
20B
100
AcDbSymbolTableRecord
100
AcDbLayerTableRecord
  2
BEZUGSPUNKTE
 70
0
 62
7
  6
CONTINUOUS
370
-3
390
F
  0
LAYER
  5
20C
100
AcDbSymbolTableRecord
100
AcDbLayerTableRecord
  2
BOHRUNGEN
 70
0
 62
7
  6
CONTINUOUS
370
-3
390
F
  0
LAYER
  5
20D
100
AcDbSymbolTableRecord
100
AcDbLayerTableRecord
  2
EBENEN
 70
0
 62
7
  6
CONTINUOUS
370
-3
390
F
  0
LAYER
  5
20E
100
AcDbSymbolTableRecord
100
AcDbLayerTableRecord
  2
FASEN
 70
0
 62
7
  6
CONTINUOUS
370
-3
390
F
  0
LAYER
  5
20F
100
AcDbSymbolTableRecord
100
AcDbLayerTableRecord
  2
FLAECHEN
 70
0
 62
7
  6
CONTINUOUS
370
-3
390
F
  0
LAYER
  5
210
100
AcDbSymbolTableRecord
100
AcDbLayerTableRecord
  2
FORM_LAGE_TOLERANZEN
 70
0
 62
7
  6
CONTINUOUS
370
-3
390
F
  0
LAYER
  5
211
100
AcDbSymbolTableRecord
100
AcDbLayerTableRecord
  2
GEWINDE
 70
0
 62
7
  6
CONTINUOUS
370
-3
390
F
  0
LAYER
  5
212
100
AcDbSymbolTableRecord
100
AcDbLayerTableRecord
  2
HILFEN
 70
0
 62
7
  6
CONTINUOUS
370
-3
390
F
  0
LAYER
  5
213
100
AcDbSymbolTableRecord
100
AcDbLayerTableRecord
  2
INNENKONTUR
 70
0
 62
7
  6
CONTINUOUS
370
-3
390
F
  0
LAYER
  5
214
100
AcDbSymbolTableRecord
100
AcDbLayerTableRecord
  2
KOORDINATENSYSTEME
 70
0
 62
7
  6
CONTINUOUS
370
-3
390
F
  0
LAYER
  5
215
100
AcDbSymbolTableRecord
100
AcDbLayerTableRecord
  2
KOORDSYS
 70
0
 62
7
  6
CONTINUOUS
370
-3
390
F
  0
LAYER
  5
216
100
AcDbSymbolTableRecord
100
AcDbLayerTableRecord
  2
KURVEN
 70
0
 62
7
  6
CONTINUOUS
370
-3
390
F
  0
LAYER
  5
217
100
AcDbSymbolTableRecord
100
AcDbLayerTableRecord
  2
KURVE_FUER_GTOL_DETAILANSICHT
 70
0
 62
7
  6
CONTINUOUS
370
-3
390
F
  0
LAYER
  5
218
100
AcDbSymbolTableRecord
100
AcDbLayerTableRecord
  2
KURVE_GAUGE2_POLIGON_INNENEINST
 70
0
 62
7
  6
CONTINUOUS
370
-3
390
F
  0
LAYER
  5
219
100
AcDbSymbolTableRecord
100
AcDbLayerTableRecord
  2
KURVE_PHANTOM1_GAUGE_PIN_1
 70
0
 62
7
  6
CONTINUOUS
370
-3
390
F
  0
LAYER
  5
21A
100
AcDbSymbolTableRecord
100
AcDbLayerTableRecord
  2
KURVE_PHANTOM2_GAUGE_PIN1
 70
0
 62
7
  6
CONTINUOUS
370
-3
390
F
  0
LAYER
  5
21B
100
AcDbSymbolTableRecord
100
AcDbLayerTableRecord
  2
KURVE_POLIGON_BEMASUNG
 70
0
 62
7
  6
CONTINUOUS
370
-3
390
F
  0
LAYER
  5
21C
100
AcDbSymbolTableRecord
100
AcDbLayerTableRecord
  2
NOCUT
 70
0
 62
7
  6
CONTINUOUS
370
-3
390
F
  0
LAYER
  5
21D
100
AcDbSymbolTableRecord
100
AcDbLayerTableRecord
  2
PLATZIERUNG
 70
0
 62
7
  6
CONTINUOUS
370
-3
390
F
  0
LAYER
  5
21E
100
AcDbSymbolTableRecord
100
AcDbLayerTableRecord
  2
PUNKTE
 70
0
 62
7
  6
CONTINUOUS
370
-3
390
F
  0
LAYER
  5
21F
100
AcDbSymbolTableRecord
100
AcDbLayerTableRecord
  2
RUNDUNGEN
 70
0
 62
7
  6
CONTINUOUS
370
-3
390
F
  0
LAYER
  5
220
100
AcDbSymbolTableRecord
100
AcDbLayerTableRecord
  2
SK1
 70
0
 62
7
  6
CONTINUOUS
370
-3
390
F
  0
LAYER
  5
221
100
AcDbSymbolTableRecord
100
AcDbLayerTableRecord
  2
SK2
 70
0
 62
7
  6
CONTINUOUS
370
-3
390
F
  0
LAYER
  5
222
100
AcDbSymbolTableRecord
100
AcDbLayerTableRecord
  2
SK4
 70
0
 62
7
  6
CONTINUOUS
370
-3
390
F
  0
LAYER
  5
223
100
AcDbSymbolTableRecord
100
AcDbLayerTableRecord
  2
S_ACHSEN
 70
0
 62
7
  6
CONTINUOUS
370
-3
390
F
  0
LAYER
  5
224
100
AcDbSymbolTableRecord
100
AcDbLayerTableRecord
  2
S_EBENEN
 70
0
 62
7
  6
CONTINUOUS
370
-3
390
F
  0
LAYER
  5
225
100
AcDbSymbolTableRecord
100
AcDbLayerTableRecord
  2
S_KOORDSYS
 70
0
 62
7
  6
CONTINUOUS
370
-3
390
F
  0
LAYER
  5
226
100
AcDbSymbolTableRecord
100
AcDbLayerTableRecord
  2
TEIL_STARTBEZUEGE
 70
0
 62
7
  6
CONTINUOUS
370
-3
390
F
  0
LAYER
  5
227
100
AcDbSymbolTableRecord
100
AcDbLayerTableRecord
  2
TOL_BEZUEGE
 70
0
 62
7
  6
CONTINUOUS
370
-3
390
F
  0
LAYER
  5
228
100
AcDbSymbolTableRecord
100
AcDbLayerTableRecord
  2
VERBFLAECHE
 70
0
 62
7
  6
CONTINUOUS
370
-3
390
F
  0
LAYER
  5
229
100
AcDbSymbolTableRecord
100
AcDbLayerTableRecord
  2
VERERBUNG
 70
0
 62
7
  6
CONTINUOUS
370
-3
390
F
  0
LAYER
  5
22A
100
AcDbSymbolTableRecord
100
AcDbLayerTableRecord
  2
VOLGEOM
 70
0
 62
7
  6
CONTINUOUS
370
-3
390
F
  0
LAYER
  5
22B
100
AcDbSymbolTableRecord
100
AcDbLayerTableRecord
  2
VOLUMEN
 70
0
 62
7
  6
CONTINUOUS
370
-3
390
F
  0
LAYER
  5
22C
100
AcDbSymbolTableRecord
100
AcDbLayerTableRecord
  2
XSEC_DATUMS
 70
0
 62
7
  6
CONTINUOUS
370
-3
390
F
  0
LAYER
  5
22D
100
AcDbSymbolTableRecord
100
AcDbLayerTableRecord
  2
ZEICHNUNG
 70
0
 62
7
  6
CONTINUOUS
370
-3
390
F
  0
ENDTAB
  0
TABLE
  2
STYLE
  5
3
100
AcDbSymbolTable
 70
1
  0
STYLE
  5
11
100
AcDbSymbolTableRecord
100
AcDbTextStyleTableRecord
  2
STANDARD
 70
0
 40
0.0
 41
0.7
 50
0.0
 71
0
 42
0.2
  3
txt
  4

  0
STYLE
  5
22E
100
AcDbSymbolTableRecord
100
AcDbTextStyleTableRecord
  2
TEXTSTYLE_1
 70
0
 40
0.0
 41
0.8
 50
0.0
 71
0
 42
0.2
  3
gdt
  4

  0
STYLE
  5
22F
100
AcDbSymbolTableRecord
100
AcDbTextStyleTableRecord
  2
TEXTSTYLE_2
 70
0
 40
0.0
 41
0.7
 50
0.0
 71
0
 42
0.2
  3
gdt
  4

  0
ENDTAB
  0
TABLE
  2
VIEW
  5
6
100
AcDbSymbolTable
 70
0
  0
ENDTAB
  0
TABLE
  2
UCS
  5
7
100
AcDbSymbolTable
 70
0
  0
ENDTAB
  0
TABLE
  2
APPID
  5
9
100
AcDbSymbolTable
 70
1
  0
APPID
  5
230
100
AcDbSymbolTableRecord
100
AcDbRegAppTableRecord
  2
ACAD
 70
0
  0
ENDTAB
  0
TABLE
  2
BLOCK_RECORD
  5
1
100
AcDbSymbolTable
 70
0
  0
BLOCK_RECORD
  5
231
100
AcDbSymbolTableRecord
100
AcDbBlockTableRecord
  2
*Model_Space
  0
BLOCK_RECORD
  5
232
100
AcDbSymbolTableRecord
100
AcDbBlockTableRecord
  2
*Paper_Space
  0
BLOCK_RECORD
  5
233
100
AcDbSymbolTableRecord
100
AcDbBlockTableRecord
  2
_FILLED
  0
BLOCK_RECORD
  5
234
100
AcDbSymbolTableRecord
100
AcDbBlockTableRecord
  2
*D0
  0
BLOCK_RECORD
  5
235
100
AcDbSymbolTableRecord
100
AcDbBlockTableRecord
  2
*D1
  0
BLOCK_RECORD
  5
236
100
AcDbSymbolTableRecord
100
AcDbBlockTableRecord
  2
*D2
  0
BLOCK_RECORD
  5
237
100
AcDbSymbolTableRecord
100
AcDbBlockTableRecord
  2
*D3
  0
BLOCK_RECORD
  5
238
100
AcDbSymbolTableRecord
100
AcDbBlockTableRecord
  2
*D4
  0
BLOCK_RECORD
  5
239
100
AcDbSymbolTableRecord
100
AcDbBlockTableRecord
  2
*D5
  0
BLOCK_RECORD
  5
23A
100
AcDbSymbolTableRecord
100
AcDbBlockTableRecord
  2
*D6
  0
BLOCK_RECORD
  5
23B
100
AcDbSymbolTableRecord
100
AcDbBlockTableRecord
  2
*D7
  0
ENDTAB
  0
TABLE
  2
DIMSTYLE
  5
A
100
AcDbSymbolTable
 70
1
100
AcDbDimStyleTable
 71
0
  0
DIMSTYLE
105
23C
100
AcDbSymbolTableRecord
100
AcDbDimStyleTableRecord
  2
STANDARD
 70
0
  3

  4

 40
1.0
 41
3.5
 42
0.0625
 43
0.38
 44
0.18
 45
0.0
 46
0.0
 47
0.005
 48
0.005
140
3.5
141
0.09
142
0.0
143
25.4
144
1.0
145
0.0
146
1.0
147
0.09
 71
0.0
 72
0.0
 73
0
 74
0
 75
0
 76
0
 77
1
 78
8
170
0
171
2
172
0
173
0
174
0
175
0
176
0
177
0
178
5
270
2
271
3
272
3
273
2
274
2
275
0
280
0
281
0
282
0
283
1
284
8
285
0
286
0
287
3
288
0
340
11
341
233
342
233
343
233
344
233
  0
DIMSTYLE
105
23D
100
AcDbSymbolTableRecord
100
AcDbDimStyleTableRecord
  2
DIMSTYLE_1
 70
0
  3

  4

 40
1.0
 41
3.5
 42
0.0625
 43
0.38
 44
0.18
 45
0.0
 46
0.0
 47
0.0
 48
0.0
140
3.5
141
0.09
142
0.0
143
25.4
144
1.0
145
0.0
146
1.0
147
0.09
 71
0.0
 72
0.0
 73
0
 74
0
 75
0
 76
0
 77
1
 78
8
170
0
171
2
172
0
173
0
174
0
175
0
176
0
177
0
178
5
270
2
271
3
272
3
273
2
274
2
275
0
280
0
281
0
282
0
283
1
284
8
285
0
286
0
287
3
288
0
340
11
341
233
342
233
343
233
344
233
  0
DIMSTYLE
105
23E
100
AcDbSymbolTableRecord
100
AcDbDimStyleTableRecord
  2
DIMSTYLE_2
 70
0
  3

  4

 40
1.0
 41
3.5
 42
0.0625
 43
0.38
 44
0.18
 45
0.0
 46
0.0
 47
0.0
 48
0.0
140
3.5
141
0.09
142
0.0
143
25.4
144
1.0
145
0.0
146
1.0
147
0.09
 71
0.0
 72
0.0
 73
0
 74
0
 75
0
 76
0
 77
1
 78
8
170
0
171
2
172
0
173
0
174
0
175
0
176
0
177
0
178
5
270
2
271
2
272
2
273
2
274
2
275
0
280
0
281
0
282
0
283
1
284
8
285
0
286
0
287
3
288
0
340
11
341
233
342
233
343
233
344
233
  0
DIMSTYLE
105
23F
100
AcDbSymbolTableRecord
100
AcDbDimStyleTableRecord
  2
DIMSTYLE_3
 70
0
  3

  4

 40
1.0
 41
3.5
 42
0.0625
 43
0.38
 44
0.18
 45
0.0
 46
0.0
 47
0.0
 48
0.0
140
3.5
141
0.09
142
0.0
143
25.4
144
1.0
145
0.0
146
1.0
147
0.09
 71
0.0
 72
0.0
 73
0
 74
0
 75
0
 76
0
 77
1
 78
8
170
0
171
2
172
0
173
0
174
0
175
0
176
0
177
0
178
5
270
2
271
2
272
2
273
2
274
2
275
0
280
0
281
0
282
0
283
1
284
8
285
0
286
0
287
3
288
0
340
11
341
233
342
233
343
233
344
233
  0
DIMSTYLE
105
240
100
AcDbSymbolTableRecord
100
AcDbDimStyleTableRecord
  2
DIMSTYLE_4
 70
0
  3

  4

 40
1.0
 41
3.5
 42
0.0625
 43
0.38
 44
0.18
 45
0.0
 46
0.0
 47
0.0
 48
0.0
140
3.5
141
0.09
142
0.0
143
25.4
144
1.0
145
0.0
146
1.0
147
0.09
 71
0.0
 72
0.0
 73
0
 74
0
 75
0
 76
0
 77
1
 78
8
170
0
171
2
172
0
173
0
174
0
175
0
176
0
177
0
178
5
270
2
271
2
272
2
273
2
274
2
275
0
280
0
281
0
282
0
283
1
284
8
285
0
286
0
287
3
288
0
340
11
341
233
342
233
343
233
344
233
  0
ENDTAB
  0
ENDSEC
  0
SECTION
  2
BLOCKS
  0
BLOCK
  5
20
100
AcDbEntity
  8
0
100
AcDbBlockBegin
  2
*Model_Space
 70
0
 10
0.0
 20
0.0
 30
0.0
  3
*Model_Space
  1

  0
ENDBLK
  5
21
100
AcDbEntity
  8
0
100
AcDbBlockEnd
  0
BLOCK
  5
1C
100
AcDbEntity
  8
0
100
AcDbBlockBegin
  2
*Paper_Space
 70
0
 10
0.0
 20
0.0
 30
0.0
  3
*Paper_Space
  1

  0
ENDBLK
  5
1D
100
AcDbEntity
  8
0
100
AcDbBlockEnd
  0
BLOCK
  5
241
100
AcDbEntity
  8
0
100
AcDbBlockBegin
  2
_FILLED
 70
64
 10
0.0
 20
0.0
  3
_FILLED
  1

  0
SOLID
  5
242
100
AcDbEntity
  8
0
  6
BYBLOCK
 62
0
100
AcDbTrace
 10
0.0
 20
0.0
 11
-1.0
 21
0.125
 12
-1.0
 22
-0.125
 13
-1.0
 23
-0.125
  0
ENDBLK
  5
243
100
AcDbEntity
  8
0
  6
BYBLOCK
 62
0
100
AcDbBlockEnd
  0
BLOCK
  5
244
100
AcDbEntity
  8
2
100
AcDbBlockBegin
 62
2
  6
CONTINUOUS
  2
*D0
 70
65
 10
0.0
 20
0.0
  3
*D0
  1

  0
MTEXT
  5
245
100
AcDbEntity
  8
2
100
AcDbMText
 62
5
  6
CONTINUOUS
  7
TEXTSTYLE_2
 71
2
 72
1
 10
356.9858756249
 20
155.1804378124
 30
0.0
 11
0.0
 21
1.0
 31
0.0
 44
0.9
  1
{\Fgdt;n}\Ftxt;16
 40
3.5
 41
9.4166666667
  0
LINE
  5
246
100
AcDbEntity
  8
2
100
AcDbLine
 62
2
  6
CONTINUOUS
 10
351.8108756249
 20
147.1804378124
 11
362.8608756249
 21
147.1804378124
  0
LINE
  5
247
100
AcDbEntity
  8
2
100
AcDbLine
 62
2
  6
CONTINUOUS
 10
351.8108756249
 20
163.1804378124
 11
362.8608756249
 21
163.1804378124
  0
LINE
  5
248
100
AcDbEntity
  8
2
100
AcDbLine
 62
2
  6
CONTINUOUS
 10
361.3608756249
 20
147.1804378124
 11
361.3608756249
 21
155.1804378124
  0
LINE
  5
249
100
AcDbEntity
  8
2
100
AcDbLine
 62
2
  6
CONTINUOUS
 10
361.3608756249
 20
163.1804378124
 11
361.3608756249
 21
155.1804378124
  0
INSERT
  5
24A
100
AcDbEntity
  8
2
100
AcDbBlockReference
 62
2
  6
CONTINUOUS
  2
_FILLED
 10
361.3608756249
 20
147.1804378124
 41
3.5
 42
3.5
 43
3.5
 50
270.0
  0
INSERT
  5
24B
100
AcDbEntity
  8
2
100
AcDbBlockReference
 62
2
  6
CONTINUOUS
  2
_FILLED
 10
361.3608756249
 20
163.1804378124
 41
3.5
 42
3.5
 43
3.5
 50
90.0
  0
ENDBLK
  5
24C
100
AcDbEntity
  8
0
  6
BYBLOCK
 62
0
100
AcDbBlockEnd
  0
BLOCK
  5
24D
100
AcDbEntity
  8
SK2
100
AcDbBlockBegin
 62
2
  6
CONTINUOUS
  2
*D1
 70
65
 10
0.0
 20
0.0
  3
*D1
  1

  0
MTEXT
  5
24E
100
AcDbEntity
  8
SK2
100
AcDbMText
 62
5
  6
CONTINUOUS
  7
TEXTSTYLE_2
 71
2
 72
1
 10
363.9858756249
 20
155.1804378124
 30
0.0
 11
0.0
 21
1.0
 31
0.0
 44
0.9
  1
{\Fgdt;n}\Ftxt;33
 40
3.5
 41
9.6666666667
  0
LINE
  5
24F
100
AcDbEntity
  8
SK2
100
AcDbLine
 62
2
  6
CONTINUOUS
 10
351.8108756249
 20
138.6804378124
 11
369.8608756249
 21
138.6804378124
  0
LINE
  5
250
100
AcDbEntity
  8
SK2
100
AcDbLine
 62
2
  6
CONTINUOUS
 10
351.8108756249
 20
171.6804378124
 11
369.8608756249
 21
171.6804378124
  0
LINE
  5
251
100
AcDbEntity
  8
SK2
100
AcDbLine
 62
2
  6
CONTINUOUS
 10
368.3608756249
 20
138.6804378124
 11
368.3608756249
 21
155.1804378124
  0
LINE
  5
252
100
AcDbEntity
  8
SK2
100
AcDbLine
 62
2
  6
CONTINUOUS
 10
368.3608756249
 20
171.6804378124
 11
368.3608756249
 21
155.1804378124
  0
INSERT
  5
253
100
AcDbEntity
  8
SK2
100
AcDbBlockReference
 62
2
  6
CONTINUOUS
  2
_FILLED
 10
368.3608756249
 20
138.6804378124
 41
3.5
 42
3.5
 43
3.5
 50
270.0
  0
INSERT
  5
254
100
AcDbEntity
  8
SK2
100
AcDbBlockReference
 62
2
  6
CONTINUOUS
  2
_FILLED
 10
368.3608756249
 20
171.6804378124
 41
3.5
 42
3.5
 43
3.5
 50
90.0
  0
ENDBLK
  5
255
100
AcDbEntity
  8
0
  6
BYBLOCK
 62
0
100
AcDbBlockEnd
  0
BLOCK
  5
256
100
AcDbEntity
  8
SK2
100
AcDbBlockBegin
 62
2
  6
CONTINUOUS
  2
*D2
 70
65
 10
0.0
 20
0.0
  3
*D2
  1

  0
MTEXT
  5
257
100
AcDbEntity
  8
SK2
100
AcDbMText
 62
5
  6
CONTINUOUS
  7
STANDARD
 71
2
 72
1
 10
269.3108756249
 20
220.5429378124
 30
0.0
 11
1.0
 21
0.0
 31
0.0
 44
0.9
  1
162
 40
3.5
 41
7.5
  0
LINE
  5
258
100
AcDbEntity
  8
SK2
100
AcDbLine
 62
2
  6
CONTINUOUS
 10
188.3108756249
 20
206.1679378124
 11
188.3108756249
 21
217.6679378124
  0
LINE
  5
259
100
AcDbEntity
  8
SK2
100
AcDbLine
 62
2
  6
CONTINUOUS
 10
350.3108756249
 20
172.2560473208
 11
350.3108756249
 21
217.6679378124
  0
LINE
  5
25A
100
AcDbEntity
  8
SK2
100
AcDbLine
 62
2
  6
CONTINUOUS
 10
188.3108756249
 20
216.1679378124
 11
269.3108756249
 21
216.1679378124
  0
LINE
  5
25B
100
AcDbEntity
  8
SK2
100
AcDbLine
 62
2
  6
CONTINUOUS
 10
350.3108756249
 20
216.1679378124
 11
269.3108756249
 21
216.1679378124
  0
INSERT
  5
25C
100
AcDbEntity
  8
SK2
100
AcDbBlockReference
 62
2
  6
CONTINUOUS
  2
_FILLED
 10
188.3108756249
 20
216.1679378124
 41
3.5
 42
3.5
 43
3.5
 50
180.0
  0
INSERT
  5
25D
100
AcDbEntity
  8
SK2
100
AcDbBlockReference
 62
2
  6
CONTINUOUS
  2
_FILLED
 10
350.3108756249
 20
216.1679378124
 41
3.5
 42
3.5
 43
3.5
  0
ENDBLK
  5
25E
100
AcDbEntity
  8
0
  6
BYBLOCK
 62
0
100
AcDbBlockEnd
  0
BLOCK
  5
25F
100
AcDbEntity
  8
2
100
AcDbBlockBegin
 62
2
  6
CONTINUOUS
  2
*D3
 70
65
 10
0.0
 20
0.0
  3
*D3
  1

  0
MTEXT
  5
260
100
AcDbEntity
  8
2
100
AcDbMText
 62
5
  6
CONTINUOUS
  7
STANDARD
 71
2
 72
1
 10
250.3108756249
 20
227.5429378124
 30
0.0
 11
1.0
 21
0.0
 31
0.0
 44
0.9
  1
200
 40
3.5
 41
8.25
  0
LINE
  5
261
100
AcDbEntity
  8
2
100
AcDbLine
 62
2
  6
CONTINUOUS
 10
350.3108756249
 20
172.2560473208
 11
350.3108756249
 21
224.6679378124
  0
LINE
  5
262
100
AcDbEntity
  8
2
100
AcDbLine
 62
2
  6
CONTINUOUS
 10
150.3108756249
 20
206.1679378124
 11
150.3108756249
 21
224.6679378124
  0
LINE
  5
263
100
AcDbEntity
  8
2
100
AcDbLine
 62
2
  6
CONTINUOUS
 10
350.3108756249
 20
223.1679378124
 11
250.3108756249
 21
223.1679378124
  0
LINE
  5
264
100
AcDbEntity
  8
2
100
AcDbLine
 62
2
  6
CONTINUOUS
 10
150.3108756249
 20
223.1679378124
 11
250.3108756249
 21
223.1679378124
  0
INSERT
  5
265
100
AcDbEntity
  8
2
100
AcDbBlockReference
 62
2
  6
CONTINUOUS
  2
_FILLED
 10
350.3108756249
 20
223.1679378124
 41
3.5
 42
3.5
 43
3.5
  0
INSERT
  5
266
100
AcDbEntity
  8
2
100
AcDbBlockReference
 62
2
  6
CONTINUOUS
  2
_FILLED
 10
150.3108756249
 20
223.1679378124
 41
3.5
 42
3.5
 43
3.5
 50
180.0
  0
ENDBLK
  5
267
100
AcDbEntity
  8
0
  6
BYBLOCK
 62
0
100
AcDbBlockEnd
  0
BLOCK
  5
268
100
AcDbEntity
  8
SK2
100
AcDbBlockBegin
 62
2
  6
CONTINUOUS
  2
*D4
 70
65
 10
0.0
 20
0.0
  3
*D4
  1

  0
MTEXT
  5
269
100
AcDbEntity
  8
SK2
100
AcDbMText
 62
5
  6
CONTINUOUS
  7
STANDARD
 71
2
 72
1
 10
199.4108756249
 20
234.5429378124
 30
0.0
 11
1.0
 21
0.0
 31
0.0
 44
0.9
  1
301.8
 40
3.5
 41
12.0
  0
LINE
  5
26A
100
AcDbEntity
  8
SK2
100
AcDbLine
 62
2
  6
CONTINUOUS
 10
350.3108756249
 20
172.2560473208
 11
350.3108756249
 21
231.6679378124
  0
LINE
  5
26B
100
AcDbEntity
  8
SK2
100
AcDbLine
 62
2
  6
CONTINUOUS
 10
48.5108756249
 20
165.1804378124
 11
48.5108756249
 21
231.6679378124
  0
LINE
  5
26C
100
AcDbEntity
  8
SK2
100
AcDbLine
 62
2
  6
CONTINUOUS
 10
350.3108756249
 20
230.1679378124
 11
199.4108756249
 21
230.1679378124
  0
LINE
  5
26D
100
AcDbEntity
  8
SK2
100
AcDbLine
 62
2
  6
CONTINUOUS
 10
48.5108756249
 20
230.1679378124
 11
199.4108756249
 21
230.1679378124
  0
INSERT
  5
26E
100
AcDbEntity
  8
SK2
100
AcDbBlockReference
 62
2
  6
CONTINUOUS
  2
_FILLED
 10
350.3108756249
 20
230.1679378124
 41
3.5
 42
3.5
 43
3.5
  0
INSERT
  5
26F
100
AcDbEntity
  8
SK2
100
AcDbBlockReference
 62
2
  6
CONTINUOUS
  2
_FILLED
 10
48.5108756249
 20
230.1679378124
 41
3.5
 42
3.5
 43
3.5
 50
180.0
  0
ENDBLK
  5
270
100
AcDbEntity
  8
0
  6
BYBLOCK
 62
0
100
AcDbBlockEnd
  0
BLOCK
  5
271
100
AcDbEntity
  8
SK2
100
AcDbBlockBegin
 62
2
  6
CONTINUOUS
  2
*D5
 70
65
 10
0.0
 20
0.0
  3
*D5
  1

  0
MTEXT
  5
272
100
AcDbEntity
  8
SK2
100
AcDbMText
 62
5
  6
CONTINUOUS
  7
STANDARD
 71
1
 72
1
 10
353.2732773453
 20
178.7116710074
 30
0.0
 11
0.828693008
 21
0.5597034022
 31
0.0
 44
0.9
  1
R1
 40
3.5
 41
4.75
  0
LINE
  5
273
100
AcDbEntity
  8
SK2
100
AcDbLine
 62
2
  6
CONTINUOUS
 10
350.1395686329
 20
171.315750723
 11
359.658271518
 21
177.7447302576
  0
INSERT
  5
274
100
AcDbEntity
  8
SK2
100
AcDbBlockReference
 62
2
  6
CONTINUOUS
  2
_FILLED
 10
350.1395686329
 20
171.315750723
 41
3.5
 42
3.5
 43
3.5
 50
214.0352885099
  0
ENDBLK
  5
275
100
AcDbEntity
  8
0
  6
BYBLOCK
 62
0
100
AcDbBlockEnd
  0
BLOCK
  5
276
100
AcDbEntity
  8
2
100
AcDbBlockBegin
 62
2
  6
CONTINUOUS
  2
*D6
 70
65
 10
0.0
 20
0.0
  3
*D6
  1

  0
MTEXT
  5
277
100
AcDbEntity
  8
2
100
AcDbMText
 62
5
  6
CONTINUOUS
  7
TEXTSTYLE_2
 71
2
 72
1
 10
370.9858756249
 20
155.1804378124
 30
0.0
 11
0.0
 21
1.0
 31
0.0
 44
0.9
  1
{\Fgdt;n}\Ftxt;83
 40
3.5
 41
9.9166666667
  0
LINE
  5
278
100
AcDbEntity
  8
2
100
AcDbLine
 62
2
  6
CONTINUOUS
 10
190.8108756249
 20
196.6554378124
 11
376.8608756249
 21
196.6554378124
  0
LINE
  5
279
100
AcDbEntity
  8
2
100
AcDbLine
 62
2
  6
CONTINUOUS
 10
190.8108756249
 20
113.7054378124
 11
376.8608756249
 21
113.7054378124
  0
LINE
  5
27A
100
AcDbEntity
  8
2
100
AcDbLine
 62
2
  6
CONTINUOUS
 10
375.3608756249
 20
196.6554378124
 11
375.3608756249
 21
155.1804378124
  0
LINE
  5
27B
100
AcDbEntity
  8
2
100
AcDbLine
 62
2
  6
CONTINUOUS
 10
375.3608756249
 20
113.7054378124
 11
375.3608756249
 21
155.1804378124
  0
INSERT
  5
27C
100
AcDbEntity
  8
2
100
AcDbBlockReference
 62
2
  6
CONTINUOUS
  2
_FILLED
 10
375.3608756249
 20
196.6554378124
 41
3.5
 42
3.5
 43
3.5
 50
90.0
  0
INSERT
  5
27D
100
AcDbEntity
  8
2
100
AcDbBlockReference
 62
2
  6
CONTINUOUS
  2
_FILLED
 10
375.3608756249
 20
113.7054378124
 41
3.5
 42
3.5
 43
3.5
 50
270.0
  0
ENDBLK
  5
27E
100
AcDbEntity
  8
0
  6
BYBLOCK
 62
0
100
AcDbBlockEnd
  0
BLOCK
  5
27F
100
AcDbEntity
  8
SK2
100
AcDbBlockBegin
 62
2
  6
CONTINUOUS
  2
*D7
 70
65
 10
0.0
 20
0.0
  3
*D7
  1

  0
MTEXT
  5
280
100
AcDbEntity
  8
SK2
100
AcDbMText
 62
5
  6
CONTINUOUS
  7
STANDARD
 71
2
 72
1
 10
329.3662723712
 20
185.5234217781
 30
0.0
 11
0.0392598158
 21
0.9992290362
 31
0.0
 44
0.9
  1
4.5\Fgdt;{\Fgdt;~}
 40
3.5
 41
9.5833333333
  0
LINE
  5
281
100
AcDbEntity
  8
SK2
100
AcDbLine
 62
2
  6
CONTINUOUS
 10
336.3608756249
 20
172.7783266226
 11
334.1334864195
 21
172.9536259549
  0
LINE
  5
282
100
AcDbEntity
  8
SK2
100
AcDbLine
 62
2
  6
CONTINUOUS
 10
336.3608756249
 20
197.6804378124
 11
338.1050055033
 21
197.6804378124
  0
ARC
  5
283
100
AcDbEntity
  8
SK2
100
AcDbCircle
 62
2
  6
CONTINUOUS
 10
19.9495524843
 20
197.6804378124
 40
316.655453019
100
AcDbArc
 50
355.5
 51
357.75
  0
ARC
  5
284
100
AcDbEntity
  8
SK2
100
AcDbCircle
 62
2
  6
CONTINUOUS
 10
19.9495524843
 20
197.6804378124
 40
316.655453019
100
AcDbArc
 50
357.75
 51
360.0
  0
SOLID
  5
285
100
AcDbEntity
  8
SK2
100
AcDbTrace
 62
2
  6
CONTINUOUS
 10
335.4478476226
 20
176.3585272524
 11
335.6288624201
 21
172.8359373113
 12
336.3205163711
 22
176.2946973582
 13
336.3205163711
 23
176.2946973582
  0
SOLID
  5
286
100
AcDbEntity
  8
SK2
100
AcDbTrace
 62
2
  6
CONTINUOUS
 10
337.0231561305
 20
194.1780734249
 11
336.6050055033
 21
197.6804378124
 12
336.1481694927
 22
194.1829090979
 13
336.1481694927
 23
194.1829090979
  0
ENDBLK
  5
287
100
AcDbEntity
  8
0
  6
BYBLOCK
 62
0
100
AcDbBlockEnd
  0
ENDSEC
  0
SECTION
  2
ENTITIES
  0
DIMENSION
  5
288
100
AcDbEntity
  8
2
100
AcDbDimension
 62
2
  6
CONTINUOUS
  2
*D0
 10
361.3608756249
 20
163.1804378124
 11
359.7907155962
 21
153.0758206669
 70
160
 71
2
 42
16.0
  1
%%c<>
  3
DIMSTYLE_1
100
AcDbAlignedDimension
 13
351.8108756249
 23
147.1804378124
 14
351.8108756249
 24
163.1804378124
 50
90.0
100
AcDbRotatedDimension
  0
DIMENSION
  5
289
100
AcDbEntity
  8
SK2
100
AcDbDimension
 62
2
  6
CONTINUOUS
  2
*D1
 10
368.3608756249
 20
171.6804378124
 11
366.8187201972
 21
153.0199458754
 70
160
 71
2
 42
33.0
  1
%%c<>
  3
DIMSTYLE_2
100
AcDbAlignedDimension
 13
351.8108756249
 23
138.6804378124
 14
351.8108756249
 24
171.6804378124
 50
90.0
100
AcDbRotatedDimension
  0
DIMENSION
  5
28A
100
AcDbEntity
  8
SK2
100
AcDbDimension
 62
2
  6
CONTINUOUS
  2
*D2
 10
350.3108756249
 20
216.1679378124
 11
265.5608756249
 21
218.7929378124
 70
160
 71
2
 42
162.0
  3
DIMSTYLE_2
100
AcDbAlignedDimension
 13
188.3108756249
 23
206.1679378124
 14
350.3108756249
 24
172.2560473208
100
AcDbRotatedDimension
  0
DIMENSION
  5
28B
100
AcDbEntity
  8
2
100
AcDbDimension
 62
2
  6
CONTINUOUS
  2
*D3
 10
150.3108756249
 20
223.1679378124
 11
246.1858756249
 21
225.7929378124
 70
160
 71
2
 42
200.0
  3
DIMSTYLE_2
100
AcDbAlignedDimension
 13
350.3108756249
 23
172.2560473208
 14
150.3108756249
 24
206.1679378124
 50
180.0
100
AcDbRotatedDimension
  0
DIMENSION
  5
28C
100
AcDbEntity
  8
SK2
100
AcDbDimension
 62
2
  6
CONTINUOUS
  2
*D4
 10
48.5108756249
 20
230.1679378124
 11
193.4108756249
 21
232.7929378124
 70
160
 71
2
 42
301.8
  3
DIMSTYLE_2
100
AcDbAlignedDimension
 13
350.3108756249
 23
172.2560473208
 14
48.5108756249
 24
165.1804378124
 50
180.0
100
AcDbRotatedDimension
  0
DIMENSION
  5
28D
100
AcDbEntity
  8
SK2
100
AcDbDimension
 62
2
  6
CONTINUOUS
  2
*D5
 10
349.3108756249
 20
170.7560473208
 11
356.2209041932
 21
178.5907538235
 70
164
 71
1
 42
1.0
  1
<>
  3
DIMSTYLE_3
100
AcDbRadialDimension
 15
350.1395686329
 25
171.315750723
  0
DIMENSION
  5
28E
100
AcDbEntity
  8
2
100
AcDbDimension
 62
2
  6
CONTINUOUS
  2
*D6
 10
375.3608756249
 20
113.7054378124
 11
373.8467247982
 21
152.9640710839
 70
160
 71
2
 42
82.95
  1
%%c<>
  3
DIMSTYLE_2
100
AcDbAlignedDimension
 13
190.8108756249
 23
196.6554378124
 14
190.8108756249
 24
113.7054378124
 50
270.0
100
AcDbRotatedDimension
  0
DIMENSION
  5
28F
100
AcDbEntity
  8
SK2
100
AcDbDimension
 62
2
  6
CONTINUOUS
  2
*D7
 10
338.1050055033
 20
197.6804378124
 11
328.7740433949
 21
185.9649123291
 70
162
 71
2
 42
0.0785398163
  3
DIMSTYLE_4
100
AcDb2LineAngularDimension
 13
334.1334864195
 23
172.9536259549
 14
336.3608756249
 24
172.7783266226
 15
336.3608756249
 25
197.6804378124
 16
336.3608756249
 26
185.2486030678
  0
MTEXT
  5
290
100
AcDbEntity
  8
6
100
AcDbMText
 62
5
  6
CONTINUOUS
  7
STANDARD
 71
1
 72
1
 10
139.5741815328
 20
82.3507156451
 30
0.0
 11
1.0
 21
0.0
 31
0.0
 44
0.9
  3
Für diese Unterlage behalten wir das Ur-\Pheberrecht. Sie darf nur für den von uns\Pbestimmten Zweck benutzt und ohne unsere \PZustimmung weder vervielfältigt noch \PDritten zugänglich gemacht werden.\P \PWe own the copyright of this document. It\Pde
  1
termined and may neither be copied or\Pmade accessible to outsiders without our\Ppermission.\P \PCe plan reste notre propriété. Il ne peut\Pétre utilisé, copié ou reproduit sans notre\Paccord.
 40
3.5
 41
103.5833333333
  0
LINE
  5
291
100
AcDbEntity
  8
1
100
AcDbLine
 62
9
  6
CONTINUOUS
 10
48.5608756249
 20
174.3936332201
 11
48.5608756249
 21
135.9672424048
  0
LINE
  5
292
100
AcDbEntity
  8
1
100
AcDbLine
 62
9
  6
CONTINUOUS
 10
49.4165569557
 20
175.3831644837
 11
49.4165569557
 21
134.9777111411
  0
LINE
  5
293
100
AcDbEntity
  8
1
100
AcDbLine
 62
6
  6
CONTINUOUS
 10
149.7416850086
 20
190.0151316554
 11
149.7416850086
 21
120.3457439695
  0
LINE
  5
294
100
AcDbEntity
  8
DEFAULT_1
100
AcDbLine
 62
7
  6
CENTER
 10
150.3608756249
 20
101.1929378124
 11
150.3608756249
 21
209.1679378124
  0
LINE
  5
295
100
AcDbEntity
  8
1
100
AcDbLine
 62
6
  6
CONTINUOUS
 10
150.7108756249
 20
189.7554378124
 11
150.7108756249
 21
120.6054378124
  0
LINE
  5
296
100
AcDbEntity
  8
1
100
AcDbLine
 62
9
  6
CONTINUOUS
 10
152.3608756249
 20
189.7554378124
 11
152.3608756249
 21
120.6054378124
  0
LINE
  5
297
100
AcDbEntity
  8
1
100
AcDbLine
 62
9
  6
CONTINUOUS
 10
153.3608756249
 20
106.1929378124
 11
153.3608756249
 21
141.2779378124
  0
LINE
  5
298
100
AcDbEntity
  8
1
100
AcDbLine
 62
6
  6
CONTINUOUS
 10
153.3608756249
 20
141.2779378124
 11
153.3608756249
 21
150.0286784042
  0
LINE
  5
299
100
AcDbEntity
  8
1
100
AcDbLine
 62
6
  6
CONTINUOUS
 10
153.3608756249
 20
160.3321972206
 11
153.3608756249
 21
169.0829378124
  0
LINE
  5
29A
100
AcDbEntity
  8
1
100
AcDbLine
 62
9
  6
CONTINUOUS
 10
153.3608756249
 20
169.0829378124
 11
153.3608756249
 21
204.1679378124
  0
LINE
  5
29B
100
AcDbEntity
  8
1
100
AcDbLine
 62
9
  6
CONTINUOUS
 10
154.3608756249
 20
105.1929378124
 11
154.3608756249
 21
142.2779378124
  0
LINE
  5
29C
100
AcDbEntity
  8
1
100
AcDbLine
 62
9
  6
CONTINUOUS
 10
154.3608756249
 20
168.0829378124
 11
154.3608756249
 21
205.1679378124
  0
LINE
  5
29D
100
AcDbEntity
  8
1
100
AcDbLine
 62
6
  6
CONTINUOUS
 10
187.3608756249
 20
105.1929378124
 11
181.0863539199
 21
105.1929378124
  0
LINE
  5
29E
100
AcDbEntity
  8
1
100
AcDbLine
 62
6
  6
CONTINUOUS
 10
154.3608756249
 20
105.1929378124
 11
166.0353973299
 21
105.1929378124
  0
LINE
  5
29F
100
AcDbEntity
  8
1
100
AcDbLine
 62
6
  6
CONTINUOUS
 10
170.2733756249
 20
112.8054378124
 11
176.8483756249
 21
112.8054378124
  0
LINE
  5
2A0
100
AcDbEntity
  8
1
100
AcDbLine
 62
6
  6
CONTINUOUS
 10
198.3608756249
 20
113.7054378124
 11
189.3108756249
 21
113.7054378124
  0
LINE
  5
2A1
100
AcDbEntity
  8
1
100
AcDbLine
 62
6
  6
CONTINUOUS
 10
149.7416850086
 20
120.3457439695
 11
49.4165569557
 21
134.9777111411
  0
LINE
  5
2A2
100
AcDbEntity
  8
1
100
AcDbLine
 62
6
  6
CONTINUOUS
 10
166.0353973299
 20
205.1679378124
 11
166.0353973299
 21
169.3667346994
  0
LINE
  5
2A3
100
AcDbEntity
  8
1
100
AcDbLine
 62
6
  6
CONTINUOUS
 10
166.0353973299
 20
140.9941409255
 11
166.0353973299
 21
105.1929378124
  0
LINE
  5
2A4
100
AcDbEntity
  8
1
100
AcDbLine
 62
6
  6
CONTINUOUS
 10
177.0983756249
 20
198.225623049
 11
181.0863539199
 21
205.1679378124
  0
LINE
  5
2A5
100
AcDbEntity
  8
1
100
AcDbLine
 62
6
  6
CONTINUOUS
 10
276.9187322335
 20
130.1072873746
 11
198.3608756249
 21
113.7054378124
  0
LINE
  5
2A6
100
AcDbEntity
  8
1
100
AcDbLine
 62
6
  6
CONTINUOUS
 10
152.3608756249
 20
120.6054378124
 11
150.7108756249
 21
120.6054378124
  0
LINE
  5
2A7
100
AcDbEntity
  8
1
100
AcDbLine
 62
6
  6
CONTINUOUS
 10
177.0983756249
 20
112.1352525759
 11
181.0863539199
 21
105.1929378124
  0
LINE
  5
2A8
100
AcDbEntity
  8
1
100
AcDbLine
 62
6
  6
CONTINUOUS
 10
170.0233756249
 20
198.2256168873
 11
170.0233756249
 21
168.0829378124
  0
LINE
  5
2A9
100
AcDbEntity
  8
1
100
AcDbLine
 62
6
  6
CONTINUOUS
 10
170.0233756249
 20
142.2779378124
 11
170.0233756249
 21
112.1352587376
  0
LINE
  5
2AA
100
AcDbEntity
  8
1
100
AcDbLine
 62
9
  6
CONTINUOUS
 10
170.2733756249
 20
112.8054378124
 11
170.2733756249
 21
142.2779378124
  0
LINE
  5
2AB
100
AcDbEntity
  8
1
100
AcDbLine
 62
9
  6
CONTINUOUS
 10
170.2733756249
 20
168.0829378124
 11
170.2733756249
 21
197.5554378124
  0
LINE
  5
2AC
100
AcDbEntity
  8
1
100
AcDbLine
 62
9
  6
CONTINUOUS
 10
176.8483756249
 20
112.8054378124
 11
176.8483756249
 21
143.3459582611
  0
LINE
  5
2AD
100
AcDbEntity
  8
1
100
AcDbLine
 62
9
  6
CONTINUOUS
 10
176.8483756249
 20
167.0149173637
 11
176.8483756249
 21
197.5554378124
  0
LINE
  5
2AE
100
AcDbEntity
  8
1
100
AcDbLine
 62
6
  6
CONTINUOUS
 10
177.0983756249
 20
112.1352525759
 11
177.0983756249
 21
143.4577074884
  0
LINE
  5
2AF
100
AcDbEntity
  8
1
100
AcDbLine
 62
6
  6
CONTINUOUS
 10
177.0983756249
 20
166.9031681365
 11
177.0983756249
 21
198.225623049
  0
LINE
  5
2B0
100
AcDbEntity
  8
1
100
AcDbLine
 62
6
  6
CONTINUOUS
 10
153.3608756249
 20
141.2779378124
 11
154.3608756249
 21
142.2779378124
  0
LINE
  5
2B1
100
AcDbEntity
  8
1
100
AcDbLine
 62
6
  6
CONTINUOUS
 10
150.7108756249
 20
120.6054378124
 11
149.7416850086
 21
120.3457439695
  0
LINE
  5
2B2
100
AcDbEntity
  8
1
100
AcDbLine
 62
6
  6
CONTINUOUS
 10
349.4393347206
 20
138.5954109704
 11
288.3853792072
 21
133.7903604631
  0
LINE
  5
2B3
100
AcDbEntity
  8
1
100
AcDbLine
 62
6
  6
CONTINUOUS
 10
285.8149521982
 20
131.2054378124
 11
278.3227558402
 21
131.2054378124
  0
LINE
  5
2B4
100
AcDbEntity
  8
1
100
AcDbLine
 62
6
  6
CONTINUOUS
 10
153.3608756249
 20
169.0829378124
 11
154.3608756249
 21
168.0829378124
  0
LINE
  5
2B5
100
AcDbEntity
  8
1
100
AcDbLine
 62
6
  6
CONTINUOUS
 10
181.0863539199
 20
205.1679378124
 11
181.0863539199
 21
165.6529288198
  0
LINE
  5
2B6
100
AcDbEntity
  8
1
100
AcDbLine
 62
6
  6
CONTINUOUS
 10
181.0863539199
 20
144.7079563702
 11
181.0863539199
 21
105.1929378124
  0
LINE
  5
2B7
100
AcDbEntity
  8
1
100
AcDbLine
 62
9
  6
CONTINUOUS
 10
187.3608756249
 20
205.1679378124
 11
187.3608756249
 21
105.1929378124
  0
LINE
  5
2B8
100
AcDbEntity
  8
1
100
AcDbLine
 62
6
  6
CONTINUOUS
 10
188.3608756249
 20
204.1679378124
 11
188.3608756249
 21
106.1929378124
  0
LINE
  5
2B9
100
AcDbEntity
  8
1
100
AcDbLine
 62
9
  6
CONTINUOUS
 10
189.3108756249
 20
196.6554378124
 11
189.3108756249
 21
113.7054378124
  0
LINE
  5
2BA
100
AcDbEntity
  8
1
100
AcDbLine
 62
6
  6
CONTINUOUS
 10
166.0353973299
 20
140.9941409255
 11
154.3608756249
 21
140.9941409255
  0
LINE
  5
2BB
100
AcDbEntity
  8
1
100
AcDbLine
 62
6
  6
CONTINUOUS
 10
154.3608756249
 20
142.2779378124
 11
171.7083756249
 21
142.2779378124
  0
LINE
  5
2BC
100
AcDbEntity
  8
1
100
AcDbLine
 62
6
  6
CONTINUOUS
 10
198.3608756249
 20
196.6554378124
 11
198.3608756249
 21
113.7054378124
  0
LINE
  5
2BD
100
AcDbEntity
  8
1
100
AcDbLine
 62
6
  6
CONTINUOUS
 10
166.0353973299
 20
105.1929378124
 11
170.0233756249
 21
112.1352525759
  0
LINE
  5
2BE
100
AcDbEntity
  8
DEFAULT_1
100
AcDbLine
 62
7
  6
CENTER
 10
353.3608756249
 20
155.1804378124
 11
185.3108756249
 21
155.1804378124
  0
LINE
  5
2BF
100
AcDbEntity
  8
4
100
AcDbLine
 62
7
  6
CENTER
 10
353.4194325482
 20
155.1804378124
 11
44.5608756249
 21
155.1804378124
  0
LINE
  5
2C0
100
AcDbEntity
  8
1
100
AcDbLine
 62
6
  6
CONTINUOUS
 10
166.0353973299
 20
205.1679378124
 11
170.0233756249
 21
198.225623049
  0
LINE
  5
2C1
100
AcDbEntity
  8
1
100
AcDbLine
 62
6
  6
CONTINUOUS
 10
154.3608756249
 20
168.0829378124
 11
171.7083756249
 21
168.0829378124
  0
LINE
  5
2C2
100
AcDbEntity
  8
1
100
AcDbLine
 62
6
  6
CONTINUOUS
 10
154.3608756249
 20
169.3667346994
 11
166.0353973299
 21
169.3667346994
  0
LINE
  5
2C3
100
AcDbEntity
  8
1
100
AcDbLine
 62
6
  6
CONTINUOUS
 10
150.7108756249
 20
189.7554378124
 11
149.7416850086
 21
190.0151316554
  0
LINE
  5
2C4
100
AcDbEntity
  8
1
100
AcDbLine
 62
6
  6
CONTINUOUS
 10
285.8149521982
 20
179.1554378124
 11
278.3227558402
 21
179.1554378124
  0
LINE
  5
2C5
100
AcDbEntity
  8
1
100
AcDbLine
 62
6
  6
CONTINUOUS
 10
349.4393347206
 20
171.7654646545
 11
288.3853792072
 21
176.5705151618
  0
LINE
  5
2C6
100
AcDbEntity
  8
1
100
AcDbLine
 62
6
  6
CONTINUOUS
 10
149.7416850086
 20
190.0151316554
 11
49.4165569557
 21
175.3831644837
  0
LINE
  5
2C7
100
AcDbEntity
  8
1
100
AcDbLine
 62
6
  6
CONTINUOUS
 10
152.3608756249
 20
189.7554378124
 11
150.7108756249
 21
189.7554378124
  0
LINE
  5
2C8
100
AcDbEntity
  8
1
100
AcDbLine
 62
6
  6
CONTINUOUS
 10
198.3608756249
 20
196.6554378124
 11
189.3108756249
 21
196.6554378124
  0
LINE
  5
2C9
100
AcDbEntity
  8
1
100
AcDbLine
 62
6
  6
CONTINUOUS
 10
170.2733756249
 20
197.5554378124
 11
176.8483756249
 21
197.5554378124
  0
LINE
  5
2CA
100
AcDbEntity
  8
1
100
AcDbLine
 62
6
  6
CONTINUOUS
 10
276.9187322335
 20
180.2535882503
 11
198.3608756249
 21
196.6554378124
  0
LINE
  5
2CB
100
AcDbEntity
  8
1
100
AcDbLine
 62
6
  6
CONTINUOUS
 10
187.3608756249
 20
205.1679378124
 11
181.0863539199
 21
205.1679378124
  0
LINE
  5
2CC
100
AcDbEntity
  8
1
100
AcDbLine
 62
6
  6
CONTINUOUS
 10
154.3608756249
 20
205.1679378124
 11
166.0353973299
 21
205.1679378124
  0
LINE
  5
2CD
100
AcDbEntity
  8
1
100
AcDbLine
 62
9
  6
CONTINUOUS
 10
276.9187322335
 20
180.2535882503
 11
276.9187322335
 21
130.1072873746
  0
LINE
  5
2CE
100
AcDbEntity
  8
1
100
AcDbLine
 62
9
  6
CONTINUOUS
 10
277.4480487667
 20
179.8704749055
 11
277.4480487667
 21
130.4904007194
  0
LINE
  5
2CF
100
AcDbEntity
  8
1
100
AcDbLine
 62
9
  6
CONTINUOUS
 10
277.6299355172
 20
179.5554378124
 11
277.6299355172
 21
130.8054378124
  0
LINE
  5
2D0
100
AcDbEntity
  8
1
100
AcDbLine
 62
9
  6
CONTINUOUS
 10
278.3227558402
 20
179.1554378124
 11
278.3227558402
 21
131.2054378124
  0
LINE
  5
2D1
100
AcDbEntity
  8
1
100
AcDbLine
 62
9
  6
CONTINUOUS
 10
285.8149521982
 20
179.1554378124
 11
285.8149521982
 21
131.2054378124
  0
LINE
  5
2D2
100
AcDbEntity
  8
1
100
AcDbLine
 62
6
  6
CONTINUOUS
 10
277.6299355172
 20
130.8054378124
 11
277.4480487667
 21
130.4904007194
  0
LINE
  5
2D3
100
AcDbEntity
  8
1
100
AcDbLine
 62
6
  6
CONTINUOUS
 10
277.4480487667
 20
179.8704749055
 11
277.6299355172
 21
179.5554378124
  0
LINE
  5
2D4
100
AcDbEntity
  8
1
100
AcDbLine
 62
9
  6
CONTINUOUS
 10
286.680977602
 20
178.6554378124
 11
286.680977602
 21
131.7054378124
  0
LINE
  5
2D5
100
AcDbEntity
  8
1
100
AcDbLine
 62
9
  6
CONTINUOUS
 10
287.5978128991
 20
177.0674324956
 11
287.5978128991
 21
133.2934431293
  0
LINE
  5
2D6
100
AcDbEntity
  8
1
100
AcDbLine
 62
9
  6
CONTINUOUS
 10
288.3853792072
 20
176.5705151618
 11
288.3853792072
 21
133.7903604631
  0
LINE
  5
2D7
100
AcDbEntity
  8
1
100
AcDbLine
 62
6
  6
CONTINUOUS
 10
287.5978128991
 20
133.2934431293
 11
286.680977602
 21
131.7054378124
  0
LINE
  5
2D8
100
AcDbEntity
  8
1
100
AcDbLine
 62
6
  6
CONTINUOUS
 10
286.680977602
 20
178.6554378124
 11
287.5978128991
 21
177.0674324956
  0
LINE
  5
2D9
100
AcDbEntity
  8
1
100
AcDbLine
 62
9
  6
CONTINUOUS
 10
349.4393347206
 20
171.7654646545
 11
349.4393347206
 21
138.5954109704
  0
LINE
  5
2DA
100
AcDbEntity
  8
1
100
AcDbLine
 62
6
  6
CONTINUOUS
 10
350.3608756249
 20
170.7685473208
 11
350.3608756249
 21
139.5923283041
  0
LINE
  5
2DB
100
AcDbEntity
  8
TEIL_STARTBEZUEGE
100
AcDbLine
 62
7
  6
CENTER
 10
150.3608756249
 20
155.0
 11
150.3608756249
 21
151.999975
  0
LINE
  5
2DC
100
AcDbEntity
  8
TEIL_STARTBEZUEGE
100
AcDbLine
 62
7
  6
CENTER
 10
150.3608756249
 20
155.0
 11
150.3608756249
 21
158.000025
  0
LINE
  5
2DD
100
AcDbEntity
  8
SK1
100
AcDbLine
 62
8
  6
HIDDEN
 10
299.8608756249
 20
147.25
 11
350.3608756249
 21
147.25
  0
LINE
  5
2DE
100
AcDbEntity
  8
TEIL_STARTBEZUEGE
100
AcDbLine
 62
7
  6
CENTER
 10
191.3608756249
 20
155.0
 11
45.5608756249
 21
155.0
  0
LINE
  5
2DF
100
AcDbEntity
  8
SK1
100
AcDbLine
 62
8
  6
HIDDEN
 10
299.8608756249
 20
162.75
 11
350.3608756249
 21
162.75
  0
LINE
  5
2E0
100
AcDbEntity
  8
SK1
100
AcDbLine
 62
8
  6
HIDDEN
 10
299.8608756249
 20
162.75
 11
299.8608756249
 21
147.25
  0
ARC
  5
2E1
100
AcDbEntity
  8
1
100
AcDbCircle
 62
6
  6
CONTINUOUS
 10
-32.3987880508
 20
55.3646318032
 40
228.8506180731
100
AcDbArc
 50
29.5077295963
 51
29.8777286411
  0
ARC
  5
2E2
100
AcDbEntity
  8
1
100
AcDbCircle
 62
6
  6
CONTINUOUS
 10
154.3608756249
 20
106.1929378124
 40
1.0
100
AcDbArc
 50
180.0
 51
270.0
  0
ARC
  5
2E3
100
AcDbEntity
  8
1
100
AcDbCircle
 62
6
  6
CONTINUOUS
 10
152.3608756249
 20
119.6054378124
 40
1.0
100
AcDbArc
 50
0.0
 51
90.0
  0
ARC
  5
2E4
100
AcDbEntity
  8
1
100
AcDbCircle
 62
6
  6
CONTINUOUS
 10
49.5608756249
 20
135.9672424048
 40
1.0
100
AcDbArc
 50
180.0
 51
261.7021731718
  0
ARC
  5
2E5
100
AcDbEntity
  8
1
100
AcDbCircle
 62
6
  6
CONTINUOUS
 10
-32.3987880456
 20
254.9962438188
 40
228.8506180672
100
AcDbArc
 50
330.1222713589
 51
330.4922704037
  0
ARC
  5
2E6
100
AcDbEntity
  8
1
100
AcDbCircle
 62
6
  6
CONTINUOUS
 10
154.3608756249
 20
204.1679378124
 40
1.0
100
AcDbArc
 50
90.0
 51
180.0
  0
ARC
  5
2E7
100
AcDbEntity
  8
1
100
AcDbCircle
 62
6
  6
CONTINUOUS
 10
152.3608756249
 20
190.7554378124
 40
1.0
100
AcDbArc
 50
270.0
 51
360.0
  0
ARC
  5
2E8
100
AcDbEntity
  8
1
100
AcDbCircle
 62
6
  6
CONTINUOUS
 10
49.5608756249
 20
174.3936332201
 40
1.0
100
AcDbArc
 50
98.2978268282
 51
180.0
  0
ARC
  5
2E9
100
AcDbEntity
  8
1
100
AcDbCircle
 62
6
  6
CONTINUOUS
 10
187.3608756249
 20
106.1929378124
 40
1.0
100
AcDbArc
 50
270.0
 51
360.0
  0
ARC
  5
2EA
100
AcDbEntity
  8
1
100
AcDbCircle
 62
6
  6
CONTINUOUS
 10
189.3108756249
 20
112.7054378124
 40
1.0
100
AcDbArc
 50
90.0
 51
161.8051276612
  0
ARC
  5
2EB
100
AcDbEntity
  8
1
100
AcDbCircle
 62
6
  6
CONTINUOUS
 10
176.8483756249
 20
112.5554378124
 40
0.25
100
AcDbArc
 50
0.0
 51
90.0
  0
ARC
  5
2EC
100
AcDbEntity
  8
1
100
AcDbCircle
 62
6
  6
CONTINUOUS
 10
170.2733756249
 20
112.5554378124
 40
0.25
100
AcDbArc
 50
90.0
 51
180.0
  0
ARC
  5
2ED
100
AcDbEntity
  8
1
100
AcDbCircle
 62
6
  6
CONTINUOUS
 10
308.1008908357
 20
77.7206641904
 40
154.4822829673
100
AcDbArc
 50
145.3051136933
 51
145.7374621119
  0
ARC
  5
2EE
100
AcDbEntity
  8
1
100
AcDbCircle
 62
6
  6
CONTINUOUS
 10
278.3227558402
 20
130.4054378124
 40
0.8
100
AcDbArc
 50
90.0
 51
150.0
  0
ARC
  5
2EF
100
AcDbEntity
  8
1
100
AcDbCircle
 62
6
  6
CONTINUOUS
 10
276.7552284437
 20
130.8904007194
 40
0.8
100
AcDbArc
 50
281.793191871
 51
330.0
  0
ARC
  5
2F0
100
AcDbEntity
  8
1
100
AcDbCircle
 62
6
  6
CONTINUOUS
 10
288.4638383029
 20
132.7934431293
 40
1.0
100
AcDbArc
 50
94.5
 51
150.0
  0
ARC
  5
2F1
100
AcDbEntity
  8
1
100
AcDbCircle
 62
6
  6
CONTINUOUS
 10
285.8149521982
 20
132.2054378124
 40
1.0
100
AcDbArc
 50
270.0
 51
330.0
  0
ARC
  5
2F2
100
AcDbEntity
  8
1
100
AcDbCircle
 62
6
  6
CONTINUOUS
 10
349.3608756249
 20
139.5923283041
 40
1.0
100
AcDbArc
 50
274.5
 51
360.0
  0
ARC
  5
2F3
100
AcDbEntity
  8
1
100
AcDbCircle
 62
6
  6
CONTINUOUS
 10
171.7083756249
 20
155.1804378124
 40
12.9025
100
AcDbArc
 50
270.0
 51
90.0
  0
ARC
  5
2F4
100
AcDbEntity
  8
1
100
AcDbCircle
 62
6
  6
CONTINUOUS
 10
187.3608756249
 20
204.1679378124
 40
1.0
100
AcDbArc
 50
0.0
 51
90.0
  0
ARC
  5
2F5
100
AcDbEntity
  8
1
100
AcDbCircle
 62
6
  6
CONTINUOUS
 10
189.3108756249
 20
197.6554378124
 40
1.0
100
AcDbArc
 50
198.1948723388
 51
270.0
  0
ARC
  5
2F6
100
AcDbEntity
  8
1
100
AcDbCircle
 62
6
  6
CONTINUOUS
 10
176.8483756249
 20
197.8054378124
 40
0.25
100
AcDbArc
 50
270.0
 51
360.0
  0
ARC
  5
2F7
100
AcDbEntity
  8
1
100
AcDbCircle
 62
6
  6
CONTINUOUS
 10
170.2733756249
 20
197.8054378124
 40
0.25
100
AcDbArc
 50
180.0
 51
270.0
  0
ARC
  5
2F8
100
AcDbEntity
  8
1
100
AcDbCircle
 62
6
  6
CONTINUOUS
 10
288.4638383029
 20
177.5674324956
 40
1.0
100
AcDbArc
 50
210.0
 51
265.5
  0
ARC
  5
2F9
100
AcDbEntity
  8
1
100
AcDbCircle
 62
6
  6
CONTINUOUS
 10
285.8149521982
 20
178.1554378124
 40
1.0
100
AcDbArc
 50
30.0
 51
90.0
  0
ARC
  5
2FA
100
AcDbEntity
  8
1
100
AcDbCircle
 62
6
  6
CONTINUOUS
 10
349.3608756249
 20
170.7685473208
 40
1.0
100
AcDbArc
 50
0.0
 51
85.5
  0
ARC
  5
2FB
100
AcDbEntity
  8
1
100
AcDbCircle
 62
6
  6
CONTINUOUS
 10
278.3227558402
 20
179.9554378124
 40
0.8
100
AcDbArc
 50
210.0
 51
270.0
  0
ARC
  5
2FC
100
AcDbEntity
  8
1
100
AcDbCircle
 62
6
  6
CONTINUOUS
 10
276.7552284437
 20
179.4704749055
 40
0.8
100
AcDbArc
 50
30.0
 51
78.206808129
  0
ARC
  5
2FD
100
AcDbEntity
  8
1
100
AcDbCircle
 62
6
  6
CONTINUOUS
 10
308.0977261789
 20
232.6380244125
 40
154.4784306919
100
AcDbArc
 50
214.2625280055
 51
214.6948845708
  0
SPLINE
  5
2FE
100
AcDbEntity
  8
1
100
AcDbSpline
 62
6
  6
CONTINUOUS
 70
0
 71
3
 72
16
 73
12
 74
0
 42
0.0000001
 43
0.0000001
 44
0.0000000001
 40
0.0
 40
0.0
 40
0.0
 40
0.0
 40
0.179548396
 40
0.3527716708
 40
0.5136431707
 40
0.6567824205
 40
0.7778451562
 40
0.8741016909
 40
0.9129026896
 40
0.9460462763
 40
1.0
 40
1.0
 40
1.0
 40
1.0
 10
154.3608756249
 20
140.9941409255
 30
0.0
 10
154.2958204587
 20
140.9941008177
 30
0.0
 10
154.1679698485
 20
140.9976007996
 30
0.0
 10
153.9824221725
 20
141.0133391174
 30
0.0
 10
153.8112594377
 20
141.0387368466
 30
0.0
 10
153.6608305651
 20
141.0727812452
 30
0.0
 10
153.5367585223
 20
141.1141996061
 30
0.0
 10
153.4531040423
 20
141.1558467384
 30
0.0
 10
153.404683474
 20
141.193360822
 30
0.0
 10
153.3737376039
 20
141.2268527279
 30
0.0
 10
153.3608756249
 20
141.2583889375
 30
0.0
 10
153.3608756249
 20
141.2779378124
 30
0.0
  0
SPLINE
  5
2FF
100
AcDbEntity
  8
1
100
AcDbSpline
 62
6
  6
CONTINUOUS
 70
0
 71
3
 72
19
 73
15
 74
0
 42
0.0000001
 43
0.0000001
 44
0.0000000001
 40
0.0
 40
0.0
 40
0.0
 40
0.0
 40
0.0629569901
 40
0.1259029347
 40
0.1886660121
 40
0.2512550471
 40
0.3758347358
 40
0.500001491
 40
0.6241570341
 40
0.7487309245
 40
0.8113207968
 40
0.8740889782
 40
0.9370400436
 40
1.0
 40
1.0
 40
1.0
 40
1.0
 10
181.086345509
 20
165.6529172087
 30
0.0
 10
181.4461876109
 20
165.3174587535
 30
0.0
 10
182.1310519804
 20
164.6081564723
 30
0.0
 10
183.0398364741
 20
163.4441105098
 30
0.0
 10
183.8216765664
 20
162.1943623374
 30
0.0
 10
184.6830718432
 20
160.4384464301
 30
0.0
 10
185.414447997
 20
158.0989924121
 30
0.0
 10
185.7089162821
 20
155.180492626
 30
0.0
 10
185.4144655597
 20
152.262041552
 30
0.0
 10
184.6831744165
 20
149.9226960067
 30
0.0
 10
183.8218153373
 20
148.1667602578
 30
0.0
 10
183.0399482873
 20
146.9169280633
 30
0.0
 10
182.1311314224
 20
145.7527726504
 30
0.0
 10
181.4461919245
 20
145.0434561235
 30
0.0
 10
181.086344459
 20
144.7079694299
 30
0.0
  0
SPLINE
  5
300
100
AcDbEntity
  8
1
100
AcDbSpline
 62
6
  6
CONTINUOUS
 70
0
 71
3
 72
15
 73
11
 74
0
 42
0.0000001
 43
0.0000001
 44
0.0000000001
 40
0.0
 40
0.0
 40
0.0
 40
0.0
 40
0.1250000301
 40
0.2500000857
 40
0.3750000791
 40
0.5
 40
0.6249999209
 40
0.7499999143
 40
0.8749999699
 40
1.0
 40
1.0
 40
1.0
 40
1.0
 10
153.3608756249
 20
150.0286784042
 30
0.0
 10
153.3608756249
 20
150.4580415189
 30
0.0
 10
153.3494810158
 20
151.3167523497
 30
0.0
 10
153.3199373195
 20
152.6044887548
 30
0.0
 10
153.2944931608
 20
153.8923413851
 30
0.0
 10
153.2846040742
 20
155.1804378124
 30
0.0
 10
153.2944931608
 20
156.4685342398
 30
0.0
 10
153.3199373195
 20
157.7563868701
 30
0.0
 10
153.3494810158
 20
159.0441232752
 30
0.0
 10
153.3608756249
 20
159.902834106
 30
0.0
 10
153.3608756249
 20
160.3321972206
 30
0.0
  0
SPLINE
  5
301
100
AcDbEntity
  8
1
100
AcDbSpline
 62
6
  6
CONTINUOUS
 70
0
 71
3
 72
16
 73
12
 74
0
 42
0.0000001
 43
0.0000001
 44
0.0000000001
 40
0.0
 40
0.0
 40
0.0
 40
0.0
 40
0.0539537237
 40
0.0870973104
 40
0.1258983091
 40
0.2221548438
 40
0.3432175795
 40
0.4863568293
 40
0.6472283292
 40
0.820451604
 40
1.0
 40
1.0
 40
1.0
 40
1.0
 10
153.3608756249
 20
169.0829378124
 30
0.0
 10
153.3608756249
 20
169.1024866873
 30
0.0
 10
153.3737376039
 20
169.134022897
 30
0.0
 10
153.404683474
 20
169.1675148029
 30
0.0
 10
153.4531040423
 20
169.2050288864
 30
0.0
 10
153.5367585223
 20
169.2466760188
 30
0.0
 10
153.6608305651
 20
169.2880943797
 30
0.0
 10
153.8112594377
 20
169.3221387783
 30
0.0
 10
153.9824221725
 20
169.3475365074
 30
0.0
 10
154.1679698485
 20
169.3632748252
 30
0.0
 10
154.2958204587
 20
169.3667748072
 30
0.0
 10
154.3608756249
 20
169.3667346994
 30
0.0
  0
ENDSEC
  0
SECTION
  2
OBJECTS
  0
DICTIONARY
  5
C
100
AcDbDictionary
280
0
281
1
  3
ACAD_GROUP
350
D
  3
ACAD_MLINESTYLE
350
17
  3
ACAD_LAYOUT
350
1A
  3
ACAD_PLOTSETTINGS
350
19
  3
ACAD_PLOTSTYLENAME
350
E
  0
DICTIONARY
  5
D
102
{ACAD_REACTORS
330
C
102
}
100
AcDbDictionary
280
0
281
1
  0
ACDBDICTIONARYWDFLT
  5
E
102
{ACAD_REACTORS
330
C
102
}
100
AcDbDictionary
281
1
  3
Normal
350
F
100
AcDbDictionaryWithDefault
340
F
  0
DICTIONARY
  5
17
102
{ACAD_REACTORS
330
C
102
}
100
AcDbDictionary
280
0
281
1
  3
Standard
350
18
  0
DICTIONARY
  5
19
102
{ACAD_REACTORS
330
C
102
}
100
AcDbDictionary
281
1
  0
DICTIONARY
  5
1A
102
{ACAD_REACTORS
330
C
102
}
100
AcDbDictionary
281
1
  3
Model
350
302
  3
Layout1
350
303
  0
ACDBPLACEHOLDER
  5
F
102
{ACAD_REACTORS
330
E
102
}
  0
MLINESTYLE
  5
18
102
{ACAD_REACTORS
330
17
102
}
100
AcDbMlineStyle
  2
STANDARD
 70
0
  3

 62
256
 51
90.0
 52
90.0
 71
2
 49
0.5
 62
256
  6
BYLAYER
 49
-0.5
 62
256
  6
BYLAYER
  0
LAYOUT
  5
302
102
{ACAD_REACTORS
330
1A
102
}
100
AcDbPlotSettings
  1

  2
none_device
  4
ISO_A3_(420.00_x_297.00_MM)
  6

 40
0.0
 41
0.0
 42
0.0
 43
0.0
 44
420.0
 45
297.0
 46
0.0
 47
0.0
 48
0.0
 49
0.0
140
0.0
141
0.0
142
1.0
143
1.0
 70
1024
 72
1
 73
0
 74
0
  7

 75
0
147
1.0
148
0.0
149
0.0
100
AcDbLayout
  1
Model
 70
0
 71
0
 10
0.0
 20
0.0
 11
420.0
 21
297.0
 12
0.0
 22
0.0
 32
0.0
 14
0.0
 24
0.0
 34
0.0
 15
0.0
 25
0.0
 35
0.0
146
0.0
 13
0.0
 23
0.0
 33
0.0
 16
1.0
 26
0.0
 36
0.0
 17
0.0
 27
1.0
 37
0.0
 76
0
330
231
345
0
346
0
  0
LAYOUT
  5
303
102
{ACAD_REACTORS
330
1A
102
}
100
AcDbPlotSettings
  1

  2
none_device
  4
ISO_A3_(420.00_x_297.00_MM)
  6

 40
0.0
 41
0.0
 42
0.0
 43
0.0
 44
420.0
 45
297.0
 46
0.0
 47
0.0
 48
0.0
 49
0.0
140
0.0
141
0.0
142
1.0
143
1.0
 70
0
 72
1
 73
0
 74
0
  7

 75
0
147
1.0
148
0.0
149
0.0
100
AcDbLayout
  1
Layout1
 70
0
 71
1
 10
0.0
 20
0.0
 11
420.0
 21
297.0
 12
0.0
 22
0.0
 32
0.0
 14
0.0
 24
0.0
 34
0.0
 15
0.0
 25
0.0
 35
0.0
146
0.0
 13
0.0
 23
0.0
 33
0.0
 16
1.0
 26
0.0
 36
0.0
 17
0.0
 27
1.0
 37
0.0
 76
0
330
232
345
0
346
0
  0
ENDSEC
  0
EOF
