999
DXF file: 200_50-442-10-3-bmg.dxf
999
Pro/ENGINEER 2010430 by Parametric Technology Corporation
  0
SECTION
  2
HEADER
  9
$ACADVER
  1
AC1021
  9
$DWGCODEPAGE
  3
ANSI_1252
  9
$EXTMAX
 10
420.0
 20
297.0
 30
0.0
  9
$EXTMIN
 10
0.0
 20
0.0
 30
0.0
  9
$LIMMIN
 10
0.0
 20
0.0
  9
$LIMMAX
 10
420.0
 20
297.0
  9
$VIEWCTR
 10
210.0
 20
148.5
  9
$VIEWSIZE
 40
297.0
  9
$CLAYER
  8
0
  9
$LTSCALE
 40
23.1
  9
$CELTYPE
  6
BYLAYER
  9
$DIMSCALE
 40
1.0
  9
$DIMASZ
 40
3.5
  9
$DIMEXO
 40
2.625
  9
$DIMDLI
 40
15.96
  9
$DIMEXE
 40
7.56
  9
$DIMCEN
 40
3.78
  9
$DIMLFAC
 40
1.0
  9
$DIMBLK
  1
_FILLED
  9
$DIMTXT
 40
3.5
  9
$DIMTOL
 70
0
  9
$DIMLIM
 70
0
  9
$DIMTFAC
 40
1.0
  9
$PDMODE
 70
3
  9
$PDSIZE
 40
0.3125
  9
$HANDSEED
  5
318
  9
$TILEMODE
 70
1
  9
$MEASUREMENT
 70
1
  9
$INSUNITS
 70
4
  0
ENDSEC
  0
SECTION
  2
CLASSES
  0
CLASS
  1
ACDBDICTIONARYWDFLT
  2
AcDbDictionaryWithDefault
  3
AutoCAD 2000
 90
0
 91
1
280
0
281
0
  0
CLASS
  1
ACDBPLACEHOLDER
  2
AcDbPlaceHolder
  3
AutoCAD 2000
 90
0
 91
1
280
0
281
0
  0
CLASS
  1
LAYOUT
  2
AcDbLayout
  3
AutoCAD 2000
 90
0
 91
0
280
0
281
0
  0
ENDSEC
  0
SECTION
  2
TABLES
  0
TABLE
  2
VPORT
  5
8
100
AcDbSymbolTable
 70
2
  0
VPORT
  5
1F4
100
AcDbSymbolTableRecord
100
AcDbViewportTableRecord
  2
*ACTIVE
 70
0
 10
0.0
 20
0.0
 11
1.0
 21
1.0
 12
210.0
 22
148.5
 13
0.0
 23
0.0
 14
1.0
 24
1.0
 15
0.0
 25
0.0
 16
0.0
 26
0.0
 36
1.0
 17
0.0
 27
0.0
 37
0.0
 40
297.0
 41
1.4141414141
 42
50.0
 43
0.0
 44
0.0
 50
0.0
 51
0.0
 71
0
 72
100
 73
1
 74
1
 75
0
 76
0
 77
0
 78
0
  0
ENDTAB
  0
TABLE
  2
LTYPE
  5
5
100
AcDbSymbolTable
 70
6
  0
LTYPE
  5
14
100
AcDbSymbolTableRecord
100
AcDbLinetypeTableRecord
  2
BYBLOCK
 70
0
  3

 72
65
 73
0
 40
0.0
  0
LTYPE
  5
15
100
AcDbSymbolTableRecord
100
AcDbLinetypeTableRecord
  2
BYLAYER
 70
0
  3

 72
65
 73
0
 40
0.0
  0
LTYPE
  5
16
100
AcDbSymbolTableRecord
100
AcDbLinetypeTableRecord
  2
CONTINUOUS
 70
64
  3
Solid line
 72
65
 73
0
 40
0.0
  0
LTYPE
  5
1F5
100
AcDbSymbolTableRecord
100
AcDbLinetypeTableRecord
  2
CENTER
 70
64
  3
____ _ ____ _ ____ _ ____ _ ____ _ ____ _ ____
 72
65
 73
4
 40
0.6
 49
0.375
 74
0
 49
-0.075
 74
0
 49
0.075
 74
0
 49
-0.075
 74
0
  0
LTYPE
  5
1F6
100
AcDbSymbolTableRecord
100
AcDbLinetypeTableRecord
  2
HIDDEN
 70
64
  3
- - - - - - - - - - - - - - - - - - - -
 72
65
 73
2
 40
0.2
 49
0.1
 74
0
 49
-0.1
 74
0
  0
LTYPE
  5
1F7
100
AcDbSymbolTableRecord
100
AcDbLinetypeTableRecord
  2
PHANTOM
 70
64
  3
_____ _ _ _____ _ _ _____ _ _ _____
 72
65
 73
6
 40
0.8
 49
0.45
 74
0
 49
-0.05
 74
0
 49
0.1
 74
0
 49
-0.05
 74
0
 49
0.1
 74
0
 49
-0.05
 74
0
  0
LTYPE
  5
1F8
100
AcDbSymbolTableRecord
100
AcDbLinetypeTableRecord
  2
DOT
 70
64
  3
. . . . . . . . . . . . . . . . . . . .
 72
65
 73
2
 40
0.2
 49
0.1
 74
0
 49
-0.1
 74
0
  0
LTYPE
  5
1F9
100
AcDbSymbolTableRecord
100
AcDbLinetypeTableRecord
  2
DASHED
 70
64
  3
- - - - - - - - - - - - - - - - - - - -
 72
65
 73
2
 40
0.2
 49
0.1
 74
0
 49
-0.1
 74
0
  0
ENDTAB
  0
TABLE
  2
LAYER
  5
2
100
AcDbSymbolTable
 70
36
  0
LAYER
  5
10
100
AcDbSymbolTableRecord
100
AcDbLayerTableRecord
  2
0
 70
0
 62
7
  6
CONTINUOUS
370
-3
390
F
  0
LAYER
  5
1FA
100
AcDbSymbolTableRecord
100
AcDbLayerTableRecord
  2
DEFAULT_1
 70
0
 62
7
  6
CENTER
370
-3
390
F
  0
LAYER
  5
1FB
100
AcDbSymbolTableRecord
100
AcDbLayerTableRecord
  2
DEFAULT_2
 70
0
 62
8
  6
HIDDEN
370
-3
390
F
  0
LAYER
  5
1FC
100
AcDbSymbolTableRecord
100
AcDbLayerTableRecord
  2
DEFAULT_3
 70
0
 62
7
  6
PHANTOM
370
-3
390
F
  0
LAYER
  5
1FD
100
AcDbSymbolTableRecord
100
AcDbLayerTableRecord
  2
1
 70
0
 62
7
  6
CONTINUOUS
370
-3
390
F
  0
LAYER
  5
1FE
100
AcDbSymbolTableRecord
100
AcDbLayerTableRecord
  2
2
 70
0
 62
7
  6
CONTINUOUS
370
-3
390
F
  0
LAYER
  5
1FF
100
AcDbSymbolTableRecord
100
AcDbLayerTableRecord
  2
4
 70
0
 62
7
  6
CONTINUOUS
370
-3
390
F
  0
LAYER
  5
200
100
AcDbSymbolTableRecord
100
AcDbLayerTableRecord
  2
5
 70
0
 62
7
  6
CONTINUOUS
370
-3
390
F
  0
LAYER
  5
201
100
AcDbSymbolTableRecord
100
AcDbLayerTableRecord
  2
6
 70
0
 62
7
  6
CONTINUOUS
370
-3
390
F
  0
LAYER
  5
202
100
AcDbSymbolTableRecord
100
AcDbLayerTableRecord
  2
ACHSEN
 70
0
 62
7
  6
CONTINUOUS
370
-3
390
F
  0
LAYER
  5
203
100
AcDbSymbolTableRecord
100
AcDbLayerTableRecord
  2
ANALYSEN
 70
0
 62
7
  6
CONTINUOUS
370
-3
390
F
  0
LAYER
  5
204
100
AcDbSymbolTableRecord
100
AcDbLayerTableRecord
  2
AUFMASS_WEICHBEARBEITUNG
 70
0
 62
7
  6
CONTINUOUS
370
-3
390
F
  0
LAYER
  5
205
100
AcDbSymbolTableRecord
100
AcDbLayerTableRecord
  2
AUFMASS_WEICHBE_INNENKONTUR
 70
0
 62
7
  6
CONTINUOUS
370
-3
390
F
  0
LAYER
  5
206
100
AcDbSymbolTableRecord
100
AcDbLayerTableRecord
  2
AUSSENKONTUR
 70
0
 62
7
  6
CONTINUOUS
370
-3
390
F
  0
LAYER
  5
207
100
AcDbSymbolTableRecord
100
AcDbLayerTableRecord
  2
BEZUGSACHSEN
 70
0
 62
7
  6
CONTINUOUS
370
-3
390
F
  0
LAYER
  5
208
100
AcDbSymbolTableRecord
100
AcDbLayerTableRecord
  2
BEZUGSACHSENKENNZEICHEN
 70
0
 62
7
  6
CONTINUOUS
370
-3
390
F
  0
LAYER
  5
209
100
AcDbSymbolTableRecord
100
AcDbLayerTableRecord
  2
BEZUGSEBENEN
 70
0
 62
7
  6
CONTINUOUS
370
-3
390
F
  0
LAYER
  5
20A
100
AcDbSymbolTableRecord
100
AcDbLayerTableRecord
  2
BEZUGSEBENE_B
 70
0
 62
7
  6
CONTINUOUS
370
-3
390
F
  0
LAYER
  5
20B
100
AcDbSymbolTableRecord
100
AcDbLayerTableRecord
  2
BEZUGSPUNKTE
 70
0
 62
7
  6
CONTINUOUS
370
-3
390
F
  0
LAYER
  5
20C
100
AcDbSymbolTableRecord
100
AcDbLayerTableRecord
  2
BOHRUNGEN
 70
0
 62
7
  6
CONTINUOUS
370
-3
390
F
  0
LAYER
  5
20D
100
AcDbSymbolTableRecord
100
AcDbLayerTableRecord
  2
EBENEN
 70
0
 62
7
  6
CONTINUOUS
370
-3
390
F
  0
LAYER
  5
20E
100
AcDbSymbolTableRecord
100
AcDbLayerTableRecord
  2
FASEN
 70
0
 62
7
  6
CONTINUOUS
370
-3
390
F
  0
LAYER
  5
20F
100
AcDbSymbolTableRecord
100
AcDbLayerTableRecord
  2
FLAECHEN
 70
0
 62
7
  6
CONTINUOUS
370
-3
390
F
  0
LAYER
  5
210
100
AcDbSymbolTableRecord
100
AcDbLayerTableRecord
  2
FORM_LAGE_TOLERANZEN
 70
0
 62
7
  6
CONTINUOUS
370
-3
390
F
  0
LAYER
  5
211
100
AcDbSymbolTableRecord
100
AcDbLayerTableRecord
  2
GEWINDE
 70
0
 62
7
  6
CONTINUOUS
370
-3
390
F
  0
LAYER
  5
212
100
AcDbSymbolTableRecord
100
AcDbLayerTableRecord
  2
HILFEN
 70
0
 62
7
  6
CONTINUOUS
370
-3
390
F
  0
LAYER
  5
213
100
AcDbSymbolTableRecord
100
AcDbLayerTableRecord
  2
INNENKONTUR
 70
0
 62
7
  6
CONTINUOUS
370
-3
390
F
  0
LAYER
  5
214
100
AcDbSymbolTableRecord
100
AcDbLayerTableRecord
  2
KOORDINATENSYSTEME
 70
0
 62
7
  6
CONTINUOUS
370
-3
390
F
  0
LAYER
  5
215
100
AcDbSymbolTableRecord
100
AcDbLayerTableRecord
  2
KOORDSYS
 70
0
 62
7
  6
CONTINUOUS
370
-3
390
F
  0
LAYER
  5
216
100
AcDbSymbolTableRecord
100
AcDbLayerTableRecord
  2
KURVEN
 70
0
 62
7
  6
CONTINUOUS
370
-3
390
F
  0
LAYER
  5
217
100
AcDbSymbolTableRecord
100
AcDbLayerTableRecord
  2
KURVE_FUER_GTOL_DETAILANSICHT
 70
0
 62
7
  6
CONTINUOUS
370
-3
390
F
  0
LAYER
  5
218
100
AcDbSymbolTableRecord
100
AcDbLayerTableRecord
  2
KURVE_GAUGE2_POLIGON_INNENEINST
 70
0
 62
7
  6
CONTINUOUS
370
-3
390
F
  0
LAYER
  5
219
100
AcDbSymbolTableRecord
100
AcDbLayerTableRecord
  2
KURVE_PHANTOM1_GAUGE_PIN_1
 70
0
 62
7
  6
CONTINUOUS
370
-3
390
F
  0
LAYER
  5
21A
100
AcDbSymbolTableRecord
100
AcDbLayerTableRecord
  2
KURVE_PHANTOM2_GAUGE_PIN1
 70
0
 62
7
  6
CONTINUOUS
370
-3
390
F
  0
LAYER
  5
21B
100
AcDbSymbolTableRecord
100
AcDbLayerTableRecord
  2
KURVE_POLIGON_BEMASUNG
 70
0
 62
7
  6
CONTINUOUS
370
-3
390
F
  0
LAYER
  5
21C
100
AcDbSymbolTableRecord
100
AcDbLayerTableRecord
  2
NOCUT
 70
0
 62
7
  6
CONTINUOUS
370
-3
390
F
  0
LAYER
  5
21D
100
AcDbSymbolTableRecord
100
AcDbLayerTableRecord
  2
PLATZIERUNG
 70
0
 62
7
  6
CONTINUOUS
370
-3
390
F
  0
LAYER
  5
21E
100
AcDbSymbolTableRecord
100
AcDbLayerTableRecord
  2
PUNKTE
 70
0
 62
7
  6
CONTINUOUS
370
-3
390
F
  0
LAYER
  5
21F
100
AcDbSymbolTableRecord
100
AcDbLayerTableRecord
  2
RUNDUNGEN
 70
0
 62
7
  6
CONTINUOUS
370
-3
390
F
  0
LAYER
  5
220
100
AcDbSymbolTableRecord
100
AcDbLayerTableRecord
  2
SK1
 70
0
 62
7
  6
CONTINUOUS
370
-3
390
F
  0
LAYER
  5
221
100
AcDbSymbolTableRecord
100
AcDbLayerTableRecord
  2
SK2
 70
0
 62
7
  6
CONTINUOUS
370
-3
390
F
  0
LAYER
  5
222
100
AcDbSymbolTableRecord
100
AcDbLayerTableRecord
  2
SK4
 70
0
 62
7
  6
CONTINUOUS
370
-3
390
F
  0
LAYER
  5
223
100
AcDbSymbolTableRecord
100
AcDbLayerTableRecord
  2
S_ACHSEN
 70
0
 62
7
  6
CONTINUOUS
370
-3
390
F
  0
LAYER
  5
224
100
AcDbSymbolTableRecord
100
AcDbLayerTableRecord
  2
S_EBENEN
 70
0
 62
7
  6
CONTINUOUS
370
-3
390
F
  0
LAYER
  5
225
100
AcDbSymbolTableRecord
100
AcDbLayerTableRecord
  2
S_KOORDSYS
 70
0
 62
7
  6
CONTINUOUS
370
-3
390
F
  0
LAYER
  5
226
100
AcDbSymbolTableRecord
100
AcDbLayerTableRecord
  2
TEIL_STARTBEZUEGE
 70
0
 62
7
  6
CONTINUOUS
370
-3
390
F
  0
LAYER
  5
227
100
AcDbSymbolTableRecord
100
AcDbLayerTableRecord
  2
TOL_BEZUEGE
 70
0
 62
7
  6
CONTINUOUS
370
-3
390
F
  0
LAYER
  5
228
100
AcDbSymbolTableRecord
100
AcDbLayerTableRecord
  2
VERBFLAECHE
 70
0
 62
7
  6
CONTINUOUS
370
-3
390
F
  0
LAYER
  5
229
100
AcDbSymbolTableRecord
100
AcDbLayerTableRecord
  2
VERERBUNG
 70
0
 62
7
  6
CONTINUOUS
370
-3
390
F
  0
LAYER
  5
22A
100
AcDbSymbolTableRecord
100
AcDbLayerTableRecord
  2
VOLGEOM
 70
0
 62
7
  6
CONTINUOUS
370
-3
390
F
  0
LAYER
  5
22B
100
AcDbSymbolTableRecord
100
AcDbLayerTableRecord
  2
VOLUMEN
 70
0
 62
7
  6
CONTINUOUS
370
-3
390
F
  0
LAYER
  5
22C
100
AcDbSymbolTableRecord
100
AcDbLayerTableRecord
  2
XSEC_DATUMS
 70
0
 62
7
  6
CONTINUOUS
370
-3
390
F
  0
LAYER
  5
22D
100
AcDbSymbolTableRecord
100
AcDbLayerTableRecord
  2
ZEICHNUNG
 70
0
 62
7
  6
CONTINUOUS
370
-3
390
F
  0
ENDTAB
  0
TABLE
  2
STYLE
  5
3
100
AcDbSymbolTable
 70
1
  0
STYLE
  5
11
100
AcDbSymbolTableRecord
100
AcDbTextStyleTableRecord
  2
STANDARD
 70
0
 40
0.0
 41
0.7
 50
0.0
 71
0
 42
0.2
  3
txt
  4

  0
STYLE
  5
22E
100
AcDbSymbolTableRecord
100
AcDbTextStyleTableRecord
  2
TEXTSTYLE_1
 70
0
 40
0.0
 41
0.8
 50
0.0
 71
0
 42
0.2
  3
gdt
  4

  0
STYLE
  5
22F
100
AcDbSymbolTableRecord
100
AcDbTextStyleTableRecord
  2
TEXTSTYLE_2
 70
0
 40
0.0
 41
0.7
 50
0.0
 71
0
 42
0.2
  3
gdt
  4

  0
ENDTAB
  0
TABLE
  2
VIEW
  5
6
100
AcDbSymbolTable
 70
0
  0
ENDTAB
  0
TABLE
  2
UCS
  5
7
100
AcDbSymbolTable
 70
0
  0
ENDTAB
  0
TABLE
  2
APPID
  5
9
100
AcDbSymbolTable
 70
1
  0
APPID
  5
230
100
AcDbSymbolTableRecord
100
AcDbRegAppTableRecord
  2
ACAD
 70
0
  0
ENDTAB
  0
TABLE
  2
BLOCK_RECORD
  5
1
100
AcDbSymbolTable
 70
0
  0
BLOCK_RECORD
  5
231
100
AcDbSymbolTableRecord
100
AcDbBlockTableRecord
  2
*Model_Space
  0
BLOCK_RECORD
  5
232
100
AcDbSymbolTableRecord
100
AcDbBlockTableRecord
  2
*Paper_Space
  0
BLOCK_RECORD
  5
233
100
AcDbSymbolTableRecord
100
AcDbBlockTableRecord
  2
_FILLED
  0
BLOCK_RECORD
  5
234
100
AcDbSymbolTableRecord
100
AcDbBlockTableRecord
  2
*D0
  0
BLOCK_RECORD
  5
235
100
AcDbSymbolTableRecord
100
AcDbBlockTableRecord
  2
*D1
  0
BLOCK_RECORD
  5
236
100
AcDbSymbolTableRecord
100
AcDbBlockTableRecord
  2
*D2
  0
BLOCK_RECORD
  5
237
100
AcDbSymbolTableRecord
100
AcDbBlockTableRecord
  2
*D3
  0
BLOCK_RECORD
  5
238
100
AcDbSymbolTableRecord
100
AcDbBlockTableRecord
  2
*D4
  0
BLOCK_RECORD
  5
239
100
AcDbSymbolTableRecord
100
AcDbBlockTableRecord
  2
*D5
  0
BLOCK_RECORD
  5
23A
100
AcDbSymbolTableRecord
100
AcDbBlockTableRecord
  2
*D6
  0
BLOCK_RECORD
  5
23B
100
AcDbSymbolTableRecord
100
AcDbBlockTableRecord
  2
*D7
  0
ENDTAB
  0
TABLE
  2
DIMSTYLE
  5
A
100
AcDbSymbolTable
 70
1
100
AcDbDimStyleTable
 71
0
  0
DIMSTYLE
105
23C
100
AcDbSymbolTableRecord
100
AcDbDimStyleTableRecord
  2
STANDARD
 70
0
  3

  4

 40
1.0
 41
3.5
 42
0.0625
 43
0.38
 44
0.18
 45
0.0
 46
0.0
 47
0.005
 48
0.005
140
3.5
141
0.09
142
0.0
143
25.4
144
1.0
145
0.0
146
1.0
147
0.09
 71
0.0
 72
0.0
 73
0
 74
0
 75
0
 76
0
 77
1
 78
8
170
0
171
2
172
0
173
0
174
0
175
0
176
0
177
0
178
5
270
2
271
3
272
3
273
2
274
2
275
0
280
0
281
0
282
0
283
1
284
8
285
0
286
0
287
3
288
0
340
11
341
233
342
233
343
233
344
233
  0
DIMSTYLE
105
23D
100
AcDbSymbolTableRecord
100
AcDbDimStyleTableRecord
  2
DIMSTYLE_1
 70
0
  3

  4

 40
1.0
 41
3.5
 42
0.0625
 43
0.38
 44
0.18
 45
0.0
 46
0.0
 47
0.0
 48
0.0
140
3.5
141
0.09
142
0.0
143
25.4
144
1.0
145
0.0
146
1.0
147
0.09
 71
0.0
 72
0.0
 73
0
 74
0
 75
0
 76
0
 77
1
 78
8
170
0
171
2
172
0
173
0
174
0
175
0
176
0
177
0
178
5
270
2
271
3
272
3
273
2
274
2
275
0
280
0
281
0
282
0
283
1
284
8
285
0
286
0
287
3
288
0
340
11
341
233
342
233
343
233
344
233
  0
DIMSTYLE
105
23E
100
AcDbSymbolTableRecord
100
AcDbDimStyleTableRecord
  2
DIMSTYLE_2
 70
0
  3

  4

 40
1.0
 41
3.5
 42
0.0625
 43
0.38
 44
0.18
 45
0.0
 46
0.0
 47
0.0
 48
0.0
140
3.5
141
0.09
142
0.0
143
25.4
144
1.0
145
0.0
146
1.0
147
0.09
 71
0.0
 72
0.0
 73
0
 74
0
 75
0
 76
0
 77
1
 78
8
170
0
171
2
172
0
173
0
174
0
175
0
176
0
177
0
178
5
270
2
271
2
272
2
273
2
274
2
275
0
280
0
281
0
282
0
283
1
284
8
285
0
286
0
287
3
288
0
340
11
341
233
342
233
343
233
344
233
  0
DIMSTYLE
105
23F
100
AcDbSymbolTableRecord
100
AcDbDimStyleTableRecord
  2
DIMSTYLE_3
 70
0
  3

  4

 40
1.0
 41
3.5
 42
0.0625
 43
0.38
 44
0.18
 45
0.0
 46
0.0
 47
0.0
 48
0.0
140
3.5
141
0.09
142
0.0
143
25.4
144
1.0
145
0.0
146
1.0
147
0.09
 71
0.0
 72
0.0
 73
0
 74
0
 75
0
 76
0
 77
1
 78
8
170
0
171
2
172
0
173
0
174
0
175
0
176
0
177
0
178
5
270
2
271
2
272
2
273
2
274
2
275
0
280
0
281
0
282
0
283
1
284
8
285
0
286
0
287
3
288
0
340
11
341
233
342
233
343
233
344
233
  0
DIMSTYLE
105
240
100
AcDbSymbolTableRecord
100
AcDbDimStyleTableRecord
  2
DIMSTYLE_4
 70
0
  3

  4

 40
1.0
 41
3.5
 42
0.0625
 43
0.38
 44
0.18
 45
0.0
 46
0.0
 47
0.0
 48
0.0
140
3.5
141
0.09
142
0.0
143
25.4
144
1.0
145
0.0
146
1.0
147
0.09
 71
0.0
 72
0.0
 73
0
 74
0
 75
0
 76
0
 77
1
 78
8
170
0
171
2
172
0
173
0
174
0
175
0
176
0
177
0
178
5
270
2
271
2
272
2
273
2
274
2
275
0
280
0
281
0
282
0
283
1
284
8
285
0
286
0
287
3
288
0
340
11
341
233
342
233
343
233
344
233
  0
ENDTAB
  0
ENDSEC
  0
SECTION
  2
BLOCKS
  0
BLOCK
  5
20
100
AcDbEntity
  8
0
100
AcDbBlockBegin
  2
*Model_Space
 70
0
 10
0.0
 20
0.0
 30
0.0
  3
*Model_Space
  1

  0
ENDBLK
  5
21
100
AcDbEntity
  8
0
100
AcDbBlockEnd
  0
BLOCK
  5
1C
100
AcDbEntity
  8
0
100
AcDbBlockBegin
  2
*Paper_Space
 70
0
 10
0.0
 20
0.0
 30
0.0
  3
*Paper_Space
  1

  0
ENDBLK
  5
1D
100
AcDbEntity
  8
0
100
AcDbBlockEnd
  0
BLOCK
  5
241
100
AcDbEntity
  8
0
100
AcDbBlockBegin
  2
_FILLED
 70
64
 10
0.0
 20
0.0
  3
_FILLED
  1

  0
SOLID
  5
242
100
AcDbEntity
  8
0
  6
BYBLOCK
 62
0
100
AcDbTrace
 10
0.0
 20
0.0
 11
-1.0
 21
0.125
 12
-1.0
 22
-0.125
 13
-1.0
 23
-0.125
  0
ENDBLK
  5
243
100
AcDbEntity
  8
0
  6
BYBLOCK
 62
0
100
AcDbBlockEnd
  0
BLOCK
  5
244
100
AcDbEntity
  8
2
100
AcDbBlockBegin
 62
2
  6
CONTINUOUS
  2
*D0
 70
65
 10
0.0
 20
0.0
  3
*D0
  1

  0
MTEXT
  5
245
100
AcDbEntity
  8
2
100
AcDbMText
 62
5
  6
CONTINUOUS
  7
TEXTSTYLE_2
 71
2
 72
1
 10
316.9858756249
 20
155.1804378124
 30
0.0
 11
0.0
 21
1.0
 31
0.0
 44
0.9
  1
{\Fgdt;n}\Ftxt;10
 40
3.5
 41
9.4166666667
  0
LINE
  5
246
100
AcDbEntity
  8
2
100
AcDbLine
 62
2
  6
CONTINUOUS
 10
311.8108756249
 20
150.1804378124
 11
322.8608756249
 21
150.1804378124
  0
LINE
  5
247
100
AcDbEntity
  8
2
100
AcDbLine
 62
2
  6
CONTINUOUS
 10
311.8108756249
 20
160.1804378124
 11
322.8608756249
 21
160.1804378124
  0
LINE
  5
248
100
AcDbEntity
  8
2
100
AcDbLine
 62
2
  6
CONTINUOUS
 10
321.3608756249
 20
150.1804378124
 11
321.3608756249
 21
155.1804378124
  0
LINE
  5
249
100
AcDbEntity
  8
2
100
AcDbLine
 62
2
  6
CONTINUOUS
 10
321.3608756249
 20
160.1804378124
 11
321.3608756249
 21
155.1804378124
  0
INSERT
  5
24A
100
AcDbEntity
  8
2
100
AcDbBlockReference
 62
2
  6
CONTINUOUS
  2
_FILLED
 10
321.3608756249
 20
150.1804378124
 41
3.5
 42
3.5
 43
3.5
 50
270.0
  0
INSERT
  5
24B
100
AcDbEntity
  8
2
100
AcDbBlockReference
 62
2
  6
CONTINUOUS
  2
_FILLED
 10
321.3608756249
 20
160.1804378124
 41
3.5
 42
3.5
 43
3.5
 50
90.0
  0
ENDBLK
  5
24C
100
AcDbEntity
  8
0
  6
BYBLOCK
 62
0
100
AcDbBlockEnd
  0
BLOCK
  5
24D
100
AcDbEntity
  8
SK2
100
AcDbBlockBegin
 62
2
  6
CONTINUOUS
  2
*D1
 70
65
 10
0.0
 20
0.0
  3
*D1
  1

  0
MTEXT
  5
24E
100
AcDbEntity
  8
SK2
100
AcDbMText
 62
5
  6
CONTINUOUS
  7
TEXTSTYLE_2
 71
2
 72
1
 10
323.9858756249
 20
155.1804378124
 30
0.0
 11
0.0
 21
1.0
 31
0.0
 44
0.9
  1
{\Fgdt;n}\Ftxt;27
 40
3.5
 41
10.1666666667
  0
LINE
  5
24F
100
AcDbEntity
  8
SK2
100
AcDbLine
 62
2
  6
CONTINUOUS
 10
311.8108756249
 20
141.6804378124
 11
329.8608756249
 21
141.6804378124
  0
LINE
  5
250
100
AcDbEntity
  8
SK2
100
AcDbLine
 62
2
  6
CONTINUOUS
 10
311.8108756249
 20
168.6804378124
 11
329.8608756249
 21
168.6804378124
  0
LINE
  5
251
100
AcDbEntity
  8
SK2
100
AcDbLine
 62
2
  6
CONTINUOUS
 10
328.3608756249
 20
141.6804378124
 11
328.3608756249
 21
155.1804378124
  0
LINE
  5
252
100
AcDbEntity
  8
SK2
100
AcDbLine
 62
2
  6
CONTINUOUS
 10
328.3608756249
 20
168.6804378124
 11
328.3608756249
 21
155.1804378124
  0
INSERT
  5
253
100
AcDbEntity
  8
SK2
100
AcDbBlockReference
 62
2
  6
CONTINUOUS
  2
_FILLED
 10
328.3608756249
 20
141.6804378124
 41
3.5
 42
3.5
 43
3.5
 50
270.0
  0
INSERT
  5
254
100
AcDbEntity
  8
SK2
100
AcDbBlockReference
 62
2
  6
CONTINUOUS
  2
_FILLED
 10
328.3608756249
 20
168.6804378124
 41
3.5
 42
3.5
 43
3.5
 50
90.0
  0
ENDBLK
  5
255
100
AcDbEntity
  8
0
  6
BYBLOCK
 62
0
100
AcDbBlockEnd
  0
BLOCK
  5
256
100
AcDbEntity
  8
SK2
100
AcDbBlockBegin
 62
2
  6
CONTINUOUS
  2
*D2
 70
65
 10
0.0
 20
0.0
  3
*D2
  1

  0
MTEXT
  5
257
100
AcDbEntity
  8
SK2
100
AcDbMText
 62
5
  6
CONTINUOUS
  7
STANDARD
 71
2
 72
1
 10
239.8608756249
 20
219.2904378124
 30
0.0
 11
1.0
 21
0.0
 31
0.0
 44
0.9
  1
140.9
 40
3.5
 41
12.25
  0
LINE
  5
258
100
AcDbEntity
  8
SK2
100
AcDbLine
 62
2
  6
CONTINUOUS
 10
169.4108756249
 20
204.9154378124
 11
169.4108756249
 21
216.4154378124
  0
LINE
  5
259
100
AcDbEntity
  8
SK2
100
AcDbLine
 62
2
  6
CONTINUOUS
 10
310.3108756249
 20
169.2560473208
 11
310.3108756249
 21
216.4154378124
  0
LINE
  5
25A
100
AcDbEntity
  8
SK2
100
AcDbLine
 62
2
  6
CONTINUOUS
 10
169.4108756249
 20
214.9154378124
 11
239.8608756249
 21
214.9154378124
  0
LINE
  5
25B
100
AcDbEntity
  8
SK2
100
AcDbLine
 62
2
  6
CONTINUOUS
 10
310.3108756249
 20
214.9154378124
 11
239.8608756249
 21
214.9154378124
  0
INSERT
  5
25C
100
AcDbEntity
  8
SK2
100
AcDbBlockReference
 62
2
  6
CONTINUOUS
  2
_FILLED
 10
169.4108756249
 20
214.9154378124
 41
3.5
 42
3.5
 43
3.5
 50
180.0
  0
INSERT
  5
25D
100
AcDbEntity
  8
SK2
100
AcDbBlockReference
 62
2
  6
CONTINUOUS
  2
_FILLED
 10
310.3108756249
 20
214.9154378124
 41
3.5
 42
3.5
 43
3.5
  0
ENDBLK
  5
25E
100
AcDbEntity
  8
0
  6
BYBLOCK
 62
0
100
AcDbBlockEnd
  0
BLOCK
  5
25F
100
AcDbEntity
  8
2
100
AcDbBlockBegin
 62
2
  6
CONTINUOUS
  2
*D3
 70
65
 10
0.0
 20
0.0
  3
*D3
  1

  0
MTEXT
  5
260
100
AcDbEntity
  8
2
100
AcDbMText
 62
5
  6
CONTINUOUS
  7
STANDARD
 71
2
 72
1
 10
230.3108756249
 20
226.2904378124
 30
0.0
 11
1.0
 21
0.0
 31
0.0
 44
0.9
  1
160
 40
3.5
 41
7.5
  0
LINE
  5
261
100
AcDbEntity
  8
2
100
AcDbLine
 62
2
  6
CONTINUOUS
 10
310.3108756249
 20
169.2560473208
 11
310.3108756249
 21
223.4154378124
  0
LINE
  5
262
100
AcDbEntity
  8
2
100
AcDbLine
 62
2
  6
CONTINUOUS
 10
150.3108756249
 20
204.9154378124
 11
150.3108756249
 21
223.4154378124
  0
LINE
  5
263
100
AcDbEntity
  8
2
100
AcDbLine
 62
2
  6
CONTINUOUS
 10
310.3108756249
 20
221.9154378124
 11
230.3108756249
 21
221.9154378124
  0
LINE
  5
264
100
AcDbEntity
  8
2
100
AcDbLine
 62
2
  6
CONTINUOUS
 10
150.3108756249
 20
221.9154378124
 11
230.3108756249
 21
221.9154378124
  0
INSERT
  5
265
100
AcDbEntity
  8
2
100
AcDbBlockReference
 62
2
  6
CONTINUOUS
  2
_FILLED
 10
310.3108756249
 20
221.9154378124
 41
3.5
 42
3.5
 43
3.5
  0
INSERT
  5
266
100
AcDbEntity
  8
2
100
AcDbBlockReference
 62
2
  6
CONTINUOUS
  2
_FILLED
 10
150.3108756249
 20
221.9154378124
 41
3.5
 42
3.5
 43
3.5
 50
180.0
  0
ENDBLK
  5
267
100
AcDbEntity
  8
0
  6
BYBLOCK
 62
0
100
AcDbBlockEnd
  0
BLOCK
  5
268
100
AcDbEntity
  8
SK2
100
AcDbBlockBegin
 62
2
  6
CONTINUOUS
  2
*D4
 70
65
 10
0.0
 20
0.0
  3
*D4
  1

  0
MTEXT
  5
269
100
AcDbEntity
  8
SK2
100
AcDbMText
 62
5
  6
CONTINUOUS
  7
STANDARD
 71
2
 72
1
 10
179.5108756249
 20
233.2904378124
 30
0.0
 11
1.0
 21
0.0
 31
0.0
 44
0.9
  1
261.75
 40
3.5
 41
14.75
  0
LINE
  5
26A
100
AcDbEntity
  8
SK2
100
AcDbLine
 62
2
  6
CONTINUOUS
 10
310.3108756249
 20
169.2560473208
 11
310.3108756249
 21
230.4154378124
  0
LINE
  5
26B
100
AcDbEntity
  8
SK2
100
AcDbLine
 62
2
  6
CONTINUOUS
 10
48.7108756249
 20
165.1804378124
 11
48.7108756249
 21
230.4154378124
  0
LINE
  5
26C
100
AcDbEntity
  8
SK2
100
AcDbLine
 62
2
  6
CONTINUOUS
 10
310.3108756249
 20
228.9154378124
 11
179.5108756249
 21
228.9154378124
  0
LINE
  5
26D
100
AcDbEntity
  8
SK2
100
AcDbLine
 62
2
  6
CONTINUOUS
 10
48.7108756249
 20
228.9154378124
 11
179.5108756249
 21
228.9154378124
  0
INSERT
  5
26E
100
AcDbEntity
  8
SK2
100
AcDbBlockReference
 62
2
  6
CONTINUOUS
  2
_FILLED
 10
310.3108756249
 20
228.9154378124
 41
3.5
 42
3.5
 43
3.5
  0
INSERT
  5
26F
100
AcDbEntity
  8
SK2
100
AcDbBlockReference
 62
2
  6
CONTINUOUS
  2
_FILLED
 10
48.7108756249
 20
228.9154378124
 41
3.5
 42
3.5
 43
3.5
 50
180.0
  0
ENDBLK
  5
270
100
AcDbEntity
  8
0
  6
BYBLOCK
 62
0
100
AcDbBlockEnd
  0
BLOCK
  5
271
100
AcDbEntity
  8
SK2
100
AcDbBlockBegin
 62
2
  6
CONTINUOUS
  2
*D5
 70
65
 10
0.0
 20
0.0
  3
*D5
  1

  0
MTEXT
  5
272
100
AcDbEntity
  8
SK2
100
AcDbMText
 62
5
  6
CONTINUOUS
  7
STANDARD
 71
1
 72
1
 10
313.0553460139
 20
176.8712519371
 30
0.0
 11
0.7511467953
 21
0.6601352073
 31
0.0
 44
0.9
  1
R1
 40
3.5
 41
4.75
  0
LINE
  5
273
100
AcDbEntity
  8
SK2
100
AcDbLine
 62
2
  6
CONTINUOUS
 10
310.0620224202
 20
168.416182528
 11
319.5113848235
 21
176.720626942
  0
INSERT
  5
274
100
AcDbEntity
  8
SK2
100
AcDbBlockReference
 62
2
  6
CONTINUOUS
  2
_FILLED
 10
310.0620224202
 20
168.416182528
 41
3.5
 42
3.5
 43
3.5
 50
221.3101852801
  0
ENDBLK
  5
275
100
AcDbEntity
  8
0
  6
BYBLOCK
 62
0
100
AcDbBlockEnd
  0
BLOCK
  5
276
100
AcDbEntity
  8
2
100
AcDbBlockBegin
 62
2
  6
CONTINUOUS
  2
*D6
 70
65
 10
0.0
 20
0.0
  3
*D6
  1

  0
MTEXT
  5
277
100
AcDbEntity
  8
2
100
AcDbMText
 62
5
  6
CONTINUOUS
  7
TEXTSTYLE_2
 71
2
 72
1
 10
330.9858756249
 20
155.1804378124
 30
0.0
 11
0.0
 21
1.0
 31
0.0
 44
0.9
  1
{\Fgdt;n}\Ftxt;78
 40
3.5
 41
10.1666666667
  0
LINE
  5
278
100
AcDbEntity
  8
2
100
AcDbLine
 62
2
  6
CONTINUOUS
 10
171.9108756249
 20
194.1554378124
 11
336.8608756249
 21
194.1554378124
  0
LINE
  5
279
100
AcDbEntity
  8
2
100
AcDbLine
 62
2
  6
CONTINUOUS
 10
171.9108756249
 20
116.2054378124
 11
336.8608756249
 21
116.2054378124
  0
LINE
  5
27A
100
AcDbEntity
  8
2
100
AcDbLine
 62
2
  6
CONTINUOUS
 10
335.3608756249
 20
194.1554378124
 11
335.3608756249
 21
155.1804378124
  0
LINE
  5
27B
100
AcDbEntity
  8
2
100
AcDbLine
 62
2
  6
CONTINUOUS
 10
335.3608756249
 20
116.2054378124
 11
335.3608756249
 21
155.1804378124
  0
INSERT
  5
27C
100
AcDbEntity
  8
2
100
AcDbBlockReference
 62
2
  6
CONTINUOUS
  2
_FILLED
 10
335.3608756249
 20
194.1554378124
 41
3.5
 42
3.5
 43
3.5
 50
90.0
  0
INSERT
  5
27D
100
AcDbEntity
  8
2
100
AcDbBlockReference
 62
2
  6
CONTINUOUS
  2
_FILLED
 10
335.3608756249
 20
116.2054378124
 41
3.5
 42
3.5
 43
3.5
 50
270.0
  0
ENDBLK
  5
27E
100
AcDbEntity
  8
0
  6
BYBLOCK
 62
0
100
AcDbBlockEnd
  0
BLOCK
  5
27F
100
AcDbEntity
  8
SK2
100
AcDbBlockBegin
 62
2
  6
CONTINUOUS
  2
*D7
 70
65
 10
0.0
 20
0.0
  3
*D7
  1

  0
MTEXT
  5
280
100
AcDbEntity
  8
SK2
100
AcDbMText
 62
5
  6
CONTINUOUS
  7
STANDARD
 71
2
 72
1
 10
289.3662723712
 20
182.7738077062
 30
0.0
 11
0.0392598158
 21
0.9992290362
 31
0.0
 44
0.9
  1
4.5\Fgdt;{\Fgdt;~}
 40
3.5
 41
9.5833333333
  0
LINE
  5
281
100
AcDbEntity
  8
SK2
100
AcDbLine
 62
2
  6
CONTINUOUS
 10
296.3608756249
 20
169.7783266226
 11
294.1187886053
 21
169.9547826979
  0
LINE
  5
282
100
AcDbEntity
  8
SK2
100
AcDbLine
 62
2
  6
CONTINUOUS
 10
296.3608756249
 20
195.1804378124
 11
298.1099072941
 21
195.1804378124
  0
ARC
  5
283
100
AcDbEntity
  8
SK2
100
AcDbCircle
 62
2
  6
CONTINUOUS
 10
-26.4035498837
 20
195.1804378124
 40
323.0134571779
100
AcDbArc
 50
355.5
 51
357.75
  0
ARC
  5
284
100
AcDbEntity
  8
SK2
100
AcDbCircle
 62
2
  6
CONTINUOUS
 10
-26.4035498837
 20
195.1804378124
 40
323.0134571779
100
AcDbArc
 50
357.75
 51
360.0
  0
SOLID
  5
285
100
AcDbEntity
  8
SK2
100
AcDbTrace
 62
2
  6
CONTINUOUS
 10
295.4335329988
 20
173.3597036655
 11
295.6141646059
 21
169.8370940543
 12
296.3061947987
 22
173.2957788423
 13
296.3061947987
 23
173.2957788423
  0
SOLID
  5
286
100
AcDbEntity
  8
SK2
100
AcDbTrace
 62
2
  6
CONTINUOUS
 10
297.0284389079
 20
191.6781189323
 11
296.6099072941
 21
195.1804378124
 12
296.1534517493
 22
191.6828594237
 13
296.1534517493
 23
191.6828594237
  0
ENDBLK
  5
287
100
AcDbEntity
  8
0
  6
BYBLOCK
 62
0
100
AcDbBlockEnd
  0
ENDSEC
  0
SECTION
  2
ENTITIES
  0
DIMENSION
  5
288
100
AcDbEntity
  8
2
100
AcDbDimension
 62
2
  6
CONTINUOUS
  2
*D0
 10
321.3608756249
 20
160.1804378124
 11
319.7907155962
 21
153.0758206669
 70
160
 71
2
 42
10.0
  1
%%c<>
  3
DIMSTYLE_1
100
AcDbAlignedDimension
 13
311.8108756249
 23
150.1804378124
 14
311.8108756249
 24
160.1804378124
 50
90.0
100
AcDbRotatedDimension
  0
DIMENSION
  5
289
100
AcDbEntity
  8
SK2
100
AcDbDimension
 62
2
  6
CONTINUOUS
  2
*D1
 10
328.3608756249
 20
168.6804378124
 11
326.8747293992
 21
152.9081962925
 70
160
 71
2
 42
27.0
  1
%%c<>
  3
DIMSTYLE_2
100
AcDbAlignedDimension
 13
311.8108756249
 23
141.6804378124
 14
311.8108756249
 24
168.6804378124
 50
90.0
100
AcDbRotatedDimension
  0
DIMENSION
  5
28A
100
AcDbEntity
  8
SK2
100
AcDbDimension
 62
2
  6
CONTINUOUS
  2
*D2
 10
310.3108756249
 20
214.9154378124
 11
233.7358756249
 21
217.5404378124
 70
160
 71
2
 42
140.9
  3
DIMSTYLE_2
100
AcDbAlignedDimension
 13
169.4108756249
 23
204.9154378124
 14
310.3108756249
 24
169.2560473208
100
AcDbRotatedDimension
  0
DIMENSION
  5
28B
100
AcDbEntity
  8
2
100
AcDbDimension
 62
2
  6
CONTINUOUS
  2
*D3
 10
150.3108756249
 20
221.9154378124
 11
226.5608756249
 21
224.5404378124
 70
160
 71
2
 42
160.0
  3
DIMSTYLE_2
100
AcDbAlignedDimension
 13
310.3108756249
 23
169.2560473208
 14
150.3108756249
 24
204.9154378124
 50
180.0
100
AcDbRotatedDimension
  0
DIMENSION
  5
28C
100
AcDbEntity
  8
SK2
100
AcDbDimension
 62
2
  6
CONTINUOUS
  2
*D4
 10
48.7108756249
 20
228.9154378124
 11
172.1358756249
 21
231.5404378124
 70
160
 71
2
 42
261.6
  3
DIMSTYLE_2
100
AcDbAlignedDimension
 13
310.3108756249
 23
169.2560473208
 14
48.7108756249
 24
165.1804378124
 50
180.0
100
AcDbRotatedDimension
  0
DIMENSION
  5
28D
100
AcDbEntity
  8
SK2
100
AcDbDimension
 62
2
  6
CONTINUOUS
  2
*D5
 10
309.3108756249
 20
167.7560473208
 11
315.9945562656
 21
177.1245661625
 70
164
 71
1
 42
1.0
  1
<>
  3
DIMSTYLE_3
100
AcDbRadialDimension
 15
310.0620224202
 25
168.416182528
  0
DIMENSION
  5
28E
100
AcDbEntity
  8
2
100
AcDbDimension
 62
2
  6
CONTINUOUS
  2
*D6
 10
335.3608756249
 20
116.2054378124
 11
333.8747293992
 21
152.9081962925
 70
160
 71
2
 42
77.95
  1
%%c<>
  3
DIMSTYLE_2
100
AcDbAlignedDimension
 13
171.9108756249
 23
194.1554378124
 14
171.9108756249
 24
116.2054378124
 50
270.0
100
AcDbRotatedDimension
  0
DIMENSION
  5
28F
100
AcDbEntity
  8
SK2
100
AcDbDimension
 62
2
  6
CONTINUOUS
  2
*D7
 10
298.1099072941
 20
195.1804378124
 11
288.7740433949
 21
183.2152982573
 70
162
 71
2
 42
0.0785398163
  3
DIMSTYLE_4
100
AcDb2LineAngularDimension
 13
294.1187886053
 23
169.9547826979
 14
296.3608756249
 24
169.7783266226
 15
296.3608756249
 25
195.1804378124
 16
296.3608756249
 26
182.4989889959
  0
MTEXT
  5
290
100
AcDbEntity
  8
6
100
AcDbMText
 62
5
  6
CONTINUOUS
  7
STANDARD
 71
1
 72
1
 10
139.5741815328
 20
82.3507156451
 30
0.0
 11
1.0
 21
0.0
 31
0.0
 44
0.9
  3
Für diese Unterlage behalten wir das Ur-\Pheberrecht. Sie darf nur für den von uns\Pbestimmten Zweck benutzt und ohne unsere \PZustimmung weder vervielfältigt noch \PDritten zugänglich gemacht werden.\P \PWe own the copyright of this document. It\Pde
  1
termined and may neither be copied or\Pmade accessible to outsiders without our\Ppermission.\P \PCe plan reste notre propriété. Il ne peut\Pétre utilisé, copié ou reproduit sans notre\Paccord.
 40
3.5
 41
103.5833333333
  0
LINE
  5
291
100
AcDbEntity
  8
1
100
AcDbLine
 62
9
  6
CONTINUOUS
 10
48.7608756249
 20
173.3418848136
 11
48.7608756249
 21
137.0189908113
  0
LINE
  5
292
100
AcDbEntity
  8
1
100
AcDbLine
 62
9
  6
CONTINUOUS
 10
50.6861586193
 20
175.5683301568
 11
50.6861586193
 21
134.7925454681
  0
LINE
  5
293
100
AcDbEntity
  8
1
100
AcDbLine
 62
6
  6
CONTINUOUS
 10
154.5608756249
 20
106.4454378124
 11
158.2969406147
 21
106.4454378124
  0
LINE
  5
294
100
AcDbEntity
  8
1
100
AcDbLine
 62
6
  6
CONTINUOUS
 10
164.774810635
 20
106.4454378124
 11
168.4108756249
 21
106.4454378124
  0
LINE
  5
295
100
AcDbEntity
  8
1
100
AcDbLine
 62
6
  6
CONTINUOUS
 10
163.4483756249
 20
201.6179849819
 11
164.774810635
 21
203.9154378124
  0
LINE
  5
296
100
AcDbEntity
  8
1
100
AcDbLine
 62
6
  6
CONTINUOUS
 10
238.9569421436
 20
133.0918423424
 11
179.4608756249
 21
116.2054378124
  0
LINE
  5
297
100
AcDbEntity
  8
1
100
AcDbLine
 62
6
  6
CONTINUOUS
 10
160.3733756249
 20
109.6804378124
 11
162.6983756249
 21
109.6804378124
  0
LINE
  5
298
100
AcDbEntity
  8
1
100
AcDbLine
 62
6
  6
CONTINUOUS
 10
170.4108756249
 20
116.2054378124
 11
179.4608756249
 21
116.2054378124
  0
LINE
  5
299
100
AcDbEntity
  8
1
100
AcDbLine
 62
6
  6
CONTINUOUS
 10
154.5608756249
 20
116.6567084369
 11
158.2969406147
 21
116.6567084369
  0
LINE
  5
29A
100
AcDbEntity
  8
1
100
AcDbLine
 62
6
  6
CONTINUOUS
 10
164.774810635
 20
116.6567084369
 11
168.4108756249
 21
116.6567084369
  0
LINE
  5
29B
100
AcDbEntity
  8
1
100
AcDbLine
 62
6
  6
CONTINUOUS
 10
149.8711932917
 20
120.3268557709
 11
50.6861586193
 21
134.7925454681
  0
LINE
  5
29C
100
AcDbEntity
  8
1
100
AcDbLine
 62
6
  6
CONTINUOUS
 10
163.4483756249
 20
108.742890643
 11
164.774810635
 21
106.4454378124
  0
LINE
  5
29D
100
AcDbEntity
  8
1
100
AcDbLine
 62
6
  6
CONTINUOUS
 10
149.8711932917
 20
190.034019854
 11
149.8711932917
 21
120.3268557709
  0
LINE
  5
29E
100
AcDbEntity
  8
TEIL_STARTBEZUEGE
100
AcDbLine
 62
7
  6
CENTER
 10
150.3608756249
 20
155.1804378124
 11
150.3608756249
 21
152.1803378124
  0
LINE
  5
29F
100
AcDbEntity
  8
TEIL_STARTBEZUEGE
100
AcDbLine
 62
7
  6
CENTER
 10
150.3608756249
 20
155.1804378124
 11
150.3608756249
 21
158.1805378124
  0
LINE
  5
2A0
100
AcDbEntity
  8
SK4
100
AcDbLine
 62
7
  6
CENTER
 10
150.3608756249
 20
103.4454378124
 11
150.3608756249
 21
206.9154378124
  0
LINE
  5
2A1
100
AcDbEntity
  8
DEFAULT_1
100
AcDbLine
 62
7
  6
CENTER
 10
150.3608756249
 20
102.3304378124
 11
150.3608756249
 21
207.9154378124
  0
LINE
  5
2A2
100
AcDbEntity
  8
1
100
AcDbLine
 62
6
  6
CONTINUOUS
 10
150.9108756249
 20
189.7554378124
 11
150.9108756249
 21
120.6054378124
  0
LINE
  5
2A3
100
AcDbEntity
  8
1
100
AcDbLine
 62
9
  6
CONTINUOUS
 10
152.5608756249
 20
189.7554378124
 11
152.5608756249
 21
120.6054378124
  0
LINE
  5
2A4
100
AcDbEntity
  8
1
100
AcDbLine
 62
6
  6
CONTINUOUS
 10
152.5608756249
 20
120.6054378124
 11
150.9108756249
 21
120.6054378124
  0
LINE
  5
2A5
100
AcDbEntity
  8
1
100
AcDbLine
 62
6
  6
CONTINUOUS
 10
160.3733756249
 20
120.8405557509
 11
162.6983756249
 21
120.8405557509
  0
LINE
  5
2A6
100
AcDbEntity
  8
1
100
AcDbLine
 62
6
  6
CONTINUOUS
 10
169.4108756249
 20
124.9304378124
 11
153.5608756249
 21
124.9304378124
  0
LINE
  5
2A7
100
AcDbEntity
  8
1
100
AcDbLine
 62
6
  6
CONTINUOUS
 10
153.5608756249
 20
125.3304378124
 11
169.4108756249
 21
125.3304378124
  0
LINE
  5
2A8
100
AcDbEntity
  8
1
100
AcDbLine
 62
9
  6
CONTINUOUS
 10
153.5608756249
 20
107.4454510339
 11
153.5608756249
 21
117.9298307704
  0
LINE
  5
2A9
100
AcDbEntity
  8
1
100
AcDbLine
 62
6
  6
CONTINUOUS
 10
153.5608756249
 20
117.9298307704
 11
153.5608756249
 21
125.3304378124
  0
LINE
  5
2AA
100
AcDbEntity
  8
1
100
AcDbLine
 62
9
  6
CONTINUOUS
 10
153.5608756249
 20
125.3304378124
 11
153.5608756249
 21
142.2779378124
  0
LINE
  5
2AB
100
AcDbEntity
  8
1
100
AcDbLine
 62
6
  6
CONTINUOUS
 10
153.5608756249
 20
142.2779378124
 11
153.5608756249
 21
168.0829378124
  0
LINE
  5
2AC
100
AcDbEntity
  8
1
100
AcDbLine
 62
9
  6
CONTINUOUS
 10
153.5608756249
 20
168.0829378124
 11
153.5608756249
 21
202.9154167768
  0
LINE
  5
2AD
100
AcDbEntity
  8
1
100
AcDbLine
 62
9
  6
CONTINUOUS
 10
154.5608756249
 20
203.9154378124
 11
154.5608756249
 21
168.0829378124
  0
LINE
  5
2AE
100
AcDbEntity
  8
1
100
AcDbLine
 62
9
  6
CONTINUOUS
 10
154.5608756249
 20
142.2779378124
 11
154.5608756249
 21
125.3304378124
  0
LINE
  5
2AF
100
AcDbEntity
  8
1
100
AcDbLine
 62
9
  6
CONTINUOUS
 10
154.5608756249
 20
116.6567084369
 11
154.5608756249
 21
106.4454378124
  0
LINE
  5
2B0
100
AcDbEntity
  8
1
100
AcDbLine
 62
6
  6
CONTINUOUS
 10
158.2969406147
 20
106.4454378124
 11
158.2969406147
 21
116.6567084369
  0
LINE
  5
2B1
100
AcDbEntity
  8
1
100
AcDbLine
 62
6
  6
CONTINUOUS
 10
158.2969406147
 20
125.3304378124
 11
158.2969406147
 21
142.2779378124
  0
LINE
  5
2B2
100
AcDbEntity
  8
1
100
AcDbLine
 62
6
  6
CONTINUOUS
 10
158.2969406147
 20
168.0829378124
 11
158.2969406147
 21
203.9154378124
  0
LINE
  5
2B3
100
AcDbEntity
  8
1
100
AcDbLine
 62
6
  6
CONTINUOUS
 10
159.6233756249
 20
201.6179849819
 11
159.6233756249
 21
168.0829378124
  0
LINE
  5
2B4
100
AcDbEntity
  8
1
100
AcDbLine
 62
6
  6
CONTINUOUS
 10
159.6233756249
 20
142.2779378124
 11
159.6233756249
 21
125.3304378124
  0
LINE
  5
2B5
100
AcDbEntity
  8
1
100
AcDbLine
 62
6
  6
CONTINUOUS
 10
159.6233756249
 20
108.7429108413
 11
159.6233756249
 21
119.8528282132
  0
LINE
  5
2B6
100
AcDbEntity
  8
1
100
AcDbLine
 62
9
  6
CONTINUOUS
 10
160.3733756249
 20
109.6804378124
 11
160.3733756249
 21
120.8405557509
  0
LINE
  5
2B7
100
AcDbEntity
  8
1
100
AcDbLine
 62
9
  6
CONTINUOUS
 10
160.3733756249
 20
125.3304378124
 11
160.3733756249
 21
142.2779378124
  0
LINE
  5
2B8
100
AcDbEntity
  8
1
100
AcDbLine
 62
9
  6
CONTINUOUS
 10
160.3733756249
 20
168.0829378124
 11
160.3733756249
 21
200.6804378124
  0
LINE
  5
2B9
100
AcDbEntity
  8
1
100
AcDbLine
 62
6
  6
CONTINUOUS
 10
150.9108756249
 20
120.6054378124
 11
149.8711932917
 21
120.3268557709
  0
LINE
  5
2BA
100
AcDbEntity
  8
1
100
AcDbLine
 62
6
  6
CONTINUOUS
 10
309.4393347206
 20
141.5954109704
 11
250.3853792072
 21
136.9477638767
  0
LINE
  5
2BB
100
AcDbEntity
  8
1
100
AcDbLine
 62
6
  6
CONTINUOUS
 10
247.7240752949
 20
134.2054378124
 11
240.3227558402
 21
134.2054378124
  0
LINE
  5
2BC
100
AcDbEntity
  8
1
100
AcDbLine
 62
9
  6
CONTINUOUS
 10
162.6983756249
 20
109.6804378124
 11
162.6983756249
 21
120.8405557509
  0
LINE
  5
2BD
100
AcDbEntity
  8
1
100
AcDbLine
 62
9
  6
CONTINUOUS
 10
162.6983756249
 20
125.3304378124
 11
162.6983756249
 21
142.2779378124
  0
LINE
  5
2BE
100
AcDbEntity
  8
1
100
AcDbLine
 62
9
  6
CONTINUOUS
 10
162.6983756249
 20
168.0829378124
 11
162.6983756249
 21
200.6804378124
  0
LINE
  5
2BF
100
AcDbEntity
  8
1
100
AcDbLine
 62
6
  6
CONTINUOUS
 10
163.4483756249
 20
108.7429108413
 11
163.4483756249
 21
119.8528282132
  0
LINE
  5
2C0
100
AcDbEntity
  8
1
100
AcDbLine
 62
6
  6
CONTINUOUS
 10
163.4483756249
 20
125.3304378124
 11
163.4483756249
 21
142.2779378124
  0
LINE
  5
2C1
100
AcDbEntity
  8
1
100
AcDbLine
 62
6
  6
CONTINUOUS
 10
163.4483756249
 20
168.0829378124
 11
163.4483756249
 21
201.6179849819
  0
LINE
  5
2C2
100
AcDbEntity
  8
1
100
AcDbLine
 62
6
  6
CONTINUOUS
 10
164.774810635
 20
203.9154378124
 11
164.774810635
 21
168.0829378124
  0
LINE
  5
2C3
100
AcDbEntity
  8
1
100
AcDbLine
 62
6
  6
CONTINUOUS
 10
164.774810635
 20
142.2779378124
 11
164.774810635
 21
125.3304378124
  0
LINE
  5
2C4
100
AcDbEntity
  8
1
100
AcDbLine
 62
6
  6
CONTINUOUS
 10
164.774810635
 20
116.6567084369
 11
164.774810635
 21
106.4454378124
  0
LINE
  5
2C5
100
AcDbEntity
  8
1
100
AcDbLine
 62
9
  6
CONTINUOUS
 10
168.4108756249
 20
106.4454378124
 11
168.4108756249
 21
116.6567084369
  0
LINE
  5
2C6
100
AcDbEntity
  8
1
100
AcDbLine
 62
9
  6
CONTINUOUS
 10
168.4108756249
 20
125.3304378124
 11
168.4108756249
 21
142.2779378124
  0
LINE
  5
2C7
100
AcDbEntity
  8
1
100
AcDbLine
 62
9
  6
CONTINUOUS
 10
168.4108756249
 20
168.0829378124
 11
168.4108756249
 21
203.9154378124
  0
LINE
  5
2C8
100
AcDbEntity
  8
1
100
AcDbLine
 62
9
  6
CONTINUOUS
 10
169.4108756249
 20
202.9154159164
 11
169.4108756249
 21
168.0829378124
  0
LINE
  5
2C9
100
AcDbEntity
  8
1
100
AcDbLine
 62
9
  6
CONTINUOUS
 10
169.4108756249
 20
117.9298307704
 11
169.4108756249
 21
107.445448955
  0
LINE
  5
2CA
100
AcDbEntity
  8
1
100
AcDbLine
 62
6
  6
CONTINUOUS
 10
169.4108756249
 20
117.9298307704
 11
169.4108756249
 21
142.2779378124
  0
LINE
  5
2CB
100
AcDbEntity
  8
1
100
AcDbLine
 62
9
  6
CONTINUOUS
 10
170.4108756249
 20
194.1554378124
 11
170.4108756249
 21
165.8012016739
  0
LINE
  5
2CC
100
AcDbEntity
  8
1
100
AcDbLine
 62
9
  6
CONTINUOUS
 10
170.4108756249
 20
144.559673951
 11
170.4108756249
 21
116.2054378124
  0
LINE
  5
2CD
100
AcDbEntity
  8
1
100
AcDbLine
 62
6
  6
CONTINUOUS
 10
153.5608756249
 20
142.2779378124
 11
169.4108756249
 21
142.2779378124
  0
LINE
  5
2CE
100
AcDbEntity
  8
1
100
AcDbLine
 62
6
  6
CONTINUOUS
 10
179.4608756249
 20
144.559673951
 11
170.4108756249
 21
144.559673951
  0
LINE
  5
2CF
100
AcDbEntity
  8
1
100
AcDbLine
 62
6
  6
CONTINUOUS
 10
179.4608756249
 20
194.1554378124
 11
179.4608756249
 21
165.8012016739
  0
LINE
  5
2D0
100
AcDbEntity
  8
1
100
AcDbLine
 62
6
  6
CONTINUOUS
 10
179.4608756249
 20
144.559673951
 11
179.4608756249
 21
116.2054378124
  0
LINE
  5
2D1
100
AcDbEntity
  8
DEFAULT_1
100
AcDbLine
 62
7
  6
CENTER
 10
313.3608756249
 20
155.1804378124
 11
166.4108756249
 21
155.1804378124
  0
LINE
  5
2D2
100
AcDbEntity
  8
TEIL_STARTBEZUEGE
100
AcDbLine
 62
7
  6
CENTER
 10
172.4108756249
 20
155.1804378124
 11
45.7608756249
 21
155.1804378124
  0
LINE
  5
2D3
100
AcDbEntity
  8
4
100
AcDbLine
 62
7
  6
CENTER
 10
315.466188758
 20
155.1804378124
 11
44.7608756249
 21
155.1804378124
  0
LINE
  5
2D4
100
AcDbEntity
  8
1
100
AcDbLine
 62
6
  6
CONTINUOUS
 10
158.2969406147
 20
106.4454378124
 11
159.6233756249
 21
108.742890643
  0
LINE
  5
2D5
100
AcDbEntity
  8
1
100
AcDbLine
 62
6
  6
CONTINUOUS
 10
158.2969406147
 20
203.9154378124
 11
159.6233756249
 21
201.6179849819
  0
LINE
  5
2D6
100
AcDbEntity
  8
1
100
AcDbLine
 62
6
  6
CONTINUOUS
 10
170.4108756249
 20
165.8012016739
 11
179.4608756249
 21
165.8012016739
  0
LINE
  5
2D7
100
AcDbEntity
  8
1
100
AcDbLine
 62
6
  6
CONTINUOUS
 10
153.5608756249
 20
168.0829378124
 11
169.4108756249
 21
168.0829378124
  0
LINE
  5
2D8
100
AcDbEntity
  8
1
100
AcDbLine
 62
6
  6
CONTINUOUS
 10
247.7240752949
 20
176.1554378124
 11
240.3227558402
 21
176.1554378124
  0
LINE
  5
2D9
100
AcDbEntity
  8
1
100
AcDbLine
 62
6
  6
CONTINUOUS
 10
309.4393347206
 20
168.7654646545
 11
250.3853792072
 21
173.4131117482
  0
LINE
  5
2DA
100
AcDbEntity
  8
1
100
AcDbLine
 62
6
  6
CONTINUOUS
 10
150.9108756249
 20
189.7554378124
 11
149.8711932917
 21
190.034019854
  0
LINE
  5
2DB
100
AcDbEntity
  8
1
100
AcDbLine
 62
6
  6
CONTINUOUS
 10
149.8711932917
 20
190.034019854
 11
50.6861586193
 21
175.5683301568
  0
LINE
  5
2DC
100
AcDbEntity
  8
1
100
AcDbLine
 62
6
  6
CONTINUOUS
 10
152.5608756249
 20
189.7554378124
 11
150.9108756249
 21
189.7554378124
  0
LINE
  5
2DD
100
AcDbEntity
  8
1
100
AcDbLine
 62
6
  6
CONTINUOUS
 10
238.9569421436
 20
177.2690332825
 11
179.4608756249
 21
194.1554378124
  0
LINE
  5
2DE
100
AcDbEntity
  8
1
100
AcDbLine
 62
6
  6
CONTINUOUS
 10
170.4108756249
 20
194.1554378124
 11
179.4608756249
 21
194.1554378124
  0
LINE
  5
2DF
100
AcDbEntity
  8
1
100
AcDbLine
 62
6
  6
CONTINUOUS
 10
160.3733756249
 20
200.6804378124
 11
162.6983756249
 21
200.6804378124
  0
LINE
  5
2E0
100
AcDbEntity
  8
1
100
AcDbLine
 62
6
  6
CONTINUOUS
 10
154.5608756249
 20
203.9154378124
 11
158.2969406147
 21
203.9154378124
  0
LINE
  5
2E1
100
AcDbEntity
  8
1
100
AcDbLine
 62
6
  6
CONTINUOUS
 10
164.774810635
 20
203.9154378124
 11
168.4108756249
 21
203.9154378124
  0
LINE
  5
2E2
100
AcDbEntity
  8
1
100
AcDbLine
 62
9
  6
CONTINUOUS
 10
238.9569421436
 20
177.2690332825
 11
238.9569421436
 21
133.0918423424
  0
LINE
  5
2E3
100
AcDbEntity
  8
1
100
AcDbLine
 62
9
  6
CONTINUOUS
 10
239.431330959
 20
176.8994309978
 11
239.431330959
 21
133.461444627
  0
LINE
  5
2E4
100
AcDbEntity
  8
1
100
AcDbLine
 62
9
  6
CONTINUOUS
 10
239.6299355172
 20
176.5554378124
 11
239.6299355172
 21
133.8054378124
  0
LINE
  5
2E5
100
AcDbEntity
  8
1
100
AcDbLine
 62
9
  6
CONTINUOUS
 10
240.3227558402
 20
176.1554378124
 11
240.3227558402
 21
134.2054378124
  0
LINE
  5
2E6
100
AcDbEntity
  8
1
100
AcDbLine
 62
6
  6
CONTINUOUS
 10
239.6299355172
 20
133.8054378124
 11
239.431330959
 21
133.461444627
  0
LINE
  5
2E7
100
AcDbEntity
  8
1
100
AcDbLine
 62
6
  6
CONTINUOUS
 10
239.431330959
 20
176.8994309978
 11
239.6299355172
 21
176.5554378124
  0
LINE
  5
2E8
100
AcDbEntity
  8
1
100
AcDbLine
 62
9
  6
CONTINUOUS
 10
247.7240752949
 20
176.1554378124
 11
247.7240752949
 21
134.2054378124
  0
LINE
  5
2E9
100
AcDbEntity
  8
1
100
AcDbLine
 62
9
  6
CONTINUOUS
 10
248.5901006987
 20
175.6554378124
 11
248.5901006987
 21
134.7054378124
  0
LINE
  5
2EA
100
AcDbEntity
  8
1
100
AcDbLine
 62
9
  6
CONTINUOUS
 10
249.5978128991
 20
173.9100290819
 11
249.5978128991
 21
136.450846543
  0
LINE
  5
2EB
100
AcDbEntity
  8
1
100
AcDbLine
 62
9
  6
CONTINUOUS
 10
250.3853792072
 20
173.4131117482
 11
250.3853792072
 21
136.9477638767
  0
LINE
  5
2EC
100
AcDbEntity
  8
1
100
AcDbLine
 62
6
  6
CONTINUOUS
 10
249.5978128991
 20
136.450846543
 11
248.5901006987
 21
134.7054378124
  0
LINE
  5
2ED
100
AcDbEntity
  8
1
100
AcDbLine
 62
6
  6
CONTINUOUS
 10
248.5901006987
 20
175.6554378124
 11
249.5978128991
 21
173.9100290819
  0
LINE
  5
2EE
100
AcDbEntity
  8
1
100
AcDbLine
 62
9
  6
CONTINUOUS
 10
309.4393347206
 20
168.7654646545
 11
309.4393347206
 21
141.5954109704
  0
LINE
  5
2EF
100
AcDbEntity
  8
1
100
AcDbLine
 62
6
  6
CONTINUOUS
 10
310.3608756249
 20
167.7685473208
 11
310.3608756249
 21
142.5923283041
  0
LINE
  5
2F0
100
AcDbEntity
  8
SK1
100
AcDbLine
 62
8
  6
HIDDEN
 10
267.8608756249
 20
150.25
 11
310.3608756249
 21
150.25
  0
LINE
  5
2F1
100
AcDbEntity
  8
SK1
100
AcDbLine
 62
8
  6
HIDDEN
 10
267.8608756249
 20
159.75
 11
310.3608756249
 21
159.75
  0
LINE
  5
2F2
100
AcDbEntity
  8
SK1
100
AcDbLine
 62
8
  6
HIDDEN
 10
267.8608756249
 20
159.75
 11
267.8608756249
 21
150.25
  0
ARC
  5
2F3
100
AcDbEntity
  8
1
100
AcDbCircle
 62
6
  6
CONTINUOUS
 10
51.0108756249
 20
137.0189908113
 40
2.25
100
AcDbArc
 50
180.0
 51
261.7021731718
  0
ARC
  5
2F4
100
AcDbEntity
  8
1
100
AcDbCircle
 62
6
  6
CONTINUOUS
 10
154.5608756249
 20
107.4454378124
 40
1.0
100
AcDbArc
 50
180.0
 51
270.0
  0
ARC
  5
2F5
100
AcDbEntity
  8
1
100
AcDbCircle
 62
6
  6
CONTINUOUS
 10
152.5608756249
 20
119.6054378124
 40
1.0
100
AcDbArc
 50
4.7647895902
 51
90.0
  0
ARC
  5
2F6
100
AcDbEntity
  8
1
100
AcDbCircle
 62
6
  6
CONTINUOUS
 10
160.3733756249
 20
108.9304378124
 40
0.75
100
AcDbArc
 50
90.0
 51
180.0
  0
ARC
  5
2F7
100
AcDbEntity
  8
1
100
AcDbCircle
 62
6
  6
CONTINUOUS
 10
-92.4094652289
 20
231.1217274648
 40
275.6010568051
100
AcDbArc
 50
335.4599842057
 51
336.1325973457
  0
ARC
  5
2F8
100
AcDbEntity
  8
1
100
AcDbCircle
 62
6
  6
CONTINUOUS
 10
51.0108756249
 20
173.3418848136
 40
2.25
100
AcDbArc
 50
98.2978268282
 51
180.0
  0
ARC
  5
2F9
100
AcDbEntity
  8
1
100
AcDbCircle
 62
6
  6
CONTINUOUS
 10
154.5608756249
 20
202.9154378124
 40
1.0
100
AcDbArc
 50
90.0
 51
180.0
  0
ARC
  5
2FA
100
AcDbEntity
  8
1
100
AcDbCircle
 62
6
  6
CONTINUOUS
 10
152.5608756249
 20
190.7554378124
 40
1.0
100
AcDbArc
 50
270.0
 51
360.0
  0
ARC
  5
2FB
100
AcDbEntity
  8
1
100
AcDbCircle
 62
6
  6
CONTINUOUS
 10
160.3733756249
 20
201.4304378124
 40
0.75
100
AcDbArc
 50
185.0
 51
270.0
  0
ARC
  5
2FC
100
AcDbEntity
  8
1
100
AcDbCircle
 62
6
  6
CONTINUOUS
 10
168.4108756249
 20
107.4454378124
 40
1.0
100
AcDbArc
 50
270.0
 51
360.0
  0
ARC
  5
2FD
100
AcDbEntity
  8
1
100
AcDbCircle
 62
6
  6
CONTINUOUS
 10
170.4108756249
 20
115.2054378124
 40
1.0
100
AcDbArc
 50
90.0
 51
180.0
  0
ARC
  5
2FE
100
AcDbEntity
  8
1
100
AcDbCircle
 62
6
  6
CONTINUOUS
 10
162.6983756249
 20
108.9304378124
 40
0.75
100
AcDbArc
 50
0.0
 51
90.0
  0
ARC
  5
2FF
100
AcDbEntity
  8
1
100
AcDbCircle
 62
6
  6
CONTINUOUS
 10
178.1453106738
 20
141.3288602088
 40
8.7344360456
100
AcDbArc
 50
173.8436563721
 51
179.972628677
  0
ARC
  5
300
100
AcDbEntity
  8
1
100
AcDbCircle
 62
6
  6
CONTINUOUS
 10
178.1453102968
 20
169.0320154461
 40
8.7344356686
100
AcDbArc
 50
180.0273715213
 51
186.1562589262
  0
ARC
  5
301
100
AcDbEntity
  8
1
100
AcDbCircle
 62
6
  6
CONTINUOUS
 10
240.3227558402
 20
133.4054378124
 40
0.8
100
AcDbArc
 50
90.0
 51
150.0
  0
ARC
  5
302
100
AcDbEntity
  8
1
100
AcDbCircle
 62
6
  6
CONTINUOUS
 10
238.738510636
 20
133.861444627
 40
0.8
100
AcDbArc
 50
285.8452082924
 51
330.0
  0
ARC
  5
303
100
AcDbEntity
  8
1
100
AcDbCircle
 62
6
  6
CONTINUOUS
 10
250.4638383029
 20
135.950846543
 40
1.0
100
AcDbArc
 50
94.5
 51
150.0
  0
ARC
  5
304
100
AcDbEntity
  8
1
100
AcDbCircle
 62
6
  6
CONTINUOUS
 10
247.7240752949
 20
135.2054378124
 40
1.0
100
AcDbArc
 50
270.0
 51
330.0
  0
ARC
  5
305
100
AcDbEntity
  8
1
100
AcDbCircle
 62
6
  6
CONTINUOUS
 10
309.3608756249
 20
142.5923283041
 40
1.0
100
AcDbArc
 50
274.5
 51
360.0
  0
ARC
  5
306
100
AcDbEntity
  8
1
100
AcDbCircle
 62
6
  6
CONTINUOUS
 10
309.3608756249
 20
167.7685473208
 40
1.0
100
AcDbArc
 50
0.0
 51
85.5
  0
ARC
  5
307
100
AcDbEntity
  8
1
100
AcDbCircle
 62
6
  6
CONTINUOUS
 10
415.4812164791
 20
231.121727465
 40
275.6010568056
100
AcDbArc
 50
203.8674026543
 51
204.5400157943
  0
ARC
  5
308
100
AcDbEntity
  8
1
100
AcDbCircle
 62
6
  6
CONTINUOUS
 10
168.4108756249
 20
202.9154378124
 40
1.0
100
AcDbArc
 50
0.0
 51
90.0
  0
ARC
  5
309
100
AcDbEntity
  8
1
100
AcDbCircle
 62
6
  6
CONTINUOUS
 10
250.4638383029
 20
174.4100290819
 40
1.0
100
AcDbArc
 50
210.0
 51
265.5
  0
ARC
  5
30A
100
AcDbEntity
  8
1
100
AcDbCircle
 62
6
  6
CONTINUOUS
 10
247.7240752949
 20
175.1554378124
 40
1.0
100
AcDbArc
 50
30.0
 51
90.0
  0
ARC
  5
30B
100
AcDbEntity
  8
1
100
AcDbCircle
 62
6
  6
CONTINUOUS
 10
170.4108756249
 20
195.1554378124
 40
1.0
100
AcDbArc
 50
180.0
 51
270.0
  0
ARC
  5
30C
100
AcDbEntity
  8
1
100
AcDbCircle
 62
6
  6
CONTINUOUS
 10
240.3227558402
 20
176.9554378124
 40
0.8
100
AcDbArc
 50
210.0
 51
270.0
  0
ARC
  5
30D
100
AcDbEntity
  8
1
100
AcDbCircle
 62
6
  6
CONTINUOUS
 10
238.738510636
 20
176.4994309978
 40
0.8
100
AcDbArc
 50
30.0
 51
74.1547917076
  0
ARC
  5
30E
100
AcDbEntity
  8
1
100
AcDbCircle
 62
6
  6
CONTINUOUS
 10
162.6983756249
 20
201.4304378124
 40
0.75
100
AcDbArc
 50
270.0
 51
355.0
  0
SPLINE
  5
30F
100
AcDbEntity
  8
1
100
AcDbSpline
 62
6
  6
CONTINUOUS
 70
0
 71
3
 72
13
 73
9
 74
0
 42
0.0000001
 43
0.0000001
 44
0.0000000001
 40
0.0
 40
0.0
 40
0.0
 40
0.0
 40
0.2499446186
 40
0.4996306901
 40
0.6248194347
 40
0.7499578856
 40
0.8750179286
 40
1.0
 40
1.0
 40
1.0
 40
1.0
 10
163.4483756249
 20
119.8528282132
 30
0.0
 10
163.4483756249
 20
119.9666685722
 30
0.0
 10
163.4183120744
 20
120.1952561865
 30
0.0
 10
163.3023121457
 20
120.4606015523
 30
0.0
 10
163.1593346652
 20
120.6395007198
 30
0.0
 10
163.0261604958
 20
120.7491096163
 30
0.0
 10
162.8698686021
 20
120.822921456
 30
0.0
 10
162.7553002507
 20
120.8405557509
 30
0.0
 10
162.6983756249
 20
120.8405557509
 30
0.0
  0
SPLINE
  5
310
100
AcDbEntity
  8
1
100
AcDbSpline
 62
6
  6
CONTINUOUS
 70
0
 71
3
 72
21
 73
17
 74
0
 42
0.0000001
 43
0.0000001
 44
0.0000000001
 40
0.0
 40
0.0
 40
0.0
 40
0.0
 40
0.1249896238
 40
0.1875051467
 40
0.2500173665
 40
0.3125235643
 40
0.3750224592
 40
0.4375139284
 40
0.4999999907
 40
0.5624860504
 40
0.6249775129
 40
0.6874763995
 40
0.7499825946
 40
0.8124948183
 40
0.8750103433
 40
1.0
 40
1.0
 40
1.0
 40
1.0
 10
179.4608756249
 20
165.8012016739
 30
0.0
 10
180.1600832464
 20
165.0729433463
 30
0.0
 10
181.1594895445
 20
163.9292051429
 30
0.0
 10
182.3323789466
 20
162.2834142497
 30
0.0
 10
183.1124550945
 20
160.9827230849
 30
0.0
 10
183.7675936608
 20
159.6142285452
 30
0.0
 10
184.2685622167
 20
158.1812641105
 30
0.0
 10
184.5852916536
 20
156.6958666272
 30
0.0
 10
184.6939931456
 20
155.1804380578
 30
0.0
 10
184.5852917208
 20
153.6650095405
 30
0.0
 10
184.2685624313
 20
152.1796121712
 30
0.0
 10
183.7675939567
 20
150.7466478595
 30
0.0
 10
183.1124555209
 20
149.3781533221
 30
0.0
 10
182.3323794058
 20
148.0774621051
 30
0.0
 10
181.1594899545
 20
146.4316708603
 30
0.0
 10
180.1600834302
 20
145.2879324699
 30
0.0
 10
179.4608756249
 20
144.559673951
 30
0.0
  0
SPLINE
  5
311
100
AcDbEntity
  8
1
100
AcDbSpline
 62
6
  6
CONTINUOUS
 70
0
 71
3
 72
20
 73
16
 74
0
 42
0.0000001
 43
0.0000001
 44
0.0000000001
 40
0.0
 40
0.0
 40
0.0
 40
0.0
 40
0.0312254966
 40
0.0624712803
 40
0.0937335701
 40
0.1249956295
 40
0.1874664355
 40
0.2499634328
 40
0.3124677132
 40
0.3749742093
 40
0.4999658916
 40
0.6249693488
 40
0.749977286
 40
0.8749876914
 40
1.0
 40
1.0
 40
1.0
 40
1.0
 10
170.4108756249
 20
144.559673951
 30
0.0
 10
170.3837900751
 20
144.559673951
 30
0.0
 10
170.3293227909
 20
144.5513002393
 30
0.0
 10
170.2545033198
 20
144.5177407975
 30
0.0
 10
170.1879912849
 20
144.4702579589
 30
0.0
 10
170.1094393824
 20
144.3951623556
 30
0.0
 10
170.0265627478
 20
144.2870943035
 30
0.0
 10
169.9437358149
 20
144.1469320755
 30
0.0
 10
169.87262483
 20
144.0004936582
 30
0.0
 10
169.7897386912
 20
143.8000077363
 30
0.0
 10
169.7037082078
 20
143.5426242134
 30
0.0
 10
169.6205065027
 20
143.228009401
 30
0.0
 10
169.5533512639
 20
142.9095911466
 30
0.0
 10
169.5000050128
 20
142.5886013111
 30
0.0
 10
169.4728322592
 20
142.3733743316
 30
0.0
 10
169.4612464247
 20
142.2655571463
 30
0.0
  0
SPLINE
  5
312
100
AcDbEntity
  8
1
100
AcDbSpline
 62
6
  6
CONTINUOUS
 70
0
 71
3
 72
20
 73
16
 74
0
 42
0.0000001
 43
0.0000001
 44
0.0000000001
 40
0.0
 40
0.0
 40
0.0
 40
0.0
 40
0.1250123076
 40
0.2500227121
 40
0.3750306484
 40
0.5000341048
 40
0.6250257863
 40
0.6875322819
 40
0.7500365618
 40
0.8125335583
 40
0.8750043641
 40
0.9062664228
 40
0.937528712
 40
0.9687744991
 40
1.0
 40
1.0
 40
1.0
 40
1.0
 10
169.4612450378
 20
168.0953313869
 30
0.0
 10
169.4728307698
 20
167.9875136477
 30
0.0
 10
169.5000033533
 20
167.7722855578
 30
0.0
 10
169.553349445
 20
167.4512940534
 30
0.0
 10
169.6205046111
 20
167.1328741276
 30
0.0
 10
169.7037063292
 20
166.8182576428
 30
0.0
 10
169.789736896
 20
166.560872724
 30
0.0
 10
169.8726231553
 20
166.3603856836
 30
0.0
 10
169.9437342618
 20
166.2139464253
 30
0.0
 10
170.0265613634
 20
166.0737833571
 30
0.0
 10
170.1094381884
 20
165.9657145993
 30
0.0
 10
170.1879903208
 20
165.8906184548
 30
0.0
 10
170.2545025827
 20
165.84313523
 30
0.0
 10
170.3293223718
 20
165.8095754729
 30
0.0
 10
170.3837899363
 20
165.8012016739
 30
0.0
 10
170.4108756249
 20
165.8012016739
 30
0.0
  0
SPLINE
  5
313
100
AcDbEntity
  8
1
100
AcDbSpline
 62
6
  6
CONTINUOUS
 70
0
 71
3
 72
13
 73
9
 74
0
 42
0.0000001
 43
0.0000001
 44
0.0000000001
 40
0.0
 40
0.0
 40
0.0
 40
0.0
 40
0.2499192431
 40
0.4995714362
 40
0.6247642232
 40
0.7498971887
 40
0.8749697928
 40
1.0
 40
1.0
 40
1.0
 40
1.0
 10
169.4108756249
 20
117.9298307704
 30
0.0
 10
169.4108756249
 20
117.7809686632
 30
0.0
 10
169.3705969576
 20
117.4818882041
 30
0.0
 10
169.2130572804
 20
117.1368675961
 30
0.0
 10
169.0199859742
 20
116.9078135451
 30
0.0
 10
168.8417311648
 20
116.7695754369
 30
0.0
 10
168.6351274298
 20
116.6782166601
 30
0.0
 10
168.4853487222
 20
116.6567084369
 30
0.0
 10
168.4108756249
 20
116.6567084369
 30
0.0
  0
SPLINE
  5
314
100
AcDbEntity
  8
1
100
AcDbSpline
 62
6
  6
CONTINUOUS
 70
0
 71
3
 72
13
 73
9
 74
0
 42
0.0000001
 43
0.0000001
 44
0.0000000001
 40
0.0
 40
0.0
 40
0.0
 40
0.0
 40
0.1250303466
 40
0.2501028173
 40
0.375235759
 40
0.5004285709
 40
0.7500808279
 40
1.0
 40
1.0
 40
1.0
 40
1.0
 10
154.5608756249
 20
116.6567084369
 30
0.0
 10
154.4864024446
 20
116.6567084369
 30
0.0
 10
154.3366237296
 20
116.6782166802
 30
0.0
 10
154.1300200288
 20
116.7695754897
 30
0.0
 10
153.9517652759
 20
116.9078135402
 30
0.0
 10
153.7586939468
 20
117.1368676244
 30
0.0
 10
153.6011542809
 20
117.4818882524
 30
0.0
 10
153.5608756249
 20
117.7809687055
 30
0.0
 10
153.5608756249
 20
117.9298307704
 30
0.0
  0
SPLINE
  5
315
100
AcDbEntity
  8
1
100
AcDbSpline
 62
6
  6
CONTINUOUS
 70
0
 71
3
 72
13
 73
9
 74
0
 42
0.0000001
 43
0.0000001
 44
0.0000000001
 40
0.0
 40
0.0
 40
0.0
 40
0.0
 40
0.1249816841
 40
0.2500417662
 40
0.3751804989
 40
0.5003694017
 40
0.7500557163
 40
1.0
 40
1.0
 40
1.0
 40
1.0
 10
160.3733756249
 20
120.8405557509
 30
0.0
 10
160.3164511749
 20
120.8405557509
 30
0.0
 10
160.2018829491
 20
120.8229216982
 30
0.0
 10
160.0455911105
 20
120.7491097679
 30
0.0
 10
159.9124166747
 20
120.6395008654
 30
0.0
 10
159.7694390005
 20
120.4606014268
 30
0.0
 10
159.6534391601
 20
120.1952559857
 30
0.0
 10
159.6233756249
 20
119.9666684208
 30
0.0
 10
159.6233756249
 20
119.8528282132
 30
0.0
  0
ENDSEC
  0
SECTION
  2
OBJECTS
  0
DICTIONARY
  5
C
100
AcDbDictionary
280
0
281
1
  3
ACAD_GROUP
350
D
  3
ACAD_MLINESTYLE
350
17
  3
ACAD_LAYOUT
350
1A
  3
ACAD_PLOTSETTINGS
350
19
  3
ACAD_PLOTSTYLENAME
350
E
  0
DICTIONARY
  5
D
102
{ACAD_REACTORS
330
C
102
}
100
AcDbDictionary
280
0
281
1
  0
ACDBDICTIONARYWDFLT
  5
E
102
{ACAD_REACTORS
330
C
102
}
100
AcDbDictionary
281
1
  3
Normal
350
F
100
AcDbDictionaryWithDefault
340
F
  0
DICTIONARY
  5
17
102
{ACAD_REACTORS
330
C
102
}
100
AcDbDictionary
280
0
281
1
  3
Standard
350
18
  0
DICTIONARY
  5
19
102
{ACAD_REACTORS
330
C
102
}
100
AcDbDictionary
281
1
  0
DICTIONARY
  5
1A
102
{ACAD_REACTORS
330
C
102
}
100
AcDbDictionary
281
1
  3
Model
350
316
  3
Layout1
350
317
  0
ACDBPLACEHOLDER
  5
F
102
{ACAD_REACTORS
330
E
102
}
  0
MLINESTYLE
  5
18
102
{ACAD_REACTORS
330
17
102
}
100
AcDbMlineStyle
  2
STANDARD
 70
0
  3

 62
256
 51
90.0
 52
90.0
 71
2
 49
0.5
 62
256
  6
BYLAYER
 49
-0.5
 62
256
  6
BYLAYER
  0
LAYOUT
  5
316
102
{ACAD_REACTORS
330
1A
102
}
100
AcDbPlotSettings
  1

  2
none_device
  4
ISO_A3_(420.00_x_297.00_MM)
  6

 40
0.0
 41
0.0
 42
0.0
 43
0.0
 44
420.0
 45
297.0
 46
0.0
 47
0.0
 48
0.0
 49
0.0
140
0.0
141
0.0
142
1.0
143
1.0
 70
1024
 72
1
 73
0
 74
0
  7

 75
0
147
1.0
148
0.0
149
0.0
100
AcDbLayout
  1
Model
 70
0
 71
0
 10
0.0
 20
0.0
 11
420.0
 21
297.0
 12
0.0
 22
0.0
 32
0.0
 14
0.0
 24
0.0
 34
0.0
 15
0.0
 25
0.0
 35
0.0
146
0.0
 13
0.0
 23
0.0
 33
0.0
 16
1.0
 26
0.0
 36
0.0
 17
0.0
 27
1.0
 37
0.0
 76
0
330
231
345
0
346
0
  0
LAYOUT
  5
317
102
{ACAD_REACTORS
330
1A
102
}
100
AcDbPlotSettings
  1

  2
none_device
  4
ISO_A3_(420.00_x_297.00_MM)
  6

 40
0.0
 41
0.0
 42
0.0
 43
0.0
 44
420.0
 45
297.0
 46
0.0
 47
0.0
 48
0.0
 49
0.0
140
0.0
141
0.0
142
1.0
143
1.0
 70
0
 72
1
 73
0
 74
0
  7

 75
0
147
1.0
148
0.0
149
0.0
100
AcDbLayout
  1
Layout1
 70
0
 71
1
 10
0.0
 20
0.0
 11
420.0
 21
297.0
 12
0.0
 22
0.0
 32
0.0
 14
0.0
 24
0.0
 34
0.0
 15
0.0
 25
0.0
 35
0.0
146
0.0
 13
0.0
 23
0.0
 33
0.0
 16
1.0
 26
0.0
 36
0.0
 17
0.0
 27
1.0
 37
0.0
 76
0
330
232
345
0
346
0
  0
ENDSEC
  0
EOF
