999
DXF file: 4048216_8_1.dxf
999
Pro/ENGINEER 2009220 by Parametric Technology Corporation
  0
SECTION
  2
HEADER
  9
$ACADVER
  1
AC1021
  9
$DWGCODEPAGE
  3
ANSI_1252
  9
$EXTMAX
 10
297.0
 20
210.0
 30
0.0
  9
$EXTMIN
 10
0.0
 20
0.0
 30
0.0
  9
$LIMMIN
 10
0.0
 20
0.0
  9
$LIMMAX
 10
297.0
 20
210.0
  9
$VIEWCTR
 10
148.5
 20
105.0
  9
$VIEWSIZE
 40
210.0
  9
$CLAYER
  8
0
  9
$LTSCALE
 40
16.335
  9
$CELTYPE
  6
BYLAYER
  9
$DIMSCALE
 40
1.0
  9
$DIMASZ
 40
3.5
  9
$DIMEXO
 40
1.85625
  9
$DIMDLI
 40
11.286
  9
$DIMEXE
 40
5.346
  9
$DIMCEN
 40
2.673
  9
$DIMLFAC
 40
1.0
  9
$DIMBLK
  1
_FILLED
  9
$DIMTXT
 40
3.5
  9
$DIMTOL
 70
1
  9
$DIMLIM
 70
0
  9
$DIMTFAC
 40
1.0
  9
$DIMTP
 40
0.005
  9
$DIMTM
 40
0.005
  9
$PDMODE
 70
3
  9
$PDSIZE
 40
0.3125
  9
$HANDSEED
  5
332
  9
$TILEMODE
 70
1
  9
$MEASUREMENT
 70
1
  9
$INSUNITS
 70
4
  0
ENDSEC
  0
SECTION
  2
CLASSES
  0
CLASS
  1
ACDBDICTIONARYWDFLT
  2
AcDbDictionaryWithDefault
  3
AutoCAD 2000
 90
0
 91
1
280
0
281
0
  0
CLASS
  1
ACDBPLACEHOLDER
  2
AcDbPlaceHolder
  3
AutoCAD 2000
 90
0
 91
1
280
0
281
0
  0
CLASS
  1
LAYOUT
  2
AcDbLayout
  3
AutoCAD 2000
 90
0
 91
0
280
0
281
0
  0
ENDSEC
  0
SECTION
  2
TABLES
  0
TABLE
  2
VPORT
  5
8
100
AcDbSymbolTable
 70
2
  0
VPORT
  5
1F4
100
AcDbSymbolTableRecord
100
AcDbViewportTableRecord
  2
*ACTIVE
 70
0
 10
0.0
 20
0.0
 11
1.0
 21
1.0
 12
148.5
 22
105.0
 13
0.0
 23
0.0
 14
1.0
 24
1.0
 15
0.0
 25
0.0
 16
0.0
 26
0.0
 36
1.0
 17
0.0
 27
0.0
 37
0.0
 40
210.0
 41
1.4142857143
 42
50.0
 43
0.0
 44
0.0
 50
0.0
 51
0.0
 71
0
 72
100
 73
1
 74
1
 75
0
 76
0
 77
0
 78
0
  0
ENDTAB
  0
TABLE
  2
LTYPE
  5
5
100
AcDbSymbolTable
 70
6
  0
LTYPE
  5
14
100
AcDbSymbolTableRecord
100
AcDbLinetypeTableRecord
  2
BYBLOCK
 70
0
  3

 72
65
 73
0
 40
0.0
  0
LTYPE
  5
15
100
AcDbSymbolTableRecord
100
AcDbLinetypeTableRecord
  2
BYLAYER
 70
0
  3

 72
65
 73
0
 40
0.0
  0
LTYPE
  5
16
100
AcDbSymbolTableRecord
100
AcDbLinetypeTableRecord
  2
CONTINUOUS
 70
64
  3
Solid line
 72
65
 73
0
 40
0.0
  0
LTYPE
  5
1F5
100
AcDbSymbolTableRecord
100
AcDbLinetypeTableRecord
  2
CENTER
 70
64
  3
____ _ ____ _ ____ _ ____ _ ____ _ ____ _ ____
 72
65
 73
4
 40
0.6
 49
0.375
 74
0
 49
-0.075
 74
0
 49
0.075
 74
0
 49
-0.075
 74
0
  0
LTYPE
  5
1F6
100
AcDbSymbolTableRecord
100
AcDbLinetypeTableRecord
  2
HIDDEN
 70
64
  3
- - - - - - - - - - - - - - - - - - - -
 72
65
 73
2
 40
0.2
 49
0.1
 74
0
 49
-0.1
 74
0
  0
LTYPE
  5
1F7
100
AcDbSymbolTableRecord
100
AcDbLinetypeTableRecord
  2
PHANTOM
 70
64
  3
_____ _ _ _____ _ _ _____ _ _ _____
 72
65
 73
6
 40
0.8
 49
0.45
 74
0
 49
-0.05
 74
0
 49
0.1
 74
0
 49
-0.05
 74
0
 49
0.1
 74
0
 49
-0.05
 74
0
  0
LTYPE
  5
1F8
100
AcDbSymbolTableRecord
100
AcDbLinetypeTableRecord
  2
DOT
 70
64
  3
. . . . . . . . . . . . . . . . . . . .
 72
65
 73
2
 40
0.2
 49
0.1
 74
0
 49
-0.1
 74
0
  0
LTYPE
  5
1F9
100
AcDbSymbolTableRecord
100
AcDbLinetypeTableRecord
  2
DASHED
 70
64
  3
- - - - - - - - - - - - - - - - - - - -
 72
65
 73
2
 40
0.2
 49
0.1
 74
0
 49
-0.1
 74
0
  0
ENDTAB
  0
TABLE
  2
LAYER
  5
2
100
AcDbSymbolTable
 70
36
  0
LAYER
  5
10
100
AcDbSymbolTableRecord
100
AcDbLayerTableRecord
  2
0
 70
0
 62
7
  6
CONTINUOUS
370
-3
390
F
  0
LAYER
  5
1FA
100
AcDbSymbolTableRecord
100
AcDbLayerTableRecord
  2
DEFAULT_1
 70
0
 62
7
  6
CENTER
370
-3
390
F
  0
LAYER
  5
1FB
100
AcDbSymbolTableRecord
100
AcDbLayerTableRecord
  2
DEFAULT_2
 70
0
 62
8
  6
HIDDEN
370
-3
390
F
  0
LAYER
  5
1FC
100
AcDbSymbolTableRecord
100
AcDbLayerTableRecord
  2
DEFAULT_3
 70
0
 62
7
  6
PHANTOM
370
-3
390
F
  0
LAYER
  5
1FD
100
AcDbSymbolTableRecord
100
AcDbLayerTableRecord
  2
ANALYSEN
 70
0
 62
7
  6
CONTINUOUS
370
-3
390
F
  0
LAYER
  5
1FE
100
AcDbSymbolTableRecord
100
AcDbLayerTableRecord
  2
AUSSENKONTUR
 70
0
 62
7
  6
CONTINUOUS
370
-3
390
F
  0
LAYER
  5
1FF
100
AcDbSymbolTableRecord
100
AcDbLayerTableRecord
  2
BEZUGSACHSEN
 70
0
 62
7
  6
CONTINUOUS
370
-3
390
F
  0
LAYER
  5
200
100
AcDbSymbolTableRecord
100
AcDbLayerTableRecord
  2
BEZUGSACHSENKENNZEICHEN
 70
0
 62
7
  6
CONTINUOUS
370
-3
390
F
  0
LAYER
  5
201
100
AcDbSymbolTableRecord
100
AcDbLayerTableRecord
  2
BEZUGSEBENEN
 70
0
 62
7
  6
CONTINUOUS
370
-3
390
F
  0
LAYER
  5
202
100
AcDbSymbolTableRecord
100
AcDbLayerTableRecord
  2
BEZUGSPUNKTE
 70
0
 62
7
  6
CONTINUOUS
370
-3
390
F
  0
LAYER
  5
203
100
AcDbSymbolTableRecord
100
AcDbLayerTableRecord
  2
BOHRUNGEN
 70
0
 62
7
  6
CONTINUOUS
370
-3
390
F
  0
LAYER
  5
204
100
AcDbSymbolTableRecord
100
AcDbLayerTableRecord
  2
FASEN
 70
0
 62
7
  6
CONTINUOUS
370
-3
390
F
  0
LAYER
  5
205
100
AcDbSymbolTableRecord
100
AcDbLayerTableRecord
  2
FLAECHEN
 70
0
 62
7
  6
CONTINUOUS
370
-3
390
F
  0
LAYER
  5
206
100
AcDbSymbolTableRecord
100
AcDbLayerTableRecord
  2
GEWINDE
 70
0
 62
7
  6
CONTINUOUS
370
-3
390
F
  0
LAYER
  5
207
100
AcDbSymbolTableRecord
100
AcDbLayerTableRecord
  2
HILFEN
 70
0
 62
7
  6
CONTINUOUS
370
-3
390
F
  0
LAYER
  5
208
100
AcDbSymbolTableRecord
100
AcDbLayerTableRecord
  2
INNENKONTUR
 70
0
 62
7
  6
CONTINUOUS
370
-3
390
F
  0
LAYER
  5
209
100
AcDbSymbolTableRecord
100
AcDbLayerTableRecord
  2
KURVEN
 70
0
 62
7
  6
CONTINUOUS
370
-3
390
F
  0
LAYER
  5
20A
100
AcDbSymbolTableRecord
100
AcDbLayerTableRecord
  2
MAKINO
 70
0
 62
7
  6
CONTINUOUS
370
-3
390
F
  0
LAYER
  5
20B
100
AcDbSymbolTableRecord
100
AcDbLayerTableRecord
  2
OELVERDR_RILLE
 70
0
 62
7
  6
CONTINUOUS
370
-3
390
F
  0
LAYER
  5
20C
100
AcDbSymbolTableRecord
100
AcDbLayerTableRecord
  2
PLATZIERUNG
 70
0
 62
7
  6
CONTINUOUS
370
-3
390
F
  0
LAYER
  5
20D
100
AcDbSymbolTableRecord
100
AcDbLayerTableRecord
  2
PUNKTE
 70
0
 62
7
  6
CONTINUOUS
370
-3
390
F
  0
LAYER
  5
20E
100
AcDbSymbolTableRecord
100
AcDbLayerTableRecord
  2
RUNDUNGEN
 70
0
 62
7
  6
CONTINUOUS
370
-3
390
F
  0
LAYER
  5
20F
100
AcDbSymbolTableRecord
100
AcDbLayerTableRecord
  2
TEIL_STARTBEZUEGE
 70
0
 62
7
  6
CONTINUOUS
370
-3
390
F
  0
LAYER
  5
210
100
AcDbSymbolTableRecord
100
AcDbLayerTableRecord
  2
VERERBUNG
 70
0
 62
7
  6
CONTINUOUS
370
-3
390
F
  0
LAYER
  5
211
100
AcDbSymbolTableRecord
100
AcDbLayerTableRecord
  2
VOLUMEN
 70
0
 62
7
  6
CONTINUOUS
370
-3
390
F
  0
LAYER
  5
212
100
AcDbSymbolTableRecord
100
AcDbLayerTableRecord
  2
ZEICHNUNG
 70
0
 62
7
  6
CONTINUOUS
370
-3
390
F
  0
LAYER
  5
213
100
AcDbSymbolTableRecord
100
AcDbLayerTableRecord
  2
ZEICHNUNGSBEMASSUNGEN
 70
0
 62
7
  6
CONTINUOUS
370
-3
390
F
  0
ENDTAB
  0
TABLE
  2
STYLE
  5
3
100
AcDbSymbolTable
 70
1
  0
STYLE
  5
11
100
AcDbSymbolTableRecord
100
AcDbTextStyleTableRecord
  2
STANDARD
 70
0
 40
0.0
 41
0.7
 50
0.0
 71
0
 42
0.2
  3
txt
  4

  0
STYLE
  5
214
100
AcDbSymbolTableRecord
100
AcDbTextStyleTableRecord
  2
TEXTSTYLE_1
 70
0
 40
0.0
 41
0.8
 50
0.0
 71
0
 42
0.2
  3
gdt
  4

  0
STYLE
  5
215
100
AcDbSymbolTableRecord
100
AcDbTextStyleTableRecord
  2
TEXTSTYLE_2
 70
0
 40
0.0
 41
0.7
 50
0.0
 71
0
 42
0.2
  3
gdt
  4

  0
ENDTAB
  0
TABLE
  2
VIEW
  5
6
100
AcDbSymbolTable
 70
0
  0
ENDTAB
  0
TABLE
  2
UCS
  5
7
100
AcDbSymbolTable
 70
0
  0
ENDTAB
  0
TABLE
  2
APPID
  5
9
100
AcDbSymbolTable
 70
1
  0
APPID
  5
216
100
AcDbSymbolTableRecord
100
AcDbRegAppTableRecord
  2
ACAD
 70
0
  0
ENDTAB
  0
TABLE
  2
BLOCK_RECORD
  5
1
100
AcDbSymbolTable
 70
0
  0
BLOCK_RECORD
  5
217
100
AcDbSymbolTableRecord
100
AcDbBlockTableRecord
  2
*Model_Space
  0
BLOCK_RECORD
  5
218
100
AcDbSymbolTableRecord
100
AcDbBlockTableRecord
  2
*Paper_Space
  0
BLOCK_RECORD
  5
219
100
AcDbSymbolTableRecord
100
AcDbBlockTableRecord
  2
_FILLED
  0
BLOCK_RECORD
  5
21A
100
AcDbSymbolTableRecord
100
AcDbBlockTableRecord
  2
*D0
  0
BLOCK_RECORD
  5
21B
100
AcDbSymbolTableRecord
100
AcDbBlockTableRecord
  2
*D1
  0
BLOCK_RECORD
  5
21C
100
AcDbSymbolTableRecord
100
AcDbBlockTableRecord
  2
*D2
  0
BLOCK_RECORD
  5
21D
100
AcDbSymbolTableRecord
100
AcDbBlockTableRecord
  2
*D3
  0
BLOCK_RECORD
  5
21E
100
AcDbSymbolTableRecord
100
AcDbBlockTableRecord
  2
*D4
  0
BLOCK_RECORD
  5
21F
100
AcDbSymbolTableRecord
100
AcDbBlockTableRecord
  2
*D5
  0
ENDTAB
  0
TABLE
  2
DIMSTYLE
  5
A
100
AcDbSymbolTable
 70
1
100
AcDbDimStyleTable
 71
0
  0
DIMSTYLE
105
220
100
AcDbSymbolTableRecord
100
AcDbDimStyleTableRecord
  2
STANDARD
 70
0
  3

  4

 40
1.0
 41
3.5
 42
0.0625
 43
0.38
 44
0.18
 45
0.0
 46
0.0
 47
0.005
 48
0.005
140
3.5
141
0.09
142
0.0
143
25.4
144
1.0
145
0.0
146
1.0
147
0.09
 71
1.0
 72
0.0
 73
0
 74
0
 75
0
 76
0
 77
1
 78
8
170
0
171
2
172
0
173
0
174
0
175
0
176
0
177
0
178
5
270
2
271
3
272
3
273
2
274
2
275
0
280
0
281
0
282
0
283
1
284
8
285
0
286
0
287
3
288
0
340
11
341
219
342
219
343
219
344
219
  0
DIMSTYLE
105
221
100
AcDbSymbolTableRecord
100
AcDbDimStyleTableRecord
  2
DIMSTYLE_1
 70
0
  3

  4

 40
1.0
 41
3.5
 42
0.0625
 43
0.38
 44
0.18
 45
0.0
 46
0.0
 47
0.5
 48
0.5
140
3.5
141
0.09
142
0.0
143
25.4
144
1.0
145
0.0
146
1.0
147
0.09
 71
0.0
 72
0.0
 73
0
 74
0
 75
0
 76
0
 77
1
 78
8
170
0
171
2
172
0
173
0
174
0
175
0
176
0
177
0
178
5
270
2
271
3
272
3
273
2
274
2
275
0
280
0
281
0
282
0
283
1
284
8
285
0
286
0
287
3
288
0
340
11
341
219
342
219
343
219
344
219
  0
DIMSTYLE
105
222
100
AcDbSymbolTableRecord
100
AcDbDimStyleTableRecord
  2
DIMSTYLE_2
 70
0
  3

  4

 40
1.0
 41
3.5
 42
0.0625
 43
0.38
 44
0.18
 45
0.0
 46
0.0
 47
0.5
 48
0.5
140
3.5
141
0.09
142
0.0
143
25.4
144
1.0
145
0.0
146
1.0
147
0.09
 71
0.0
 72
0.0
 73
0
 74
0
 75
0
 76
0
 77
1
 78
8
170
0
171
2
172
0
173
0
174
0
175
0
176
0
177
0
178
5
270
2
271
2
272
2
273
2
274
2
275
0
280
0
281
0
282
0
283
1
284
8
285
0
286
0
287
3
288
0
340
11
341
219
342
219
343
219
344
219
  0
DIMSTYLE
105
223
100
AcDbSymbolTableRecord
100
AcDbDimStyleTableRecord
  2
DIMSTYLE_3
 70
0
  3

  4

 40
1.0
 41
3.5
 42
0.0625
 43
0.38
 44
0.18
 45
0.0
 46
0.0
 47
0.1
 48
0.0
140
3.5
141
0.09
142
0.0
143
25.4
144
1.0
145
0.0
146
1.0
147
0.09
 71
0.0
 72
0.0
 73
0
 74
0
 75
0
 76
0
 77
1
 78
8
170
0
171
2
172
0
173
0
174
0
175
0
176
0
177
0
178
5
270
2
271
2
272
2
273
2
274
2
275
0
280
0
281
0
282
0
283
1
284
8
285
0
286
0
287
3
288
0
340
11
341
219
342
219
343
219
344
219
  0
DIMSTYLE
105
224
100
AcDbSymbolTableRecord
100
AcDbDimStyleTableRecord
  2
DIMSTYLE_4
 70
0
  3

  4

 40
1.0
 41
3.5
 42
0.0625
 43
0.38
 44
0.18
 45
0.0
 46
0.0
 47
0.0
 48
0.0
140
3.5
141
0.09
142
0.0
143
25.4
144
1.0
145
0.0
146
1.0
147
0.09
 71
0.0
 72
0.0
 73
0
 74
0
 75
0
 76
0
 77
1
 78
8
170
0
171
2
172
0
173
0
174
0
175
0
176
0
177
0
178
5
270
2
271
0
272
0
273
2
274
2
275
0
280
0
281
0
282
0
283
1
284
8
285
0
286
0
287
3
288
0
340
11
341
219
342
219
343
219
344
219
  0
DIMSTYLE
105
225
100
AcDbSymbolTableRecord
100
AcDbDimStyleTableRecord
  2
DIMSTYLE_5
 70
0
  3

  4

 40
1.0
 41
3.5
 42
0.0625
 43
0.38
 44
0.18
 45
0.0
 46
0.0
 47
0.2
 48
0.2
140
3.5
141
0.09
142
0.0
143
25.4
144
1.0
145
0.0
146
1.0
147
0.09
 71
0.0
 72
0.0
 73
0
 74
0
 75
0
 76
0
 77
1
 78
8
170
0
171
2
172
0
173
0
174
0
175
0
176
0
177
0
178
5
270
2
271
2
272
2
273
2
274
2
275
0
280
0
281
0
282
0
283
1
284
8
285
0
286
0
287
3
288
0
340
11
341
219
342
219
343
219
344
219
  0
ENDTAB
  0
ENDSEC
  0
SECTION
  2
BLOCKS
  0
BLOCK
  5
20
100
AcDbEntity
  8
0
100
AcDbBlockBegin
  2
*Model_Space
 70
0
 10
0.0
 20
0.0
 30
0.0
  3
*Model_Space
  1

  0
ENDBLK
  5
21
100
AcDbEntity
  8
0
100
AcDbBlockEnd
  0
BLOCK
  5
1C
100
AcDbEntity
  8
0
100
AcDbBlockBegin
  2
*Paper_Space
 70
0
 10
0.0
 20
0.0
 30
0.0
  3
*Paper_Space
  1

  0
ENDBLK
  5
1D
100
AcDbEntity
  8
0
100
AcDbBlockEnd
  0
BLOCK
  5
226
100
AcDbEntity
  8
0
100
AcDbBlockBegin
  2
_FILLED
 70
64
 10
0.0
 20
0.0
  3
_FILLED
  1

  0
SOLID
  5
227
100
AcDbEntity
  8
0
  6
BYBLOCK
 62
0
100
AcDbTrace
 10
0.0
 20
0.0
 11
-1.0
 21
0.125
 12
-1.0
 22
-0.125
 13
-1.0
 23
-0.125
  0
ENDBLK
  5
228
100
AcDbEntity
  8
0
  6
BYBLOCK
 62
0
100
AcDbBlockEnd
  0
BLOCK
  5
229
100
AcDbEntity
  8
0
100
AcDbBlockBegin
 62
2
  6
CONTINUOUS
  2
*D0
 70
65
 10
0.0
 20
0.0
  3
*D0
  1

  0
MTEXT
  5
22A
100
AcDbEntity
  8
0
100
AcDbMText
 62
5
  6
CONTINUOUS
  7
STANDARD
 71
2
 72
1
 10
178.3434591694
 20
168.3331183987
 30
0.0
 11
1.0
 21
0.0
 31
0.0
 44
0.9
  1
160
 40
3.5
 41
8.490234375
  0
LINE
  5
22B
100
AcDbEntity
  8
0
100
AcDbLine
 62
2
  6
CONTINUOUS
 10
250.6945290308
 20
114.5750980484
 11
250.6945290308
 21
165.4581183987
  0
LINE
  5
22C
100
AcDbEntity
  8
0
100
AcDbLine
 62
2
  6
CONTINUOUS
 10
90.6945290308
 20
147.1384021496
 11
90.6945290308
 21
165.4581183987
  0
LINE
  5
22D
100
AcDbEntity
  8
0
100
AcDbLine
 62
2
  6
CONTINUOUS
 10
250.6945290308
 20
163.9581183987
 11
170.6945290308
 21
163.9581183987
  0
LINE
  5
22E
100
AcDbEntity
  8
0
100
AcDbLine
 62
2
  6
CONTINUOUS
 10
90.6945290308
 20
163.9581183987
 11
170.6945290308
 21
163.9581183987
  0
INSERT
  5
22F
100
AcDbEntity
  8
0
100
AcDbBlockReference
 62
2
  6
CONTINUOUS
  2
_FILLED
 10
250.6945290308
 20
163.9581183987
 41
3.5
 42
3.5
 43
3.5
  0
INSERT
  5
230
100
AcDbEntity
  8
0
100
AcDbBlockReference
 62
2
  6
CONTINUOUS
  2
_FILLED
 10
90.6945290308
 20
163.9581183987
 41
3.5
 42
3.5
 43
3.5
 50
180.0
  0
ENDBLK
  5
231
100
AcDbEntity
  8
0
  6
BYBLOCK
 62
0
100
AcDbBlockEnd
  0
BLOCK
  5
232
100
AcDbEntity
  8
0
100
AcDbBlockBegin
 62
2
  6
CONTINUOUS
  2
*D1
 70
65
 10
0.0
 20
0.0
  3
*D1
  1

  0
MTEXT
  5
233
100
AcDbEntity
  8
0
100
AcDbMText
 62
5
  6
CONTINUOUS
  7
STANDARD
 71
2
 72
1
 10
154.2959766112
 20
175.4261668399
 30
0.0
 11
1.0
 21
0.0
 31
0.0
 44
0.9
  1
228.4
 40
3.5
 41
12.7421875
  0
LINE
  5
234
100
AcDbEntity
  8
0
100
AcDbLine
 62
2
  6
CONTINUOUS
 10
22.2945290308
 20
129.2420754326
 11
22.2945290308
 21
172.5511668399
  0
LINE
  5
235
100
AcDbEntity
  8
0
100
AcDbLine
 62
2
  6
CONTINUOUS
 10
250.6945290308
 20
117.0750980484
 11
250.6945290308
 21
172.5511668399
  0
LINE
  5
236
100
AcDbEntity
  8
0
100
AcDbLine
 62
2
  6
CONTINUOUS
 10
22.2945290308
 20
171.0511668399
 11
136.4945290308
 21
171.0511668399
  0
LINE
  5
237
100
AcDbEntity
  8
0
100
AcDbLine
 62
2
  6
CONTINUOUS
 10
250.6945290308
 20
171.0511668399
 11
136.4945290308
 21
171.0511668399
  0
INSERT
  5
238
100
AcDbEntity
  8
0
100
AcDbBlockReference
 62
2
  6
CONTINUOUS
  2
_FILLED
 10
22.2945290308
 20
171.0511668399
 41
3.5
 42
3.5
 43
3.5
 50
180.0
  0
INSERT
  5
239
100
AcDbEntity
  8
0
100
AcDbBlockReference
 62
2
  6
CONTINUOUS
  2
_FILLED
 10
250.6945290308
 20
171.0511668399
 41
3.5
 42
3.5
 43
3.5
  0
ENDBLK
  5
23A
100
AcDbEntity
  8
0
  6
BYBLOCK
 62
0
100
AcDbBlockEnd
  0
BLOCK
  5
23B
100
AcDbEntity
  8
0
100
AcDbBlockBegin
 62
2
  6
CONTINUOUS
  2
*D2
 70
65
 10
0.0
 20
0.0
  3
*D2
  1

  0
MTEXT
  5
23C
100
AcDbEntity
  8
0
100
AcDbMText
 62
5
  6
CONTINUOUS
  7
STANDARD
 71
2
 72
1
 10
185.7356029393
 20
160.9083212281
 30
0.0
 11
1.0
 21
0.0
 31
0.0
 44
0.9
  1
140.9
 40
3.5
 41
12.7421875
  0
LINE
  5
23D
100
AcDbEntity
  8
0
100
AcDbLine
 62
2
  6
CONTINUOUS
 10
250.6945290308
 20
117.0750980484
 11
250.6945290308
 21
158.0333212281
  0
LINE
  5
23E
100
AcDbEntity
  8
0
100
AcDbLine
 62
2
  6
CONTINUOUS
 10
109.7945290308
 20
147.1384021496
 11
109.7945290308
 21
158.0333212281
  0
LINE
  5
23F
100
AcDbEntity
  8
0
100
AcDbLine
 62
2
  6
CONTINUOUS
 10
250.6945290308
 20
156.5333212281
 11
180.2445290308
 21
156.5333212281
  0
LINE
  5
240
100
AcDbEntity
  8
0
100
AcDbLine
 62
2
  6
CONTINUOUS
 10
109.7945290308
 20
156.5333212281
 11
180.2445290308
 21
156.5333212281
  0
INSERT
  5
241
100
AcDbEntity
  8
0
100
AcDbBlockReference
 62
2
  6
CONTINUOUS
  2
_FILLED
 10
250.6945290308
 20
156.5333212281
 41
3.5
 42
3.5
 43
3.5
  0
INSERT
  5
242
100
AcDbEntity
  8
0
100
AcDbBlockReference
 62
2
  6
CONTINUOUS
  2
_FILLED
 10
109.7945290308
 20
156.5333212281
 41
3.5
 42
3.5
 43
3.5
 50
180.0
  0
ENDBLK
  5
243
100
AcDbEntity
  8
0
  6
BYBLOCK
 62
0
100
AcDbBlockEnd
  0
BLOCK
  5
244
100
AcDbEntity
  8
0
100
AcDbBlockBegin
 62
2
  6
CONTINUOUS
  2
*D3
 70
65
 10
0.0
 20
0.0
  3
*D3
  1

  0
MTEXT
  5
245
100
AcDbEntity
  8
0
100
AcDbMText
 62
5
  6
CONTINUOUS
  7
TEXTSTYLE_2
 71
2
 72
1
 10
270.4840244529
 20
117.0750980484
 30
0.0
 11
0.0
 21
1.0
 31
0.0
 44
0.9
  1
{\Fgdt;n}\Ftxt;24
 40
3.5
 41
10.3268229167
  0
LINE
  5
246
100
AcDbEntity
  8
0
100
AcDbLine
 62
2
  6
CONTINUOUS
 10
250.6945290308
 20
105.0750980484
 11
276.3590244529
 21
105.0750980484
  0
LINE
  5
247
100
AcDbEntity
  8
0
100
AcDbLine
 62
2
  6
CONTINUOUS
 10
250.6945290308
 20
129.0750980484
 11
276.3590244529
 21
129.0750980484
  0
LINE
  5
248
100
AcDbEntity
  8
0
100
AcDbLine
 62
2
  6
CONTINUOUS
 10
274.8590244529
 20
105.0750980484
 11
274.8590244529
 21
117.0750980484
  0
LINE
  5
249
100
AcDbEntity
  8
0
100
AcDbLine
 62
2
  6
CONTINUOUS
 10
274.8590244529
 20
129.0750980484
 11
274.8590244529
 21
117.0750980484
  0
INSERT
  5
24A
100
AcDbEntity
  8
0
100
AcDbBlockReference
 62
2
  6
CONTINUOUS
  2
_FILLED
 10
274.8590244529
 20
105.0750980484
 41
3.5
 42
3.5
 43
3.5
 50
270.0
  0
INSERT
  5
24B
100
AcDbEntity
  8
0
100
AcDbBlockReference
 62
2
  6
CONTINUOUS
  2
_FILLED
 10
274.8590244529
 20
129.0750980484
 41
3.5
 42
3.5
 43
3.5
 50
90.0
  0
ENDBLK
  5
24C
100
AcDbEntity
  8
0
  6
BYBLOCK
 62
0
100
AcDbBlockEnd
  0
BLOCK
  5
24D
100
AcDbEntity
  8
0
100
AcDbBlockBegin
 62
2
  6
CONTINUOUS
  2
*D4
 70
65
 10
0.0
 20
0.0
  3
*D4
  1

  0
MTEXT
  5
24E
100
AcDbEntity
  8
0
100
AcDbMText
 62
5
  6
CONTINUOUS
  7
STANDARD
 71
2
 72
1
 10
178.0857567235
 20
139.7311268704
 30
0.0
 11
0.0749127487
 21
0.9971900923
 31
0.0
 44
0.9
  1
3\Fgdt;{\Fgdt;~}
 40
3.5
 41
5.1634114583
  0
LINE
  5
24F
100
AcDbEntity
  8
0
100
AcDbLine
 62
2
  6
CONTINUOUS
 10
235.0190958518
 20
129.8966126907
 11
183.1428853747
 21
132.6153296794
  0
LINE
  5
250
100
AcDbEntity
  8
0
100
AcDbLine
 62
2
  6
CONTINUOUS
 10
233.9509560458
 20
117.0750980484
 11
182.7359500881
 21
117.0750980484
  0
ARC
  5
251
100
AcDbEntity
  8
0
100
AcDbCircle
 62
2
  6
CONTINUOUS
 10
479.6681692836
 20
117.0750980484
 40
295.4322191955
100
AcDbArc
 50
175.7037909323
 51
177.0
  0
ARC
  5
252
100
AcDbEntity
  8
0
100
AcDbCircle
 62
2
  6
CONTINUOUS
 10
479.6681692836
 20
117.0750980484
 40
295.4322191955
100
AcDbArc
 50
180.0
 51
181.1636329917
  0
ARC
  5
253
100
AcDbEntity
  8
0
100
AcDbCircle
 62
2
  6
CONTINUOUS
 10
479.6681692836
 20
117.0750980484
 40
295.4322191955
100
AcDbArc
 50
177.0
 51
180.0
  0
SOLID
  5
254
100
AcDbEntity
  8
0
100
AcDbTrace
 62
2
  6
CONTINUOUS
 10
184.4079489855
 20
136.0563673108
 11
184.6408296769
 21
132.536825745
 12
185.2814632384
 22
136.0053982021
 13
185.2814632384
 23
136.0053982021
  0
SOLID
  5
255
100
AcDbEntity
  8
0
100
AcDbTrace
 62
2
  6
CONTINUOUS
 10
184.6941746272
 20
113.5777509793
 11
184.2359500881
 21
117.0750980484
 12
183.8191899782
 22
113.5725679257
 13
183.8191899782
 23
113.5725679257
  0
ENDBLK
  5
256
100
AcDbEntity
  8
0
  6
BYBLOCK
 62
0
100
AcDbBlockEnd
  0
BLOCK
  5
257
100
AcDbEntity
  8
0
100
AcDbBlockBegin
 62
2
  6
CONTINUOUS
  2
*D5
 70
65
 10
0.0
 20
0.0
  3
*D5
  1

  0
MTEXT
  5
258
100
AcDbEntity
  8
0
100
AcDbMText
 62
5
  6
CONTINUOUS
  7
TEXTSTYLE_2
 71
2
 72
1
 10
260.0319636964
 20
117.0750980484
 30
0.0
 11
0.0
 21
1.0
 31
0.0
 44
0.9
  1
{\Fgdt;n}\Ftxt;16
 40
3.5
 41
10.3268229167
  0
LINE
  5
259
100
AcDbEntity
  8
0
100
AcDbLine
 62
2
  6
CONTINUOUS
 10
250.6945290308
 20
109.0750980484
 11
265.9069636964
 21
109.0750980484
  0
LINE
  5
25A
100
AcDbEntity
  8
0
100
AcDbLine
 62
2
  6
CONTINUOUS
 10
250.6945290308
 20
125.0750980484
 11
265.9069636964
 21
125.0750980484
  0
LINE
  5
25B
100
AcDbEntity
  8
0
100
AcDbLine
 62
2
  6
CONTINUOUS
 10
264.4069636964
 20
109.0750980484
 11
264.4069636964
 21
117.0750980484
  0
LINE
  5
25C
100
AcDbEntity
  8
0
100
AcDbLine
 62
2
  6
CONTINUOUS
 10
264.4069636964
 20
125.0750980484
 11
264.4069636964
 21
117.0750980484
  0
INSERT
  5
25D
100
AcDbEntity
  8
0
100
AcDbBlockReference
 62
2
  6
CONTINUOUS
  2
_FILLED
 10
264.4069636964
 20
109.0750980484
 41
3.5
 42
3.5
 43
3.5
 50
270.0
  0
INSERT
  5
25E
100
AcDbEntity
  8
0
100
AcDbBlockReference
 62
2
  6
CONTINUOUS
  2
_FILLED
 10
264.4069636964
 20
125.0750980484
 41
3.5
 42
3.5
 43
3.5
 50
90.0
  0
ENDBLK
  5
25F
100
AcDbEntity
  8
0
  6
BYBLOCK
 62
0
100
AcDbBlockEnd
  0
ENDSEC
  0
SECTION
  2
ENTITIES
  0
DIMENSION
  5
260
100
AcDbEntity
  8
0
100
AcDbDimension
 62
2
  6
CONTINUOUS
  2
*D0
 10
90.6945290308
 20
163.9581183987
 11
174.0983419819
 21
166.5831183987
 70
160
 71
2
 42
160.0
  3
DIMSTYLE_1
100
AcDbAlignedDimension
 13
250.6945290308
 23
114.5750980484
 14
90.6945290308
 24
147.1384021496
 50
180.0
100
AcDbRotatedDimension
  0
DIMENSION
  5
261
100
AcDbEntity
  8
0
100
AcDbDimension
 62
2
  6
CONTINUOUS
  2
*D1
 10
250.6945290308
 20
171.0511668399
 11
147.9248828612
 21
173.6761668399
 70
160
 71
2
 42
228.4
  3
DIMSTYLE_2
100
AcDbAlignedDimension
 13
22.2945290308
 23
129.2420754326
 14
250.6945290308
 24
117.0750980484
100
AcDbRotatedDimension
  0
DIMENSION
  5
262
100
AcDbEntity
  8
0
100
AcDbDimension
 62
2
  6
CONTINUOUS
  2
*D2
 10
109.7945290308
 20
156.5333212281
 11
179.3645091893
 21
159.1583212281
 70
160
 71
2
 42
140.9
  3
DIMSTYLE_2
100
AcDbAlignedDimension
 13
250.6945290308
 23
117.0750980484
 14
109.7945290308
 24
147.1384021496
 50
180.0
100
AcDbRotatedDimension
  0
DIMENSION
  5
263
100
AcDbEntity
  8
0
100
AcDbDimension
 62
2
  6
CONTINUOUS
  2
*D3
 10
274.8590244529
 20
129.0750980484
 11
273.3908186747
 21
114.7670617402
 70
160
 71
2
 42
24.0
  1
%%c<>
  3
DIMSTYLE_3
100
AcDbAlignedDimension
 13
250.6945290308
 23
105.0750980484
 14
250.6945290308
 24
129.0750980484
 50
90.0
100
AcDbRotatedDimension
  0
DIMENSION
  5
264
100
AcDbEntity
  8
0
100
AcDbDimension
 62
2
  6
CONTINUOUS
  2
*D4
 10
182.7359500881
 20
117.0750980484
 11
180.6525222402
 21
140.5955889022
 70
162
 71
2
 42
0.0523598776
  3
DIMSTYLE_4
100
AcDb2LineAngularDimension
 13
183.1428853747
 23
132.6153296794
 14
235.0190958518
 24
129.8966126907
 15
233.9509560458
 25
117.0750980484
 16
184.337187331
 26
124.8086119788
  0
DIMENSION
  5
265
100
AcDbEntity
  8
0
100
AcDbDimension
 62
2
  6
CONTINUOUS
  2
*D5
 10
264.4069636964
 20
125.0750980484
 11
262.9387579182
 21
114.7670617402
 70
160
 71
2
 42
16.0
  1
%%c<>
  3
DIMSTYLE_5
100
AcDbAlignedDimension
 13
250.6945290308
 23
109.0750980484
 14
250.6945290308
 24
125.0750980484
 50
90.0
100
AcDbRotatedDimension
  0
MTEXT
  5
266
100
AcDbEntity
  8
0
100
AcDbMText
 62
5
  6
CONTINUOUS
  7
STANDARD
 71
1
 72
1
 10
12.883995842
 20
81.4454178794
 30
0.0
 11
1.0
 21
0.0
 31
0.0
 44
0.9
  3
Für diese Unterlage behalten wir das Ur-\Pheberrecht. Sie darf nur für den von uns \Pbestimmten Zweck benutzt und ohne unsere \PZustimmung weder vervielfältigt noch\PDritten zugänglich gemacht werden\P \PWe own the copyright of this document. It \Pde
  1
termined and may neither be copied or \Pmade accessible to outsiders without our\Ppermission.\P \PCe plan reste notre propriété. Il ne peut\Pêtre utilisé, copié ou reproduit sans notre\Paccord.\P 
 40
3.5
 41
99.162109375
  0
LINE
  5
267
100
AcDbEntity
  8
0
100
AcDbLine
 62
7
  6
CONTINUOUS
 10
0.0
 20
0.0
 11
0.0
 21
210.0
  0
LINE
  5
268
100
AcDbEntity
  8
0
100
AcDbLine
 62
7
  6
CONTINUOUS
 10
0.0
 20
0.0
 11
297.0
 21
0.0
  0
LINE
  5
269
100
AcDbEntity
  8
0
100
AcDbLine
 62
7
  6
CONTINUOUS
 10
0.0
 20
210.0
 11
297.0
 21
210.0
  0
LINE
  5
26A
100
AcDbEntity
  8
0
100
AcDbLine
 62
7
  6
CONTINUOUS
 10
297.0
 20
0.0
 11
297.0
 21
210.0
  0
LINE
  5
26B
100
AcDbEntity
  8
BEZUGSACHSEN
100
AcDbLine
 62
7
  6
CONTINUOUS
 10
22.2945290308
 20
127.5947987229
 11
22.2945290308
 21
106.555397374
  0
LINE
  5
26C
100
AcDbEntity
  8
BEZUGSACHSEN
100
AcDbLine
 62
9
  6
CONTINUOUS
 10
24.0058916925
 20
129.5738612502
 11
24.0058916925
 21
104.5763348467
  0
LINE
  5
26D
100
AcDbEntity
  8
BEZUGSACHSEN
100
AcDbLine
 62
7
  6
CONTINUOUS
 10
90.2372237684
 20
139.2334021397
 11
90.2372237684
 21
94.9167939572
  0
LINE
  5
26E
100
AcDbEntity
  8
BEZUGSACHSEN
100
AcDbLine
 62
7
  6
CENTER
 10
90.6945290308
 20
87.707248865
 11
90.6945290308
 21
143.169048515
  0
LINE
  5
26F
100
AcDbEntity
  8
BEZUGSACHSEN
100
AcDbLine
 62
7
  6
CONTINUOUS
 10
91.2945290308
 20
138.9500980484
 11
91.2945290308
 21
95.2000980484
  0
LINE
  5
270
100
AcDbEntity
  8
BEZUGSACHSEN
100
AcDbLine
 62
9
  6
CONTINUOUS
 10
92.9445290308
 20
138.9500980484
 11
92.9445290308
 21
95.2000980484
  0
LINE
  5
271
100
AcDbEntity
  8
BEZUGSACHSEN
100
AcDbLine
 62
7
  6
CONTINUOUS
 10
93.9445290308
 20
147.836687393
 11
93.9445290308
 21
125.2750980484
  0
LINE
  5
272
100
AcDbEntity
  8
BEZUGSACHSEN
100
AcDbLine
 62
7
  6
CONTINUOUS
 10
93.9445290308
 20
108.8750980484
 11
93.9445290308
 21
98.5750980484
  0
LINE
  5
273
100
AcDbEntity
  8
BEZUGSACHSEN
100
AcDbLine
 62
7
  6
CONTINUOUS
 10
93.9445290308
 20
92.4813869621
 11
93.9445290308
 21
86.3341702956
  0
LINE
  5
274
100
AcDbEntity
  8
0
100
AcDbLine
 62
7
  6
CONTINUOUS
 10
93.9445290308
 20
86.3001134218
 11
93.9445290308
 21
92.4813869621
  0
LINE
  5
275
100
AcDbEntity
  8
FASEN
100
AcDbLine
 62
7
  6
CONTINUOUS
 10
93.9445290308
 20
92.4813869621
 11
93.9445290308
 21
98.5750980484
  0
LINE
  5
276
100
AcDbEntity
  8
0
100
AcDbLine
 62
7
  6
CONTINUOUS
 10
93.9445290308
 20
98.5750980484
 11
93.9445290308
 21
108.8750980484
  0
LINE
  5
277
100
AcDbEntity
  8
FASEN
100
AcDbLine
 62
7
  6
CONTINUOUS
 10
93.9445290308
 20
108.8750980484
 11
93.9445290308
 21
125.2750980484
  0
LINE
  5
278
100
AcDbEntity
  8
0
100
AcDbLine
 62
7
  6
CONTINUOUS
 10
93.9445290308
 20
125.2750980484
 11
93.9445290308
 21
147.850070177
  0
LINE
  5
279
100
AcDbEntity
  8
0
100
AcDbLine
 62
9
  6
CONTINUOUS
 10
94.9445290308
 20
148.8500980484
 11
94.9445290308
 21
125.2750980484
  0
LINE
  5
27A
100
AcDbEntity
  8
0
100
AcDbLine
 62
9
  6
CONTINUOUS
 10
94.9445290308
 20
108.8750980484
 11
94.9445290308
 21
98.5750980484
  0
LINE
  5
27B
100
AcDbEntity
  8
0
100
AcDbLine
 62
9
  6
CONTINUOUS
 10
94.9445290308
 20
91.2409999415
 11
94.9445290308
 21
85.3000980484
  0
LINE
  5
27C
100
AcDbEntity
  8
0
100
AcDbLine
 62
7
  6
CONTINUOUS
 10
98.333258632
 20
85.3000980484
 11
98.333258632
 21
91.2409999415
  0
LINE
  5
27D
100
AcDbEntity
  8
0
100
AcDbLine
 62
7
  6
CONTINUOUS
 10
98.333258632
 20
98.5750980484
 11
98.333258632
 21
108.8750980484
  0
LINE
  5
27E
100
AcDbEntity
  8
0
100
AcDbLine
 62
7
  6
CONTINUOUS
 10
98.333258632
 20
125.2750980484
 11
98.333258632
 21
148.8500980484
  0
LINE
  5
27F
100
AcDbEntity
  8
BEZUGSACHSEN
100
AcDbLine
 62
7
  6
CONTINUOUS
 10
103.7445290308
 20
145.9726933126
 11
105.4057994296
 21
148.8500980484
  0
LINE
  5
280
100
AcDbEntity
  8
BEZUGSACHSEN
100
AcDbLine
 62
7
  6
CONTINUOUS
 10
103.7445290308
 20
88.1775027843
 11
105.4057994296
 21
85.3000980484
  0
LINE
  5
281
100
AcDbEntity
  8
0
100
AcDbLine
 62
7
  6
CONTINUOUS
 10
99.9945290308
 20
145.9726928819
 11
99.9945290308
 21
144.4601144217
  0
LINE
  5
282
100
AcDbEntity
  8
BEZUGSACHSEN
100
AcDbLine
 62
7
  6
CONTINUOUS
 10
99.9945290308
 20
144.4601144217
 11
99.9945290308
 21
144.2038836327
  0
LINE
  5
283
100
AcDbEntity
  8
0
100
AcDbLine
 62
7
  6
CONTINUOUS
 10
99.9945290308
 20
143.9840425303
 11
99.9945290308
 21
125.2750980484
  0
LINE
  5
284
100
AcDbEntity
  8
0
100
AcDbLine
 62
7
  6
CONTINUOUS
 10
99.9945290308
 20
108.8750980484
 11
99.9945290308
 21
98.5750980484
  0
LINE
  5
285
100
AcDbEntity
  8
0
100
AcDbLine
 62
7
  6
CONTINUOUS
 10
99.9945290308
 20
88.1775088249
 11
99.9945290308
 21
95.2315492296
  0
LINE
  5
286
100
AcDbEntity
  8
0
100
AcDbLine
 62
9
  6
CONTINUOUS
 10
100.4945290308
 20
88.9500980484
 11
100.4945290308
 21
95.89100909
  0
LINE
  5
287
100
AcDbEntity
  8
0
100
AcDbLine
 62
9
  6
CONTINUOUS
 10
100.4945290308
 20
98.5750980484
 11
100.4945290308
 21
108.8750980484
  0
LINE
  5
288
100
AcDbEntity
  8
0
100
AcDbLine
 62
9
  6
CONTINUOUS
 10
100.4945290308
 20
125.2750980484
 11
100.4945290308
 21
142.9719516414
  0
LINE
  5
289
100
AcDbEntity
  8
0
100
AcDbLine
 62
9
  6
CONTINUOUS
 10
100.4945290308
 20
143.9654303808
 11
100.4945290308
 21
145.2000980484
  0
LINE
  5
28A
100
AcDbEntity
  8
0
100
AcDbLine
 62
9
  6
CONTINUOUS
 10
103.2445290308
 20
88.9500980484
 11
103.2445290308
 21
95.89100909
  0
LINE
  5
28B
100
AcDbEntity
  8
0
100
AcDbLine
 62
9
  6
CONTINUOUS
 10
103.2445290308
 20
98.5750980484
 11
103.2445290308
 21
108.8750980484
  0
LINE
  5
28C
100
AcDbEntity
  8
0
100
AcDbLine
 62
9
  6
CONTINUOUS
 10
103.2445290308
 20
125.2750980484
 11
103.2445290308
 21
142.9719516414
  0
LINE
  5
28D
100
AcDbEntity
  8
0
100
AcDbLine
 62
9
  6
CONTINUOUS
 10
103.2445290308
 20
143.9654303808
 11
103.2445290308
 21
145.2000980484
  0
LINE
  5
28E
100
AcDbEntity
  8
BEZUGSACHSEN
100
AcDbLine
 62
7
  6
CONTINUOUS
 10
103.7445290308
 20
144.4601144217
 11
103.7445290308
 21
144.2038836327
  0
LINE
  5
28F
100
AcDbEntity
  8
0
100
AcDbLine
 62
7
  6
CONTINUOUS
 10
103.7445290308
 20
143.9840425303
 11
103.7445290308
 21
125.2750980484
  0
LINE
  5
290
100
AcDbEntity
  8
0
100
AcDbLine
 62
7
  6
CONTINUOUS
 10
103.7445290308
 20
88.1775088249
 11
103.7445290308
 21
95.2315492296
  0
LINE
  5
291
100
AcDbEntity
  8
0
100
AcDbLine
 62
7
  6
CONTINUOUS
 10
103.7445290308
 20
98.5750980484
 11
103.7445290308
 21
108.8750980484
  0
LINE
  5
292
100
AcDbEntity
  8
0
100
AcDbLine
 62
7
  6
CONTINUOUS
 10
103.7445290308
 20
144.4601144217
 11
103.7445290308
 21
145.9726928819
  0
LINE
  5
293
100
AcDbEntity
  8
0
100
AcDbLine
 62
7
  6
CONTINUOUS
 10
105.4057994296
 20
148.8500980484
 11
105.4057994296
 21
125.2750980484
  0
LINE
  5
294
100
AcDbEntity
  8
0
100
AcDbLine
 62
7
  6
CONTINUOUS
 10
105.4057994296
 20
108.8750980484
 11
105.4057994296
 21
98.5750980484
  0
LINE
  5
295
100
AcDbEntity
  8
0
100
AcDbLine
 62
7
  6
CONTINUOUS
 10
105.4057994296
 20
91.2409999415
 11
105.4057994296
 21
85.3000980484
  0
LINE
  5
296
100
AcDbEntity
  8
0
100
AcDbLine
 62
9
  6
CONTINUOUS
 10
108.7945290308
 20
85.3000980484
 11
108.7945290308
 21
91.2409999415
  0
LINE
  5
297
100
AcDbEntity
  8
0
100
AcDbLine
 62
9
  6
CONTINUOUS
 10
108.7945290308
 20
98.5750980484
 11
108.7945290308
 21
108.8750980484
  0
LINE
  5
298
100
AcDbEntity
  8
0
100
AcDbLine
 62
9
  6
CONTINUOUS
 10
108.7945290308
 20
125.2750980484
 11
108.7945290308
 21
148.8500980484
  0
LINE
  5
299
100
AcDbEntity
  8
BEZUGSACHSEN
100
AcDbLine
 62
7
  6
CONTINUOUS
 10
109.7945290308
 20
147.836687393
 11
109.7945290308
 21
125.2750980484
  0
LINE
  5
29A
100
AcDbEntity
  8
0
100
AcDbLine
 62
7
  6
CONTINUOUS
 10
109.7945290308
 20
147.850070177
 11
109.7945290308
 21
125.2750980484
  0
LINE
  5
29B
100
AcDbEntity
  8
0
100
AcDbLine
 62
7
  6
CONTINUOUS
 10
109.7945290308
 20
108.8750980484
 11
109.7945290308
 21
98.5750980484
  0
LINE
  5
29C
100
AcDbEntity
  8
BEZUGSACHSEN
100
AcDbLine
 62
7
  6
CONTINUOUS
 10
109.7945290308
 20
92.4813869621
 11
109.7945290308
 21
86.3341702956
  0
LINE
  5
29D
100
AcDbEntity
  8
0
100
AcDbLine
 62
7
  6
CONTINUOUS
 10
109.7945290308
 20
92.4813869621
 11
109.7945290308
 21
86.3001134218
  0
LINE
  5
29E
100
AcDbEntity
  8
FASEN
100
AcDbLine
 62
7
  6
CONTINUOUS
 10
109.7945290308
 20
92.4813869621
 11
109.7945290308
 21
98.5750980484
  0
LINE
  5
29F
100
AcDbEntity
  8
FASEN
100
AcDbLine
 62
7
  6
CONTINUOUS
 10
109.7945290308
 20
108.8750980484
 11
109.7945290308
 21
125.2750980484
  0
LINE
  5
2A0
100
AcDbEntity
  8
RUNDUNGEN
100
AcDbLine
 62
9
  6
CONTINUOUS
 10
110.7945290308
 20
139.5750980484
 11
110.7945290308
 21
94.5750980484
  0
LINE
  5
2A1
100
AcDbEntity
  8
BEZUGSACHSEN
100
AcDbLine
 62
7
  6
CONTINUOUS
 10
126.0874222496
 20
139.8679912673
 11
127.001635812
 21
140.7822048296
  0
LINE
  5
2A2
100
AcDbEntity
  8
BEZUGSACHSEN
100
AcDbLine
 62
7
  6
CONTINUOUS
 10
94.9445290308
 20
85.3000980484
 11
98.333258632
 21
85.3000980484
  0
LINE
  5
2A3
100
AcDbEntity
  8
BEZUGSACHSEN
100
AcDbLine
 62
7
  6
CONTINUOUS
 10
105.4057994296
 20
85.3000980484
 11
108.7945290308
 21
85.3000980484
  0
LINE
  5
2A4
100
AcDbEntity
  8
BEZUGSACHSEN
100
AcDbLine
 62
7
  6
CONTINUOUS
 10
100.4945290308
 20
88.9500980484
 11
103.2445290308
 21
88.9500980484
  0
LINE
  5
2A5
100
AcDbEntity
  8
0
100
AcDbLine
 62
7
  6
CONTINUOUS
 10
94.9445290308
 20
91.2409999415
 11
98.333258632
 21
91.2409999415
  0
LINE
  5
2A6
100
AcDbEntity
  8
0
100
AcDbLine
 62
7
  6
CONTINUOUS
 10
105.4057994296
 20
91.2409999415
 11
108.7945290308
 21
91.2409999415
  0
LINE
  5
2A7
100
AcDbEntity
  8
BEZUGSACHSEN
100
AcDbLine
 62
7
  6
CONTINUOUS
 10
24.0058916925
 20
104.5763348467
 11
90.2372237684
 21
94.9167939572
  0
LINE
  5
2A8
100
AcDbEntity
  8
BEZUGSACHSEN
100
AcDbLine
 62
7
  6
CONTINUOUS
 10
126.0874222496
 20
94.2822048296
 11
127.001635812
 21
93.3679912673
  0
LINE
  5
2A9
100
AcDbEntity
  8
BEZUGSACHSEN
100
AcDbLine
 62
7
  6
CONTINUOUS
 10
98.333258632
 20
85.3000980484
 11
99.9945290308
 21
88.1775027843
  0
LINE
  5
2AA
100
AcDbEntity
  8
BEZUGSACHSEN
100
AcDbLine
 62
7
  6
CONTINUOUS
 10
130.2520789411
 20
93.0750980484
 11
147.7346923405
 21
95.0093649531
  0
LINE
  5
2AB
100
AcDbEntity
  8
BEZUGSACHSEN
100
AcDbLine
 62
7
  6
CONTINUOUS
 10
148.8476224569
 20
95.1324989401
 11
156.9647668773
 21
96.0305754149
  0
LINE
  5
2AC
100
AcDbEntity
  8
BEZUGSACHSEN
100
AcDbLine
 62
7
  6
CONTINUOUS
 10
171.4612049563
 20
100.9226554885
 11
250.4102298177
 21
105.060198558
  0
LINE
  5
2AD
100
AcDbEntity
  8
BEZUGSACHSEN
100
AcDbLine
 62
7
  6
CONTINUOUS
 10
127.7087425932
 20
93.0750980484
 11
130.2520789411
 21
93.0750980484
  0
LINE
  5
2AE
100
AcDbEntity
  8
BEZUGSACHSEN
100
AcDbLine
 62
7
  6
CONTINUOUS
 10
110.7945290308
 20
94.5750980484
 11
125.3803154685
 21
94.5750980484
  0
LINE
  5
2AF
100
AcDbEntity
  8
BEZUGSACHSEN
100
AcDbLine
 62
7
  6
CONTINUOUS
 10
91.2945290308
 20
95.2000980484
 11
92.9445290308
 21
95.2000980484
  0
LINE
  5
2B0
100
AcDbEntity
  8
0
100
AcDbLine
 62
7
  6
CONTINUOUS
 10
100.4945290308
 20
95.89100909
 11
103.2445290308
 21
95.89100909
  0
LINE
  5
2B1
100
AcDbEntity
  8
BEZUGSACHSEN
100
AcDbLine
 62
7
  6
CONTINUOUS
 10
158.4064092462
 20
97.0750980484
 11
159.6945290308
 21
97.0750980484
  0
LINE
  5
2B2
100
AcDbEntity
  8
BEZUGSACHSEN
100
AcDbLine
 62
7
  6
CONTINUOUS
 10
164.6945290308
 20
97.0750980484
 11
166.4729378111
 21
97.0750980484
  0
LINE
  5
2B3
100
AcDbEntity
  8
FASEN
100
AcDbLine
 62
7
  6
CONTINUOUS
 10
93.9445290308
 20
98.1750980484
 11
109.7945290308
 21
98.1750980484
  0
LINE
  5
2B4
100
AcDbEntity
  8
0
100
AcDbLine
 62
7
  6
CONTINUOUS
 10
93.9445290308
 20
98.5750980484
 11
109.7945290308
 21
98.5750980484
  0
LWPOLYLINE
  5
2B5
100
AcDbEntity
  8
0
100
AcDbPolyline
 62
7
  6
CONTINUOUS
 90
8
 70
0
 10
146.3737996271
 20
95.0668765871
 10
146.3696173473
 20
95.0673276623
 10
146.3705784078
 20
95.0671895367
 10
146.3787611847
 20
95.0659141416
 10
146.3936805343
 20
95.0631967626
 10
146.4153045522
 20
95.0586237492
 10
146.4421412336
 20
95.0520950802
 10
146.4571004061
 20
95.0480871938
  0
LINE
  5
2B6
100
AcDbEntity
  8
BEZUGSACHSEN
100
AcDbLine
 62
7
  6
CONTINUOUS
 10
98.333258632
 20
148.8500980484
 11
99.9945290308
 21
145.9726933126
  0
LINE
  5
2B7
100
AcDbEntity
  8
RUNDUNGEN
100
AcDbLine
 62
9
  6
CONTINUOUS
 10
125.3803154685
 20
139.5750980484
 11
125.3803154685
 21
94.5750980484
  0
LINE
  5
2B8
100
AcDbEntity
  8
RUNDUNGEN
100
AcDbLine
 62
9
  6
CONTINUOUS
 10
126.0874222496
 20
139.8679912673
 11
126.0874222496
 21
94.2822048296
  0
LINE
  5
2B9
100
AcDbEntity
  8
RUNDUNGEN
100
AcDbLine
 62
9
  6
CONTINUOUS
 10
127.001635812
 20
93.3679912673
 11
127.001635812
 21
140.7822048296
  0
LINE
  5
2BA
100
AcDbEntity
  8
RUNDUNGEN
100
AcDbLine
 62
9
  6
CONTINUOUS
 10
127.7087425932
 20
93.0750980484
 11
127.7087425932
 21
141.0750980484
  0
LINE
  5
2BB
100
AcDbEntity
  8
BEZUGSACHSEN
100
AcDbLine
 62
7
  6
CONTINUOUS
 10
130.2520789411
 20
141.0750980484
 11
130.2520789411
 21
93.0750980484
  0
LINE
  5
2BC
100
AcDbEntity
  8
BEZUGSACHSEN
100
AcDbLine
 62
7
  6
CONTINUOUS
 10
90.2372237684
 20
94.9167939572
 11
91.2945290308
 21
95.2000980484
  0
LINE
  5
2BD
100
AcDbEntity
  8
0
100
AcDbLine
 62
7
  6
CONTINUOUS
 10
93.9445290308
 20
108.8750980484
 11
109.7945290308
 21
108.8750980484
  0
LINE
  5
2BE
100
AcDbEntity
  8
DEFAULT_2
100
AcDbLine
 62
8
  6
HIDDEN
 10
248.6945290308
 20
109.0750980484
 11
215.6945290308
 21
109.0750980484
  0
LINE
  5
2BF
100
AcDbEntity
  8
FASEN
100
AcDbLine
 62
7
  6
CONTINUOUS
 10
109.7945290308
 20
109.2750980484
 11
93.9445290308
 21
109.2750980484
  0
LINE
  5
2C0
100
AcDbEntity
  8
DEFAULT_1
100
AcDbLine
 62
7
  6
CENTER
 10
162.1945290308
 20
117.0750980484
 11
148.8477975261
 21
117.0750980484
  0
LINE
  5
2C1
100
AcDbEntity
  8
DEFAULT_1
100
AcDbLine
 62
7
  6
CENTER
 10
147.7348674098
 20
117.0750980484
 11
140.888219851
 21
117.0750980484
  0
LINE
  5
2C2
100
AcDbEntity
  8
BEZUGSACHSEN
100
AcDbLine
 62
7
  6
CENTER
 10
255.6945290308
 20
117.0750980484
 11
19.2945290308
 21
117.0750980484
  0
LINE
  5
2C3
100
AcDbEntity
  8
0
100
AcDbLine
 62
9
  6
CONTINUOUS
 10
147.7348674098
 20
117.0750980484
 11
148.8477975261
 21
117.0750980484
  0
LINE
  5
2C4
100
AcDbEntity
  8
DEFAULT_1
100
AcDbLine
 62
7
  6
CENTER
 10
162.1945290308
 20
117.0750980484
 11
183.5008382106
 21
117.0750980484
  0
LINE
  5
2C5
100
AcDbEntity
  8
FASEN
100
AcDbLine
 62
7
  6
CONTINUOUS
 10
93.9445290308
 20
124.8750980484
 11
109.7945290308
 21
124.8750980484
  0
LINE
  5
2C6
100
AcDbEntity
  8
DEFAULT_2
100
AcDbLine
 62
8
  6
HIDDEN
 10
248.6945290308
 20
125.0750980484
 11
215.6945290308
 21
125.0750980484
  0
LINE
  5
2C7
100
AcDbEntity
  8
0
100
AcDbLine
 62
7
  6
CONTINUOUS
 10
93.9445290308
 20
125.2750980484
 11
109.7945290308
 21
125.2750980484
  0
LINE
  5
2C8
100
AcDbEntity
  8
BEZUGSACHSEN
100
AcDbLine
 62
7
  6
CONTINUOUS
 10
90.2372237684
 20
139.2334021397
 11
91.2945290308
 21
138.9500980484
  0
LINE
  5
2C9
100
AcDbEntity
  8
BEZUGSACHSEN
100
AcDbLine
 62
9
  6
CONTINUOUS
 10
156.9647668773
 20
138.119620682
 11
156.9647668773
 21
96.0305754149
  0
LINE
  5
2CA
100
AcDbEntity
  8
BEZUGSACHSEN
100
AcDbLine
 62
9
  6
CONTINUOUS
 10
157.569612448
 20
137.7244726185
 11
157.569612448
 21
96.4257234784
  0
LINE
  5
2CB
100
AcDbEntity
  8
BEZUGSACHSEN
100
AcDbLine
 62
9
  6
CONTINUOUS
 10
157.7135889231
 20
137.4750980484
 11
157.7135889231
 21
96.6750980484
  0
LINE
  5
2CC
100
AcDbEntity
  8
BEZUGSACHSEN
100
AcDbLine
 62
9
  6
CONTINUOUS
 10
158.4064092462
 20
137.0750980484
 11
158.4064092462
 21
97.0750980484
  0
LINE
  5
2CD
100
AcDbEntity
  8
DEFAULT_1
100
AcDbLine
 62
7
  6
CENTER
 10
162.1945290308
 20
117.0750980484
 11
162.1945290308
 21
95.7687888686
  0
LINE
  5
2CE
100
AcDbEntity
  8
DEFAULT_1
100
AcDbLine
 62
7
  6
CENTER
 10
162.1945290308
 20
117.0750980484
 11
162.1945290308
 21
138.3814072283
  0
LINE
  5
2CF
100
AcDbEntity
  8
BEZUGSACHSEN
100
AcDbLine
 62
7
  6
CONTINUOUS
 10
158.4064092462
 20
137.0750980484
 11
159.6945290308
 21
137.0750980484
  0
LINE
  5
2D0
100
AcDbEntity
  8
BEZUGSACHSEN
100
AcDbLine
 62
7
  6
CONTINUOUS
 10
164.6945290308
 20
137.0750980484
 11
166.4729378111
 21
137.0750980484
  0
LINE
  5
2D1
100
AcDbEntity
  8
BEZUGSACHSEN
100
AcDbLine
 62
7
  6
CONTINUOUS
 10
91.2945290308
 20
138.9500980484
 11
92.9445290308
 21
138.9500980484
  0
LINE
  5
2D2
100
AcDbEntity
  8
BEZUGSACHSEN
100
AcDbLine
 62
7
  6
CONTINUOUS
 10
110.7945290308
 20
139.5750980484
 11
125.3803154685
 21
139.5750980484
  0
LINE
  5
2D3
100
AcDbEntity
  8
BEZUGSACHSEN
100
AcDbLine
 62
7
  6
CONTINUOUS
 10
171.4612049563
 20
133.2275406084
 11
250.4102298177
 21
129.0899975389
  0
LINE
  5
2D4
100
AcDbEntity
  8
BEZUGSACHSEN
100
AcDbLine
 62
7
  6
CONTINUOUS
 10
130.2520789411
 20
141.0750980484
 11
147.7346923405
 21
139.1408311438
  0
LINE
  5
2D5
100
AcDbEntity
  8
BEZUGSACHSEN
100
AcDbLine
 62
7
  6
CONTINUOUS
 10
148.8476224569
 20
139.0176971568
 11
156.9647668773
 21
138.119620682
  0
LINE
  5
2D6
100
AcDbEntity
  8
BEZUGSACHSEN
100
AcDbLine
 62
9
  6
CONTINUOUS
 10
166.4729378111
 20
137.0750980484
 11
166.4729378111
 21
97.0750980484
  0
LINE
  5
2D7
100
AcDbEntity
  8
BEZUGSACHSEN
100
AcDbLine
 62
9
  6
CONTINUOUS
 10
167.1800445923
 20
136.7822048296
 11
167.1800445923
 21
97.3679912673
  0
LINE
  5
2D8
100
AcDbEntity
  8
BEZUGSACHSEN
100
AcDbLine
 62
9
  6
CONTINUOUS
 10
170.1516633064
 20
133.8105861155
 11
170.1516633064
 21
100.3396099813
  0
LINE
  5
2D9
100
AcDbEntity
  8
BEZUGSACHSEN
100
AcDbLine
 62
7
  6
CONTINUOUS
 10
157.569612448
 20
96.4257234784
 11
157.7135889231
 21
96.6750980484
  0
LINE
  5
2DA
100
AcDbEntity
  8
BEZUGSACHSEN
100
AcDbLine
 62
7
  6
CONTINUOUS
 10
24.0058916925
 20
129.5738612502
 11
90.2372237684
 21
139.2334021397
  0
LINE
  5
2DB
100
AcDbEntity
  8
BEZUGSACHSEN
100
AcDbLine
 62
7
  6
CONTINUOUS
 10
127.7087425932
 20
141.0750980484
 11
130.2520789411
 21
141.0750980484
  0
LINE
  5
2DC
100
AcDbEntity
  8
BEZUGSACHSEN
100
AcDbLine
 62
7
  6
CONTINUOUS
 10
100.4945290308
 20
145.2000980484
 11
103.2445290308
 21
145.2000980484
  0
LWPOLYLINE
  5
2DD
100
AcDbEntity
  8
0
100
AcDbPolyline
 62
7
  6
CONTINUOUS
 90
8
 70
0
 10
150.2163731361
 20
138.6556311415
 10
150.2203947232
 20
138.6542583536
 10
150.2195473092
 20
138.6545826479
 10
150.2120557499
 20
138.6575449979
 10
150.1984046292
 20
138.6633547139
 10
150.1787713924
 20
138.6723842027
 10
150.1543438076
 20
138.6845460991
 10
150.1439123968
 20
138.6900249606
  0
LINE
  5
2DE
100
AcDbEntity
  8
BEZUGSACHSEN
100
AcDbLine
 62
7
  6
CONTINUOUS
 10
157.569612448
 20
137.7244726185
 11
157.7135889231
 21
137.4750980484
  0
LINE
  5
2DF
100
AcDbEntity
  8
BEZUGSACHSEN
100
AcDbLine
 62
9
  6
CONTINUOUS
 10
171.4612049563
 20
133.2275406084
 11
171.4612049563
 21
100.9226554885
  0
LINE
  5
2E0
100
AcDbEntity
  8
BEZUGSACHSEN
100
AcDbLine
 62
7
  6
CONTINUOUS
 10
167.1800445923
 20
97.3679912673
 11
170.1516633064
 21
100.3396099813
  0
LINE
  5
2E1
100
AcDbEntity
  8
BEZUGSACHSEN
100
AcDbLine
 62
7
  6
CONTINUOUS
 10
94.9445290308
 20
148.8500980484
 11
98.333258632
 21
148.8500980484
  0
LINE
  5
2E2
100
AcDbEntity
  8
BEZUGSACHSEN
100
AcDbLine
 62
7
  6
CONTINUOUS
 10
105.4057994296
 20
148.8500980484
 11
108.7945290308
 21
148.8500980484
  0
LINE
  5
2E3
100
AcDbEntity
  8
BEZUGSACHSEN
100
AcDbLine
 62
7
  6
CONTINUOUS
 10
167.1800445923
 20
136.7822048296
 11
170.1516633064
 21
133.8105861155
  0
LINE
  5
2E4
100
AcDbEntity
  8
DEFAULT_2
100
AcDbLine
 62
8
  6
HIDDEN
 10
215.6945290308
 20
125.0750980484
 11
215.6945290308
 21
109.0750980484
  0
LINE
  5
2E5
100
AcDbEntity
  8
BEZUGSACHSEN
100
AcDbLine
 62
9
  6
CONTINUOUS
 10
250.4102298177
 20
129.0899975389
 11
250.4102298177
 21
105.060198558
  0
LINE
  5
2E6
100
AcDbEntity
  8
BEZUGSACHSEN
100
AcDbLine
 62
7
  6
CONTINUOUS
 10
250.6945290308
 20
128.7904086784
 11
250.6945290308
 21
105.3597874185
  0
CIRCLE
  5
2E7
100
AcDbEntity
  8
BEZUGSACHSEN
100
AcDbCircle
 62
7
  6
CONTINUOUS
 10
101.7945290308
 20
117.0750980484
 40
5.0
  0
CIRCLE
  5
2E8
100
AcDbEntity
  8
BEZUGSACHSEN
100
AcDbCircle
 62
7
  6
CONTINUOUS
 10
101.7945290308
 20
117.0750980484
 40
4.7
  0
CIRCLE
  5
2E9
100
AcDbEntity
  8
BEZUGSACHSEN
100
AcDbCircle
 62
7
  6
CONTINUOUS
 10
101.7945290308
 20
117.0750980484
 40
2.0
  0
ARC
  5
2EA
100
AcDbEntity
  8
BEZUGSACHSEN
100
AcDbCircle
 62
7
  6
CONTINUOUS
 10
24.2945290308
 20
106.555397374
 40
2.0
100
AcDbArc
 50
180.0
 51
261.7021731718
  0
ARC
  5
2EB
100
AcDbEntity
  8
BEZUGSACHSEN
100
AcDbCircle
 62
7
  6
CONTINUOUS
 10
94.9445290308
 20
86.3000980484
 40
1.0
100
AcDbArc
 50
180.0
 51
270.0
  0
ARC
  5
2EC
100
AcDbEntity
  8
BEZUGSACHSEN
100
AcDbCircle
 62
7
  6
CONTINUOUS
 10
92.9445290308
 20
94.2000980484
 40
1.0
100
AcDbArc
 50
0.0
 51
90.0
  0
ARC
  5
2ED
100
AcDbEntity
  8
BEZUGSACHSEN
100
AcDbCircle
 62
7
  6
CONTINUOUS
 10
100.4945290308
 20
88.4500980484
 40
0.5
100
AcDbArc
 50
90.0
 51
180.0
  0
ARC
  5
2EE
100
AcDbEntity
  8
0
100
AcDbCircle
 62
7
  6
CONTINUOUS
 10
-73.6261775713
 20
172.0425255005
 40
189.9972240794
100
AcDbArc
 50
334.8317727047
 51
336.0368933894
  0
ARC
  5
2EF
100
AcDbEntity
  8
BEZUGSACHSEN
100
AcDbCircle
 62
7
  6
CONTINUOUS
 10
24.2945290308
 20
127.5947987229
 40
2.0
100
AcDbArc
 50
98.2978268282
 51
180.0
  0
ARC
  5
2F0
100
AcDbEntity
  8
BEZUGSACHSEN
100
AcDbCircle
 62
7
  6
CONTINUOUS
 10
94.9445290308
 20
147.8500980484
 40
1.0
100
AcDbArc
 50
90.0
 51
180.0
  0
ARC
  5
2F1
100
AcDbEntity
  8
BEZUGSACHSEN
100
AcDbCircle
 62
7
  6
CONTINUOUS
 10
92.9445290308
 20
139.9500980484
 40
1.0
100
AcDbArc
 50
270.0
 51
360.0
  0
ARC
  5
2F2
100
AcDbEntity
  8
BEZUGSACHSEN
100
AcDbCircle
 62
7
  6
CONTINUOUS
 10
100.4945290308
 20
145.7000980484
 40
0.5
100
AcDbArc
 50
180.0
 51
270.0
  0
ARC
  5
2F3
100
AcDbEntity
  8
0
100
AcDbCircle
 62
7
  6
CONTINUOUS
 10
144.6639711129
 20
122.8114090965
 40
27.9711098709
100
AcDbArc
 50
276.3027424772
 51
277.4509591238
  0
ARC
  5
2F4
100
AcDbEntity
  8
0
100
AcDbCircle
 62
7
  6
CONTINUOUS
 10
145.8116014449
 20
111.6527364266
 40
27.5328621715
100
AcDbArc
 50
83.669177882
 51
84.832988996
  0
ARC
  5
2F5
100
AcDbEntity
  8
GEWINDE
100
AcDbCircle
 62
7
  6
CONTINUOUS
 10
162.1945290311
 20
77.2318156936
 40
20.0000000013
100
AcDbArc
 50
82.8192970462
 51
97.1807029551
  0
ARC
  5
2F6
100
AcDbEntity
  8
0
100
AcDbCircle
 62
7
  6
CONTINUOUS
 10
145.8745408453
 20
119.9115221476
 40
19.3130498641
100
AcDbArc
 50
80.8965528426
 51
81.4160506765
  0
ARC
  5
2F7
100
AcDbEntity
  8
0
100
AcDbCircle
 62
7
  6
CONTINUOUS
 10
146.5703902332
 20
112.9335297621
 40
17.9385048039
100
AcDbArc
 50
273.6020079113
 51
273.7162917147
  0
CIRCLE
  5
2F8
100
AcDbEntity
  8
0
100
AcDbCircle
 62
2
  6
CONTINUOUS
 10
162.194529037
 20
117.0750980485
 40
2.9999999938
  0
CIRCLE
  5
2F9
100
AcDbEntity
  8
GEWINDE
100
AcDbCircle
 62
7
  6
CONTINUOUS
 10
162.1945290308
 20
117.0750980484
 40
2.5
  0
ARC
  5
2FA
100
AcDbEntity
  8
BEZUGSACHSEN
100
AcDbCircle
 62
7
  6
CONTINUOUS
 10
171.5658768687
 20
98.925396419
 40
2.0
100
AcDbArc
 50
93.0
 51
135.0
  0
ARC
  5
2FB
100
AcDbEntity
  8
RUNDUNGEN
100
AcDbCircle
 62
7
  6
CONTINUOUS
 10
127.7087425932
 20
94.0750980484
 40
1.0
100
AcDbArc
 50
225.0
 51
270.0
  0
ARC
  5
2FC
100
AcDbEntity
  8
RUNDUNGEN
100
AcDbCircle
 62
7
  6
CONTINUOUS
 10
125.3803154685
 20
93.5750980484
 40
1.0
100
AcDbArc
 50
45.0
 51
90.0
  0
ARC
  5
2FD
100
AcDbEntity
  8
RUNDUNGEN
100
AcDbCircle
 62
7
  6
CONTINUOUS
 10
110.7945290308
 20
93.5750980484
 40
1.0
100
AcDbArc
 50
90.0
 51
180.0
  0
ARC
  5
2FE
100
AcDbEntity
  8
BEZUGSACHSEN
100
AcDbCircle
 62
7
  6
CONTINUOUS
 10
166.4729378111
 20
98.0750980484
 40
1.0
100
AcDbArc
 50
270.0
 51
315.0
  0
ARC
  5
2FF
100
AcDbEntity
  8
BEZUGSACHSEN
100
AcDbCircle
 62
7
  6
CONTINUOUS
 10
108.7945290308
 20
86.3000980484
 40
1.0
100
AcDbArc
 50
270.0
 51
360.0
  0
ARC
  5
300
100
AcDbEntity
  8
BEZUGSACHSEN
100
AcDbCircle
 62
7
  6
CONTINUOUS
 10
156.876792125
 20
96.8257234784
 40
0.8
100
AcDbArc
 50
276.3134963
 51
330.0
  0
ARC
  5
301
100
AcDbEntity
  8
BEZUGSACHSEN
100
AcDbCircle
 62
7
  6
CONTINUOUS
 10
158.4064092462
 20
96.2750980484
 40
0.8
100
AcDbArc
 50
90.0
 51
150.0
  0
ARC
  5
302
100
AcDbEntity
  8
BEZUGSACHSEN
100
AcDbCircle
 62
7
  6
CONTINUOUS
 10
103.2445290308
 20
88.4500980484
 40
0.5
100
AcDbArc
 50
0.0
 51
90.0
  0
ARC
  5
303
100
AcDbEntity
  8
0
100
AcDbCircle
 62
7
  6
CONTINUOUS
 10
146.5756249378
 20
95.4713346077
 40
0.439706851
100
AcDbArc
 50
253.4423284536
 51
254.3490290985
  0
ARC
  5
304
100
AcDbEntity
  8
BEZUGSACHSEN
100
AcDbCircle
 62
7
  6
CONTINUOUS
 10
250.3945290308
 20
105.3597874185
 40
0.3
100
AcDbArc
 50
273.0
 51
360.0
  0
ARC
  5
305
100
AcDbEntity
  8
0
100
AcDbCircle
 62
7
  6
CONTINUOUS
 10
277.3652356325
 20
172.0425254994
 40
189.9972240794
100
AcDbArc
 50
203.9631066104
 51
205.168227295
  0
ARC
  5
306
100
AcDbEntity
  8
GEWINDE
100
AcDbCircle
 62
7
  6
CONTINUOUS
 10
162.1945290306
 20
156.9183804033
 40
20.000000001
100
AcDbArc
 50
262.8192970461
 51
277.1807029551
  0
ARC
  5
307
100
AcDbEntity
  8
BEZUGSACHSEN
100
AcDbCircle
 62
7
  6
CONTINUOUS
 10
171.5658768687
 20
135.2247996779
 40
2.0
100
AcDbArc
 50
225.0
 51
267.0
  0
ARC
  5
308
100
AcDbEntity
  8
RUNDUNGEN
100
AcDbCircle
 62
7
  6
CONTINUOUS
 10
127.7087425932
 20
140.0750980484
 40
1.0
100
AcDbArc
 50
90.0
 51
135.0
  0
ARC
  5
309
100
AcDbEntity
  8
RUNDUNGEN
100
AcDbCircle
 62
7
  6
CONTINUOUS
 10
125.3803154685
 20
140.5750980484
 40
1.0
100
AcDbArc
 50
270.0
 51
315.0
  0
ARC
  5
30A
100
AcDbEntity
  8
RUNDUNGEN
100
AcDbCircle
 62
7
  6
CONTINUOUS
 10
110.7945290308
 20
140.5750980484
 40
1.0
100
AcDbArc
 50
180.0
 51
270.0
  0
ARC
  5
30B
100
AcDbEntity
  8
BEZUGSACHSEN
100
AcDbCircle
 62
7
  6
CONTINUOUS
 10
166.4729378111
 20
136.0750980484
 40
1.0
100
AcDbArc
 50
45.0
 51
90.0
  0
ARC
  5
30C
100
AcDbEntity
  8
BEZUGSACHSEN
100
AcDbCircle
 62
7
  6
CONTINUOUS
 10
108.7945290308
 20
147.8500980484
 40
1.0
100
AcDbArc
 50
0.0
 51
90.0
  0
ARC
  5
30D
100
AcDbEntity
  8
BEZUGSACHSEN
100
AcDbCircle
 62
7
  6
CONTINUOUS
 10
156.876792125
 20
137.3244726185
 40
0.8
100
AcDbArc
 50
30.0
 51
83.6865037
  0
ARC
  5
30E
100
AcDbEntity
  8
BEZUGSACHSEN
100
AcDbCircle
 62
7
  6
CONTINUOUS
 10
158.4064092462
 20
137.8750980484
 40
0.8
100
AcDbArc
 50
210.0
 51
270.0
  0
ARC
  5
30F
100
AcDbEntity
  8
BEZUGSACHSEN
100
AcDbCircle
 62
7
  6
CONTINUOUS
 10
103.2445290308
 20
145.7000980484
 40
0.5
100
AcDbArc
 50
270.0
 51
360.0
  0
ARC
  5
310
100
AcDbEntity
  8
BEZUGSACHSEN
100
AcDbCircle
 62
7
  6
CONTINUOUS
 10
250.3945290308
 20
128.7904086784
 40
0.3
100
AcDbArc
 50
0.0
 51
87.0
  0
SPLINE
  5
311
100
AcDbEntity
  8
0
100
AcDbSpline
 62
2
  6
CONTINUOUS
 70
0
 71
3
 72
30
 73
26
 74
24
 42
0.0000001
 43
0.0000001
 44
0.0000000001
 12
-0.032217422
 22
0.0048325843
 32
0.0
 13
-0.0327878992
 23
-0.0049181543
 33
0.0
 40
0.0
 40
0.0
 40
0.0
 40
0.0
 40
0.0434782609
 40
0.0869565217
 40
0.1304347826
 40
0.1739130435
 40
0.2173913043
 40
0.2608695652
 40
0.3043478261
 40
0.347826087
 40
0.3913043478
 40
0.4347826087
 40
0.4782608696
 40
0.5217391304
 40
0.5652173913
 40
0.6086956522
 40
0.652173913
 40
0.6956521739
 40
0.7391304348
 40
0.7826086957
 40
0.8260869565
 40
0.8695652174
 40
0.9130434783
 40
0.9565217391
 40
1.0
 40
1.0
 40
1.0
 40
1.0
 10
165.1945106042
 20
97.0751007432
 30
0.0
 10
165.194043685
 20
97.0751707807
 30
0.0
 10
165.1753449549
 20
97.0779872048
 30
0.0
 10
165.094191124
 20
97.0899931655
 30
0.0
 10
164.9614004749
 20
97.1089363889
 30
0.0
 10
164.7805235029
 20
97.1333368427
 30
0.0
 10
164.5535457332
 20
97.1616716691
 30
0.0
 10
164.2812311684
 20
97.1922939217
 30
0.0
 10
163.968668987
 20
97.2228443629
 30
0.0
 10
163.6242595276
 20
97.250857509
 30
0.0
 10
163.2425009913
 20
97.2749580292
 30
0.0
 10
162.8315915179
 20
97.2926131743
 30
0.0
 10
162.4060895849
 20
97.3017689896
 30
0.0
 10
161.9827113966
 20
97.3017665047
 30
0.0
 10
161.5571786812
 20
97.292603759
 30
0.0
 10
161.1463643618
 20
97.2749467996
 30
0.0
 10
160.7647732256
 20
97.2508547328
 30
0.0
 10
160.4204685036
 20
97.2228512939
 30
0.0
 10
160.1078968382
 20
97.1923012583
 30
0.0
 10
159.8356188595
 20
97.1616841132
 30
0.0
 10
159.6086562225
 20
97.1333526743
 30
0.0
 10
159.4277447909
 20
97.1089485887
 30
0.0
 10
159.2949145384
 20
97.0900001236
 30
0.0
 10
159.2137381809
 20
97.0779909607
 30
0.0
 10
159.1950233038
 20
97.0751721173
 30
0.0
 10
159.1945481168
 20
97.0751008397
 30
0.0
 11
165.1945106042
 21
97.0751007432
 31
0.0
 11
165.1664939989
 21
97.0792840922
 31
0.0
 11
165.0855849876
 21
97.0911493759
 31
0.0
 11
164.9533860878
 21
97.1098459273
 31
0.0
 11
164.7728400366
 21
97.1339925715
 31
0.0
 11
164.5459896007
 21
97.1620529068
 31
0.0
 11
164.2745232323
 21
97.1922819532
 31
0.0
 11
163.9633611073
 21
97.2224214804
 31
0.0
 11
163.6180346814
 21
97.2502054047
 31
0.0
 11
163.2376425018
 21
97.2738838
 31
0.0
 11
162.8291594413
 21
97.2911966193
 31
0.0
 11
162.4064435423
 21
97.3002426062
 31
0.0
 11
161.9823523088
 21
97.3002397946
 31
0.0
 11
161.5596317472
 21
97.2911880567
 31
0.0
 11
161.1512348923
 21
97.2738742817
 31
0.0
 11
160.7709876279
 21
97.2502028375
 31
0.0
 11
160.4257573463
 21
97.2224268611
 31
0.0
 11
160.1146124526
 21
97.1922900734
 31
0.0
 11
159.8431714164
 21
97.1620650642
 31
0.0
 11
159.6163314234
 21
97.1340072332
 31
0.0
 11
159.4357583207
 21
97.1098578588
 31
0.0
 11
159.3035235209
 21
97.091156674
 31
0.0
 11
159.2225888546
 21
97.079287777
 31
0.0
 11
159.1945481168
 21
97.0751008397
 31
0.0
  0
SPLINE
  5
312
100
AcDbEntity
  8
0
100
AcDbSpline
 62
2
  6
CONTINUOUS
 70
0
 71
3
 72
30
 73
26
 74
24
 42
0.0000001
 43
0.0000001
 44
0.0000000001
 12
0.0326633393
 22
-0.0048994705
 32
0.0
 13
0.032811474
 23
0.0049216905
 33
0.0
 40
0.0
 40
0.0
 40
0.0
 40
0.0
 40
0.0434782609
 40
0.0869565217
 40
0.1304347826
 40
0.1739130435
 40
0.2173913043
 40
0.2608695652
 40
0.3043478261
 40
0.347826087
 40
0.3913043478
 40
0.4347826087
 40
0.4782608696
 40
0.5217391304
 40
0.5652173913
 40
0.6086956522
 40
0.652173913
 40
0.6956521739
 40
0.7391304348
 40
0.7826086957
 40
0.8260869565
 40
0.8695652174
 40
0.9130434783
 40
0.9565217391
 40
1.0
 40
1.0
 40
1.0
 40
1.0
 10
159.1945480318
 20
137.0750952697
 30
0.0
 10
159.1950214135
 20
137.0750242629
 30
0.0
 10
159.213676281
 20
137.072214494
 30
0.0
 10
159.2946213159
 20
137.0602389999
 30
0.0
 10
159.4270914705
 20
137.0413392045
 30
0.0
 10
159.6074558455
 20
137.017001163
 30
0.0
 10
159.8337378415
 20
136.9887380035
 30
0.0
 10
160.1052061041
 20
136.9581814768
 30
0.0
 10
160.4170031565
 20
136.9276584807
 30
0.0
 10
160.7608278986
 20
136.8996279828
 30
0.0
 10
161.1423600204
 20
136.8754609602
 30
0.0
 10
161.5534119101
 20
136.857711697
 30
0.0
 10
161.9793311692
 20
136.8484631233
 30
0.0
 10
162.4031261334
 20
136.8483926389
 30
0.0
 10
162.8290225474
 20
136.8574978173
 30
0.0
 10
163.2402416439
 20
136.8751167997
 30
0.0
 10
163.6222565874
 20
136.8991926146
 30
0.0
 10
163.9669708295
 20
136.9271980538
 30
0.0
 10
164.2799214491
 20
136.9577629342
 30
0.0
 10
164.5525661566
 20
136.9884071536
 30
0.0
 10
164.7798409491
 20
137.0167697766
 30
0.0
 10
164.9609952658
 20
137.0412029075
 30
0.0
 10
165.094005185
 20
137.0601756534
 30
0.0
 10
165.1752935929
 20
137.0722011604
 30
0.0
 10
165.1940344159
 20
137.0750239283
 30
0.0
 10
165.1945099445
 20
137.0750952572
 30
0.0
 11
159.1945480318
 21
137.0750952697
 31
0.0
 11
159.2225034033
 21
137.0709210205
 31
0.0
 11
159.3032088358
 21
137.0590849497
 31
0.0
 11
159.4350738405
 21
137.0404328302
 31
0.0
 11
159.6151087823
 21
137.0163469767
 31
0.0
 11
159.8412688859
 21
136.9883557756
 31
0.0
 11
160.111927569
 21
136.9581870652
 31
0.0
 11
160.4223411048
 21
136.928073897
 31
0.0
 11
160.7671124619
 21
136.9002718954
 31
0.0
 11
161.1472799817
 21
136.8765305868
 31
0.0
 11
161.555889805
 21
136.8591284786
 31
0.0
 11
161.9789771201
 21
136.8499928048
 31
0.0
 11
162.403476375
 21
136.849921916
 31
0.0
 11
162.8265763278
 21
136.8589167846
 31
0.0
 11
163.235374285
 21
136.8761929385
 31
0.0
 11
163.6160398038
 21
136.899847552
 31
0.0
 11
163.9616768924
 21
136.9276246273
 31
0.0
 11
164.2732037971
 21
136.9577761574
 31
0.0
 11
164.5450045041
 21
136.9880268875
 31
0.0
 11
164.7721542032
 21
137.0161148613
 31
0.0
 11
164.9529711996
 21
137.0402928433
 31
0.0
 11
165.0853849331
 21
137.0590177803
 31
0.0
 11
165.1664307307
 21
137.0709026012
 31
0.0
 11
165.1945099445
 21
137.0750952572
 31
0.0
  0
SPLINE
  5
313
100
AcDbEntity
  8
BEZUGSACHSEN
100
AcDbSpline
 62
7
  6
CONTINUOUS
 70
0
 71
3
 72
19
 73
15
 74
13
 42
0.0000001
 43
0.0000001
 44
0.0000000001
 12
-0.8939002816
 22
0.3305664543
 32
0.0
 13
0.0
 23
0.9530644753
 33
0.0
 40
0.0
 40
0.0
 40
0.0
 40
0.0
 40
0.1217181457
 40
0.2412117709
 40
0.3499481467
 40
0.4477039725
 40
0.5373829645
 40
0.6199208207
 40
0.6964779373
 40
0.7678297527
 40
0.8343908613
 40
0.8961956983
 40
0.9521075556
 40
1.0
 40
1.0
 40
1.0
 40
1.0
 10
100.4945290308
 20
142.9719516414
 30
0.0
 10
100.4582610692
 20
142.98536362
 30
0.0
 10
100.3892532666
 20
143.0201409677
 30
0.0
 10
100.3003183082
 20
143.087598697
 30
0.0
 10
100.227422955
 20
143.1615629314
 30
0.0
 10
100.1693332887
 20
143.2357843039
 30
0.0
 10
100.1229979051
 20
143.3080864851
 30
0.0
 10
100.0858710646
 20
143.3779426645
 30
0.0
 10
100.056300961
 20
143.4449809766
 30
0.0
 10
100.0331128687
 20
143.5091030177
 30
0.0
 10
100.0155703294
 20
143.5701274661
 30
0.0
 10
100.0033203606
 20
143.6274271451
 30
0.0
 10
99.9962164078
 20
143.6796098685
 30
0.0
 10
99.9945290308
 20
143.7125968789
 30
0.0
 10
99.9945290308
 20
143.7278117413
 30
0.0
 11
100.4945290308
 21
142.9719516414
 31
0.0
 11
100.3905792686
 21
143.0234459402
 31
0.0
 11
100.2994940587
 21
143.0918075317
 31
0.0
 11
100.2265410046
 21
143.1654119089
 31
0.0
 11
100.1689985288
 21
143.2386858201
 31
0.0
 11
100.1228178893
 21
143.3106055375
 31
0.0
 11
100.0858744265
 21
143.380054724
 31
0.0
 11
100.0564334072
 21
143.4468151348
 31
0.0
 11
100.0333435999
 21
143.5107780346
 31
0.0
 11
100.0158898045
 21
143.5717667349
 31
0.0
 11
100.0036937675
 21
143.6293943085
 31
0.0
 11
99.9966747053
 21
143.6822176141
 31
0.0
 11
99.9945290308
 21
143.7278117413
 31
0.0
  0
SPLINE
  5
314
100
AcDbEntity
  8
BEZUGSACHSEN
100
AcDbSpline
 62
7
  6
CONTINUOUS
 70
0
 71
3
 72
18
 73
14
 74
12
 42
0.0000001
 43
0.0000001
 44
0.0000000001
 12
-2.6242089124
 22
-0.9704387092
 32
0.0
 13
-2.6242089124
 23
0.9704387092
 33
0.0
 40
0.0
 40
0.0
 40
0.0
 40
0.0
 40
0.0799679098
 40
0.1663286595
 40
0.257944786
 40
0.3532485422
 40
0.4508026001
 40
0.549197501
 40
0.6467509057
 40
0.7420528253
 40
0.8336699519
 40
0.920031171
 40
1.0
 40
1.0
 40
1.0
 40
1.0
 10
103.2445290308
 20
142.9719516414
 30
0.0
 10
103.1745781969
 20
142.9460836563
 30
0.0
 10
103.0266899363
 20
142.8986387364
 30
0.0
 10
102.7927660035
 20
142.8417725974
 30
0.0
 10
102.5415650293
 20
142.7976909254
 30
0.0
 10
102.2778146796
 20
142.7676105311
 30
0.0
 10
102.006465734
 20
142.7523571826
 30
0.0
 10
101.7325926548
 20
142.7523571905
 30
0.0
 10
101.4612460282
 20
142.7676103736
 30
0.0
 10
101.1974970408
 20
142.7976903774
 30
0.0
 10
100.9462963426
 20
142.841771664
 30
0.0
 10
100.7123701912
 20
142.8986381144
 30
0.0
 10
100.5644806687
 20
142.946083359
 30
0.0
 10
100.4945290308
 20
142.9719516414
 30
0.0
 11
103.2445290308
 21
142.9719516414
 31
0.0
 11
103.0316918428
 21
142.9029532521
 31
0.0
 11
102.7970153196
 21
142.8454100185
 31
0.0
 11
102.544597908
 21
142.8007808743
 31
0.0
 11
102.2796886313
 21
142.7703619335
 31
0.0
 11
102.0071782543
 21
142.7549447857
 31
0.0
 11
101.7318795251
 21
142.7549447937
 31
0.0
 11
101.4593709705
 21
142.7703618019
 31
0.0
 11
101.1944667711
 21
142.8007799131
 31
0.0
 11
100.9420465466
 21
142.8454092193
 31
0.0
 11
100.707368695
 21
142.9029525512
 31
0.0
 11
100.4945290308
 21
142.9719516414
 31
0.0
  0
SPLINE
  5
315
100
AcDbEntity
  8
0
100
AcDbSpline
 62
7
  6
CONTINUOUS
 70
0
 71
3
 72
13
 73
9
 74
7
 42
0.0000001
 43
0.0000001
 44
0.0000000001
 12
1.1879209452
 22
-0.3329024948
 32
0.0
 13
1.2424562814
 23
0.0782060904
 33
0.0
 40
0.0
 40
0.0
 40
0.0
 40
0.0
 40
0.0447015866
 40
0.1766156039
 40
0.3554785668
 40
0.5797167187
 40
0.8480794182
 40
1.0
 40
1.0
 40
1.0
 40
1.0
 10
146.4570023391
 20
95.0479307888
 30
0.0
 10
146.4747029894
 20
95.0429703655
 30
0.0
 10
146.5443786067
 20
95.0280478162
 30
0.0
 10
146.6930850343
 20
95.011156675
 30
0.0
 10
146.9141759744
 20
95.0033775765
 30
0.0
 10
147.1931854437
 20
95.0056943962
 30
0.0
 10
147.4603558783
 20
95.0164775172
 30
0.0
 10
147.63446745
 20
95.0265016124
 30
0.0
 10
147.6973856771
 20
95.030461984
 30
0.0
 11
146.4570023391
 21
95.0479307888
 31
0.0
 11
146.5102424617
 21
95.0358348775
 31
0.0
 11
146.6731602795
 21
95.0152339898
 31
0.0
 11
146.8956061165
 21
95.0054651278
 31
0.0
 11
147.1747486606
 21
95.0068977217
 31
0.0
 11
147.5085806681
 21
95.0196457711
 31
0.0
 11
147.6973856771
 21
95.030461984
 31
0.0
  0
SPLINE
  5
316
100
AcDbEntity
  8
0
100
AcDbSpline
 62
7
  6
CONTINUOUS
 70
0
 71
3
 72
10
 73
6
 74
4
 42
0.0000001
 43
0.0000001
 44
0.0000000001
 12
1.1167619615
 22
0.0725309297
 32
0.0
 13
1.1122652746
 23
0.1230604293
 33
0.0
 40
0.0
 40
0.0
 40
0.0
 40
0.0
 40
0.1498861874
 40
0.5514132481
 40
1.0
 40
1.0
 40
1.0
 40
1.0
 10
147.7330933834
 20
95.0327455339
 30
0.0
 10
147.7888891143
 20
95.0363693288
 30
0.0
 10
147.9940998547
 20
95.0506462628
 30
0.0
 10
148.3658132728
 20
95.0819195722
 30
0.0
 10
148.6813066346
 20
95.1140978473
 30
0.0
 10
148.8476224569
 20
95.1324989401
 30
0.0
 11
147.7330933834
 21
95.0327455339
 31
0.0
 11
147.9004326967
 21
95.0443501611
 31
0.0
 11
148.348207817
 21
95.0816954558
 31
0.0
 11
148.8476224569
 21
95.1324989401
 31
0.0
  0
SPLINE
  5
317
100
AcDbEntity
  8
0
100
AcDbSpline
 62
7
  6
CONTINUOUS
 70
0
 71
3
 72
18
 73
14
 74
12
 42
0.0000001
 43
0.0000001
 44
0.0000000001
 12
3.5421116686
 22
1.8750882467
 32
0.0
 13
3.587400246
 23
1.7940102212
 33
0.0
 40
0.0
 40
0.0
 40
0.0
 40
0.0
 40
0.0357602192
 40
0.1062316525
 40
0.193403095
 40
0.291397255
 40
0.3953125486
 40
0.5011668654
 40
0.6069269247
 40
0.7116238279
 40
0.8144039771
 40
0.9148836784
 40
1.0
 40
1.0
 40
1.0
 40
1.0
 10
145.4755128077
 20
95.2104908304
 30
0.0
 10
145.5177350376
 20
95.2328420193
 30
0.0
 10
145.6463452166
 20
95.2944190256
 30
0.0
 10
145.8834376755
 20
95.396800085
 30
0.0
 10
146.2016655444
 20
95.5218908672
 30
0.0
 10
146.5635748475
 20
95.657320623
 30
0.0
 10
146.9499959303
 20
95.79864138
 30
0.0
 10
147.3461306351
 20
95.9435736863
 30
0.0
 10
147.7424374387
 20
96.0910849432
 30
0.0
 10
148.1332895498
 20
96.241417637
 30
0.0
 10
148.5150477129
 20
96.3956129235
 30
0.0
 10
148.868916627
 20
96.5487229542
 30
0.0
 10
149.0932925358
 20
96.6547781604
 30
0.0
 10
149.1950746401
 20
96.7056780107
 30
0.0
 11
145.4755128077
 21
95.2104908304
 31
0.0
 11
145.6045052721
 21
95.2736934402
 31
0.0
 11
145.8635619809
 21
95.3866983939
 31
0.0
 11
146.1884838559
 21
95.5157395202
 31
0.0
 11
146.5563354028
 21
95.6541044464
 31
0.0
 11
146.947555291
 21
95.7977584407
 31
0.0
 11
147.3461135144
 21
95.9439886002
 31
0.0
 11
147.7434974752
 21
96.092302705
 31
0.0
 11
148.1352514591
 21
96.2434349655
 31
0.0
 11
148.51724774
 21
96.398336091
 31
0.0
 11
148.8867812367
 21
96.5590826646
 31
0.0
 11
149.1950746401
 21
96.7056780107
 31
0.0
  0
SPLINE
  5
318
100
AcDbEntity
  8
0
100
AcDbSpline
 62
7
  6
CONTINUOUS
 70
0
 71
3
 72
17
 73
13
 74
11
 42
0.0000001
 43
0.0000001
 44
0.0000000001
 12
-3.3729053667
 22
-0.9301349435
 32
0.0
 13
-3.387737786
 23
-0.8788369755
 33
0.0
 40
0.0
 40
0.0
 40
0.0
 40
0.0
 40
0.0442818695
 40
0.1240677032
 40
0.2204193661
 40
0.3275677952
 40
0.4408255633
 40
0.5563624739
 40
0.6720146162
 40
0.7862885863
 40
0.8978069167
 40
1.0
 40
1.0
 40
1.0
 40
1.0
 10
151.0618076606
 20
138.3163818863
 30
0.0
 10
151.0120214755
 20
138.3026525149
 30
0.0
 10
150.870822428
 20
138.2698411203
 30
0.0
 10
150.6185969365
 20
138.2203069696
 30
0.0
 10
150.2925431069
 20
138.1660875731
 30
0.0
 10
149.9272904582
 20
138.1103039894
 30
0.0
 10
149.5396640427
 20
138.0526744557
 30
0.0
 10
149.1424426037
 20
137.9921693592
 30
0.0
 10
148.7446379057
 20
137.9276804938
 30
0.0
 10
148.3524966238
 20
137.8577776616
 30
0.0
 10
147.9774248504
 20
137.7820197139
 30
0.0
 10
147.7347136885
 20
137.7248399973
 30
0.0
 10
147.6193125653
 20
137.6949029772
 30
0.0
 11
151.0618076606
 21
138.3163818863
 31
0.0
 11
150.9111305321
 21
138.2798586651
 31
0.0
 11
150.6373120325
 21
138.2252344161
 31
0.0
 11
150.3048728571
 21
138.1688513896
 31
0.0
 11
149.9342961544
 21
138.1116175473
 31
0.0
 11
149.5423291327
 21
138.0528348251
 31
0.0
 11
149.1426738744
 21
137.9915536001
 31
0.0
 11
148.7432274257
 21
137.9263730282
 31
0.0
 11
148.3496160949
 21
137.855695194
 31
0.0
 11
147.9672186244
 21
137.7777373278
 31
0.0
 11
147.6193125653
 21
137.6949029772
 31
0.0
  0
SPLINE
  5
319
100
AcDbEntity
  8
0
100
AcDbSpline
 62
7
  6
CONTINUOUS
 70
0
 71
3
 72
13
 73
9
 74
7
 42
0.0000001
 43
0.0000001
 44
0.0000000001
 12
-1.1201314416
 22
0.545946208
 32
0.0
 13
-1.2357785854
 23
0.1981320804
 33
0.0
 40
0.0
 40
0.0
 40
0.0
 40
0.0
 40
0.0116619884
 40
0.1315333761
 40
0.2967675946
 40
0.5038248995
 40
0.7399781587
 40
1.0
 40
1.0
 40
1.0
 40
1.0
 10
150.1441528514
 20
138.6904605423
 30
0.0
 10
150.1397985314
 20
138.6925828151
 30
0.0
 10
150.0903329002
 20
138.7158757391
 30
0.0
 10
149.974901222
 20
138.7620986903
 30
0.0
 10
149.7769173293
 20
138.8169082743
 30
0.0
 10
149.5294960681
 20
138.8738548065
 30
0.0
 10
149.2414088337
 20
138.9295414488
 30
0.0
 10
149.0373126173
 20
138.9641375374
 30
0.0
 10
148.9302028096
 20
138.9813104269
 30
0.0
 11
150.1441528514
 21
138.6904605423
 31
0.0
 11
150.1310137735
 21
138.6966911435
 31
0.0
 11
149.9918748853
 21
138.7527959869
 31
0.0
 11
149.7934209848
 21
138.8109473958
 31
0.0
 11
149.5410360489
 21
138.869738
 31
0.0
 11
149.2509983156
 21
138.9265879778
 31
0.0
 11
148.9302028096
 21
138.9813104269
 31
0.0
  0
SPLINE
  5
31A
100
AcDbEntity
  8
0
100
AcDbSpline
 62
7
  6
CONTINUOUS
 70
0
 71
3
 72
10
 73
6
 74
4
 42
0.0000001
 43
0.0000001
 44
0.0000000001
 12
-1.0195480785
 22
0.1539955778
 32
0.0
 13
-1.0248457028
 23
0.1133883751
 33
0.0
 40
0.0
 40
0.0
 40
0.0
 40
0.0
 40
0.1788437828
 40
0.5665499846
 40
1.0
 40
1.0
 40
1.0
 40
1.0
 10
148.757174805
 20
139.0082317205
 30
0.0
 10
148.69639486
 20
139.0174121044
 30
0.0
 10
148.5037222378
 20
139.0456307645
 30
0.0
 10
148.1630525145
 20
139.0912605924
 30
0.0
 10
147.8827654691
 20
139.1244484129
 30
0.0
 10
147.7346923405
 20
139.1408311438
 30
0.0
 11
148.757174805
 21
139.0082317205
 31
0.0
 11
148.574719018
 21
139.0349918914
 31
0.0
 11
148.1785147805
 21
139.0882188904
 31
0.0
 11
147.7346923405
 21
139.1408311438
 31
0.0
  0
SPLINE
  5
31B
100
AcDbEntity
  8
BEZUGSACHSEN
100
AcDbSpline
 62
7
  6
CONTINUOUS
 70
0
 71
3
 72
11
 73
7
 74
5
 42
0.0000001
 43
0.0000001
 44
0.0000000001
 12
0.0
 22
-0.4680658555
 32
0.0
 13
-0.1674374283
 23
-0.437093071
 33
0.0
 40
0.0
 40
0.0
 40
0.0
 40
0.0
 40
0.1445461367
 40
0.3576974325
 40
0.6432572252
 40
1.0
 40
1.0
 40
1.0
 40
1.0
 10
103.8695290308
 20
144.433404497
 30
0.0
 10
103.8695290308
 20
144.4108521266
 30
0.0
 10
103.8624304155
 20
144.3551736381
 30
0.0
 10
103.8389806635
 20
144.2575573447
 30
0.0
 10
103.7988854126
 20
144.1301453483
 30
0.0
 10
103.7644397284
 20
144.0360191287
 30
0.0
 10
103.7445290308
 20
143.9840425303
 30
0.0
 11
103.8695290308
 21
144.433404497
 31
0.0
 11
103.8628217288
 21
144.3660806766
 31
0.0
 11
103.8406714281
 21
144.2688017666
 31
0.0
 11
103.8013637619
 21
144.1410515658
 31
0.0
 11
103.7445290308
 21
143.9840425303
 31
0.0
  0
SPLINE
  5
31C
100
AcDbEntity
  8
BEZUGSACHSEN
100
AcDbSpline
 62
7
  6
CONTINUOUS
 70
0
 71
3
 72
12
 73
8
 74
6
 42
0.0000001
 43
0.0000001
 44
0.0000000001
 12
-0.1674556245
 22
0.4371405719
 32
0.0
 13
0.0
 23
0.4681167224
 33
0.0
 40
0.0
 40
0.0
 40
0.0
 40
0.0
 40
0.2995620764
 40
0.5419687552
 40
0.7353081792
 40
0.886011903
 40
1.0
 40
1.0
 40
1.0
 40
1.0
 10
99.9945290308
 20
143.9840425303
 30
0.0
 10
99.9778079126
 20
144.0276927761
 30
0.0
 10
99.9485577119
 20
144.1070607239
 30
0.0
 10
99.9127470399
 20
144.216091166
 30
0.0
 10
99.888296459
 20
144.304336179
 30
0.0
 10
99.8738271858
 20
144.3743623529
 30
0.0
 10
99.8695290308
 20
144.4156179189
 30
0.0
 10
99.8695290308
 20
144.433404497
 30
0.0
 11
99.9945290308
 21
143.9840425303
 31
0.0
 11
99.946345392
 21
144.1157345754
 31
0.0
 11
99.911302567
 21
144.2236627449
 31
0.0
 11
99.8876164889
 21
144.3110137626
 31
0.0
 11
99.8739845801
 21
144.3802311077
 31
0.0
 11
99.8695290308
 21
144.433404497
 31
0.0
  0
SPLINE
  5
31D
100
AcDbEntity
  8
BEZUGSACHSEN
100
AcDbSpline
 62
7
  6
CONTINUOUS
 70
0
 71
3
 72
19
 73
15
 74
13
 42
0.0000001
 43
0.0000001
 44
0.0000000001
 12
0.0
 22
-0.9530644332
 32
0.0
 13
-0.8939002421
 23
-0.3305664397
 33
0.0
 40
0.0
 40
0.0
 40
0.0
 40
0.0
 40
0.0479048512
 40
0.1038186277
 40
0.1656371908
 40
0.2321998811
 40
0.3035488221
 40
0.3800991219
 40
0.4626240486
 40
0.5522943159
 40
0.6500533187
 40
0.7587572076
 40
0.8782694549
 40
1.0
 40
1.0
 40
1.0
 40
1.0
 10
103.7445290308
 20
143.7278117413
 30
0.0
 10
103.7445290308
 20
143.7125929381
 30
0.0
 10
103.7428409939
 20
143.6796013727
 30
0.0
 10
103.7357348432
 20
143.6274099586
 30
0.0
 10
103.7234822788
 20
143.5701052126
 30
0.0
 10
103.7059368664
 20
143.5090774861
 30
0.0
 10
103.6827479553
 20
143.4449584915
 30
0.0
 10
103.6531793275
 20
143.3779274048
 30
0.0
 10
103.6160558699
 20
143.30807971
 30
0.0
 10
103.569723482
 20
143.2357826286
 30
0.0
 10
103.5116412711
 20
143.1615707469
 30
0.0
 10
103.4387496656
 20
143.0876079295
 30
0.0
 10
103.3498170622
 20
143.0201476372
 30
0.0
 10
103.2808006854
 20
142.9853649857
 30
0.0
 10
103.2445290308
 20
142.9719516414
 30
0.0
 11
103.7445290308
 21
143.7278117413
 31
0.0
 11
103.7423822933
 21
143.6822058286
 31
0.0
 11
103.7353619689
 21
143.629380848
 31
0.0
 11
103.723161796
 21
143.5717407806
 31
0.0
 11
103.7057057819
 21
143.5107511503
 31
0.0
 11
103.6826151934
 21
143.4467914482
 31
0.0
 11
103.6531753597
 21
143.3800376187
 31
0.0
 11
103.6162368162
 21
143.310599777
 31
0.0
 11
103.5700604906
 21
143.2386871759
 31
0.0
 11
103.5125161571
 21
143.1654108788
 31
0.0
 11
103.4395862252
 21
143.0918271841
 31
0.0
 11
103.3484888583
 21
143.0234522322
 31
0.0
 11
103.2445290308
 21
142.9719516414
 31
0.0
  0
SPLINE
  5
31E
100
AcDbEntity
  8
0
100
AcDbSpline
 62
7
  6
CONTINUOUS
 70
0
 71
3
 72
82
 73
78
 74
76
 42
0.0000001
 43
0.0000001
 44
0.0000000001
 12
-28.0223292848
 22
-7.2694702694
 32
0.0
 13
-21.755802183
 23
-19.0950741472
 33
0.0
 40
0.0
 40
0.0
 40
0.0
 40
0.0
 40
0.0007095484
 40
0.0132248793
 40
0.0247003921
 40
0.0345771712
 40
0.0423863504
 40
0.0484120063
 40
0.0534721729
 40
0.058523789
 40
0.0644067677
 40
0.0717645902
 40
0.0809901093
 40
0.0919094482
 40
0.1042935371
 40
0.1181355975
 40
0.1333508484
 40
0.1496899114
 40
0.1668513145
 40
0.184527785
 40
0.202319953
 40
0.2193531994
 40
0.234612916
 40
0.2475476849
 40
0.2591713577
 40
0.2698233609
 40
0.2792509933
 40
0.2877067757
 40
0.2956513782
 40
0.3037264867
 40
0.3125163173
 40
0.3223762923
 40
0.3335153622
 40
0.3457472243
 40
0.359026308
 40
0.3734515078
 40
0.3891024411
 40
0.4059233911
 40
0.4238014955
 40
0.4425827388
 40
0.4618296884
 40
0.480128294
 40
0.4963817449
 40
0.5106241707
 40
0.5231906809
 40
0.5344236295
 40
0.5447233743
 40
0.5546173707
 40
0.564585177
 40
0.5754246902
 40
0.5879439843
 40
0.602626913
 40
0.6189254655
 40
0.636018999
 40
0.6537711774
 40
0.6721710965
 40
0.6910307139
 40
0.7100947327
 40
0.72909934
 40
0.7477838338
 40
0.7660023834
 40
0.7836559533
 40
0.8001808199
 40
0.8147742472
 40
0.8274590982
 40
0.8388222394
 40
0.8496872356
 40
0.8606188186
 40
0.8721516807
 40
0.8846904481
 40
0.8982950038
 40
0.9129976795
 40
0.9285811261
 40
0.9449391249
 40
0.9621888765
 40
0.9804853029
 40
1.0
 40
1.0
 40
1.0
 40
1.0
 10
147.6193125653
 20
137.6949029772
 30
0.0
 10
147.6126848325
 20
137.6931836302
 30
0.0
 10
147.4891947145
 20
137.6609781594
 30
0.0
 10
147.2599939649
 20
137.5951751236
 30
0.0
 10
146.9525737243
 20
137.4831849173
 30
0.0
 10
146.6995967801
 20
137.3579842605
 30
0.0
 10
146.5132400934
 20
137.2226600421
 30
0.0
 10
146.3949363049
 20
137.0802659613
 30
0.0
 10
146.3421631072
 20
136.9297380751
 30
0.0
 10
146.3510216322
 20
136.7722442749
 30
0.0
 10
146.4172382211
 20
136.6062634046
 30
0.0
 10
146.5424708013
 20
136.4277456188
 30
0.0
 10
146.7272886459
 20
136.2363713426
 30
0.0
 10
146.9670061217
 20
136.0332535761
 30
0.0
 10
147.2555432187
 20
135.8203215666
 30
0.0
 10
147.5878806091
 20
135.5978005298
 30
0.0
 10
147.9586222734
 20
135.36445565
 30
0.0
 10
148.3603706103
 20
135.1204028822
 30
0.0
 10
148.783761569
 20
134.8662659607
 30
0.0
 10
149.2177282018
 20
134.602500651
 30
0.0
 10
149.6460750751
 20
134.3319402451
 30
0.0
 10
150.0465100458
 20
134.0611678715
 30
0.0
 10
150.3965773948
 20
133.8002277395
 30
0.0
 10
150.6897541183
 20
133.5514020475
 30
0.0
 10
150.9297868445
 20
133.3102358736
 30
0.0
 10
151.1206319902
 20
133.0700839476
 30
0.0
 10
151.2582293984
 20
132.8299558888
 30
0.0
 10
151.3369247498
 20
132.5913331912
 30
0.0
 10
151.3562970799
 20
132.3536032045
 30
0.0
 10
151.3160000919
 20
132.1151910068
 30
0.0
 10
151.2140323402
 20
131.8761675353
 30
0.0
 10
151.052891942
 20
131.6366527394
 30
0.0
 10
150.8382641836
 20
131.3974296044
 30
0.0
 10
150.5762863114
 20
131.1592509265
 30
0.0
 10
150.2731018506
 20
130.9210590772
 30
0.0
 10
149.9322007942
 20
130.6784219471
 30
0.0
 10
149.5556254732
 20
130.427435519
 30
0.0
 10
149.1469693336
 20
130.1646915727
 30
0.0
 10
148.7123960389
 20
129.8864189524
 30
0.0
 10
148.2619798561
 20
129.5894922255
 30
0.0
 10
147.8177164122
 20
129.2761518971
 30
0.0
 10
147.409459387
 20
128.954936945
 30
0.0
 10
147.0628528298
 20
128.6353408647
 30
0.0
 10
146.7872404538
 20
128.3232130995
 30
0.0
 10
146.5802997896
 20
128.0185667299
 30
0.0
 10
146.4395642445
 20
127.719401103
 30
0.0
 10
146.3611250205
 20
127.4247229608
 30
0.0
 10
146.3393274856
 20
127.1328367119
 30
0.0
 10
146.372007158
 20
126.8368056809
 30
0.0
 10
146.4625838051
 20
126.5267728233
 30
0.0
 10
146.6182148853
 20
126.1930011213
 30
0.0
 10
146.8441516277
 20
125.8380603338
 30
0.0
 10
147.1334987875
 20
125.4746894121
 30
0.0
 10
147.4688631453
 20
125.1122576498
 30
0.0
 10
147.8366880605
 20
124.7533456156
 30
0.0
 10
148.2291826567
 20
124.3958955399
 30
0.0
 10
148.6378858783
 20
124.0376622786
 30
0.0
 10
149.0530627784
 20
123.6779964024
 30
0.0
 10
149.4644358675
 20
123.3165155604
 30
0.0
 10
149.8623688528
 20
122.9521937855
 30
0.0
 10
150.2376624388
 20
122.5827855389
 30
0.0
 10
150.5773741815
 20
122.2078208565
 30
0.0
 10
150.8649236842
 20
121.8344417414
 30
0.0
 10
151.0862579726
 20
121.4731402395
 30
0.0
 10
151.2369916429
 20
121.130706402
 30
0.0
 10
151.3251303728
 20
120.8041537187
 30
0.0
 10
151.3570252548
 20
120.4842110757
 30
0.0
 10
151.3319821508
 20
120.161925887
 30
0.0
 10
151.2485650579
 20
119.8331083079
 30
0.0
 10
151.1059264898
 20
119.4973688551
 30
0.0
 10
150.904928243
 20
119.1572611302
 30
0.0
 10
150.6517338691
 20
118.8170509451
 30
0.0
 10
150.3556601651
 20
118.4776513853
 30
0.0
 10
150.0236566904
 20
118.1381849808
 30
0.0
 10
149.659244238
 20
117.7945072078
 30
0.0
 10
149.2637455488
 20
117.4397228218
 30
0.0
 10
148.9893168228
 20
117.1993095779
 30
0.0
 10
148.8477975261
 20
117.0750980484
 30
0.0
 11
147.6193125653
 21
137.6949029772
 31
0.0
 11
147.5994359414
 21
137.6897191082
 31
0.0
 11
147.2516648819
 21
137.5882091708
 31
0.0
 11
146.9405415665
 21
137.4718133181
 31
0.0
 11
146.6861596623
 21
137.3413095913
 31
0.0
 11
146.5062675677
 21
137.2044192425
 31
0.0
 11
146.3986870664
 21
137.0671214359
 31
0.0
 11
146.3518185496
 21
136.9283448045
 31
0.0
 11
146.3577166538
 21
136.7822339747
 31
0.0
 11
146.4170078014
 21
136.6225934992
 31
0.0
 11
146.5358002298
 21
136.4458105663
 31
0.0
 11
146.7186496946
 21
136.2511749007
 31
0.0
 11
146.958250254
 21
136.0450186054
 31
0.0
 11
147.2456899316
 21
135.8308010567
 31
0.0
 11
147.5778397568
 21
135.6066863738
 31
0.0
 11
147.9500314623
 21
135.3711891672
 31
0.0
 11
148.3537984512
 21
135.1248723063
 31
0.0
 11
148.7792681093
 21
134.8684361955
 31
0.0
 11
149.2160085646
 21
134.6018325572
 31
0.0
 11
149.6507796944
 21
134.3257304453
 31
0.0
 11
150.0583987148
 21
134.0483163572
 31
0.0
 11
150.411457312
 21
133.7828531667
 31
0.0
 11
150.6956892169
 21
133.5391197896
 31
0.0
 11
150.9315745025
 21
133.299179009
 31
0.0
 11
151.1212342439
 21
133.0560621141
 31
0.0
 11
151.2540934897
 21
132.8176833119
 31
0.0
 11
151.3286494666
 21
132.5845436511
 31
0.0
 11
151.3466758625
 21
132.3552777338
 31
0.0
 11
151.3086888137
 21
132.1246337574
 31
0.0
 11
151.2115120887
 21
131.8894814223
 31
0.0
 11
151.0549533298
 21
131.6508335188
 31
0.0
 11
150.8416619796
 21
131.4090132217
 31
0.0
 11
150.5811700989
 21
131.1691908215
 31
0.0
 11
150.2800764104
 21
130.9302360359
 31
0.0
 11
149.9406843493
 21
130.6869743094
 31
0.0
 11
149.5643680896
 21
130.4347043685
 31
0.0
 11
149.1554716763
 21
130.1703311267
 31
0.0
 11
148.7203384293
 21
129.8901776759
 31
0.0
 11
148.2673029709
 21
129.5896305266
 31
0.0
 11
147.8131836027
 21
129.266853281
 31
0.0
 11
147.3986412621
 21
128.9371131784
 31
0.0
 11
147.0546583539
 21
128.6161187399
 31
0.0
 11
146.7837815436
 21
128.3053158124
 31
0.0
 11
146.5817548136
 21
128.0028099222
 31
0.0
 11
146.4452718965
 21
127.7076785103
 31
0.0
 11
146.3694277947
 21
127.419338466
 31
0.0
 11
146.3481889102
 21
127.1337241846
 31
0.0
 11
146.3789744806
 21
126.8468317483
 31
0.0
 11
146.4649256992
 21
126.5450606256
 31
0.0
 11
146.6157173592
 21
126.2155246045
 31
0.0
 11
146.841499812
 21
125.8554249909
 31
0.0
 11
147.1329984809
 21
125.4844527389
 31
0.0
 11
147.4674862481
 21
125.1198245046
 31
0.0
 11
147.8341893017
 21
124.7598298749
 31
0.0
 11
148.2270077449
 21
124.4001313123
 31
0.0
 11
148.6367463169
 21
124.0393599324
 31
0.0
 11
149.0530710407
 21
123.6771296198
 31
0.0
 11
149.4655029074
 21
123.3130666382
 31
0.0
 11
149.8634270635
 21
122.9467488288
 31
0.0
 11
150.2378889621
 21
122.5753965259
 31
0.0
 11
150.57933401
 21
122.1951899388
 31
0.0
 11
150.8689146217
 21
121.8144544855
 31
0.0
 11
151.0869071556
 21
121.4526077253
 31
0.0
 11
151.2329385274
 21
121.1157050252
 31
0.0
 11
151.3173105661
 21
120.7977795998
 31
0.0
 11
151.3476824835
 21
120.4847389832
 31
0.0
 11
151.3237538757
 21
120.1692069637
 31
0.0
 11
151.2432112421
 21
119.8452250753
 31
0.0
 11
151.1031359738
 21
119.510381951
 31
0.0
 11
150.9047882428
 21
119.1701661149
 31
0.0
 11
150.652683942
 21
118.8272680179
 31
0.0
 11
150.3575222768
 21
118.4861414275
 31
0.0
 11
150.0275126872
 21
118.1465648511
 31
0.0
 11
149.6652361684
 21
117.8029268016
 31
0.0
 11
149.2718327561
 21
117.4483272839
 31
0.0
 11
148.8477975261
 21
117.0750980484
 31
0.0
  0
SPLINE
  5
31F
100
AcDbEntity
  8
0
100
AcDbSpline
 62
7
  6
CONTINUOUS
 70
0
 71
3
 72
20
 73
16
 74
14
 42
0.0000001
 43
0.0000001
 44
0.0000000001
 12
2.9121418358
 22
-0.3221977999
 32
0.0
 13
-2.823888059
 23
-0.7787342587
 33
0.0
 40
0.0
 40
0.0
 40
0.0
 40
0.0
 40
0.1527127093
 40
0.3111755982
 40
0.462062101
 40
0.5927461145
 40
0.6958032988
 40
0.772597182
 40
0.8269492246
 40
0.8621167913
 40
0.8827124711
 40
0.9010946452
 40
0.9320344474
 40
0.9812938235
 40
1.0
 40
1.0
 40
1.0
 40
1.0
 10
148.8476224569
 20
139.0176971568
 30
0.0
 10
148.9958628134
 20
139.0012959238
 30
0.0
 10
149.2976766037
 20
138.9655632984
 30
0.0
 10
149.744903615
 20
138.9052123705
 30
0.0
 10
150.1696470752
 20
138.8393469436
 30
0.0
 10
150.539258718
 20
138.7725637646
 30
0.0
 10
150.8359488281
 20
138.7080038838
 30
0.0
 10
151.0564507808
 20
138.6493383114
 30
0.0
 10
151.2107267069
 20
138.5925006321
 30
0.0
 10
151.3040919812
 20
138.545852586
 30
0.0
 10
151.3599573253
 20
138.4834505347
 30
0.0
 10
151.3215857445
 20
138.4141103585
 30
0.0
 10
151.233908614
 20
138.3728376633
 30
0.0
 10
151.1431141163
 20
138.3397972899
 30
0.0
 10
151.07941571
 20
138.3212375998
 30
0.0
 10
151.0618076606
 20
138.3163818863
 30
0.0
 11
148.8476224569
 21
139.0176971568
 31
0.0
 11
149.2919479568
 21
138.9650408778
 31
0.0
 11
149.7520223791
 21
138.9026748025
 31
0.0
 11
150.1888004467
 21
138.8343866398
 31
0.0
 11
150.5654019281
 21
138.7652630965
 31
0.0
 11
150.8602193602
 21
138.70002862
 31
0.0
 11
151.0769557068
 21
138.6396131152
 31
0.0
 11
151.2258913925
 21
138.5832423315
 31
0.0
 11
151.3143529483
 21
138.5304090706
 31
0.0
 11
151.347452995
 21
138.4799538702
 31
0.0
 11
151.3261442161
 21
138.430490393
 31
0.0
 11
151.2498603981
 21
138.3815173226
 31
0.0
 11
151.1143802014
 21
138.3317679608
 31
0.0
 11
151.0618076606
 21
138.3163818863
 31
0.0
  0
SPLINE
  5
320
100
AcDbEntity
  8
0
100
AcDbSpline
 62
7
  6
CONTINUOUS
 70
0
 71
3
 72
15
 73
11
 74
9
 42
0.0000001
 43
0.0000001
 44
0.0000000001
 12
-0.9130905362
 22
0.0
 32
0.0
 13
0.0
 23
-0.9130905362
 33
0.0
 40
0.0
 40
0.0
 40
0.0
 40
0.0
 40
0.095246705
 40
0.1989926597
 40
0.3085683636
 40
0.4267140162
 40
0.5551384148
 40
0.6926402133
 40
0.8400968689
 40
1.0
 40
1.0
 40
1.0
 40
1.0
 10
100.4945290308
 20
95.89100909
 30
0.0
 10
100.4655394092
 20
95.89100909
 30
0.0
 10
100.4047580608
 20
95.8839146005
 30
0.0
 10
100.3157933242
 20
95.8513083805
 30
0.0
 10
100.2306051426
 20
95.7957840762
 30
0.0
 10
100.1534710711
 20
95.7186123156
 30
0.0
 10
100.0876383134
 20
95.6212222493
 30
0.0
 10
100.0362929172
 20
95.5056825322
 30
0.0
 10
100.0024798174
 20
95.3739733781
 30
0.0
 10
99.9945290308
 20
95.2802179082
 30
0.0
 10
99.9945290308
 20
95.2315492296
 30
0.0
 11
100.4945290308
 21
95.89100909
 31
0.0
 11
100.4081350907
 21
95.8810255749
 31
0.0
 11
100.3190539459
 21
95.848804181
 31
0.0
 11
100.2349390007
 21
95.7946268203
 31
0.0
 11
100.1582544791
 21
95.7187514133
 31
0.0
 11
100.0921215778
 21
95.6219161165
 31
0.0
 11
100.0407273977
 21
95.5073655153
 31
0.0
 11
100.0069728992
 21
95.377024013
 31
0.0
 11
99.9945290308
 21
95.2315492296
 31
0.0
  0
SPLINE
  5
321
100
AcDbEntity
  8
0
100
AcDbSpline
 62
7
  6
CONTINUOUS
 70
0
 71
3
 72
18
 73
14
 74
12
 42
0.0000001
 43
0.0000001
 44
0.0000000001
 12
0.0
 22
-1.7642310143
 32
0.0
 13
-1.7642310143
 23
0.0
 33
0.0
 40
0.0
 40
0.0
 40
0.0
 40
0.0
 40
0.0962938316
 40
0.1935830579
 40
0.2901642927
 40
0.3844575256
 40
0.4765796276
 40
0.5665887284
 40
0.6541294548
 40
0.7396658227
 40
0.8259929911
 40
0.9131223294
 40
1.0
 40
1.0
 40
1.0
 40
1.0
 10
109.7945290308
 20
92.4813869621
 30
0.0
 10
109.7945290308
 20
92.424758774
 30
0.0
 10
109.7883516102
 20
92.3108184038
 30
0.0
 10
109.7602623637
 20
92.1421539713
 30
0.0
 10
109.713296429
 20
91.9789179009
 30
0.0
 10
109.6483417791
 20
91.8252443897
 30
0.0
 10
109.5666033685
 20
91.6842098407
 30
0.0
 10
109.4693091032
 20
91.5583454119
 30
0.0
 10
109.3579834231
 20
91.4501145652
 30
0.0
 10
109.2333784588
 20
91.3610539204
 30
0.0
 10
109.0960766379
 20
91.2934259575
 30
0.0
 10
108.9482058845
 20
91.2507319207
 30
0.0
 10
108.8456197911
 20
91.2409999415
 30
0.0
 10
108.7945290308
 20
91.2409999415
 30
0.0
 11
109.7945290308
 21
92.4813869621
 31
0.0
 11
109.7852750098
 21
92.3117546295
 31
0.0
 11
109.7569628237
 21
92.1424651147
 31
0.0
 11
109.7096716993
 21
91.9787676795
 31
0.0
 11
109.6446872147
 21
91.8256304272
 31
0.0
 11
109.5629457258
 21
91.6851576641
 31
0.0
 11
109.4655727992
 21
91.5597186277
 31
0.0
 11
109.3546027197
 21
91.4523035788
 31
0.0
 11
109.2316388201
 21
91.3648251586
 31
0.0
 11
109.0948750172
 21
91.2978081642
 31
0.0
 11
108.947122852
 21
91.2554054206
 31
0.0
 11
108.7945290308
 21
91.2409999415
 31
0.0
  0
SPLINE
  5
322
100
AcDbEntity
  8
BEZUGSACHSEN
100
AcDbSpline
 62
7
  6
CONTINUOUS
 70
0
 71
3
 72
11
 73
7
 74
5
 42
0.0000001
 43
0.0000001
 44
0.0000000001
 12
0.0
 22
0.1830126193
 32
0.0
 13
0.1451726273
 23
-0.1114384454
 33
0.0
 40
0.0
 40
0.0
 40
0.0
 40
0.0
 40
0.2465776366
 40
0.4184562595
 40
0.6350985973
 40
1.0
 40
1.0
 40
1.0
 40
1.0
 10
99.8695290308
 20
144.433404497
 30
0.0
 10
99.8695290308
 20
144.44844677
 30
0.0
 10
99.8695015164
 20
144.4748600323
 30
0.0
 10
99.8989195587
 20
144.5081945644
 30
0.0
 10
99.9490823249
 20
144.4934398366
 30
0.0
 10
99.9768711324
 20
144.4736691034
 30
0.0
 10
99.9945290308
 20
144.4601144217
 30
0.0
 11
99.8695290308
 21
144.433404497
 31
0.0
 11
99.8762363886
 21
144.4780300632
 31
0.0
 11
99.8983865664
 21
144.5003649429
 31
0.0
 11
99.9376943652
 21
144.4951800421
 31
0.0
 11
99.9945290308
 21
144.4601144217
 31
0.0
  0
SPLINE
  5
323
100
AcDbEntity
  8
BEZUGSACHSEN
100
AcDbSpline
 62
7
  6
CONTINUOUS
 70
0
 71
3
 72
16
 73
12
 74
10
 42
0.0000001
 43
0.0000001
 44
0.0000000001
 12
0.4973714463
 22
-0.1381690781
 32
0.0
 13
0.2447633051
 23
0.4552915049
 33
0.0
 40
0.0
 40
0.0
 40
0.0
 40
0.0
 40
0.2054084362
 40
0.3821123936
 40
0.5239763358
 40
0.6383788277
 40
0.7345406286
 40
0.8178119434
 40
0.8930732946
 40
0.9645140243
 40
1.0
 40
1.0
 40
1.0
 40
1.0
 10
103.2445290308
 20
143.9654303808
 30
0.0
 10
103.2785837945
 20
143.955970016
 30
0.0
 10
103.3432658474
 20
143.9427351624
 30
0.0
 10
103.4335499399
 20
143.9372927425
 30
0.0
 10
103.5080568121
 20
143.9432467143
 30
0.0
 10
103.5674276854
 20
143.9565637096
 30
0.0
 10
103.6147717216
 20
143.9748686608
 30
0.0
 10
103.6527499717
 20
143.9971490761
 30
0.0
 10
103.6830102829
 20
144.0229843889
 30
0.0
 10
103.7027761993
 20
144.0475536839
 30
0.0
 10
103.712218071
 20
144.0633939378
 30
0.0
 10
103.7151132925
 20
144.0687794256
 30
0.0
 11
103.2445290308
 21
143.9654303808
 31
0.0
 11
103.3484594475
 21
143.9444185421
 31
0.0
 11
103.4395312537
 21
143.939296764
 31
0.0
 11
103.5124981135
 21
143.9455118865
 31
0.0
 11
103.5700444455
 21
143.958776425
 31
0.0
 11
103.6162296909
 21
143.9769694708
 31
0.0
 11
103.653177559
 21
143.9989372027
 31
0.0
 11
103.6826214876
 21
144.024282971
 31
0.0
 11
103.7057133176
 21
144.0530365138
 31
0.0
 11
103.7151132925
 21
144.0687794256
 31
0.0
  0
SPLINE
  5
324
100
AcDbEntity
  8
BEZUGSACHSEN
100
AcDbSpline
 62
7
  6
CONTINUOUS
 70
0
 71
3
 72
11
 73
7
 74
5
 42
0.0000001
 43
0.0000001
 44
0.0000000001
 12
0.0661784389
 22
0.1231004829
 32
0.0
 13
0.0
 23
0.1395704877
 33
0.0
 40
0.0
 40
0.0
 40
0.0
 40
0.0
 40
0.1327767541
 40
0.408761515
 40
0.7011191023
 40
1.0
 40
1.0
 40
1.0
 40
1.0
 10
103.7151132925
 20
144.0687794256
 30
0.0
 10
103.7180422786
 20
144.0742277198
 30
0.0
 10
103.7263086042
 20
144.0914056716
 30
0.0
 10
103.7365145386
 20
144.1225390061
 30
0.0
 10
103.7432395851
 20
144.1624433614
 30
0.0
 10
103.7445290308
 20
144.1899786485
 30
0.0
 10
103.7445290308
 20
144.2038836327
 30
0.0
 11
103.7151132925
 21
144.0687794256
 31
0.0
 11
103.723168148
 21
144.0854901262
 31
0.0
 11
103.7353646284
 21
144.1220275655
 31
0.0
 11
103.7423832221
 21
144.1622239066
 31
0.0
 11
103.7445290308
 21
144.2038836327
 31
0.0
  0
SPLINE
  5
325
100
AcDbEntity
  8
BEZUGSACHSEN
100
AcDbSpline
 62
7
  6
CONTINUOUS
 70
0
 71
3
 72
12
 73
8
 74
6
 42
0.0000001
 43
0.0000001
 44
0.0000000001
 12
0.1458774432
 22
0.1119794812
 32
0.0
 13
0.0
 23
-0.1839011491
 33
0.0
 40
0.0
 40
0.0
 40
0.0
 40
0.0
 40
0.3119503866
 40
0.5109744676
 40
0.6456308384
 40
0.7914381086
 40
1.0
 40
1.0
 40
1.0
 40
1.0
 10
103.7445290308
 20
144.4601144217
 30
0.0
 10
103.7596978724
 20
144.4717584358
 30
0.0
 10
103.7855530788
 20
144.4892148599
 30
0.0
 10
103.8231223917
 20
144.5050924463
 30
0.0
 10
103.8546086435
 20
144.4972520602
 30
0.0
 10
103.8683034111
 20
144.4677405889
 30
0.0
 10
103.8695290308
 20
144.4461894208
 30
0.0
 10
103.8695290308
 20
144.433404497
 30
0.0
 11
103.7445290308
 21
144.4601144217
 31
0.0
 11
103.7927126665
 21
144.4912500708
 31
0.0
 11
103.8277554585
 21
144.5018150203
 31
0.0
 11
103.8514414908
 21
144.494590002
 31
0.0
 11
103.8650734477
 21
144.4714995922
 31
0.0
 11
103.8695290308
 21
144.433404497
 31
0.0
  0
SPLINE
  5
326
100
AcDbEntity
  8
0
100
AcDbSpline
 62
7
  6
CONTINUOUS
 70
0
 71
3
 72
15
 73
11
 74
9
 42
0.0000001
 43
0.0000001
 44
0.0000000001
 12
0.0
 22
0.9130903992
 32
0.0
 13
-0.9130903992
 23
0.0
 33
0.0
 40
0.0
 40
0.0
 40
0.0
 40
0.0
 40
0.1600918462
 40
0.3075422057
 40
0.4449036121
 40
0.5732119493
 40
0.6912879168
 40
0.8006702292
 40
0.9045439847
 40
1.0
 40
1.0
 40
1.0
 40
1.0
 10
103.7445290308
 20
95.2315492296
 30
0.0
 10
103.7445290308
 20
95.2802753389
 30
0.0
 10
103.7365641334
 20
95.3740870711
 30
0.0
 10
103.7027204389
 20
95.505801617
 30
0.0
 10
103.6513914451
 20
95.6212594264
 30
0.0
 10
103.5856169981
 20
95.7185667811
 30
0.0
 10
103.5085791356
 20
95.7956695003
 30
0.0
 10
103.4234547719
 20
95.8512083837
 30
0.0
 10
103.3344676142
 20
95.8838864821
 30
0.0
 10
103.2735823545
 20
95.89100909
 30
0.0
 10
103.2445290308
 20
95.89100909
 30
0.0
 11
103.7445290308
 21
95.2315492296
 31
0.0
 11
103.7320556623
 21
95.3771944101
 31
0.0
 11
103.6982752665
 21
95.5075232433
 31
0.0
 11
103.6469176998
 21
95.6219497479
 31
0.0
 11
103.5808470167
 21
95.7186991843
 31
0.0
 11
103.504221835
 21
95.7945440727
 31
0.0
 11
103.4202813924
 21
95.8486662062
 31
0.0
 11
103.3311102998
 21
95.8809819053
 31
0.0
 11
103.2445290308
 21
95.89100909
 31
0.0
  0
SPLINE
  5
327
100
AcDbEntity
  8
BEZUGSACHSEN
100
AcDbSpline
 62
7
  6
CONTINUOUS
 70
0
 71
3
 72
11
 73
7
 74
5
 42
0.0000001
 43
0.0000001
 44
0.0000000001
 12
0.0
 22
-0.1395867963
 32
0.0
 13
0.0661959442
 23
-0.1231095805
 33
0.0
 40
0.0
 40
0.0
 40
0.0
 40
0.0
 40
0.2989089425
 40
0.5912641764
 40
0.8672480948
 40
1.0
 40
1.0
 40
1.0
 40
1.0
 10
99.9945290308
 20
144.2038836327
 30
0.0
 10
99.9945290308
 20
144.1899757188
 30
0.0
 10
99.9958189514
 20
144.1624359995
 30
0.0
 10
100.0025463995
 20
144.1225260378
 30
0.0
 10
100.0127551424
 20
144.0913909058
 30
0.0
 10
100.0210233007
 20
144.0742126986
 30
0.0
 10
100.0239525133
 20
144.0687650215
 30
0.0
 11
99.9945290308
 21
144.2038836327
 31
0.0
 11
99.9966757846
 21
144.1622151546
 31
0.0
 11
100.0036966359
 21
144.1220147012
 31
0.0
 11
100.0158968825
 21
144.0854738981
 31
0.0
 11
100.0239525133
 21
144.0687650215
 31
0.0
  0
SPLINE
  5
328
100
AcDbEntity
  8
BEZUGSACHSEN
100
AcDbSpline
 62
7
  6
CONTINUOUS
 70
0
 71
3
 72
16
 73
12
 74
10
 42
0.0000001
 43
0.0000001
 44
0.0000000001
 12
0.244791693
 22
-0.4552575388
 32
0.0
 13
0.497355697
 23
0.1381647029
 33
0.0
 40
0.0
 40
0.0
 40
0.0
 40
0.0
 40
0.0354819688
 40
0.1069116572
 40
0.1821577292
 40
0.2654043123
 40
0.3615453499
 40
0.4759438992
 40
0.6177190239
 40
0.7944984177
 40
1.0
 40
1.0
 40
1.0
 40
1.0
 10
100.0239525133
 20
144.0687650215
 30
0.0
 10
100.0268477437
 20
144.0633805435
 30
0.0
 10
100.0362891696
 20
144.0475437343
 30
0.0
 10
100.0560524004
 20
144.0229803923
 30
0.0
 10
100.0863051835
 20
143.9971519716
 30
0.0
 10
100.1242721818
 20
143.9748761352
 30
0.0
 10
100.1716053889
 20
143.9565714612
 30
0.0
 10
100.2309543259
 20
143.9432547749
 30
0.0
 10
100.3054548886
 20
143.9372929519
 30
0.0
 10
100.3957507785
 20
143.942727568
 30
0.0
 10
100.4604599033
 20
143.9559660257
 30
0.0
 10
100.4945290308
 20
143.9654303808
 30
0.0
 11
100.0239525133
 21
144.0687650215
 31
0.0
 11
100.0333522971
 21
144.0530250867
 31
0.0
 11
100.0564413005
 21
144.0242780815
 31
0.0
 11
100.0858785907
 21
143.9989385763
 31
0.0
 11
100.1228135293
 21
143.9769767418
 31
0.0
 11
100.1689860727
 21
143.9587849829
 31
0.0
 11
100.2265276104
 21
143.9455170318
 31
0.0
 11
100.2994458123
 21
143.9392981809
 31
0.0
 11
100.3905541218
 21
143.9444129231
 31
0.0
 11
100.4945290308
 21
143.9654303808
 31
0.0
  0
SPLINE
  5
329
100
AcDbEntity
  8
BEZUGSACHSEN
100
AcDbSpline
 62
7
  6
CONTINUOUS
 70
0
 71
3
 72
18
 73
14
 74
12
 42
0.0000001
 43
0.0000001
 44
0.0000000001
 12
2.6737590161
 22
0.7427664394
 32
0.0
 13
2.6737590161
 23
-0.7427664394
 33
0.0
 40
0.0
 40
0.0
 40
0.0
 40
0.0
 40
0.0788628999
 40
0.1647195541
 40
0.2563676281
 40
0.3521236596
 40
0.4503969613
 40
0.5496032532
 40
0.6478758258
 40
0.7436299262
 40
0.8352788674
 40
0.9211360457
 40
1.0
 40
1.0
 40
1.0
 40
1.0
 10
100.4945290308
 20
143.9654303808
 30
0.0
 10
100.5648158274
 20
143.9849559526
 30
0.0
 10
100.7132667015
 20
144.0199034075
 30
0.0
 10
100.9470455848
 20
144.06030638
 30
0.0
 10
101.1980583985
 20
144.0908313503
 30
0.0
 10
101.4615933026
 20
144.111274526
 30
0.0
 10
101.7327109313
 20
144.1215231683
 30
0.0
 10
102.0063470504
 20
144.1215231572
 30
0.0
 10
102.2774622193
 20
144.1112746231
 30
0.0
 10
102.5409954778
 20
144.0908317364
 30
0.0
 10
102.792007829
 20
144.0603070867
 30
0.0
 10
103.0257889766
 20
144.0199039279
 30
0.0
 10
103.1742412946
 20
143.9849562136
 30
0.0
 10
103.2445290308
 20
143.9654303808
 30
0.0
 11
100.4945290308
 21
143.9654303808
 31
0.0
 11
100.707366002
 21
144.0163593433
 31
0.0
 11
100.9420424466
 21
144.0574878997
 31
0.0
 11
101.1944600415
 21
144.0885731379
 31
0.0
 11
101.4593695025
 21
144.1093643082
 31
0.0
 11
101.7318800237
 21
144.1197813363
 31
0.0
 11
102.0071786324
 21
144.119781325
 31
0.0
 11
102.2796871324
 21
144.1093643908
 31
0.0
 11
102.5445912646
 21
144.0885738137
 31
0.0
 11
102.79701128
 21
144.0574885411
 31
0.0
 11
103.0316891921
 21
144.016359932
 31
0.0
 11
103.2445290308
 21
143.9654303808
 31
0.0
  0
SPLINE
  5
32A
100
AcDbEntity
  8
0
100
AcDbSpline
 62
7
  6
CONTINUOUS
 70
0
 71
3
 72
81
 73
77
 74
75
 42
0.0000001
 43
0.0000001
 44
0.0000000001
 12
25.636420406
 22
12.8204262385
 32
0.0
 13
21.4878732314
 23
18.9657479778
 33
0.0
 40
0.0
 40
0.0
 40
0.0
 40
0.0
 40
0.0018295972
 40
0.0147304335
 40
0.0261525994
 40
0.0353924744
 40
0.0424542202
 40
0.0480367883
 40
0.0530502851
 40
0.058403532
 40
0.0648533713
 40
0.0729565055
 40
0.0826914767
 40
0.0938274542
 40
0.1063486144
 40
0.1201789685
 40
0.1351235788
 40
0.1509317299
 40
0.1673519168
 40
0.1840737967
 40
0.2003433316
 40
0.2151891925
 40
0.2278849795
 40
0.2391180337
 40
0.2494817115
 40
0.2587988949
 40
0.2673241413
 40
0.2755160497
 40
0.2839701704
 40
0.2932588952
 40
0.3036989762
 40
0.3155404382
 40
0.3287025169
 40
0.3431249877
 40
0.3588190305
 40
0.375769199
 40
0.3938849372
 40
0.4130209741
 40
0.4330670069
 40
0.4537049536
 40
0.4735305258
 40
0.4912035901
 40
0.5066650987
 40
0.5202280716
 40
0.5322341042
 40
0.5429922854
 40
0.5530534247
 40
0.5629320612
 40
0.5734445177
 40
0.5854322404
 40
0.5994242413
 40
0.6149814806
 40
0.6313221051
 40
0.6483041925
 40
0.6659213703
 40
0.6840575892
 40
0.7025464528
 40
0.7211989275
 40
0.7398155578
 40
0.7582235788
 40
0.7762433021
 40
0.7932547978
 40
0.8083429448
 40
0.821488884
 40
0.8332581834
 40
0.8444854003
 40
0.8557947924
 40
0.867764319
 40
0.8808016775
 40
0.8949394359
 40
0.9102082218
 40
0.9263688963
 40
0.9433089135
 40
0.9611376928
 40
0.9799847967
 40
1.0
 40
1.0
 40
1.0
 40
1.0
 10
149.1950746401
 20
96.7056780107
 30
0.0
 10
149.2107094142
 20
96.7134967492
 30
0.0
 10
149.3363753424
 20
96.7768765837
 30
0.0
 10
149.5562741812
 20
96.8958281543
 30
0.0
 10
149.8256688887
 20
97.0707003308
 30
0.0
 10
150.0288998795
 20
97.2420888643
 30
0.0
 10
150.1625773876
 20
97.4049738966
 30
0.0
 10
150.2320373039
 20
97.5618846031
 30
0.0
 10
150.2397905923
 20
97.7177524505
 30
0.0
 10
150.1865057371
 20
97.87275618
 30
0.0
 10
150.0723607149
 20
98.0274098619
 30
0.0
 10
149.8977081278
 20
98.1817831176
 30
0.0
 10
149.6677211969
 20
98.3366460936
 30
0.0
 10
149.3889557995
 20
98.4922435477
 30
0.0
 10
149.0670092341
 20
98.6493717195
 30
0.0
 10
148.7069005917
 20
98.8106141199
 30
0.0
 10
148.3151726702
 20
98.9778508007
 30
0.0
 10
147.8997720167
 20
99.1526144053
 30
0.0
 10
147.4699804649
 20
99.3369600306
 30
0.0
 10
147.0399594275
 20
99.5318281532
 30
0.0
 10
146.6306987905
 20
99.7355586646
 30
0.0
 10
146.2662787365
 20
99.9419847104
 30
0.0
 10
145.9576394151
 20
100.1475925129
 30
0.0
 10
145.7032458168
 20
100.3550535441
 30
0.0
 10
145.4992351079
 20
100.5700443746
 30
0.0
 10
145.3481967819
 20
100.7952231797
 30
0.0
 10
145.2567210669
 20
101.0289921992
 30
0.0
 10
145.2259324106
 20
101.2699227414
 30
0.0
 10
145.2540488337
 20
101.5182519049
 30
0.0
 10
145.3412434249
 20
101.7748238642
 30
0.0
 10
145.4872409148
 20
102.0400432717
 30
0.0
 10
145.6877989745
 20
102.3137116737
 30
0.0
 10
145.9388711417
 20
102.5950587025
 30
0.0
 10
146.2355730005
 20
102.883358038
 30
0.0
 10
146.5731206772
 20
103.1806034313
 30
0.0
 10
146.947580261
 20
103.4888215568
 30
0.0
 10
147.3541781328
 20
103.8094959526
 30
0.0
 10
147.7867226575
 20
104.144972626
 30
0.0
 10
148.2364907559
 20
104.4975698319
 30
0.0
 10
148.6839649836
 20
104.8636752359
 30
0.0
 10
149.1000861167
 20
105.2318634997
 30
0.0
 10
149.4584935843
 20
105.5896039227
 30
0.0
 10
149.7469999485
 20
105.930760135
 30
0.0
 10
149.9671721936
 20
106.2562089865
 30
0.0
 10
150.1211277481
 20
106.568766152
 30
0.0
 10
150.211400269
 20
106.8707752091
 30
0.0
 10
150.2432649093
 20
107.164012109
 30
0.0
 10
150.2195624946
 20
107.4557194741
 30
0.0
 10
150.136453557
 20
107.7554405409
 30
0.0
 10
149.9866506692
 20
108.0718608418
 30
0.0
 10
149.7659089375
 20
108.403023812
 30
0.0
 10
149.4815462991
 20
108.7376292477
 30
0.0
 10
149.1513214395
 20
109.0682507615
 30
0.0
 10
148.7894668477
 20
109.3938866483
 30
0.0
 10
148.4034198843
 20
109.7176884098
 30
0.0
 10
148.0003029092
 20
110.043326352
 30
0.0
 10
147.5882342921
 20
110.3736022385
 30
0.0
 10
147.1759061157
 20
110.7108898959
 30
0.0
 10
146.7723238483
 20
111.05750257
 30
0.0
 10
146.3872867205
 20
111.4159844096
 30
0.0
 10
146.0356554127
 20
111.7867630115
 30
0.0
 10
145.7371750395
 20
112.1621807189
 30
0.0
 10
145.5075338244
 20
112.5297910042
 30
0.0
 10
145.3518092285
 20
112.8803230842
 30
0.0
 10
145.260857803
 20
113.2148500842
 30
0.0
 10
145.2263571238
 20
113.5422547631
 30
0.0
 10
145.2473932045
 20
113.8728075387
 30
0.0
 10
145.3267080557
 20
114.2120614548
 30
0.0
 10
145.4654889125
 20
114.5606405254
 30
0.0
 10
145.6635429585
 20
114.9155670489
 30
0.0
 10
145.915356057
 20
115.2714422152
 30
0.0
 10
146.2118230278
 20
115.6263709207
 30
0.0
 10
146.5457684132
 20
115.9805302712
 30
0.0
 10
146.9135776808
 20
116.3371864768
 30
0.0
 10
147.3134188499
 20
116.7025681051
 30
0.0
 10
147.5915060262
 20
116.9485636147
 30
0.0
 10
147.7348674096
 20
117.0750980483
 30
0.0
 11
149.1950746401
 21
96.7056780107
 31
0.0
 11
149.2418982572
 21
96.7292968041
 31
0.0
 11
149.5660952734
 21
96.9070829176
 31
0.0
 11
149.8387904324
 21
97.0882063835
 31
0.0
 11
150.0384660759
 21
97.2621584362
 31
0.0
 11
150.1630357866
 21
97.4216751484
 31
0.0
 11
150.2241359474
 21
97.5695488708
 31
0.0
 11
150.2307642418
 21
97.7130855875
 31
0.0
 11
150.1837513761
 21
97.8591323905
 31
0.0
 11
150.0776766603
 21
98.0105256608
 31
0.0
 11
149.9066937583
 21
98.1676895004
 31
0.0
 11
149.6769776665
 21
98.3260466925
 31
0.0
 11
149.3992622771
 21
98.4833345822
 31
0.0
 11
149.0774670964
 21
98.6421770827
 31
0.0
 11
148.7161763057
 21
98.8052436217
 31
0.0
 11
148.3226189226
 21
98.9742747251
 31
0.0
 11
147.9053610718
 21
99.1508218209
 31
0.0
 11
147.4732585791
 21
99.3372702532
 31
0.0
 11
147.0372734763
 21
99.5362823362
 31
0.0
 11
146.6205375632
 21
99.7454746225
 31
0.0
 11
146.2512606117
 21
99.9568439382
 31
0.0
 11
145.9496436451
 21
100.160381379
 31
0.0
 11
145.7015817354
 21
100.3655991859
 31
0.0
 11
145.4991207017
 21
100.5829369552
 31
0.0
 11
145.3529139887
 21
100.8063910024
 31
0.0
 11
145.2655080103
 21
101.0345608077
 31
0.0
 11
145.2355548176
 21
101.2674270648
 31
0.0
 11
145.261239779
 21
101.5083617747
 31
0.0
 11
145.3443752692
 21
101.761268197
 31
0.0
 11
145.4858181659
 21
102.0249455067
 31
0.0
 11
145.6843061293
 21
102.3002333288
 31
0.0
 11
145.9339060221
 21
102.5830838014
 31
0.0
 11
146.2290385581
 21
102.8724972888
 31
0.0
 11
146.565661719
 21
103.1708344884
 31
0.0
 11
146.940001597
 21
103.4804677397
 31
0.0
 11
147.3469429838
 21
103.8029193155
 31
0.0
 11
147.7795692134
 21
104.1400122591
 31
0.0
 11
148.2308196347
 21
104.4956224699
 31
0.0
 11
148.6874731016
 21
104.8715670505
 31
0.0
 11
149.1114035028
 21
105.2499162623
 31
0.0
 11
149.4679053147
 21
105.6097343744
 31
0.0
 11
149.752040409
 21
105.9497879836
 31
0.0
 11
149.9674112673
 21
106.2733936151
 31
0.0
 11
150.1169944168
 21
106.5832799082
 31
0.0
 11
150.203799423
 21
106.8791442984
 31
0.0
 11
150.234233429
 21
107.1658917545
 31
0.0
 11
150.2114968194
 21
107.4481046984
 31
0.0
 11
150.1326847234
 21
107.7389072499
 31
0.0
 11
149.9881893182
 21
108.0506199995
 31
0.0
 11
149.7683816249
 21
108.3860310847
 31
0.0
 11
149.4821576601
 21
108.7279144534
 31
0.0
 11
149.152868716
 21
109.0609359183
 31
0.0
 11
148.7921705172
 21
109.3877226648
 31
0.0
 11
148.4062529176
 21
109.7133146774
 31
0.0
 11
148.0027193817
 21
110.0409530161
 31
0.0
 11
147.5900022317
 21
110.3733082831
 31
0.0
 11
147.1770072108
 21
110.7127522131
 31
0.0
 11
146.7731854917
 21
111.061489582
 31
0.0
 11
146.388431044
 21
111.4224733706
 31
0.0
 11
146.034811064
 21
111.7988764013
 31
0.0
 11
145.73365385
 21
112.1823060235
 31
0.0
 11
145.5072120376
 21
112.5507134699
 31
0.0
 11
145.3559965849
 21
112.8958070908
 31
0.0
 11
145.2685937265
 21
113.2216015607
 31
0.0
 11
145.2354744227
 21
113.5416710469
 31
0.0
 11
145.2556408912
 21
113.8651767228
 31
0.0
 11
145.3321752564
 21
114.19958391
 31
0.0
 11
145.4685986648
 21
114.5474474627
 31
0.0
 11
145.6641102756
 21
114.902354755
 31
0.0
 11
145.9149004069
 21
115.2609752652
 31
0.0
 11
146.2104216539
 21
115.6176228297
 31
0.0
 11
146.5424421029
 21
115.9718585131
 31
0.0
 11
146.9082637622
 21
116.3286191121
 31
0.0
 11
147.3061191867
 21
116.6939865114
 31
0.0
 11
147.7348674096
 21
117.0750980483
 31
0.0
  0
SPLINE
  5
32B
100
AcDbEntity
  8
0
100
AcDbSpline
 62
7
  6
CONTINUOUS
 70
0
 71
3
 72
18
 73
14
 74
12
 42
0.0000001
 43
0.0000001
 44
0.0000000001
 12
-1.7642311185
 22
0.0
 32
0.0
 13
0.0
 23
1.7642311185
 33
0.0
 40
0.0
 40
0.0
 40
0.0
 40
0.0
 40
0.086900447
 40
0.1740038441
 40
0.2602721501
 40
0.345790636
 40
0.4333324854
 40
0.523356292
 40
0.6154993271
 40
0.7098280223
 40
0.8064563316
 40
0.9037424561
 40
1.0
 40
1.0
 40
1.0
 40
1.0
 10
94.9445290308
 20
91.2409999415
 30
0.0
 10
94.8934248732
 20
91.2409999415
 30
0.0
 10
94.7908404462
 20
91.2507343684
 30
0.0
 10
94.6430063403
 20
91.2934210867
 30
0.0
 10
94.5057553888
 20
91.3610126424
 30
0.0
 10
94.3811752373
 20
91.4500310422
 30
0.0
 10
94.2698360226
 20
91.5582463869
 30
0.0
 10
94.1725146871
 20
91.6841176213
 30
0.0
 10
94.0907446215
 20
91.8251825776
 30
0.0
 10
94.0257611395
 20
91.9789104918
 30
0.0
 10
93.9787854239
 20
92.1421929031
 30
0.0
 10
93.9507028661
 20
92.3108630069
 30
0.0
 10
93.9445290308
 20
92.4247801106
 30
0.0
 10
93.9445290308
 20
92.4813869621
 30
0.0
 11
94.9445290308
 21
91.2409999415
 31
0.0
 11
94.7918955504
 21
91.2554129547
 31
0.0
 11
94.6441882483
 21
91.2978061472
 31
0.0
 11
94.5075134365
 21
91.3647687682
 31
0.0
 11
94.384563945
 21
91.4522130324
 31
0.0
 11
94.2735781927
 21
91.5596147495
 31
0.0
 11
94.1761756316
 21
91.6850636363
 31
0.0
 11
94.094404957
 21
91.8255621551
 31
0.0
 11
94.0293909153
 21
91.9787548392
 31
0.0
 11
93.9820798653
 21
92.1425329749
 31
0.0
 11
93.9537760595
 21
92.3118183532
 31
0.0
 11
93.9445290308
 21
92.4813869621
 31
0.0
  0
SPLINE
  5
32C
100
AcDbEntity
  8
0
100
AcDbSpline
 62
7
  6
CONTINUOUS
 70
0
 71
3
 72
96
 73
92
 74
90
 42
0.0000001
 43
0.0000001
 44
0.0000000001
 12
-24.831705861
 22
-21.7947957346
 32
0.0
 13
31.5673253646
 23
-9.3875770855
 33
0.0
 40
0.0
 40
0.0
 40
0.0
 40
0.0
 40
0.0177476192
 40
0.0345025424
 40
0.0503052717
 40
0.0651792178
 40
0.0791543333
 40
0.0921925792
 40
0.1042536842
 40
0.1153996659
 40
0.1256418264
 40
0.1353559358
 40
0.1450499874
 40
0.1552949066
 40
0.1667627028
 40
0.1798643682
 40
0.1944872774
 40
0.2098396477
 40
0.2255530129
 40
0.2417219697
 40
0.2582143422
 40
0.2746158459
 40
0.2906034703
 40
0.3059954142
 40
0.3207110594
 40
0.3348236884
 40
0.3481861673
 40
0.3600586351
 40
0.3701761184
 40
0.3790854551
 40
0.3875697005
 40
0.3963001877
 40
0.4057074384
 40
0.4162415859
 40
0.4280941045
 40
0.4416593032
 40
0.4573444648
 40
0.4750473234
 40
0.493284712
 40
0.5108398896
 40
0.5275446955
 40
0.5433174944
 40
0.5580190569
 40
0.5715649262
 40
0.5838867739
 40
0.5949826728
 40
0.6048221919
 40
0.6135024489
 40
0.6212718072
 40
0.6284378797
 40
0.6355382042
 40
0.6430450326
 40
0.6513370762
 40
0.6605348709
 40
0.6705324284
 40
0.681933861
 40
0.69485404
 40
0.7086560762
 40
0.7226290868
 40
0.7363110322
 40
0.7495097076
 40
0.7620536498
 40
0.7737644303
 40
0.7844823478
 40
0.7940503092
 40
0.8023733993
 40
0.8092480442
 40
0.8147139202
 40
0.8192819572
 40
0.8236134474
 40
0.8285004556
 40
0.8346984565
 40
0.8427629176
 40
0.8526517344
 40
0.863777055
 40
0.875608492
 40
0.8876985702
 40
0.9000196202
 40
0.9125617131
 40
0.9252848253
 40
0.9381345839
 40
0.950866955
 40
0.9628929373
 40
0.9735349298
 40
0.9820664372
 40
0.9882541036
 40
0.9924179329
 40
0.9950058659
 40
0.9965762137
 40
0.9985604301
 40
1.0
 40
1.0
 40
1.0
 40
1.0
 10
148.8477975261
 20
117.0750980484
 30
0.0
 10
148.7008963058
 20
116.946162803
 30
0.0
 10
148.4155935506
 20
116.6951747052
 30
0.0
 10
148.0058396002
 20
116.3222142244
 30
0.0
 10
147.630624565
 20
115.9585838526
 30
0.0
 10
147.2938289025
 20
115.5999243456
 30
0.0
 10
146.9995124617
 20
115.2441890336
 30
0.0
 10
146.7531948334
 20
114.8905180483
 30
0.0
 10
146.5617390825
 20
114.539134579
 30
0.0
 10
146.4291956922
 20
114.1940899182
 30
0.0
 10
146.3557408677
 20
113.8580089419
 30
0.0
 10
146.3402682234
 20
113.5302590466
 30
0.0
 10
146.3799962436
 20
113.2046328794
 30
0.0
 10
146.4766090737
 20
112.8710597244
 30
0.0
 10
146.6385148094
 20
112.5219824609
 30
0.0
 10
146.8728649148
 20
112.1581612366
 30
0.0
 10
147.1724734566
 20
111.7893699029
 30
0.0
 10
147.5217721326
 20
111.4265883581
 30
0.0
 10
147.9045050094
 20
111.0739730822
 30
0.0
 10
148.3102025586
 20
110.7285287539
 30
0.0
 10
148.7297748475
 20
110.3880122966
 30
0.0
 10
149.1508936739
 20
110.0526457255
 30
0.0
 10
149.5608307193
 20
109.7226823387
 30
0.0
 10
149.9496970931
 20
109.3962350038
 30
0.0
 10
150.3108765334
 20
109.0692964757
 30
0.0
 10
150.6374478519
 20
108.7382556259
 30
0.0
 10
150.91477396
 20
108.4042508305
 30
0.0
 10
151.1258940626
 20
108.0756539723
 30
0.0
 10
151.2654798843
 20
107.7636427714
 30
0.0
 10
151.3393402998
 20
107.4680373639
 30
0.0
 10
151.3550397825
 20
107.1790175317
 30
0.0
 10
151.3152724435
 20
106.8868302065
 30
0.0
 10
151.2164408267
 20
106.5852428242
 30
0.0
 10
151.0537604642
 20
106.2736977251
 30
0.0
 10
150.8253355212
 20
105.9492142639
 30
0.0
 10
150.5274704495
 20
105.6075013267
 30
0.0
 10
150.1567432268
 20
105.2464036706
 30
0.0
 10
149.7271572648
 20
104.8736456599
 30
0.0
 10
149.2683904561
 20
104.5038907794
 30
0.0
 10
148.8117168969
 20
104.1493025317
 30
0.0
 10
148.3756544657
 20
103.8124408373
 30
0.0
 10
147.9680278739
 20
103.4901877399
 30
0.0
 10
147.5950385485
 20
103.1803705135
 30
0.0
 10
147.2622112638
 20
102.8820574078
 30
0.0
 10
146.9743872818
 20
102.5937513643
 30
0.0
 10
146.736496594
 20
102.3145934684
 30
0.0
 10
146.5516590162
 20
102.0449137271
 30
0.0
 10
146.4227205278
 20
101.7842213363
 30
0.0
 10
146.3528247047
 20
101.5317422868
 30
0.0
 10
146.3416741454
 20
101.2870698952
 30
0.0
 10
146.3897183834
 20
101.0496293871
 30
0.0
 10
146.4986831925
 20
100.8197949342
 30
0.0
 10
146.6654194785
 20
100.5989074192
 30
0.0
 10
146.8837325841
 20
100.3878681861
 30
0.0
 10
147.1523116975
 20
100.1834348768
 30
0.0
 10
147.4723604978
 20
99.9816957506
 30
0.0
 10
147.8416146131
 20
99.7813905228
 30
0.0
 10
148.245402525
 20
99.5866359326
 30
0.0
 10
148.6627338141
 20
99.4013406499
 30
0.0
 10
149.0770149934
 20
99.2257972782
 30
0.0
 10
149.4776186607
 20
99.0583490387
 30
0.0
 10
149.8571668818
 20
98.8968151849
 30
0.0
 10
150.2087743599
 20
98.7394882592
 30
0.0
 10
150.525428405
 20
98.584613947
 30
0.0
 10
150.8003842586
 20
98.4302439498
 30
0.0
 10
151.0262413504
 20
98.2764594513
 30
0.0
 10
151.1960559535
 20
98.1232919113
 30
0.0
 10
151.305382095
 20
97.9699387967
 30
0.0
 10
151.3542038927
 20
97.8159604386
 30
0.0
 10
151.3420277439
 20
97.6609136121
 30
0.0
 10
151.2681692623
 20
97.5049125711
 30
0.0
 10
151.1305273626
 20
97.3430918783
 30
0.0
 10
150.9244654069
 20
97.173429046
 30
0.0
 10
150.6541368002
 20
97.0008100589
 30
0.0
 10
150.3349679139
 20
96.8300965544
 30
0.0
 10
149.9857547947
 20
96.6654295368
 30
0.0
 10
149.6189996863
 20
96.5077825405
 30
0.0
 10
149.2413463987
 20
96.3560328719
 30
0.0
 10
148.8547693586
 20
96.2079790214
 30
0.0
 10
148.4611776431
 20
96.0620438871
 30
0.0
 10
148.0648187906
 20
95.9175917386
 30
0.0
 10
147.675627671
 20
95.7758307632
 30
0.0
 10
147.3103615017
 20
95.6396586715
 30
0.0
 10
146.9902564501
 20
95.5141990196
 30
0.0
 10
146.7341287251
 20
95.4037514897
 30
0.0
 10
146.5460408396
 20
95.3123137898
 30
0.0
 10
146.4281579191
 20
95.2347070929
 30
0.0
 10
146.353780298
 20
95.1755526342
 30
0.0
 10
146.3437543342
 20
95.0978303564
 30
0.0
 10
146.3989553559
 20
95.0673029164
 30
0.0
 10
146.4351693526
 20
95.0543656088
 30
0.0
 10
146.4503171436
 20
95.0498609175
 30
0.0
 11
148.8477975261
 21
117.0750980484
 31
0.0
 11
148.4085140705
 21
116.6866801809
 31
0.0
 11
148.0001072805
 21
116.3129777807
 31
0.0
 11
147.6262725466
 21
115.9484843695
 31
0.0
 11
147.2910088232
 21
115.5891746397
 31
0.0
 11
146.9981538829
 21
115.2321943957
 31
0.0
 11
146.7539542247
 21
114.8773161803
 31
0.0
 11
146.5651775225
 21
114.526370921
 31
0.0
 11
146.4349125297
 21
114.1819191898
 31
0.0
 11
146.3641652629
 21
113.8509985184
 31
0.0
 11
146.3493089826
 21
113.5303905479
 31
0.0
 11
146.3874421505
 21
113.2123794059
 31
0.0
 11
146.4804576912
 21
112.8869205436
 31
0.0
 11
146.6380297139
 21
112.542346497
 31
0.0
 11
146.8698096762
 21
112.1767514398
 31
0.0
 11
147.1723220598
 21
111.8000443542
 31
0.0
 11
147.5224840233
 21
111.4330595264
 31
0.0
 11
147.9030111071
 21
111.0798846019
 31
0.0
 11
148.3088122882
 21
110.7324439366
 31
0.0
 11
148.7310758734
 21
110.3880399065
 31
0.0
 11
149.1541635244
 21
110.0494330382
 31
0.0
 11
149.5647738404
 21
109.7171327625
 31
0.0
 11
149.9532903712
 21
109.3889951231
 31
0.0
 11
150.3125913659
 21
109.0614362743
 31
0.0
 11
150.6382362419
 21
108.7277138277
 31
0.0
 11
150.9176605182
 21
108.3858974985
 31
0.0
 11
151.1270517432
 21
108.0541956756
 31
0.0
 11
151.2610778184
 21
107.7479609435
 31
0.0
 11
151.3309720887
 21
107.4620167883
 31
0.0
 11
151.3461327793
 21
107.1821095025
 31
0.0
 11
151.3080752804
 21
106.8961777761
 31
0.0
 11
151.2129152777
 21
106.6002900072
 31
0.0
 11
151.0543749177
 21
106.2904499226
 31
0.0
 11
150.8312806815
 21
105.9686066621
 31
0.0
 11
150.5387514777
 21
105.6290452678
 31
0.0
 11
150.1695386516
 21
105.2653852787
 31
0.0
 11
149.7293851268
 21
104.8801955998
 31
0.0
 11
149.2613954271
 21
104.5006389511
 31
0.0
 11
148.8041706124
 21
104.1437529071
 31
0.0
 11
148.3681807819
 21
103.8053272887
 31
0.0
 11
147.9601344072
 21
103.4811755483
 31
0.0
 11
147.5873060745
 21
103.1698255772
 31
0.0
 11
147.2551291441
 21
102.8698894083
 31
0.0
 11
146.9689493809
 21
102.5803370465
 31
0.0
 11
146.7328720666
 21
102.2998598379
 31
0.0
 11
146.5514110675
 21
102.0301210987
 31
0.0
 11
146.4271614976
 21
101.7716395851
 31
0.0
 11
146.3609559988
 21
101.5236262415
 31
0.0
 11
146.3514049957
 21
101.2870535366
 31
0.0
 11
146.3976288747
 21
101.0570594352
 31
0.0
 11
146.5017662212
 21
100.8319566156
 31
0.0
 11
146.6643782705
 21
100.611467664
 31
0.0
 11
146.8810638837
 21
100.3983987934
 31
0.0
 11
147.1425463898
 21
100.1965665583
 31
0.0
 11
147.4601215125
 21
99.9939597661
 31
0.0
 11
147.8345508863
 21
99.788949979
 31
0.0
 11
148.2446962094
 21
99.5896222004
 31
0.0
 11
148.6661863864
 21
99.401258931
 31
0.0
 11
149.0820594586
 21
99.2240659816
 31
0.0
 11
149.484086218
 21
99.0551241113
 31
0.0
 11
149.8650904507
 21
98.8920174774
 31
0.0
 11
150.2177944742
 21
98.7329320956
 31
0.0
 11
150.5351913802
 21
98.5759019424
 31
0.0
 11
150.8098357584
 21
98.4193631295
 31
0.0
 11
151.0353406953
 21
98.2619824197
 31
0.0
 11
151.2009223831
 21
98.1065031777
 31
0.0
 11
151.3020548617
 21
97.9568855164
 31
0.0
 11
151.3449682563
 21
97.8121879912
 31
0.0
 11
151.3345653244
 21
97.6694551282
 31
0.0
 11
151.2692859127
 21
97.5217738674
 31
0.0
 11
151.1403220515
 21
97.3627034474
 31
0.0
 11
150.9372622216
 21
97.1901890062
 31
0.0
 11
150.6636738595
 21
97.0115884355
 31
0.0
 11
150.3404981061
 21
96.8364568123
 31
0.0
 11
149.9874233194
 21
96.6686853239
 31
0.0
 11
149.6207363627
 21
96.5102437014
 31
0.0
 11
149.2432067137
 21
96.3579632567
 31
0.0
 11
148.8563735702
 21
96.2093783542
 31
0.0
 11
148.4623528763
 21
96.0628942537
 31
0.0
 11
148.0635962894
 21
95.9171597429
 31
0.0
 11
147.6685168704
 21
95.7726625507
 31
0.0
 11
147.2964526377
 21
95.6332211465
 31
0.0
 11
146.9695524158
 21
95.5037407995
 31
0.0
 11
146.7111427271
 21
95.3911341781
 31
0.0
 11
146.5290271459
 21
95.2982403498
 31
0.0
 11
146.4142452018
 21
95.2224039761
 31
0.0
 11
146.3564515345
 21
95.1593885017
 31
0.0
 11
146.3532304074
 21
95.1076046479
 31
0.0
 11
146.4044280664
 21
95.0666576199
 31
0.0
 11
146.4503171436
 21
95.0498609175
 31
0.0
  0
SPLINE
  5
32D
100
AcDbEntity
  8
0
100
AcDbSpline
 62
7
  6
CONTINUOUS
 70
0
 71
3
 72
96
 73
92
 74
90
 42
0.0000001
 43
0.0000001
 44
0.0000000001
 12
24.716254356
 22
21.8151999508
 32
0.0
 13
-27.3928111166
 23
18.3342548263
 33
0.0
 40
0.0
 40
0.0
 40
0.0
 40
0.0
 40
0.0177110524
 40
0.0343612585
 40
0.0500074611
 40
0.0646949277
 40
0.0784664532
 40
0.0913012235
 40
0.1031858765
 40
0.1141755858
 40
0.1243014103
 40
0.1339524997
 40
0.1436185424
 40
0.1538541256
 40
0.1653488099
 40
0.1785137571
 40
0.1932040703
 40
0.2086832617
 40
0.2246370049
 40
0.2411595649
 40
0.2581186908
 40
0.2751210659
 40
0.2918509912
 40
0.3081090657
 40
0.3237856046
 40
0.3388872335
 40
0.3531743487
 40
0.3658112528
 40
0.3765074934
 40
0.3858405172
 40
0.3945971833
 40
0.4034223345
 40
0.4127255067
 40
0.4229687095
 40
0.4343931209
 40
0.447393851
 40
0.4623683458
 40
0.4792121977
 40
0.4965223905
 40
0.5131520596
 40
0.5289153753
 40
0.5437094036
 40
0.5574119191
 40
0.5699835856
 40
0.5814522533
 40
0.5918684763
 40
0.6011581104
 40
0.6093871484
 40
0.6168326177
 40
0.6238690339
 40
0.6310755267
 40
0.6389293554
 40
0.647781678
 40
0.6576681474
 40
0.6684306055
 40
0.680654287
 40
0.6944561186
 40
0.709180485
 40
0.7241199894
 40
0.7388246732
 40
0.7530994433
 40
0.7667625424
 40
0.7796263673
 40
0.7915104074
 40
0.802193301
 40
0.811527532
 40
0.8192677345
 40
0.825395354
 40
0.8303618455
 40
0.8347705124
 40
0.8394099279
 40
0.8450806459
 40
0.8524166898
 40
0.8615403697
 40
0.8720474911
 40
0.8831567793
 40
0.8941715163
 40
0.905952856
 40
0.9182063514
 40
0.9303165375
 40
0.9421198113
 40
0.95346449
 40
0.9640460754
 40
0.9735239574
 40
0.9815065087
 40
0.9877443753
 40
0.9922594718
 40
0.9952390513
 40
0.997031872
 40
0.9987406225
 40
1.0
 40
1.0
 40
1.0
 40
1.0
 10
147.7348674096
 20
117.0750980483
 30
0.0
 10
147.8807843681
 20
117.2038880979
 30
0.0
 10
148.1641180319
 20
117.4534833025
 30
0.0
 10
148.571876593
 20
117.8219188676
 30
0.0
 10
148.9456025534
 20
118.1782874602
 30
0.0
 10
149.2816776856
 20
118.5278018705
 30
0.0
 10
149.5761345132
 20
118.8735313609
 30
0.0
 10
149.8236868803
 20
119.2172771952
 30
0.0
 10
150.0171174795
 20
119.5598297269
 30
0.0
 10
150.1517275666
 20
119.8979483485
 30
0.0
 10
150.2267133009
 20
120.22919799
 30
0.0
 10
150.2428496011
 20
120.5540160347
 30
0.0
 10
150.201941084
 20
120.8777365306
 30
0.0
 10
150.1036332176
 20
121.209868411
 30
0.0
 10
149.9408524488
 20
121.5584677976
 30
0.0
 10
149.7079278679
 20
121.9239474814
 30
0.0
 10
149.4123780628
 20
122.2980965557
 30
0.0
 10
149.0689575126
 20
122.671319039
 30
0.0
 10
148.6918743722
 20
123.0396610134
 30
0.0
 10
148.2907402072
 20
123.4060754585
 30
0.0
 10
147.874265453
 20
123.7725745551
 30
0.0
 10
147.4542242351
 20
124.1384400222
 30
0.0
 10
147.0429140115
 20
124.5026015985
 30
0.0
 10
146.6503336752
 20
124.8658349967
 30
0.0
 10
146.284394658
 20
125.2311176078
 30
0.0
 10
145.9536195506
 20
125.6001445192
 30
0.0
 10
145.6739572536
 20
125.9685790116
 30
0.0
 10
145.462164425
 20
126.3248937356
 30
0.0
 10
145.3219655957
 20
126.6567311617
 30
0.0
 10
145.2457603667
 20
126.9652639439
 30
0.0
 10
145.2266979994
 20
127.2620439298
 30
0.0
 10
145.2624894201
 20
127.5570029222
 30
0.0
 10
145.3567744561
 20
127.8559767519
 30
0.0
 10
145.5151079124
 20
128.1589663373
 30
0.0
 10
145.7401933921
 20
128.4676972179
 30
0.0
 10
146.0357619651
 20
128.7852086525
 30
0.0
 10
146.4051992527
 20
129.1118060684
 30
0.0
 10
146.8345696852
 20
129.43957553
 30
0.0
 10
147.29359632
 20
129.7571366499
 30
0.0
 10
147.750684224
 20
130.0561468235
 30
0.0
 10
148.1868736842
 20
130.3365211989
 30
0.0
 10
148.5940727412
 20
130.6025205831
 30
0.0
 10
148.9662498153
 20
130.8578797667
 30
0.0
 10
149.2991710313
 20
131.1054772001
 30
0.0
 10
149.5895109098
 20
131.3490113785
 30
0.0
 10
149.8323840156
 20
131.5914341264
 30
0.0
 10
150.0231159453
 20
131.8331579892
 30
0.0
 10
150.1572310012
 20
132.0743024724
 30
0.0
 10
150.2300046176
 20
132.315408747
 30
0.0
 10
150.2414720345
 20
132.5558986068
 30
0.0
 10
150.1932200642
 20
132.7961948931
 30
0.0
 10
150.085004622
 20
133.03759086
 30
0.0
 10
149.9199105066
 20
133.2800529521
 30
0.0
 10
149.7036746886
 20
133.5224858806
 30
0.0
 10
149.4379557875
 20
133.7677986807
 30
0.0
 10
149.1214840083
 20
134.019754449
 30
0.0
 10
148.7567311658
 20
134.2797706965
 30
0.0
 10
148.3575480124
 20
134.5421871951
 30
0.0
 10
147.9437525842
 20
134.8000853574
 30
0.0
 10
147.5311034584
 20
135.050374019
 30
0.0
 10
147.1299795922
 20
135.2926111268
 30
0.0
 10
146.7480270229
 20
135.527457268
 30
0.0
 10
146.3925164032
 20
135.7550691027
 30
0.0
 10
146.0713284058
 20
135.9753100258
 30
0.0
 10
145.792425942
 20
136.1880452595
 30
0.0
 10
145.5640016639
 20
136.3907690195
 30
0.0
 10
145.3927754283
 20
136.5807912773
 30
0.0
 10
145.2822385297
 20
136.7575184145
 30
0.0
 10
145.2302254273
 20
136.9223856554
 30
0.0
 10
145.2366598115
 20
137.0799369532
 30
0.0
 10
145.3068051547
 20
137.2297977209
 30
0.0
 10
145.4429736376
 20
137.3712068972
 30
0.0
 10
145.6475225362
 20
137.5051582783
 30
0.0
 10
145.9178206565
 20
137.6284239721
 30
0.0
 10
146.2377679799
 20
137.7378016752
 30
0.0
 10
146.5838103641
 20
137.8323642909
 30
0.0
 10
146.9470843212
 20
137.9154395451
 30
0.0
 10
147.3249654665
 20
137.9901494766
 30
0.0
 10
147.7161838386
 20
138.0588972874
 30
0.0
 10
148.1085701708
 20
138.122082988
 30
0.0
 10
148.4915827863
 20
138.1805525771
 30
0.0
 10
148.8581116395
 20
138.2356283912
 30
0.0
 10
149.1991508403
 20
138.2885236581
 30
0.0
 10
149.5029670515
 20
138.3397934023
 30
0.0
 10
149.7587254001
 20
138.3899356042
 30
0.0
 10
149.9587828354
 20
138.4369792342
 30
0.0
 10
150.1031972517
 20
138.4857647784
 30
0.0
 10
150.1938021045
 20
138.5272062227
 30
0.0
 10
150.2476398395
 20
138.5899504784
 30
0.0
 10
150.2162230422
 20
138.6420335008
 30
0.0
 10
150.1906722975
 20
138.6631082889
 30
0.0
 10
150.179173001
 20
138.6708048715
 30
0.0
 11
147.7348674096
 21
117.0750980483
 31
0.0
 11
148.1720276711
 21
117.4621363238
 31
0.0
 11
148.5783497638
 21
117.8311812654
 31
0.0
 11
148.9505292037
 21
118.1883004921
 31
0.0
 11
149.2849498182
 21
118.5384552382
 31
0.0
 11
149.5778292871
 21
118.8853527051
 31
0.0
 11
149.8230361316
 21
119.2301758218
 31
0.0
 11
150.0137047744
 21
119.5724476007
 31
0.0
 11
150.1458607157
 21
119.9097771347
 31
0.0
 11
150.2180759443
 21
120.2356861625
 31
0.0
 11
150.2335241816
 21
120.553474427
 31
0.0
 11
150.1945281142
 21
120.8697358108
 31
0.0
 11
150.1001815711
 21
121.1937100095
 31
0.0
 11
149.94192246
 21
121.5380209273
 31
0.0
 11
149.7113516181
 21
121.9057111129
 31
0.0
 11
149.4132840359
 21
122.2874074507
 31
0.0
 11
149.0693085857
 21
122.6643465521
 31
0.0
 11
148.6943790517
 21
123.0331843174
 31
0.0
 11
148.2931792691
 21
123.4015980042
 31
0.0
 11
147.8743122074
 21
123.7719032203
 31
0.0
 11
147.452467556
 21
124.1409817389
 31
0.0
 11
147.0403953386
 21
124.5075609351
 31
0.0
 11
146.6480190194
 21
124.8726749011
 31
0.0
 11
146.2834353743
 21
125.2389577646
 31
0.0
 11
145.9529594485
 21
125.6113010513
 31
0.0
 11
145.6707452948
 21
125.9883870009
 31
0.0
 11
145.4603954331
 21
126.3479768752
 31
0.0
 11
145.3255087651
 21
126.6737766044
 31
0.0
 11
145.2535715203
 21
126.9729266944
 31
0.0
 11
145.2356414464
 21
127.2610467657
 31
0.0
 11
145.2704108932
 21
127.5498968158
 31
0.0
 11
145.3615725345
 21
127.8427290041
 31
0.0
 11
145.5157525799
 21
128.1431597815
 31
0.0
 11
145.7353521984
 21
128.4491362105
 31
0.0
 11
146.0254323771
 21
128.7646400503
 31
0.0
 11
146.3932920836
 21
129.0938474573
 31
0.0
 11
146.8329787578
 21
129.4329881106
 31
0.0
 11
147.3011379553
 21
129.7592971474
 31
0.0
 11
147.759056979
 21
130.0607257265
 31
0.0
 11
148.1954786239
 21
130.34283487
 31
0.0
 11
148.6030566989
 21
130.6106778885
 31
0.0
 11
148.9747712648
 21
130.8673566185
 31
0.0
 11
149.306306691
 21
131.1160510447
 31
0.0
 11
149.5945596437
 21
131.3607077522
 31
0.0
 11
149.8358587106
 21
131.6050224001
 31
0.0
 11
150.0231879723
 21
131.8472935829
 31
0.0
 11
150.1520745283
 21
132.0860045059
 31
0.0
 11
150.2210734386
 21
132.3215585573
 31
0.0
 11
150.2319532559
 21
132.5532699305
 31
0.0
 11
150.1865583138
 21
132.7864661382
 31
0.0
 11
150.0833099319
 21
133.0239028926
 31
0.0
 11
149.9216409869
 21
133.266860564
 31
0.0
 11
149.7065283699
 21
133.5117125491
 31
0.0
 11
149.4471504732
 21
133.7538019047
 31
0.0
 11
149.1330597799
 21
134.0062585784
 31
0.0
 11
148.7634338864
 21
134.2715906469
 31
0.0
 11
148.3584826234
 21
134.5392461301
 31
0.0
 11
147.9410402707
 21
134.8005938029
 31
0.0
 11
147.5269823266
 21
135.0526880038
 31
0.0
 11
147.124557405
 21
135.2966339373
 31
0.0
 11
146.7412890477
 21
135.5332534185
 31
0.0
 11
146.3847199468
 21
135.7628167506
 31
0.0
 11
146.0624581957
 21
135.9856082085
 31
0.0
 11
145.7835618866
 21
136.2006584579
 31
0.0
 11
145.5552189512
 21
136.4069343374
 31
0.0
 11
145.3874020891
 21
136.5991536354
 31
0.0
 11
145.2839319557
 21
136.7726490273
 31
0.0
 11
145.238389048
 21
136.9299156765
 31
0.0
 11
145.2458049015
 21
137.0750650814
 31
0.0
 11
145.308050796
 21
137.2147713483
 31
0.0
 11
145.4338964433
 21
137.3530139718
 31
0.0
 11
145.6335515219
 21
137.4894930818
 31
0.0
 11
145.9055856085
 21
137.6178053479
 31
0.0
 11
146.232504208
 21
137.7322871931
 31
0.0
 11
146.5854249145
 21
137.830140766
 31
0.0
 11
146.9392271691
 21
137.9118652512
 31
0.0
 11
147.3201189405
 21
137.9878174073
 31
0.0
 11
147.7178935234
 21
138.0582149791
 31
0.0
 11
148.1119845452
 21
138.122075034
 31
0.0
 11
148.4965862436
 21
138.1811598286
 31
0.0
 11
148.8663627698
 21
138.2371765617
 31
0.0
 11
149.2109951176
 21
138.2911863428
 31
0.0
 11
149.5189515808
 21
138.344006665
 31
0.0
 11
149.7770423894
 21
138.395397431
 31
0.0
 11
149.9765931852
 21
138.4450742184
 31
0.0
 11
150.1172760704
 21
138.4936937392
 31
0.0
 11
150.2026845575
 21
138.5422102467
 31
0.0
 11
150.2346557964
 21
138.5919196703
 31
0.0
 11
150.2112808786
 21
138.6431726838
 31
0.0
 11
150.179173001
 21
138.6708048715
 31
0.0
  0
SPLINE
  5
32E
100
AcDbEntity
  8
0
100
AcDbSpline
 62
7
  6
CONTINUOUS
 70
0
 71
3
 72
8
 73
4
 74
2
 42
0.0000001
 43
0.0000001
 44
0.0000000001
 12
-0.0335362429
 22
0.022446109
 32
0.0
 13
-0.0361221731
 23
0.0176057583
 33
0.0
 40
0.0
 40
0.0
 40
0.0
 40
0.0
 40
1.0
 40
1.0
 40
1.0
 40
1.0
 10
150.179173001
 20
138.6708048715
 30
0.0
 10
150.1679942533
 20
138.6782869078
 30
0.0
 10
150.1561935757
 20
138.6845919562
 30
0.0
 10
150.1441528514
 20
138.6904605423
 30
0.0
 11
150.179173001
 21
138.6708048715
 31
0.0
 11
150.1441528514
 21
138.6904605423
 31
0.0
  0
SPLINE
  5
32F
100
AcDbEntity
  8
0
100
AcDbSpline
 62
7
  6
CONTINUOUS
 70
0
 71
3
 72
20
 73
16
 74
14
 42
0.0000001
 43
0.0000001
 44
0.0000000001
 12
-2.846515587
 22
-0.3149369472
 32
0.0
 13
2.5293592589
 23
1.3389673342
 33
0.0
 40
0.0
 40
0.0
 40
0.0
 40
0.0
 40
0.1757515051
 40
0.3330322111
 40
0.4704014148
 40
0.5872031329
 40
0.6847133674
 40
0.7623342169
 40
0.8194370761
 40
0.8576375451
 40
0.8803315046
 40
0.8986773431
 40
0.9290588437
 40
0.9778825228
 40
1.0
 40
1.0
 40
1.0
 40
1.0
 10
147.7346923405
 20
95.0093649531
 30
0.0
 10
147.567932541
 20
94.9909147389
 30
0.0
 10
147.2516261361
 20
94.9586762896
 30
0.0
 10
146.8041282379
 20
94.9211258618
 30
0.0
 10
146.4120752434
 20
94.896090978
 30
0.0
 10
146.0766842256
 20
94.8827675411
 30
0.0
 10
145.7976224327
 20
94.8807697019
 30
0.0
 10
145.5768186447
 20
94.8888423693
 30
0.0
 10
145.4105241329
 20
94.9084083897
 30
0.0
 10
145.3049938803
 20
94.9340845007
 30
0.0
 10
145.2298266597
 20
94.9777062628
 30
0.0
 10
145.2421796851
 20
95.0557216856
 30
0.0
 10
145.3174472655
 20
95.1153292397
 30
0.0
 10
145.3977234038
 20
95.1679413499
 30
0.0
 10
145.4568651258
 20
95.2006193039
 30
0.0
 10
145.4755128077
 20
95.2104908304
 30
0.0
 11
147.7346923405
 21
95.0093649531
 31
0.0
 11
147.233940762
 21
94.9584628226
 31
0.0
 11
146.7850567137
 21
94.9211299489
 31
0.0
 11
146.3924161208
 21
94.8965441734
 31
0.0
 11
146.0581442657
 21
94.884012719
 31
0.0
 11
145.7788884323
 21
94.882892383
 31
0.0
 11
145.5568239616
 21
94.8930611509
 31
0.0
 11
145.3946496269
 21
94.914120881
 31
0.0
 11
145.2898255697
 21
94.9454363478
 31
0.0
 11
145.2397766796
 21
94.9868993901
 31
0.0
 11
145.2442327305
 21
95.0392504543
 31
0.0
 11
145.3034591645
 21
95.1029906783
 31
0.0
 11
145.4202730561
 21
95.179838941
 31
0.0
 11
145.4755128077
 21
95.2104908304
 31
0.0
  0
ENDSEC
  0
SECTION
  2
OBJECTS
  0
DICTIONARY
  5
C
100
AcDbDictionary
280
0
281
1
  3
ACAD_GROUP
350
D
  3
ACAD_MLINESTYLE
350
17
  3
ACAD_LAYOUT
350
1A
  3
ACAD_PLOTSETTINGS
350
19
  3
ACAD_PLOTSTYLENAME
350
E
  0
DICTIONARY
  5
D
102
{ACAD_REACTORS
330
C
102
}
100
AcDbDictionary
280
0
281
1
  0
ACDBDICTIONARYWDFLT
  5
E
102
{ACAD_REACTORS
330
C
102
}
100
AcDbDictionary
281
1
  3
Normal
350
F
100
AcDbDictionaryWithDefault
340
F
  0
DICTIONARY
  5
17
102
{ACAD_REACTORS
330
C
102
}
100
AcDbDictionary
280
0
281
1
  3
Standard
350
18
  0
DICTIONARY
  5
19
102
{ACAD_REACTORS
330
C
102
}
100
AcDbDictionary
281
1
  0
DICTIONARY
  5
1A
102
{ACAD_REACTORS
330
C
102
}
100
AcDbDictionary
281
1
  3
Model
350
330
  3
Layout1
350
331
  0
ACDBPLACEHOLDER
  5
F
102
{ACAD_REACTORS
330
E
102
}
  0
MLINESTYLE
  5
18
102
{ACAD_REACTORS
330
17
102
}
100
AcDbMlineStyle
  2
STANDARD
 70
0
  3

 62
256
 51
90.0
 52
90.0
 71
2
 49
0.5
 62
256
  6
BYLAYER
 49
-0.5
 62
256
  6
BYLAYER
  0
LAYOUT
  5
330
102
{ACAD_REACTORS
330
1A
102
}
100
AcDbPlotSettings
  1

  2
none_device
  4
ISO_A4_(297.00_x_210.00_MM)
  6

 40
0.0
 41
0.0
 42
0.0
 43
0.0
 44
297.0
 45
210.0
 46
0.0
 47
0.0
 48
0.0
 49
0.0
140
0.0
141
0.0
142
1.0
143
1.0
 70
1024
 72
1
 73
0
 74
0
  7

 75
0
147
1.0
148
0.0
149
0.0
100
AcDbLayout
  1
Model
 70
0
 71
0
 10
0.0
 20
0.0
 11
297.0
 21
210.0
 12
0.0
 22
0.0
 32
0.0
 14
0.0
 24
0.0
 34
0.0
 15
0.0
 25
0.0
 35
0.0
146
0.0
 13
0.0
 23
0.0
 33
0.0
 16
1.0
 26
0.0
 36
0.0
 17
0.0
 27
1.0
 37
0.0
 76
0
330
217
345
0
346
0
  0
LAYOUT
  5
331
102
{ACAD_REACTORS
330
1A
102
}
100
AcDbPlotSettings
  1

  2
none_device
  4
ISO_A4_(297.00_x_210.00_MM)
  6

 40
0.0
 41
0.0
 42
0.0
 43
0.0
 44
297.0
 45
210.0
 46
0.0
 47
0.0
 48
0.0
 49
0.0
140
0.0
141
0.0
142
1.0
143
1.0
 70
0
 72
1
 73
0
 74
0
  7

 75
0
147
1.0
148
0.0
149
0.0
100
AcDbLayout
  1
Layout1
 70
0
 71
1
 10
0.0
 20
0.0
 11
297.0
 21
210.0
 12
0.0
 22
0.0
 32
0.0
 14
0.0
 24
0.0
 34
0.0
 15
0.0
 25
0.0
 35
0.0
146
0.0
 13
0.0
 23
0.0
 33
0.0
 16
1.0
 26
0.0
 36
0.0
 17
0.0
 27
1.0
 37
0.0
 76
0
330
218
345
0
346
0
  0
ENDSEC
  0
EOF
