999
DXF file: 40-482-10-8.dxf
999
Pro/ENGINEER 2009220 by Parametric Technology Corporation
  0
SECTION
  2
HEADER
  9
$ACADVER
  1
AC1021
  9
$DWGCODEPAGE
  3
ANSI_1252
  9
$EXTMAX
 10
297.0
 20
210.0
 30
0.0
  9
$EXTMIN
 10
0.0
 20
0.0
 30
0.0
  9
$LIMMIN
 10
0.0
 20
0.0
  9
$LIMMAX
 10
297.0
 20
210.0
  9
$VIEWCTR
 10
148.5
 20
105.0
  9
$VIEWSIZE
 40
210.0
  9
$CLAYER
  8
0
  9
$LTSCALE
 40
16.335
  9
$CELTYPE
  6
BYLAYER
  9
$DIMSCALE
 40
1.0
  9
$DIMASZ
 40
3.5
  9
$DIMEXO
 40
1.85625
  9
$DIMDLI
 40
11.286
  9
$DIMEXE
 40
5.346
  9
$DIMCEN
 40
2.673
  9
$DIMLFAC
 40
1.0
  9
$DIMBLK
  1
_FILLED
  9
$DIMTXT
 40
3.5
  9
$DIMTOL
 70
1
  9
$DIMLIM
 70
0
  9
$DIMTFAC
 40
1.0
  9
$DIMTP
 40
0.005
  9
$DIMTM
 40
0.005
  9
$PDMODE
 70
3
  9
$PDSIZE
 40
0.3125
  9
$HANDSEED
  5
327
  9
$TILEMODE
 70
1
  9
$MEASUREMENT
 70
1
  9
$INSUNITS
 70
4
  0
ENDSEC
  0
SECTION
  2
CLASSES
  0
CLASS
  1
ACDBDICTIONARYWDFLT
  2
AcDbDictionaryWithDefault
  3
AutoCAD 2000
 90
0
 91
1
280
0
281
0
  0
CLASS
  1
ACDBPLACEHOLDER
  2
AcDbPlaceHolder
  3
AutoCAD 2000
 90
0
 91
1
280
0
281
0
  0
CLASS
  1
LAYOUT
  2
AcDbLayout
  3
AutoCAD 2000
 90
0
 91
0
280
0
281
0
  0
ENDSEC
  0
SECTION
  2
TABLES
  0
TABLE
  2
VPORT
  5
8
100
AcDbSymbolTable
 70
2
  0
VPORT
  5
1F4
100
AcDbSymbolTableRecord
100
AcDbViewportTableRecord
  2
*ACTIVE
 70
0
 10
0.0
 20
0.0
 11
1.0
 21
1.0
 12
148.5
 22
105.0
 13
0.0
 23
0.0
 14
1.0
 24
1.0
 15
0.0
 25
0.0
 16
0.0
 26
0.0
 36
1.0
 17
0.0
 27
0.0
 37
0.0
 40
210.0
 41
1.4142857143
 42
50.0
 43
0.0
 44
0.0
 50
0.0
 51
0.0
 71
0
 72
100
 73
1
 74
1
 75
0
 76
0
 77
0
 78
0
  0
ENDTAB
  0
TABLE
  2
LTYPE
  5
5
100
AcDbSymbolTable
 70
6
  0
LTYPE
  5
14
100
AcDbSymbolTableRecord
100
AcDbLinetypeTableRecord
  2
BYBLOCK
 70
0
  3

 72
65
 73
0
 40
0.0
  0
LTYPE
  5
15
100
AcDbSymbolTableRecord
100
AcDbLinetypeTableRecord
  2
BYLAYER
 70
0
  3

 72
65
 73
0
 40
0.0
  0
LTYPE
  5
16
100
AcDbSymbolTableRecord
100
AcDbLinetypeTableRecord
  2
CONTINUOUS
 70
64
  3
Solid line
 72
65
 73
0
 40
0.0
  0
LTYPE
  5
1F5
100
AcDbSymbolTableRecord
100
AcDbLinetypeTableRecord
  2
CENTER
 70
64
  3
____ _ ____ _ ____ _ ____ _ ____ _ ____ _ ____
 72
65
 73
4
 40
0.6
 49
0.375
 74
0
 49
-0.075
 74
0
 49
0.075
 74
0
 49
-0.075
 74
0
  0
LTYPE
  5
1F6
100
AcDbSymbolTableRecord
100
AcDbLinetypeTableRecord
  2
HIDDEN
 70
64
  3
- - - - - - - - - - - - - - - - - - - -
 72
65
 73
2
 40
0.2
 49
0.1
 74
0
 49
-0.1
 74
0
  0
LTYPE
  5
1F7
100
AcDbSymbolTableRecord
100
AcDbLinetypeTableRecord
  2
PHANTOM
 70
64
  3
_____ _ _ _____ _ _ _____ _ _ _____
 72
65
 73
6
 40
0.8
 49
0.45
 74
0
 49
-0.05
 74
0
 49
0.1
 74
0
 49
-0.05
 74
0
 49
0.1
 74
0
 49
-0.05
 74
0
  0
LTYPE
  5
1F8
100
AcDbSymbolTableRecord
100
AcDbLinetypeTableRecord
  2
DOT
 70
64
  3
. . . . . . . . . . . . . . . . . . . .
 72
65
 73
2
 40
0.2
 49
0.1
 74
0
 49
-0.1
 74
0
  0
LTYPE
  5
1F9
100
AcDbSymbolTableRecord
100
AcDbLinetypeTableRecord
  2
DASHED
 70
64
  3
- - - - - - - - - - - - - - - - - - - -
 72
65
 73
2
 40
0.2
 49
0.1
 74
0
 49
-0.1
 74
0
  0
ENDTAB
  0
TABLE
  2
LAYER
  5
2
100
AcDbSymbolTable
 70
36
  0
LAYER
  5
10
100
AcDbSymbolTableRecord
100
AcDbLayerTableRecord
  2
0
 70
0
 62
7
  6
CONTINUOUS
370
-3
390
F
  0
LAYER
  5
1FA
100
AcDbSymbolTableRecord
100
AcDbLayerTableRecord
  2
DEFAULT_1
 70
0
 62
7
  6
CENTER
370
-3
390
F
  0
LAYER
  5
1FB
100
AcDbSymbolTableRecord
100
AcDbLayerTableRecord
  2
DEFAULT_2
 70
0
 62
8
  6
HIDDEN
370
-3
390
F
  0
LAYER
  5
1FC
100
AcDbSymbolTableRecord
100
AcDbLayerTableRecord
  2
DEFAULT_3
 70
0
 62
7
  6
PHANTOM
370
-3
390
F
  0
LAYER
  5
1FD
100
AcDbSymbolTableRecord
100
AcDbLayerTableRecord
  2
ANALYSEN
 70
0
 62
7
  6
CONTINUOUS
370
-3
390
F
  0
LAYER
  5
1FE
100
AcDbSymbolTableRecord
100
AcDbLayerTableRecord
  2
AUSSENKONTUR
 70
0
 62
7
  6
CONTINUOUS
370
-3
390
F
  0
LAYER
  5
1FF
100
AcDbSymbolTableRecord
100
AcDbLayerTableRecord
  2
BEZUGSACHSEN
 70
0
 62
7
  6
CONTINUOUS
370
-3
390
F
  0
LAYER
  5
200
100
AcDbSymbolTableRecord
100
AcDbLayerTableRecord
  2
BEZUGSACHSENKENNZEICHEN
 70
0
 62
7
  6
CONTINUOUS
370
-3
390
F
  0
LAYER
  5
201
100
AcDbSymbolTableRecord
100
AcDbLayerTableRecord
  2
BEZUGSEBENEN
 70
0
 62
7
  6
CONTINUOUS
370
-3
390
F
  0
LAYER
  5
202
100
AcDbSymbolTableRecord
100
AcDbLayerTableRecord
  2
BEZUGSPUNKTE
 70
0
 62
7
  6
CONTINUOUS
370
-3
390
F
  0
LAYER
  5
203
100
AcDbSymbolTableRecord
100
AcDbLayerTableRecord
  2
BOHRUNGEN
 70
0
 62
7
  6
CONTINUOUS
370
-3
390
F
  0
LAYER
  5
204
100
AcDbSymbolTableRecord
100
AcDbLayerTableRecord
  2
FASEN
 70
0
 62
7
  6
CONTINUOUS
370
-3
390
F
  0
LAYER
  5
205
100
AcDbSymbolTableRecord
100
AcDbLayerTableRecord
  2
FLAECHEN
 70
0
 62
7
  6
CONTINUOUS
370
-3
390
F
  0
LAYER
  5
206
100
AcDbSymbolTableRecord
100
AcDbLayerTableRecord
  2
GEWINDE
 70
0
 62
7
  6
CONTINUOUS
370
-3
390
F
  0
LAYER
  5
207
100
AcDbSymbolTableRecord
100
AcDbLayerTableRecord
  2
HILFEN
 70
0
 62
7
  6
CONTINUOUS
370
-3
390
F
  0
LAYER
  5
208
100
AcDbSymbolTableRecord
100
AcDbLayerTableRecord
  2
INNENKONTUR
 70
0
 62
7
  6
CONTINUOUS
370
-3
390
F
  0
LAYER
  5
209
100
AcDbSymbolTableRecord
100
AcDbLayerTableRecord
  2
KURVEN
 70
0
 62
7
  6
CONTINUOUS
370
-3
390
F
  0
LAYER
  5
20A
100
AcDbSymbolTableRecord
100
AcDbLayerTableRecord
  2
MAKINO
 70
0
 62
7
  6
CONTINUOUS
370
-3
390
F
  0
LAYER
  5
20B
100
AcDbSymbolTableRecord
100
AcDbLayerTableRecord
  2
OELVERDR_RILLE
 70
0
 62
7
  6
CONTINUOUS
370
-3
390
F
  0
LAYER
  5
20C
100
AcDbSymbolTableRecord
100
AcDbLayerTableRecord
  2
PLATZIERUNG
 70
0
 62
7
  6
CONTINUOUS
370
-3
390
F
  0
LAYER
  5
20D
100
AcDbSymbolTableRecord
100
AcDbLayerTableRecord
  2
PUNKTE
 70
0
 62
7
  6
CONTINUOUS
370
-3
390
F
  0
LAYER
  5
20E
100
AcDbSymbolTableRecord
100
AcDbLayerTableRecord
  2
RUNDUNGEN
 70
0
 62
7
  6
CONTINUOUS
370
-3
390
F
  0
LAYER
  5
20F
100
AcDbSymbolTableRecord
100
AcDbLayerTableRecord
  2
TEIL_STARTBEZUEGE
 70
0
 62
7
  6
CONTINUOUS
370
-3
390
F
  0
LAYER
  5
210
100
AcDbSymbolTableRecord
100
AcDbLayerTableRecord
  2
VERERBUNG
 70
0
 62
7
  6
CONTINUOUS
370
-3
390
F
  0
LAYER
  5
211
100
AcDbSymbolTableRecord
100
AcDbLayerTableRecord
  2
VOLUMEN
 70
0
 62
7
  6
CONTINUOUS
370
-3
390
F
  0
LAYER
  5
212
100
AcDbSymbolTableRecord
100
AcDbLayerTableRecord
  2
ZEICHNUNG
 70
0
 62
7
  6
CONTINUOUS
370
-3
390
F
  0
LAYER
  5
213
100
AcDbSymbolTableRecord
100
AcDbLayerTableRecord
  2
ZEICHNUNGSBEMASSUNGEN
 70
0
 62
7
  6
CONTINUOUS
370
-3
390
F
  0
ENDTAB
  0
TABLE
  2
STYLE
  5
3
100
AcDbSymbolTable
 70
1
  0
STYLE
  5
11
100
AcDbSymbolTableRecord
100
AcDbTextStyleTableRecord
  2
STANDARD
 70
0
 40
0.0
 41
0.7
 50
0.0
 71
0
 42
0.2
  3
txt
  4

  0
STYLE
  5
214
100
AcDbSymbolTableRecord
100
AcDbTextStyleTableRecord
  2
TEXTSTYLE_1
 70
0
 40
0.0
 41
0.8
 50
0.0
 71
0
 42
0.2
  3
gdt
  4

  0
STYLE
  5
215
100
AcDbSymbolTableRecord
100
AcDbTextStyleTableRecord
  2
TEXTSTYLE_2
 70
0
 40
0.0
 41
0.7
 50
0.0
 71
0
 42
0.2
  3
gdt
  4

  0
ENDTAB
  0
TABLE
  2
VIEW
  5
6
100
AcDbSymbolTable
 70
0
  0
ENDTAB
  0
TABLE
  2
UCS
  5
7
100
AcDbSymbolTable
 70
0
  0
ENDTAB
  0
TABLE
  2
APPID
  5
9
100
AcDbSymbolTable
 70
1
  0
APPID
  5
216
100
AcDbSymbolTableRecord
100
AcDbRegAppTableRecord
  2
ACAD
 70
0
  0
ENDTAB
  0
TABLE
  2
BLOCK_RECORD
  5
1
100
AcDbSymbolTable
 70
0
  0
BLOCK_RECORD
  5
217
100
AcDbSymbolTableRecord
100
AcDbBlockTableRecord
  2
*Model_Space
  0
BLOCK_RECORD
  5
218
100
AcDbSymbolTableRecord
100
AcDbBlockTableRecord
  2
*Paper_Space
  0
BLOCK_RECORD
  5
219
100
AcDbSymbolTableRecord
100
AcDbBlockTableRecord
  2
_FILLED
  0
BLOCK_RECORD
  5
21A
100
AcDbSymbolTableRecord
100
AcDbBlockTableRecord
  2
*D0
  0
BLOCK_RECORD
  5
21B
100
AcDbSymbolTableRecord
100
AcDbBlockTableRecord
  2
*D1
  0
BLOCK_RECORD
  5
21C
100
AcDbSymbolTableRecord
100
AcDbBlockTableRecord
  2
*D2
  0
BLOCK_RECORD
  5
21D
100
AcDbSymbolTableRecord
100
AcDbBlockTableRecord
  2
*D3
  0
BLOCK_RECORD
  5
21E
100
AcDbSymbolTableRecord
100
AcDbBlockTableRecord
  2
*D4
  0
BLOCK_RECORD
  5
21F
100
AcDbSymbolTableRecord
100
AcDbBlockTableRecord
  2
*D5
  0
ENDTAB
  0
TABLE
  2
DIMSTYLE
  5
A
100
AcDbSymbolTable
 70
1
100
AcDbDimStyleTable
 71
0
  0
DIMSTYLE
105
220
100
AcDbSymbolTableRecord
100
AcDbDimStyleTableRecord
  2
STANDARD
 70
0
  3

  4

 40
1.0
 41
3.5
 42
0.0625
 43
0.38
 44
0.18
 45
0.0
 46
0.0
 47
0.005
 48
0.005
140
3.5
141
0.09
142
0.0
143
25.4
144
1.0
145
0.0
146
1.0
147
0.09
 71
1.0
 72
0.0
 73
0
 74
0
 75
0
 76
0
 77
1
 78
8
170
0
171
2
172
0
173
0
174
0
175
0
176
0
177
0
178
5
270
2
271
3
272
3
273
2
274
2
275
0
280
0
281
0
282
0
283
1
284
8
285
0
286
0
287
3
288
0
340
11
341
219
342
219
343
219
344
219
  0
DIMSTYLE
105
221
100
AcDbSymbolTableRecord
100
AcDbDimStyleTableRecord
  2
DIMSTYLE_1
 70
0
  3

  4

 40
1.0
 41
3.5
 42
0.0625
 43
0.38
 44
0.18
 45
0.0
 46
0.0
 47
0.5
 48
0.5
140
3.5
141
0.09
142
0.0
143
25.4
144
1.0
145
0.0
146
1.0
147
0.09
 71
0.0
 72
0.0
 73
0
 74
0
 75
0
 76
0
 77
1
 78
8
170
0
171
2
172
0
173
0
174
0
175
0
176
0
177
0
178
5
270
2
271
3
272
3
273
2
274
2
275
0
280
0
281
0
282
0
283
1
284
8
285
0
286
0
287
3
288
0
340
11
341
219
342
219
343
219
344
219
  0
DIMSTYLE
105
222
100
AcDbSymbolTableRecord
100
AcDbDimStyleTableRecord
  2
DIMSTYLE_2
 70
0
  3

  4

 40
1.0
 41
3.5
 42
0.0625
 43
0.38
 44
0.18
 45
0.0
 46
0.0
 47
0.5
 48
0.5
140
3.5
141
0.09
142
0.0
143
25.4
144
1.0
145
0.0
146
1.0
147
0.09
 71
0.0
 72
0.0
 73
0
 74
0
 75
0
 76
0
 77
1
 78
8
170
0
171
2
172
0
173
0
174
0
175
0
176
0
177
0
178
5
270
2
271
2
272
2
273
2
274
2
275
0
280
0
281
0
282
0
283
1
284
8
285
0
286
0
287
3
288
0
340
11
341
219
342
219
343
219
344
219
  0
DIMSTYLE
105
223
100
AcDbSymbolTableRecord
100
AcDbDimStyleTableRecord
  2
DIMSTYLE_3
 70
0
  3

  4

 40
1.0
 41
3.5
 42
0.0625
 43
0.38
 44
0.18
 45
0.0
 46
0.0
 47
0.1
 48
0.0
140
3.5
141
0.09
142
0.0
143
25.4
144
1.0
145
0.0
146
1.0
147
0.09
 71
0.0
 72
0.0
 73
0
 74
0
 75
0
 76
0
 77
1
 78
8
170
0
171
2
172
0
173
0
174
0
175
0
176
0
177
0
178
5
270
2
271
2
272
2
273
2
274
2
275
0
280
0
281
0
282
0
283
1
284
8
285
0
286
0
287
3
288
0
340
11
341
219
342
219
343
219
344
219
  0
DIMSTYLE
105
224
100
AcDbSymbolTableRecord
100
AcDbDimStyleTableRecord
  2
DIMSTYLE_4
 70
0
  3

  4

 40
1.0
 41
3.5
 42
0.0625
 43
0.38
 44
0.18
 45
0.0
 46
0.0
 47
0.0
 48
0.0
140
3.5
141
0.09
142
0.0
143
25.4
144
1.0
145
0.0
146
1.0
147
0.09
 71
0.0
 72
0.0
 73
0
 74
0
 75
0
 76
0
 77
1
 78
8
170
0
171
2
172
0
173
0
174
0
175
0
176
0
177
0
178
5
270
2
271
0
272
0
273
2
274
2
275
0
280
0
281
0
282
0
283
1
284
8
285
0
286
0
287
3
288
0
340
11
341
219
342
219
343
219
344
219
  0
DIMSTYLE
105
225
100
AcDbSymbolTableRecord
100
AcDbDimStyleTableRecord
  2
DIMSTYLE_5
 70
0
  3

  4

 40
1.0
 41
3.5
 42
0.0625
 43
0.38
 44
0.18
 45
0.0
 46
0.0
 47
0.2
 48
0.2
140
3.5
141
0.09
142
0.0
143
25.4
144
1.0
145
0.0
146
1.0
147
0.09
 71
0.0
 72
0.0
 73
0
 74
0
 75
0
 76
0
 77
1
 78
8
170
0
171
2
172
0
173
0
174
0
175
0
176
0
177
0
178
5
270
2
271
2
272
2
273
2
274
2
275
0
280
0
281
0
282
0
283
1
284
8
285
0
286
0
287
3
288
0
340
11
341
219
342
219
343
219
344
219
  0
ENDTAB
  0
ENDSEC
  0
SECTION
  2
BLOCKS
  0
BLOCK
  5
20
100
AcDbEntity
  8
0
100
AcDbBlockBegin
  2
*Model_Space
 70
0
 10
0.0
 20
0.0
 30
0.0
  3
*Model_Space
  1

  0
ENDBLK
  5
21
100
AcDbEntity
  8
0
100
AcDbBlockEnd
  0
BLOCK
  5
1C
100
AcDbEntity
  8
0
100
AcDbBlockBegin
  2
*Paper_Space
 70
0
 10
0.0
 20
0.0
 30
0.0
  3
*Paper_Space
  1

  0
ENDBLK
  5
1D
100
AcDbEntity
  8
0
100
AcDbBlockEnd
  0
BLOCK
  5
226
100
AcDbEntity
  8
0
100
AcDbBlockBegin
  2
_FILLED
 70
64
 10
0.0
 20
0.0
  3
_FILLED
  1

  0
SOLID
  5
227
100
AcDbEntity
  8
0
  6
BYBLOCK
 62
0
100
AcDbTrace
 10
0.0
 20
0.0
 11
-1.0
 21
0.125
 12
-1.0
 22
-0.125
 13
-1.0
 23
-0.125
  0
ENDBLK
  5
228
100
AcDbEntity
  8
0
  6
BYBLOCK
 62
0
100
AcDbBlockEnd
  0
BLOCK
  5
229
100
AcDbEntity
  8
0
100
AcDbBlockBegin
 62
2
  6
CONTINUOUS
  2
*D0
 70
65
 10
0.0
 20
0.0
  3
*D0
  1

  0
MTEXT
  5
22A
100
AcDbEntity
  8
0
100
AcDbMText
 62
5
  6
CONTINUOUS
  7
STANDARD
 71
2
 72
1
 10
187.8745826948
 20
169.096367658
 30
0.0
 11
1.0
 21
0.0
 31
0.0
 44
0.9
  1
160
 40
3.5
 41
8.490234375
  0
LINE
  5
22B
100
AcDbEntity
  8
0
100
AcDbLine
 62
2
  6
CONTINUOUS
 10
256.1257968972
 20
116.4083301567
 11
256.1257968972
 21
166.221367658
  0
LINE
  5
22C
100
AcDbEntity
  8
0
100
AcDbLine
 62
2
  6
CONTINUOUS
 10
96.1257968972
 20
148.9716342579
 11
96.1257968972
 21
166.221367658
  0
LINE
  5
22D
100
AcDbEntity
  8
0
100
AcDbLine
 62
2
  6
CONTINUOUS
 10
256.1257968972
 20
164.721367658
 11
176.1257968972
 21
164.721367658
  0
LINE
  5
22E
100
AcDbEntity
  8
0
100
AcDbLine
 62
2
  6
CONTINUOUS
 10
96.1257968972
 20
164.721367658
 11
176.1257968972
 21
164.721367658
  0
INSERT
  5
22F
100
AcDbEntity
  8
0
100
AcDbBlockReference
 62
2
  6
CONTINUOUS
  2
_FILLED
 10
256.1257968972
 20
164.721367658
 41
3.5
 42
3.5
 43
3.5
  0
INSERT
  5
230
100
AcDbEntity
  8
0
100
AcDbBlockReference
 62
2
  6
CONTINUOUS
  2
_FILLED
 10
96.1257968972
 20
164.721367658
 41
3.5
 42
3.5
 43
3.5
 50
180.0
  0
ENDBLK
  5
231
100
AcDbEntity
  8
0
  6
BYBLOCK
 62
0
100
AcDbBlockEnd
  0
BLOCK
  5
232
100
AcDbEntity
  8
0
100
AcDbBlockBegin
 62
2
  6
CONTINUOUS
  2
*D1
 70
65
 10
0.0
 20
0.0
  3
*D1
  1

  0
MTEXT
  5
233
100
AcDbEntity
  8
0
100
AcDbMText
 62
5
  6
CONTINUOUS
  7
STANDARD
 71
2
 72
1
 10
163.6203666019
 20
175.7759490298
 30
0.0
 11
1.0
 21
0.0
 31
0.0
 44
0.9
  1
228.4
 40
3.5
 41
12.7421875
  0
LINE
  5
234
100
AcDbEntity
  8
0
100
AcDbLine
 62
2
  6
CONTINUOUS
 10
27.7257968972
 20
129.7073129789
 11
27.7257968972
 21
172.9009490298
  0
LINE
  5
235
100
AcDbEntity
  8
0
100
AcDbLine
 62
2
  6
CONTINUOUS
 10
256.1257968972
 20
118.9083301567
 11
256.1257968972
 21
172.9009490298
  0
LINE
  5
236
100
AcDbEntity
  8
0
100
AcDbLine
 62
2
  6
CONTINUOUS
 10
27.7257968972
 20
171.4009490298
 11
141.9257968972
 21
171.4009490298
  0
LINE
  5
237
100
AcDbEntity
  8
0
100
AcDbLine
 62
2
  6
CONTINUOUS
 10
256.1257968972
 20
171.4009490298
 11
141.9257968972
 21
171.4009490298
  0
INSERT
  5
238
100
AcDbEntity
  8
0
100
AcDbBlockReference
 62
2
  6
CONTINUOUS
  2
_FILLED
 10
27.7257968972
 20
171.4009490298
 41
3.5
 42
3.5
 43
3.5
 50
180.0
  0
INSERT
  5
239
100
AcDbEntity
  8
0
100
AcDbBlockReference
 62
2
  6
CONTINUOUS
  2
_FILLED
 10
256.1257968972
 20
171.4009490298
 41
3.5
 42
3.5
 43
3.5
  0
ENDBLK
  5
23A
100
AcDbEntity
  8
0
  6
BYBLOCK
 62
0
100
AcDbBlockEnd
  0
BLOCK
  5
23B
100
AcDbEntity
  8
0
100
AcDbBlockBegin
 62
2
  6
CONTINUOUS
  2
*D2
 70
65
 10
0.0
 20
0.0
  3
*D2
  1

  0
MTEXT
  5
23C
100
AcDbEntity
  8
0
100
AcDbMText
 62
5
  6
CONTINUOUS
  7
STANDARD
 71
2
 72
1
 10
195.2667264648
 20
161.6715704875
 30
0.0
 11
1.0
 21
0.0
 31
0.0
 44
0.9
  1
140.9
 40
3.5
 41
12.7421875
  0
LINE
  5
23D
100
AcDbEntity
  8
0
100
AcDbLine
 62
2
  6
CONTINUOUS
 10
256.1257968972
 20
118.9083301567
 11
256.1257968972
 21
158.7965704875
  0
LINE
  5
23E
100
AcDbEntity
  8
0
100
AcDbLine
 62
2
  6
CONTINUOUS
 10
115.2257968972
 20
148.9716342579
 11
115.2257968972
 21
158.7965704875
  0
LINE
  5
23F
100
AcDbEntity
  8
0
100
AcDbLine
 62
2
  6
CONTINUOUS
 10
256.1257968972
 20
157.2965704875
 11
185.6757968972
 21
157.2965704875
  0
LINE
  5
240
100
AcDbEntity
  8
0
100
AcDbLine
 62
2
  6
CONTINUOUS
 10
115.2257968972
 20
157.2965704875
 11
185.6757968972
 21
157.2965704875
  0
INSERT
  5
241
100
AcDbEntity
  8
0
100
AcDbBlockReference
 62
2
  6
CONTINUOUS
  2
_FILLED
 10
256.1257968972
 20
157.2965704875
 41
3.5
 42
3.5
 43
3.5
  0
INSERT
  5
242
100
AcDbEntity
  8
0
100
AcDbBlockReference
 62
2
  6
CONTINUOUS
  2
_FILLED
 10
115.2257968972
 20
157.2965704875
 41
3.5
 42
3.5
 43
3.5
 50
180.0
  0
ENDBLK
  5
243
100
AcDbEntity
  8
0
  6
BYBLOCK
 62
0
100
AcDbBlockEnd
  0
BLOCK
  5
244
100
AcDbEntity
  8
0
100
AcDbBlockBegin
 62
2
  6
CONTINUOUS
  2
*D3
 70
65
 10
0.0
 20
0.0
  3
*D3
  1

  0
MTEXT
  5
245
100
AcDbEntity
  8
0
100
AcDbMText
 62
5
  6
CONTINUOUS
  7
TEXTSTYLE_2
 71
2
 72
1
 10
273.7046725807
 20
118.9083301567
 30
0.0
 11
0.0
 21
1.0
 31
0.0
 44
0.9
  1
{\Fgdt;n}\Ftxt;16
 40
3.5
 41
10.3268229167
  0
LINE
  5
246
100
AcDbEntity
  8
0
100
AcDbLine
 62
2
  6
CONTINUOUS
 10
256.1257968972
 20
110.9083301567
 11
279.5796725807
 21
110.9083301567
  0
LINE
  5
247
100
AcDbEntity
  8
0
100
AcDbLine
 62
2
  6
CONTINUOUS
 10
256.1257968972
 20
126.9083301567
 11
279.5796725807
 21
126.9083301567
  0
LINE
  5
248
100
AcDbEntity
  8
0
100
AcDbLine
 62
2
  6
CONTINUOUS
 10
278.0796725807
 20
110.9083301567
 11
278.0796725807
 21
118.9083301567
  0
LINE
  5
249
100
AcDbEntity
  8
0
100
AcDbLine
 62
2
  6
CONTINUOUS
 10
278.0796725807
 20
126.9083301567
 11
278.0796725807
 21
118.9083301567
  0
INSERT
  5
24A
100
AcDbEntity
  8
0
100
AcDbBlockReference
 62
2
  6
CONTINUOUS
  2
_FILLED
 10
278.0796725807
 20
110.9083301567
 41
3.5
 42
3.5
 43
3.5
 50
270.0
  0
INSERT
  5
24B
100
AcDbEntity
  8
0
100
AcDbBlockReference
 62
2
  6
CONTINUOUS
  2
_FILLED
 10
278.0796725807
 20
126.9083301567
 41
3.5
 42
3.5
 43
3.5
 50
90.0
  0
ENDBLK
  5
24C
100
AcDbEntity
  8
0
  6
BYBLOCK
 62
0
100
AcDbBlockEnd
  0
BLOCK
  5
24D
100
AcDbEntity
  8
0
100
AcDbBlockBegin
 62
2
  6
CONTINUOUS
  2
*D4
 70
65
 10
0.0
 20
0.0
  3
*D4
  1

  0
MTEXT
  5
24E
100
AcDbEntity
  8
0
100
AcDbMText
 62
5
  6
CONTINUOUS
  7
STANDARD
 71
2
 72
1
 10
187.1630085062
 20
138.543851238
 30
0.0
 11
0.0882574399
 21
0.9960976982
 31
0.0
 44
0.9
  1
3\Fgdt;{\Fgdt;~}
 40
3.5
 41
5.1634114583
  0
LINE
  5
24F
100
AcDbEntity
  8
0
100
AcDbLine
 62
2
  6
CONTINUOUS
 10
240.6632278937
 20
127.7186890602
 11
192.0921877762
 21
130.2641894102
  0
LINE
  5
250
100
AcDbEntity
  8
0
100
AcDbLine
 62
2
  6
CONTINUOUS
 10
242.303000514
 20
118.9083301567
 11
191.7948241364
 21
118.9083301567
  0
ARC
  5
251
100
AcDbEntity
  8
0
100
AcDbCircle
 62
2
  6
CONTINUOUS
 10
408.7748903991
 20
118.9083301567
 40
215.4800662627
100
AcDbArc
 50
174.9366332052
 51
177.0
  0
ARC
  5
252
100
AcDbEntity
  8
0
100
AcDbCircle
 62
2
  6
CONTINUOUS
 10
408.7748903991
 20
118.9083301567
 40
215.4800662627
100
AcDbArc
 50
180.0
 51
181.5953896945
  0
ARC
  5
253
100
AcDbEntity
  8
0
100
AcDbCircle
 62
2
  6
CONTINUOUS
 10
408.7748903991
 20
118.9083301567
 40
215.4800662627
100
AcDbArc
 50
177.0
 51
180.0
  0
SOLID
  5
254
100
AcDbEntity
  8
0
100
AcDbTrace
 62
2
  6
CONTINUOUS
 10
193.3649874604
 20
133.7057303834
 11
193.5901320783
 21
130.1856854758
 12
194.2383875797
 22
133.6528415229
 13
194.2383875797
 23
133.6528415229
  0
SOLID
  5
255
100
AcDbEntity
  8
0
100
AcDbTrace
 62
2
  6
CONTINUOUS
 10
193.760734299
 20
115.4119986549
 11
193.2948241364
 21
118.9083301567
 12
192.8857631551
 22
115.4048925073
 13
192.8857631551
 23
115.4048925073
  0
ENDBLK
  5
256
100
AcDbEntity
  8
0
  6
BYBLOCK
 62
0
100
AcDbBlockEnd
  0
BLOCK
  5
257
100
AcDbEntity
  8
0
100
AcDbBlockBegin
 62
2
  6
CONTINUOUS
  2
*D5
 70
65
 10
0.0
 20
0.0
  3
*D5
  1

  0
MTEXT
  5
258
100
AcDbEntity
  8
0
100
AcDbMText
 62
5
  6
CONTINUOUS
  7
TEXTSTYLE_2
 71
2
 72
1
 10
264.5963798001
 20
118.9083301567
 30
0.0
 11
0.0
 21
1.0
 31
0.0
 44
0.9
  1
{\Fgdt;n}\Ftxt;10
 40
3.5
 41
10.3268229167
  0
LINE
  5
259
100
AcDbEntity
  8
0
100
AcDbLine
 62
2
  6
CONTINUOUS
 10
256.1257968972
 20
113.9083301567
 11
270.4713798001
 21
113.9083301567
  0
LINE
  5
25A
100
AcDbEntity
  8
0
100
AcDbLine
 62
2
  6
CONTINUOUS
 10
256.1257968972
 20
123.9083301567
 11
270.4713798001
 21
123.9083301567
  0
LINE
  5
25B
100
AcDbEntity
  8
0
100
AcDbLine
 62
2
  6
CONTINUOUS
 10
268.9713798001
 20
113.9083301567
 11
268.9713798001
 21
118.9083301567
  0
LINE
  5
25C
100
AcDbEntity
  8
0
100
AcDbLine
 62
2
  6
CONTINUOUS
 10
268.9713798001
 20
123.9083301567
 11
268.9713798001
 21
118.9083301567
  0
INSERT
  5
25D
100
AcDbEntity
  8
0
100
AcDbBlockReference
 62
2
  6
CONTINUOUS
  2
_FILLED
 10
268.9713798001
 20
113.9083301567
 41
3.5
 42
3.5
 43
3.5
 50
270.0
  0
INSERT
  5
25E
100
AcDbEntity
  8
0
100
AcDbBlockReference
 62
2
  6
CONTINUOUS
  2
_FILLED
 10
268.9713798001
 20
123.9083301567
 41
3.5
 42
3.5
 43
3.5
 50
90.0
  0
ENDBLK
  5
25F
100
AcDbEntity
  8
0
  6
BYBLOCK
 62
0
100
AcDbBlockEnd
  0
ENDSEC
  0
SECTION
  2
ENTITIES
  0
DIMENSION
  5
260
100
AcDbEntity
  8
0
100
AcDbDimension
 62
2
  6
CONTINUOUS
  2
*D0
 10
96.1257968972
 20
164.721367658
 11
183.6294655073
 21
167.346367658
 70
160
 71
2
 42
160.0
  3
DIMSTYLE_1
100
AcDbAlignedDimension
 13
256.1257968972
 23
116.4083301567
 14
96.1257968972
 24
148.9716342579
 50
180.0
100
AcDbRotatedDimension
  0
DIMENSION
  5
261
100
AcDbEntity
  8
0
100
AcDbDimension
 62
2
  6
CONTINUOUS
  2
*D1
 10
256.1257968972
 20
171.4009490298
 11
157.2492728519
 21
174.0259490298
 70
160
 71
2
 42
228.4
  3
DIMSTYLE_2
100
AcDbAlignedDimension
 13
27.7257968972
 23
129.7073129789
 14
256.1257968972
 24
118.9083301567
100
AcDbRotatedDimension
  0
DIMENSION
  5
262
100
AcDbEntity
  8
0
100
AcDbDimension
 62
2
  6
CONTINUOUS
  2
*D2
 10
115.2257968972
 20
157.2965704875
 11
188.8956327148
 21
159.9215704875
 70
160
 71
2
 42
140.9
  3
DIMSTYLE_2
100
AcDbAlignedDimension
 13
256.1257968972
 23
118.9083301567
 14
115.2257968972
 24
148.9716342579
 50
180.0
100
AcDbRotatedDimension
  0
DIMENSION
  5
263
100
AcDbEntity
  8
0
100
AcDbDimension
 62
2
  6
CONTINUOUS
  2
*D3
 10
278.0796725807
 20
126.9083301567
 11
276.6114668026
 21
116.6002938484
 70
160
 71
2
 42
16.0
  1
%%c<>
  3
DIMSTYLE_3
100
AcDbAlignedDimension
 13
256.1257968972
 23
110.9083301567
 14
256.1257968972
 24
126.9083301567
 50
90.0
100
AcDbRotatedDimension
  0
DIMENSION
  5
264
100
AcDbEntity
  8
0
100
AcDbDimension
 62
2
  6
CONTINUOUS
  2
*D4
 10
191.7948241364
 20
118.9083301567
 11
190.2091257681
 21
138.5357668822
 70
162
 71
2
 42
0.0523598776
  3
DIMSTYLE_4
100
AcDb2LineAngularDimension
 13
192.0921877762
 23
130.2641894102
 14
240.6632278937
 24
127.7186890602
 15
242.303000514
 25
118.9083301567
 16
193.3686637734
 26
124.5489407126
  0
DIMENSION
  5
265
100
AcDbEntity
  8
0
100
AcDbDimension
 62
2
  6
CONTINUOUS
  2
*D5
 10
268.9713798001
 20
123.9083301567
 11
267.5031740219
 21
116.6002938484
 70
160
 71
2
 42
10.0
  1
%%c<>
  3
DIMSTYLE_5
100
AcDbAlignedDimension
 13
256.1257968972
 23
113.9083301567
 14
256.1257968972
 24
123.9083301567
 50
90.0
100
AcDbRotatedDimension
  0
MTEXT
  5
266
100
AcDbEntity
  8
0
100
AcDbMText
 62
5
  6
CONTINUOUS
  7
STANDARD
 71
1
 72
1
 10
10.6583482328
 20
86.517727131
 30
0.0
 11
1.0
 21
0.0
 31
0.0
 44
0.9
  3
Für diese Unterlage behalten wir das Ur-\Pheberrecht. Sie darf nur für den von uns \Pbestimmten Zweck benutzt und ohne unsere \PZustimmung weder vervielfältigt noch\PDritten zugänglich gemacht werden\P \PWe own the copyright of this document. It \Pde
  1
termined and may neither be copied or \Pmade accessible to outsiders without our\Ppermission.\P \PCe plan reste notre propriété. Il ne peut\Pêtre utilisé, copié ou reproduit sans notre\Paccord.\P 
 40
3.5
 41
99.162109375
  0
LINE
  5
267
100
AcDbEntity
  8
0
100
AcDbLine
 62
7
  6
CONTINUOUS
 10
0.0
 20
0.0
 11
0.0
 21
210.0
  0
LINE
  5
268
100
AcDbEntity
  8
0
100
AcDbLine
 62
7
  6
CONTINUOUS
 10
0.0
 20
0.0
 11
297.0
 21
0.0
  0
LINE
  5
269
100
AcDbEntity
  8
0
100
AcDbLine
 62
7
  6
CONTINUOUS
 10
0.0
 20
210.0
 11
297.0
 21
210.0
  0
LINE
  5
26A
100
AcDbEntity
  8
0
100
AcDbLine
 62
7
  6
CONTINUOUS
 10
297.0
 20
0.0
 11
297.0
 21
210.0
  0
LINE
  5
26B
100
AcDbEntity
  8
BEZUGSACHSEN
100
AcDbLine
 62
7
  6
CONTINUOUS
 10
27.7257968972
 20
129.4280308312
 11
27.7257968972
 21
108.3886294822
  0
LINE
  5
26C
100
AcDbEntity
  8
BEZUGSACHSEN
100
AcDbLine
 62
9
  6
CONTINUOUS
 10
29.4371595589
 20
131.4070933585
 11
29.4371595589
 21
106.4095669549
  0
LINE
  5
26D
100
AcDbEntity
  8
BEZUGSACHSEN
100
AcDbLine
 62
7
  6
CONTINUOUS
 10
95.6684916348
 20
141.0666342479
 11
95.6684916348
 21
96.7500260655
  0
LINE
  5
26E
100
AcDbEntity
  8
BEZUGSACHSEN
100
AcDbLine
 62
7
  6
CENTER
 10
96.1257968972
 20
89.5404809732
 11
96.1257968972
 21
145.0022806233
  0
LINE
  5
26F
100
AcDbEntity
  8
BEZUGSACHSEN
100
AcDbLine
 62
7
  6
CONTINUOUS
 10
96.7257968972
 20
140.7833301567
 11
96.7257968972
 21
97.0333301567
  0
LINE
  5
270
100
AcDbEntity
  8
BEZUGSACHSEN
100
AcDbLine
 62
9
  6
CONTINUOUS
 10
98.3757968972
 20
140.7833301567
 11
98.3757968972
 21
97.0333301567
  0
LINE
  5
271
100
AcDbEntity
  8
BEZUGSACHSEN
100
AcDbLine
 62
7
  6
CONTINUOUS
 10
99.3757968972
 20
149.6699195012
 11
99.3757968972
 21
127.1083301567
  0
LINE
  5
272
100
AcDbEntity
  8
BEZUGSACHSEN
100
AcDbLine
 62
7
  6
CONTINUOUS
 10
99.3757968972
 20
110.7083301567
 11
99.3757968972
 21
100.4083301567
  0
LINE
  5
273
100
AcDbEntity
  8
BEZUGSACHSEN
100
AcDbLine
 62
7
  6
CONTINUOUS
 10
99.3757968972
 20
94.3146190703
 11
99.3757968972
 21
88.1674024039
  0
LINE
  5
274
100
AcDbEntity
  8
0
100
AcDbLine
 62
7
  6
CONTINUOUS
 10
99.3757968972
 20
88.13334553
 11
99.3757968972
 21
94.3146190703
  0
LINE
  5
275
100
AcDbEntity
  8
FASEN
100
AcDbLine
 62
7
  6
CONTINUOUS
 10
99.3757968972
 20
94.3146190703
 11
99.3757968972
 21
100.4083301567
  0
LINE
  5
276
100
AcDbEntity
  8
0
100
AcDbLine
 62
7
  6
CONTINUOUS
 10
99.3757968972
 20
100.4083301567
 11
99.3757968972
 21
110.7083301567
  0
LINE
  5
277
100
AcDbEntity
  8
FASEN
100
AcDbLine
 62
7
  6
CONTINUOUS
 10
99.3757968972
 20
110.7083301567
 11
99.3757968972
 21
127.1083301567
  0
LINE
  5
278
100
AcDbEntity
  8
0
100
AcDbLine
 62
7
  6
CONTINUOUS
 10
99.3757968972
 20
127.1083301567
 11
99.3757968972
 21
149.6833022852
  0
LINE
  5
279
100
AcDbEntity
  8
0
100
AcDbLine
 62
9
  6
CONTINUOUS
 10
100.3757968972
 20
150.6833301567
 11
100.3757968972
 21
127.1083301567
  0
LINE
  5
27A
100
AcDbEntity
  8
0
100
AcDbLine
 62
9
  6
CONTINUOUS
 10
100.3757968972
 20
110.7083301567
 11
100.3757968972
 21
100.4083301567
  0
LINE
  5
27B
100
AcDbEntity
  8
0
100
AcDbLine
 62
9
  6
CONTINUOUS
 10
100.3757968972
 20
93.0742320497
 11
100.3757968972
 21
87.1333301567
  0
LINE
  5
27C
100
AcDbEntity
  8
0
100
AcDbLine
 62
7
  6
CONTINUOUS
 10
103.7645264985
 20
87.1333301567
 11
103.7645264985
 21
93.0742320497
  0
LINE
  5
27D
100
AcDbEntity
  8
0
100
AcDbLine
 62
7
  6
CONTINUOUS
 10
103.7645264985
 20
100.4083301567
 11
103.7645264985
 21
110.7083301567
  0
LINE
  5
27E
100
AcDbEntity
  8
0
100
AcDbLine
 62
7
  6
CONTINUOUS
 10
103.7645264985
 20
127.1083301567
 11
103.7645264985
 21
150.6833301567
  0
LINE
  5
27F
100
AcDbEntity
  8
BEZUGSACHSEN
100
AcDbLine
 62
7
  6
CONTINUOUS
 10
109.1757968972
 20
147.8059254209
 11
110.837067296
 21
150.6833301567
  0
LINE
  5
280
100
AcDbEntity
  8
BEZUGSACHSEN
100
AcDbLine
 62
7
  6
CONTINUOUS
 10
109.1757968972
 20
90.0107348925
 11
110.837067296
 21
87.1333301567
  0
LINE
  5
281
100
AcDbEntity
  8
0
100
AcDbLine
 62
7
  6
CONTINUOUS
 10
105.4257968972
 20
147.8059249902
 11
105.4257968972
 21
146.2933465299
  0
LINE
  5
282
100
AcDbEntity
  8
BEZUGSACHSEN
100
AcDbLine
 62
7
  6
CONTINUOUS
 10
105.4257968972
 20
146.2933465299
 11
105.4257968972
 21
146.0371157409
  0
LINE
  5
283
100
AcDbEntity
  8
0
100
AcDbLine
 62
7
  6
CONTINUOUS
 10
105.4257968972
 20
145.8172746386
 11
105.4257968972
 21
127.1083301567
  0
LINE
  5
284
100
AcDbEntity
  8
0
100
AcDbLine
 62
7
  6
CONTINUOUS
 10
105.4257968972
 20
110.7083301567
 11
105.4257968972
 21
100.4083301567
  0
LINE
  5
285
100
AcDbEntity
  8
0
100
AcDbLine
 62
7
  6
CONTINUOUS
 10
105.4257968972
 20
90.0107409331
 11
105.4257968972
 21
97.0647813379
  0
LINE
  5
286
100
AcDbEntity
  8
0
100
AcDbLine
 62
9
  6
CONTINUOUS
 10
105.9257968972
 20
90.7833301567
 11
105.9257968972
 21
97.7242411982
  0
LINE
  5
287
100
AcDbEntity
  8
0
100
AcDbLine
 62
9
  6
CONTINUOUS
 10
105.9257968972
 20
100.4083301567
 11
105.9257968972
 21
110.7083301567
  0
LINE
  5
288
100
AcDbEntity
  8
0
100
AcDbLine
 62
9
  6
CONTINUOUS
 10
105.9257968972
 20
127.1083301567
 11
105.9257968972
 21
144.8051837496
  0
LINE
  5
289
100
AcDbEntity
  8
0
100
AcDbLine
 62
9
  6
CONTINUOUS
 10
105.9257968972
 20
145.798662489
 11
105.9257968972
 21
147.0333301567
  0
LINE
  5
28A
100
AcDbEntity
  8
0
100
AcDbLine
 62
9
  6
CONTINUOUS
 10
108.6757968972
 20
90.7833301567
 11
108.6757968972
 21
97.7242411982
  0
LINE
  5
28B
100
AcDbEntity
  8
0
100
AcDbLine
 62
9
  6
CONTINUOUS
 10
108.6757968972
 20
100.4083301567
 11
108.6757968972
 21
110.7083301567
  0
LINE
  5
28C
100
AcDbEntity
  8
0
100
AcDbLine
 62
9
  6
CONTINUOUS
 10
108.6757968972
 20
127.1083301567
 11
108.6757968972
 21
144.8051837496
  0
LINE
  5
28D
100
AcDbEntity
  8
0
100
AcDbLine
 62
9
  6
CONTINUOUS
 10
108.6757968972
 20
145.798662489
 11
108.6757968972
 21
147.0333301567
  0
LINE
  5
28E
100
AcDbEntity
  8
BEZUGSACHSEN
100
AcDbLine
 62
7
  6
CONTINUOUS
 10
109.1757968972
 20
146.2933465299
 11
109.1757968972
 21
146.0371157409
  0
LINE
  5
28F
100
AcDbEntity
  8
0
100
AcDbLine
 62
7
  6
CONTINUOUS
 10
109.1757968972
 20
145.8172746386
 11
109.1757968972
 21
127.1083301567
  0
LINE
  5
290
100
AcDbEntity
  8
0
100
AcDbLine
 62
7
  6
CONTINUOUS
 10
109.1757968972
 20
90.0107409331
 11
109.1757968972
 21
97.0647813379
  0
LINE
  5
291
100
AcDbEntity
  8
0
100
AcDbLine
 62
7
  6
CONTINUOUS
 10
109.1757968972
 20
100.4083301567
 11
109.1757968972
 21
110.7083301567
  0
LINE
  5
292
100
AcDbEntity
  8
0
100
AcDbLine
 62
7
  6
CONTINUOUS
 10
109.1757968972
 20
146.2933465299
 11
109.1757968972
 21
147.8059249902
  0
LINE
  5
293
100
AcDbEntity
  8
0
100
AcDbLine
 62
7
  6
CONTINUOUS
 10
110.837067296
 20
150.6833301567
 11
110.837067296
 21
127.1083301567
  0
LINE
  5
294
100
AcDbEntity
  8
0
100
AcDbLine
 62
7
  6
CONTINUOUS
 10
110.837067296
 20
110.7083301567
 11
110.837067296
 21
100.4083301567
  0
LINE
  5
295
100
AcDbEntity
  8
0
100
AcDbLine
 62
7
  6
CONTINUOUS
 10
110.837067296
 20
93.0742320497
 11
110.837067296
 21
87.1333301567
  0
LINE
  5
296
100
AcDbEntity
  8
0
100
AcDbLine
 62
9
  6
CONTINUOUS
 10
114.2257968972
 20
87.1333301567
 11
114.2257968972
 21
93.0742320497
  0
LINE
  5
297
100
AcDbEntity
  8
0
100
AcDbLine
 62
9
  6
CONTINUOUS
 10
114.2257968972
 20
100.4083301567
 11
114.2257968972
 21
110.7083301567
  0
LINE
  5
298
100
AcDbEntity
  8
0
100
AcDbLine
 62
9
  6
CONTINUOUS
 10
114.2257968972
 20
127.1083301567
 11
114.2257968972
 21
150.6833301567
  0
LINE
  5
299
100
AcDbEntity
  8
BEZUGSACHSEN
100
AcDbLine
 62
7
  6
CONTINUOUS
 10
115.2257968972
 20
149.6699195012
 11
115.2257968972
 21
127.1083301567
  0
LINE
  5
29A
100
AcDbEntity
  8
0
100
AcDbLine
 62
7
  6
CONTINUOUS
 10
115.2257968972
 20
149.6833022852
 11
115.2257968972
 21
127.1083301567
  0
LINE
  5
29B
100
AcDbEntity
  8
0
100
AcDbLine
 62
7
  6
CONTINUOUS
 10
115.2257968972
 20
110.7083301567
 11
115.2257968972
 21
100.4083301567
  0
LINE
  5
29C
100
AcDbEntity
  8
BEZUGSACHSEN
100
AcDbLine
 62
7
  6
CONTINUOUS
 10
115.2257968972
 20
94.3146190703
 11
115.2257968972
 21
88.1674024039
  0
LINE
  5
29D
100
AcDbEntity
  8
0
100
AcDbLine
 62
7
  6
CONTINUOUS
 10
115.2257968972
 20
94.3146190703
 11
115.2257968972
 21
88.13334553
  0
LINE
  5
29E
100
AcDbEntity
  8
FASEN
100
AcDbLine
 62
7
  6
CONTINUOUS
 10
115.2257968972
 20
94.3146190703
 11
115.2257968972
 21
100.4083301567
  0
LINE
  5
29F
100
AcDbEntity
  8
FASEN
100
AcDbLine
 62
7
  6
CONTINUOUS
 10
115.2257968972
 20
110.7083301567
 11
115.2257968972
 21
127.1083301567
  0
LINE
  5
2A0
100
AcDbEntity
  8
RUNDUNGEN
100
AcDbLine
 62
9
  6
CONTINUOUS
 10
116.2257968972
 20
141.4083301567
 11
116.2257968972
 21
96.4083301567
  0
LINE
  5
2A1
100
AcDbEntity
  8
BEZUGSACHSEN
100
AcDbLine
 62
7
  6
CONTINUOUS
 10
100.3757968972
 20
87.1333301567
 11
103.7645264985
 21
87.1333301567
  0
LINE
  5
2A2
100
AcDbEntity
  8
BEZUGSACHSEN
100
AcDbLine
 62
7
  6
CONTINUOUS
 10
110.837067296
 20
87.1333301567
 11
114.2257968972
 21
87.1333301567
  0
LINE
  5
2A3
100
AcDbEntity
  8
BEZUGSACHSEN
100
AcDbLine
 62
7
  6
CONTINUOUS
 10
105.9257968972
 20
90.7833301567
 11
108.6757968972
 21
90.7833301567
  0
LINE
  5
2A4
100
AcDbEntity
  8
0
100
AcDbLine
 62
7
  6
CONTINUOUS
 10
100.3757968972
 20
93.0742320497
 11
103.7645264985
 21
93.0742320497
  0
LINE
  5
2A5
100
AcDbEntity
  8
0
100
AcDbLine
 62
7
  6
CONTINUOUS
 10
110.837067296
 20
93.0742320497
 11
114.2257968972
 21
93.0742320497
  0
LINE
  5
2A6
100
AcDbEntity
  8
BEZUGSACHSEN
100
AcDbLine
 62
7
  6
CONTINUOUS
 10
29.4371595589
 20
106.4095669549
 11
95.6684916348
 21
96.7500260655
  0
LINE
  5
2A7
100
AcDbEntity
  8
BEZUGSACHSEN
100
AcDbLine
 62
7
  6
CONTINUOUS
 10
103.7645264985
 20
87.1333301567
 11
105.4257968972
 21
90.0107348925
  0
LINE
  5
2A8
100
AcDbEntity
  8
BEZUGSACHSEN
100
AcDbLine
 62
7
  6
CONTINUOUS
 10
140.3577885345
 20
96.4083301567
 11
151.574979598
 21
98.2540732801
  0
LINE
  5
2A9
100
AcDbEntity
  8
BEZUGSACHSEN
100
AcDbLine
 62
7
  6
CONTINUOUS
 10
152.7278544895
 20
98.4437741501
 11
160.8901934684
 21
99.7868537995
  0
LINE
  5
2AA
100
AcDbEntity
  8
BEZUGSACHSEN
100
AcDbLine
 62
7
  6
CONTINUOUS
 10
116.2257968972
 20
96.4083301567
 11
140.3577885345
 21
96.4083301567
  0
LINE
  5
2AB
100
AcDbEntity
  8
BEZUGSACHSEN
100
AcDbLine
 62
7
  6
CONTINUOUS
 10
96.7257968972
 20
97.0333301567
 11
98.3757968972
 21
97.0333301567
  0
LINE
  5
2AC
100
AcDbEntity
  8
0
100
AcDbLine
 62
7
  6
CONTINUOUS
 10
105.9257968972
 20
97.7242411982
 11
108.6757968972
 21
97.7242411982
  0
LINE
  5
2AD
100
AcDbEntity
  8
FASEN
100
AcDbLine
 62
7
  6
CONTINUOUS
 10
99.3757968972
 20
100.0083301567
 11
115.2257968972
 21
100.0083301567
  0
LINE
  5
2AE
100
AcDbEntity
  8
0
100
AcDbLine
 62
7
  6
CONTINUOUS
 10
99.3757968972
 20
100.4083301567
 11
115.2257968972
 21
100.4083301567
  0
LINE
  5
2AF
100
AcDbEntity
  8
BEZUGSACHSEN
100
AcDbLine
 62
7
  6
CONTINUOUS
 10
162.4531471664
 20
100.9083301567
 11
163.6257968972
 21
100.9083301567
  0
LINE
  5
2B0
100
AcDbEntity
  8
BEZUGSACHSEN
100
AcDbLine
 62
7
  6
CONTINUOUS
 10
168.6257968972
 20
100.9083301567
 11
169.9042056775
 21
100.9083301567
  0
LWPOLYLINE
  5
2B1
100
AcDbEntity
  8
0
100
AcDbPolyline
 62
7
  6
CONTINUOUS
 90
10
 70
0
 10
150.2183295593
 20
98.2434423802
 10
150.2081360004
 20
98.2436739626
 10
150.2005225003
 20
98.2439612186
 10
150.1997682781
 20
98.2439935496
 10
150.2060349294
 20
98.2434626821
 10
150.219675401
 20
98.2419723398
 10
150.24012524
 20
98.2391674728
 10
150.2672269554
 20
98.2346198529
 10
150.299582845
 20
98.2281204518
 10
150.3212212155
 20
98.2231751863
  0
LINE
  5
2B2
100
AcDbEntity
  8
BEZUGSACHSEN
100
AcDbLine
 62
7
  6
CONTINUOUS
 10
103.7645264985
 20
150.6833301567
 11
105.4257968972
 21
147.8059254209
  0
LINE
  5
2B3
100
AcDbEntity
  8
BEZUGSACHSEN
100
AcDbLine
 62
7
  6
CONTINUOUS
 10
95.6684916348
 20
96.7500260655
 11
96.7257968972
 21
97.0333301567
  0
LINE
  5
2B4
100
AcDbEntity
  8
BEZUGSACHSEN
100
AcDbLine
 62
7
  6
CONTINUOUS
 10
176.8924728227
 20
106.7558875967
 11
255.8414976841
 21
110.8934306663
  0
LINE
  5
2B5
100
AcDbEntity
  8
BEZUGSACHSEN
100
AcDbLine
 62
7
  6
CONTINUOUS
 10
140.3577885345
 20
141.4083301567
 11
140.3577885345
 21
96.4083301567
  0
LINE
  5
2B6
100
AcDbEntity
  8
0
100
AcDbLine
 62
7
  6
CONTINUOUS
 10
99.3757968972
 20
110.7083301567
 11
115.2257968972
 21
110.7083301567
  0
LINE
  5
2B7
100
AcDbEntity
  8
FASEN
100
AcDbLine
 62
7
  6
CONTINUOUS
 10
115.2257968972
 20
111.1083301567
 11
99.3757968972
 21
111.1083301567
  0
LINE
  5
2B8
100
AcDbEntity
  8
DEFAULT_2
100
AcDbLine
 62
8
  6
HIDDEN
 10
254.6257968972
 20
113.9083301567
 11
227.1257968972
 21
113.9083301567
  0
LINE
  5
2B9
100
AcDbEntity
  8
DEFAULT_1
100
AcDbLine
 62
7
  6
CENTER
 10
166.1257968972
 20
118.9083301567
 11
152.7278544895
 21
118.9083301567
  0
LINE
  5
2BA
100
AcDbEntity
  8
DEFAULT_1
100
AcDbLine
 62
7
  6
CENTER
 10
151.574979598
 20
118.9083301567
 11
147.2464558076
 21
118.9083301567
  0
LINE
  5
2BB
100
AcDbEntity
  8
BEZUGSACHSEN
100
AcDbLine
 62
7
  6
CENTER
 10
261.1257968972
 20
118.9083301567
 11
24.7257968972
 21
118.9083301567
  0
LINE
  5
2BC
100
AcDbEntity
  8
0
100
AcDbLine
 62
9
  6
CONTINUOUS
 10
151.574979598
 20
118.9083301567
 11
152.7278544895
 21
118.9083301567
  0
LINE
  5
2BD
100
AcDbEntity
  8
DEFAULT_1
100
AcDbLine
 62
7
  6
CENTER
 10
166.1257968972
 20
118.9083301567
 11
185.0051379869
 21
118.9083301567
  0
LINE
  5
2BE
100
AcDbEntity
  8
DEFAULT_2
100
AcDbLine
 62
8
  6
HIDDEN
 10
254.6257968972
 20
123.9083301567
 11
227.1257968972
 21
123.9083301567
  0
LINE
  5
2BF
100
AcDbEntity
  8
FASEN
100
AcDbLine
 62
7
  6
CONTINUOUS
 10
99.3757968972
 20
126.7083301567
 11
115.2257968972
 21
126.7083301567
  0
LINE
  5
2C0
100
AcDbEntity
  8
0
100
AcDbLine
 62
7
  6
CONTINUOUS
 10
99.3757968972
 20
127.1083301567
 11
115.2257968972
 21
127.1083301567
  0
LINE
  5
2C1
100
AcDbEntity
  8
BEZUGSACHSEN
100
AcDbLine
 62
7
  6
CONTINUOUS
 10
176.8924728227
 20
131.0607727167
 11
255.8414976841
 21
126.9232296471
  0
LINE
  5
2C2
100
AcDbEntity
  8
BEZUGSACHSEN
100
AcDbLine
 62
7
  6
CONTINUOUS
 10
95.6684916348
 20
141.0666342479
 11
96.7257968972
 21
140.7833301567
  0
LINE
  5
2C3
100
AcDbEntity
  8
BEZUGSACHSEN
100
AcDbLine
 62
9
  6
CONTINUOUS
 10
160.8901934684
 20
138.0298065139
 11
160.8901934684
 21
99.7868537995
  0
LINE
  5
2C4
100
AcDbEntity
  8
BEZUGSACHSEN
100
AcDbLine
 62
9
  6
CONTINUOUS
 10
161.4531237148
 20
137.6404215837
 11
161.4531237148
 21
100.1762387297
  0
LINE
  5
2C5
100
AcDbEntity
  8
BEZUGSACHSEN
100
AcDbLine
 62
9
  6
CONTINUOUS
 10
161.5871217627
 20
137.4083301567
 11
161.5871217627
 21
100.4083301567
  0
LINE
  5
2C6
100
AcDbEntity
  8
BEZUGSACHSEN
100
AcDbLine
 62
9
  6
CONTINUOUS
 10
162.4531471664
 20
136.9083301567
 11
162.4531471664
 21
100.9083301567
  0
LINE
  5
2C7
100
AcDbEntity
  8
DEFAULT_1
100
AcDbLine
 62
7
  6
CENTER
 10
166.1257968972
 20
118.9083301567
 11
166.1257968972
 21
100.0289890671
  0
LINE
  5
2C8
100
AcDbEntity
  8
DEFAULT_1
100
AcDbLine
 62
7
  6
CENTER
 10
166.1257968972
 20
118.9083301567
 11
166.1257968972
 21
137.7876712463
  0
LINE
  5
2C9
100
AcDbEntity
  8
BEZUGSACHSEN
100
AcDbLine
 62
7
  6
CONTINUOUS
 10
161.4531237148
 20
100.1762387297
 11
161.5871217627
 21
100.4083301567
  0
LINE
  5
2CA
100
AcDbEntity
  8
BEZUGSACHSEN
100
AcDbLine
 62
7
  6
CONTINUOUS
 10
162.4531471664
 20
136.9083301567
 11
163.6257968972
 21
136.9083301567
  0
LINE
  5
2CB
100
AcDbEntity
  8
BEZUGSACHSEN
100
AcDbLine
 62
7
  6
CONTINUOUS
 10
168.6257968972
 20
136.9083301567
 11
169.9042056775
 21
136.9083301567
  0
LINE
  5
2CC
100
AcDbEntity
  8
BEZUGSACHSEN
100
AcDbLine
 62
7
  6
CONTINUOUS
 10
96.7257968972
 20
140.7833301567
 11
98.3757968972
 21
140.7833301567
  0
LINE
  5
2CD
100
AcDbEntity
  8
BEZUGSACHSEN
100
AcDbLine
 62
7
  6
CONTINUOUS
 10
116.2257968972
 20
141.4083301567
 11
140.3577885345
 21
141.4083301567
  0
LINE
  5
2CE
100
AcDbEntity
  8
BEZUGSACHSEN
100
AcDbLine
 62
7
  6
CONTINUOUS
 10
140.3577885345
 20
141.4083301567
 11
151.574979598
 21
139.5625870333
  0
LINE
  5
2CF
100
AcDbEntity
  8
BEZUGSACHSEN
100
AcDbLine
 62
7
  6
CONTINUOUS
 10
152.7278544895
 20
139.3728861633
 11
160.8901934684
 21
138.0298065139
  0
LWPOLYLINE
  5
2D0
100
AcDbEntity
  8
0
100
AcDbPolyline
 62
7
  6
CONTINUOUS
 90
10
 70
0
 10
154.0904069103
 20
138.9331048895
 10
154.1009023175
 20
138.9293181977
 10
154.1087764047
 20
138.9263367033
 10
154.1099752003
 20
138.9258667702
 10
154.1044278523
 20
138.9282816633
 10
154.0919315672
 20
138.9340996561
 10
154.0732195633
 20
138.9434729546
 10
154.0485771702
 20
138.9567868743
 10
154.0197552184
 20
138.9736013303
 10
154.005775656
 20
138.9822152689
  0
LINE
  5
2D1
100
AcDbEntity
  8
BEZUGSACHSEN
100
AcDbLine
 62
9
  6
CONTINUOUS
 10
169.9042056775
 20
136.9083301567
 11
169.9042056775
 21
100.9083301567
  0
LINE
  5
2D2
100
AcDbEntity
  8
BEZUGSACHSEN
100
AcDbLine
 62
9
  6
CONTINUOUS
 10
170.6113124587
 20
136.6154369379
 11
170.6113124587
 21
101.2012233755
  0
LINE
  5
2D3
100
AcDbEntity
  8
BEZUGSACHSEN
100
AcDbLine
 62
9
  6
CONTINUOUS
 10
175.5829311728
 20
131.6438182238
 11
175.5829311728
 21
106.1728420896
  0
LINE
  5
2D4
100
AcDbEntity
  8
BEZUGSACHSEN
100
AcDbLine
 62
7
  6
CONTINUOUS
 10
170.6113124587
 20
101.2012233755
 11
175.5829311728
 21
106.1728420896
  0
LINE
  5
2D5
100
AcDbEntity
  8
BEZUGSACHSEN
100
AcDbLine
 62
7
  6
CONTINUOUS
 10
29.4371595589
 20
131.4070933585
 11
95.6684916348
 21
141.0666342479
  0
LINE
  5
2D6
100
AcDbEntity
  8
BEZUGSACHSEN
100
AcDbLine
 62
7
  6
CONTINUOUS
 10
105.9257968972
 20
147.0333301567
 11
108.6757968972
 21
147.0333301567
  0
LINE
  5
2D7
100
AcDbEntity
  8
BEZUGSACHSEN
100
AcDbLine
 62
7
  6
CONTINUOUS
 10
161.4531237148
 20
137.6404215837
 11
161.5871217627
 21
137.4083301567
  0
LINE
  5
2D8
100
AcDbEntity
  8
BEZUGSACHSEN
100
AcDbLine
 62
9
  6
CONTINUOUS
 10
176.8924728227
 20
131.0607727167
 11
176.8924728227
 21
106.7558875967
  0
LINE
  5
2D9
100
AcDbEntity
  8
BEZUGSACHSEN
100
AcDbLine
 62
7
  6
CONTINUOUS
 10
100.3757968972
 20
150.6833301567
 11
103.7645264985
 21
150.6833301567
  0
LINE
  5
2DA
100
AcDbEntity
  8
BEZUGSACHSEN
100
AcDbLine
 62
7
  6
CONTINUOUS
 10
110.837067296
 20
150.6833301567
 11
114.2257968972
 21
150.6833301567
  0
LINE
  5
2DB
100
AcDbEntity
  8
BEZUGSACHSEN
100
AcDbLine
 62
7
  6
CONTINUOUS
 10
170.6113124587
 20
136.6154369379
 11
175.5829311728
 21
131.6438182238
  0
LINE
  5
2DC
100
AcDbEntity
  8
0
100
AcDbLine
 62
9
  6
CONTINUOUS
 10
225.9271901564
 20
124.2083301567
 11
225.9271901564
 21
113.6083301567
  0
LINE
  5
2DD
100
AcDbEntity
  8
BEZUGSACHSEN
100
AcDbLine
 62
9
  6
CONTINUOUS
 10
255.8414976841
 20
126.9232296471
 11
255.8414976841
 21
110.8934306663
  0
LINE
  5
2DE
100
AcDbEntity
  8
BEZUGSACHSEN
100
AcDbLine
 62
7
  6
CONTINUOUS
 10
256.1257968972
 20
126.6236407867
 11
256.1257968972
 21
111.1930195267
  0
CIRCLE
  5
2DF
100
AcDbEntity
  8
BEZUGSACHSEN
100
AcDbCircle
 62
7
  6
CONTINUOUS
 10
107.2257968972
 20
118.9083301567
 40
5.0
  0
CIRCLE
  5
2E0
100
AcDbEntity
  8
BEZUGSACHSEN
100
AcDbCircle
 62
7
  6
CONTINUOUS
 10
107.2257968972
 20
118.9083301567
 40
4.7
  0
CIRCLE
  5
2E1
100
AcDbEntity
  8
BEZUGSACHSEN
100
AcDbCircle
 62
7
  6
CONTINUOUS
 10
107.2257968972
 20
118.9083301567
 40
2.0
  0
ARC
  5
2E2
100
AcDbEntity
  8
BEZUGSACHSEN
100
AcDbCircle
 62
7
  6
CONTINUOUS
 10
29.7257968972
 20
108.3886294822
 40
2.0
100
AcDbArc
 50
180.0
 51
261.7021731718
  0
ARC
  5
2E3
100
AcDbEntity
  8
BEZUGSACHSEN
100
AcDbCircle
 62
7
  6
CONTINUOUS
 10
98.3757968972
 20
96.0333301567
 40
1.0
100
AcDbArc
 50
0.0
 51
90.0
  0
ARC
  5
2E4
100
AcDbEntity
  8
BEZUGSACHSEN
100
AcDbCircle
 62
7
  6
CONTINUOUS
 10
100.3757968972
 20
88.1333301567
 40
1.0
100
AcDbArc
 50
180.0
 51
270.0
  0
ARC
  5
2E5
100
AcDbEntity
  8
BEZUGSACHSEN
100
AcDbCircle
 62
7
  6
CONTINUOUS
 10
105.9257968972
 20
90.2833301567
 40
0.5
100
AcDbArc
 50
90.0
 51
180.0
  0
ARC
  5
2E6
100
AcDbEntity
  8
0
100
AcDbCircle
 62
7
  6
CONTINUOUS
 10
-68.1949097048
 20
173.8757576088
 40
189.9972240794
100
AcDbArc
 50
334.8317727047
 51
336.0368933894
  0
ARC
  5
2E7
100
AcDbEntity
  8
BEZUGSACHSEN
100
AcDbCircle
 62
7
  6
CONTINUOUS
 10
29.7257968972
 20
129.4280308312
 40
2.0
100
AcDbArc
 50
98.2978268282
 51
180.0
  0
ARC
  5
2E8
100
AcDbEntity
  8
BEZUGSACHSEN
100
AcDbCircle
 62
7
  6
CONTINUOUS
 10
98.3757968972
 20
141.7833301567
 40
1.0
100
AcDbArc
 50
270.0
 51
360.0
  0
ARC
  5
2E9
100
AcDbEntity
  8
BEZUGSACHSEN
100
AcDbCircle
 62
7
  6
CONTINUOUS
 10
100.3757968972
 20
149.6833301567
 40
1.0
100
AcDbArc
 50
90.0
 51
180.0
  0
ARC
  5
2EA
100
AcDbEntity
  8
BEZUGSACHSEN
100
AcDbCircle
 62
7
  6
CONTINUOUS
 10
105.9257968972
 20
147.5333301567
 40
0.5
100
AcDbArc
 50
180.0
 51
270.0
  0
ARC
  5
2EB
100
AcDbEntity
  8
0
100
AcDbCircle
 62
7
  6
CONTINUOUS
 10
147.8244339889
 20
109.6210461085
 40
30.1532008127
100
AcDbArc
 50
80.6411758911
 51
81.7475471941
  0
ARC
  5
2EC
100
AcDbEntity
  8
0
100
AcDbCircle
 62
7
  6
CONTINUOUS
 10
148.4106586124
 20
118.6519154625
 40
21.1429393095
100
AcDbArc
 50
78.2309341936
 51
78.4313146164
  0
ARC
  5
2ED
100
AcDbEntity
  8
0
100
AcDbCircle
 62
7
  6
CONTINUOUS
 10
149.2472310839
 20
117.7186471424
 40
19.5797077011
100
AcDbArc
 50
276.8197745911
 51
276.9553726607
  0
ARC
  5
2EE
100
AcDbEntity
  8
GEWINDE
100
AcDbCircle
 62
7
  6
CONTINUOUS
 10
166.1257968976
 20
83.0825838095
 40
18.0000000014
100
AcDbArc
 50
82.016533546
 51
97.9834664563
  0
CIRCLE
  5
2EF
100
AcDbEntity
  8
0
100
AcDbCircle
 62
2
  6
CONTINUOUS
 10
166.1257968972
 20
118.9083301567
 40
3.0
  0
CIRCLE
  5
2F0
100
AcDbEntity
  8
GEWINDE
100
AcDbCircle
 62
7
  6
CONTINUOUS
 10
166.1257968972
 20
118.9083301567
 40
2.5
  0
ARC
  5
2F1
100
AcDbEntity
  8
BEZUGSACHSEN
100
AcDbCircle
 62
7
  6
CONTINUOUS
 10
176.9971447352
 20
104.7586285272
 40
2.0
100
AcDbArc
 50
93.0
 51
135.0
  0
ARC
  5
2F2
100
AcDbEntity
  8
RUNDUNGEN
100
AcDbCircle
 62
7
  6
CONTINUOUS
 10
116.2257968972
 20
95.4083301567
 40
1.0
100
AcDbArc
 50
90.0
 51
180.0
  0
ARC
  5
2F3
100
AcDbEntity
  8
BEZUGSACHSEN
100
AcDbCircle
 62
7
  6
CONTINUOUS
 10
162.4531471664
 20
99.9083301567
 40
1.0
100
AcDbArc
 50
90.0
 51
150.0
  0
ARC
  5
2F4
100
AcDbEntity
  8
BEZUGSACHSEN
100
AcDbCircle
 62
7
  6
CONTINUOUS
 10
169.9042056775
 20
101.9083301567
 40
1.0
100
AcDbArc
 50
270.0
 51
315.0
  0
ARC
  5
2F5
100
AcDbEntity
  8
BEZUGSACHSEN
100
AcDbCircle
 62
7
  6
CONTINUOUS
 10
114.2257968972
 20
88.1333301567
 40
1.0
100
AcDbArc
 50
270.0
 51
360.0
  0
ARC
  5
2F6
100
AcDbEntity
  8
BEZUGSACHSEN
100
AcDbCircle
 62
7
  6
CONTINUOUS
 10
160.7603033918
 20
100.5762387297
 40
0.8
100
AcDbArc
 50
279.3440564173
 51
330.0
  0
ARC
  5
2F7
100
AcDbEntity
  8
BEZUGSACHSEN
100
AcDbCircle
 62
7
  6
CONTINUOUS
 10
108.6757968972
 20
90.2833301567
 40
0.5
100
AcDbArc
 50
0.0
 51
90.0
  0
ARC
  5
2F8
100
AcDbEntity
  8
BEZUGSACHSEN
100
AcDbCircle
 62
7
  6
CONTINUOUS
 10
255.8257968972
 20
126.6236407867
 40
0.3
100
AcDbArc
 50
0.0
 51
87.0
  0
ARC
  5
2F9
100
AcDbEntity
  8
BEZUGSACHSEN
100
AcDbCircle
 62
7
  6
CONTINUOUS
 10
255.8257968972
 20
111.1930195267
 40
0.3
100
AcDbArc
 50
273.0
 51
360.0
  0
ARC
  5
2FA
100
AcDbEntity
  8
0
100
AcDbCircle
 62
7
  6
CONTINUOUS
 10
150.3893014127
 20
98.5107929019
 40
0.2963547135
100
AcDbArc
 50
256.2315232866
 51
256.6626687483
  0
ARC
  5
2FB
100
AcDbEntity
  8
0
100
AcDbCircle
 62
7
  6
CONTINUOUS
 10
150.3860690445
 20
98.4977063088
 40
0.2828748592
100
AcDbArc
 50
255.100255498
 51
256.2365646536
  0
ARC
  5
2FC
100
AcDbEntity
  8
0
100
AcDbCircle
 62
7
  6
CONTINUOUS
 10
282.7965034989
 20
173.8757576076
 40
189.9972240794
100
AcDbArc
 50
203.9631066104
 51
205.168227295
  0
ARC
  5
2FD
100
AcDbEntity
  8
0
100
AcDbCircle
 62
7
  6
CONTINUOUS
 10
146.6021816837
 20
128.5049246931
 40
30.6568545403
100
AcDbArc
 50
279.3351002923
 51
280.4306769078
  0
ARC
  5
2FE
100
AcDbEntity
  8
GEWINDE
100
AcDbCircle
 62
7
  6
CONTINUOUS
 10
166.1257968969
 20
154.7340765039
 40
18.0000000011
100
AcDbArc
 50
262.0165335459
 51
277.9834664561
  0
ARC
  5
2FF
100
AcDbEntity
  8
BEZUGSACHSEN
100
AcDbCircle
 62
7
  6
CONTINUOUS
 10
176.9971447352
 20
133.0580317862
 40
2.0
100
AcDbArc
 50
225.0
 51
267.0
  0
ARC
  5
300
100
AcDbEntity
  8
RUNDUNGEN
100
AcDbCircle
 62
7
  6
CONTINUOUS
 10
116.2257968972
 20
142.4083301567
 40
1.0
100
AcDbArc
 50
180.0
 51
270.0
  0
ARC
  5
301
100
AcDbEntity
  8
BEZUGSACHSEN
100
AcDbCircle
 62
7
  6
CONTINUOUS
 10
162.4531471664
 20
137.9083301567
 40
1.0
100
AcDbArc
 50
210.0
 51
270.0
  0
ARC
  5
302
100
AcDbEntity
  8
BEZUGSACHSEN
100
AcDbCircle
 62
7
  6
CONTINUOUS
 10
169.9042056775
 20
135.9083301567
 40
1.0
100
AcDbArc
 50
45.0
 51
90.0
  0
ARC
  5
303
100
AcDbEntity
  8
BEZUGSACHSEN
100
AcDbCircle
 62
7
  6
CONTINUOUS
 10
114.2257968972
 20
149.6833301567
 40
1.0
100
AcDbArc
 50
0.0
 51
90.0
  0
ARC
  5
304
100
AcDbEntity
  8
0
100
AcDbCircle
 62
7
  6
CONTINUOUS
 10
153.5038602022
 20
138.130304114
 40
0.9883802582
100
AcDbArc
 50
58.8610176707
 51
59.4964885578
  0
ARC
  5
305
100
AcDbEntity
  8
BEZUGSACHSEN
100
AcDbCircle
 62
7
  6
CONTINUOUS
 10
160.7603033918
 20
137.2404215837
 40
0.8
100
AcDbArc
 50
30.0
 51
80.6559435827
  0
ARC
  5
306
100
AcDbEntity
  8
BEZUGSACHSEN
100
AcDbCircle
 62
7
  6
CONTINUOUS
 10
108.6757968972
 20
147.5333301567
 40
0.5
100
AcDbArc
 50
270.0
 51
360.0
  0
SPLINE
  5
307
100
AcDbEntity
  8
0
100
AcDbSpline
 62
2
  6
CONTINUOUS
 70
0
 71
3
 72
30
 73
26
 74
24
 42
0.0000001
 43
0.0000001
 44
0.0000000001
 12
-0.0232799672
 22
0.0038799825
 32
0.0
 13
-0.0236892072
 23
-0.0039481885
 33
0.0
 40
0.0
 40
0.0
 40
0.0
 40
0.0
 40
0.0434782609
 40
0.0869565217
 40
0.1304347826
 40
0.1739130435
 40
0.2173913043
 40
0.2608695652
 40
0.3043478261
 40
0.347826087
 40
0.3913043478
 40
0.4347826087
 40
0.4782608696
 40
0.5217391304
 40
0.5652173913
 40
0.6086956522
 40
0.652173913
 40
0.6956521739
 40
0.7391304348
 40
0.7826086957
 40
0.8260869565
 40
0.8695652174
 40
0.9130434783
 40
0.9565217391
 40
1.0
 40
1.0
 40
1.0
 40
1.0
 10
169.1257872956
 20
100.9083317028
 30
0.0
 10
169.1254499048
 20
100.9083879345
 30
0.0
 10
169.1069727172
 20
100.9114803301
 30
0.0
 10
169.0260991792
 20
100.9247774735
 30
0.0
 10
168.8935417405
 20
100.9457996009
 30
0.0
 10
168.7128085636
 20
100.9729135864
 30
0.0
 10
168.4858142632
 20
101.0044387273
 30
0.0
 10
168.2133390119
 20
101.0385388981
 30
0.0
 10
167.900523207
 20
101.0725774916
 30
0.0
 10
167.5558991416
 20
101.1037917734
 30
0.0
 10
167.1739805524
 20
101.1306478684
 30
0.0
 10
166.7629501592
 20
101.150323269
 30
0.0
 10
166.3373623962
 20
101.1605267805
 30
0.0
 10
165.9139181073
 20
101.1605233373
 30
0.0
 10
165.4883007721
 20
101.1503107849
 30
0.0
 10
165.0773691962
 20
101.1306322956
 30
0.0
 10
164.6956229228
 20
101.1037849234
 30
0.0
 10
164.3511077479
 20
101.0725809735
 30
0.0
 10
164.0382884624
 20
101.0385427914
 30
0.0
 10
163.7658565794
 20
101.0044486579
 30
0.0
 10
163.5388838021
 20
100.9729278421
 30
0.0
 10
163.3581220701
 20
100.9458105013
 30
0.0
 10
163.2255300505
 20
100.9247832359
 30
0.0
 10
163.1446392114
 20
100.911483348
 30
0.0
 10
163.1261501616
 20
100.9083889778
 30
0.0
 10
163.1258068397
 20
100.9083317577
 30
0.0
 11
169.1257872956
 21
100.9083317028
 31
0.0
 11
169.0981130911
 21
100.9129234218
 31
0.0
 11
169.0174851957
 21
100.9260649708
 31
0.0
 11
168.8855124508
 21
100.9468149106
 31
0.0
 11
168.7050983763
 21
100.973648779
 31
0.0
 11
168.4782341047
 21
101.0048678989
 31
0.0
 11
168.2066155863
 21
101.0385286352
 31
0.0
 11
167.8952218303
 21
101.072106773
 31
0.0
 11
167.5496833877
 21
101.1030654089
 31
0.0
 11
167.1691285851
 21
101.129451086
 31
0.0
 11
166.7605239309
 21
101.1487446208
 31
0.0
 11
166.3377196419
 21
101.1588256214
 31
0.0
 11
165.9135559329
 21
101.1588218191
 31
0.0
 11
165.4907483986
 21
101.1487331287
 31
0.0
 11
165.0822334133
 21
101.1294374818
 31
0.0
 11
164.7018281059
 21
101.1030588272
 31
0.0
 11
164.3563903962
 21
101.0721086015
 31
0.0
 11
164.0450196962
 21
101.0385334662
 31
0.0
 11
163.773433097
 21
101.0048775442
 31
0.0
 11
163.546585643
 21
100.9736617546
 31
0.0
 11
163.3661503555
 21
100.9468255138
 31
0.0
 11
163.2341469139
 21
100.9260711322
 31
0.0
 11
163.1534987555
 21
100.9129264034
 31
0.0
 11
163.1258068397
 21
100.9083317577
 31
0.0
  0
SPLINE
  5
308
100
AcDbEntity
  8
0
100
AcDbSpline
 62
2
  6
CONTINUOUS
 70
0
 71
3
 72
30
 73
26
 74
24
 42
0.0000001
 43
0.0000001
 44
0.0000000001
 12
0.023599864
 22
-0.003933298
 32
0.0
 13
0.0237062949
 23
0.0039510364
 33
0.0
 40
0.0
 40
0.0
 40
0.0
 40
0.0
 40
0.0434782609
 40
0.0869565217
 40
0.1304347826
 40
0.1739130435
 40
0.2173913043
 40
0.2608695652
 40
0.3043478261
 40
0.347826087
 40
0.3913043478
 40
0.4347826087
 40
0.4782608696
 40
0.5217391304
 40
0.5652173913
 40
0.6086956522
 40
0.652173913
 40
0.6956521739
 40
0.7391304348
 40
0.7826086957
 40
0.8260869565
 40
0.8695652174
 40
0.9130434783
 40
0.9565217391
 40
1.0
 40
1.0
 40
1.0
 40
1.0
 10
163.125806796
 20
136.9083285627
 30
0.0
 10
163.126148823
 20
136.9082715584
 30
0.0
 10
163.1445788065
 20
136.905187114
 30
0.0
 10
163.2252394764
 20
136.8919244697
 30
0.0
 10
163.3574733075
 20
136.8709510524
 30
0.0
 10
163.5376910673
 20
136.8439068016
 30
0.0
 10
163.7639870871
 20
136.8124616055
 30
0.0
 10
164.0356129974
 20
136.778434772
 30
0.0
 10
164.3476610272
 20
136.7444267309
 30
0.0
 10
164.691699245
 20
136.7131928532
 30
0.0
 10
165.0733908635
 20
136.6862622525
 30
0.0
 10
165.4845645009
 20
136.6664813971
 30
0.0
 10
165.910571814
 20
136.6561739126
 30
0.0
 10
166.3344350586
 20
136.6560955398
 30
0.0
 10
166.7604181135
 20
136.6662435415
 30
0.0
 10
167.1717568723
 20
136.6858794657
 30
0.0
 10
167.5539294118
 20
136.7127086415
 30
0.0
 10
167.8988563724
 20
136.7439148379
 30
0.0
 10
168.212057415
 20
136.777969733
 30
0.0
 10
168.4848587666
 20
136.812094289
 30
0.0
 10
168.712145968
 20
136.8436500991
 30
0.0
 10
168.893152257
 20
136.8707999951
 30
0.0
 10
169.0259249592
 20
136.8918544197
 30
0.0
 10
169.1069283686
 20
136.90517256
 30
0.0
 10
169.1254433851
 20
136.9082712943
 30
0.0
 10
169.1257869546
 20
136.9083285557
 30
0.0
 11
163.125806796
 21
136.9083285627
 31
0.0
 11
163.1534147556
 21
136.9037477844
 31
0.0
 11
163.2338350033
 21
136.8906393409
 31
0.0
 11
163.365470629
 21
136.8699392468
 31
0.0
 11
163.5453707773
 21
136.8431733108
 31
0.0
 11
163.7715420689
 21
136.8120313326
 31
0.0
 11
164.0423500173
 21
136.778437904
 31
0.0
 11
164.3529927252
 21
136.7448890914
 31
0.0
 11
164.6979748118
 21
136.713910066
 31
0.0
 11
165.0783045333
 21
136.6874538767
 31
0.0
 11
165.4870367802
 21
136.6680602922
 31
0.0
 11
165.9102144693
 21
136.6578787646
 31
0.0
 11
166.3347883603
 21
136.6577999356
 31
0.0
 11
166.7579773975
 21
136.6678248619
 31
0.0
 11
167.1668958358
 21
136.687078341
 31
0.0
 11
167.5477218153
 21
136.7134381449
 31
0.0
 11
167.8935687194
 21
136.744389621
 31
0.0
 11
168.2053241332
 21
136.7779813431
 31
0.0
 11
168.4772730749
 21
136.8116661647
 31
0.0
 11
168.7044324826
 21
136.8429157801
 31
0.0
 11
168.8851133259
 21
136.8697840832
 31
0.0
 11
169.0172967437
 21
136.890565039
 31
0.0
 11
169.0980565545
 21
136.9037275535
 31
0.0
 11
169.1257869546
 21
136.9083285557
 31
0.0
  0
SPLINE
  5
309
100
AcDbEntity
  8
BEZUGSACHSEN
100
AcDbSpline
 62
7
  6
CONTINUOUS
 70
0
 71
3
 72
19
 73
15
 74
13
 42
0.0000001
 43
0.0000001
 44
0.0000000001
 12
-0.8939002816
 22
0.3305664543
 32
0.0
 13
-0.0
 23
0.9530644753
 33
0.0
 40
0.0
 40
0.0
 40
0.0
 40
0.0
 40
0.1217181457
 40
0.2412117709
 40
0.3499481467
 40
0.4477039725
 40
0.5373829645
 40
0.6199208207
 40
0.6964779373
 40
0.7678297527
 40
0.8343908613
 40
0.8961956983
 40
0.9521075556
 40
1.0
 40
1.0
 40
1.0
 40
1.0
 10
105.9257968972
 20
144.8051837496
 30
0.0
 10
105.8895289357
 20
144.8185957283
 30
0.0
 10
105.820521133
 20
144.853373076
 30
0.0
 10
105.7315861746
 20
144.9208308052
 30
0.0
 10
105.6586908215
 20
144.9947950397
 30
0.0
 10
105.6006011551
 20
145.0690164122
 30
0.0
 10
105.5542657715
 20
145.1413185933
 30
0.0
 10
105.517138931
 20
145.2111747727
 30
0.0
 10
105.4875688274
 20
145.2782130849
 30
0.0
 10
105.4643807351
 20
145.342335126
 30
0.0
 10
105.4468381958
 20
145.4033595744
 30
0.0
 10
105.434588227
 20
145.4606592533
 30
0.0
 10
105.4274842743
 20
145.5128419768
 30
0.0
 10
105.4257968972
 20
145.5458289871
 30
0.0
 10
105.4257968972
 20
145.5610438496
 30
0.0
 11
105.9257968972
 21
144.8051837496
 31
0.0
 11
105.8218471351
 21
144.8566780485
 31
0.0
 11
105.7307619251
 21
144.9250396399
 31
0.0
 11
105.657808871
 21
144.9986440172
 31
0.0
 11
105.6002663952
 21
145.0719179284
 31
0.0
 11
105.5540857557
 21
145.1438376458
 31
0.0
 11
105.5171422929
 21
145.2132868323
 31
0.0
 11
105.4877012737
 21
145.280047243
 31
0.0
 11
105.4646114664
 21
145.3440101429
 31
0.0
 11
105.447157671
 21
145.4049988431
 31
0.0
 11
105.4349616339
 21
145.4626264168
 31
0.0
 11
105.4279425717
 21
145.5154497224
 31
0.0
 11
105.4257968972
 21
145.5610438496
 31
0.0
  0
SPLINE
  5
30A
100
AcDbEntity
  8
0
100
AcDbSpline
 62
7
  6
CONTINUOUS
 70
0
 71
3
 72
13
 73
9
 74
7
 42
0.0000001
 43
0.0000001
 44
0.0000000001
 12
1.2115469786
 22
-0.2872537749
 32
0.0
 13
1.2478763242
 23
0.1492283366
 33
0.0
 40
0.0
 40
0.0
 40
0.0
 40
0.0
 40
0.038965645
 40
0.1630867383
 40
0.3400329405
 40
0.5755906248
 40
0.8708100201
 40
1.0
 40
1.0
 40
1.0
 40
1.0
 10
150.3209371912
 20
98.2224312376
 30
0.0
 10
150.3366734277
 20
98.218700228
 30
0.0
 10
150.4025177279
 20
98.2087027844
 30
0.0
 10
150.5465289353
 20
98.1987397822
 30
0.0
 10
150.770619068
 20
98.2039799751
 30
0.0
 10
151.0668346271
 20
98.2232858167
 30
0.0
 10
151.3418992101
 20
98.2506820017
 30
0.0
 10
151.5185183722
 20
98.2710477498
 30
0.0
 10
151.5722560779
 20
98.2774740184
 30
0.0
 11
150.3209371912
 21
98.2224312376
 31
0.0
 11
150.3683214262
 21
98.2142208605
 31
0.0
 11
150.5238529455
 21
98.2022865862
 31
0.0
 11
150.7462159211
 21
98.2047369576
 31
0.0
 11
151.0416792073
 21
98.223146197
 31
0.0
 11
151.410967948
 21
98.2589037228
 31
0.0
 11
151.5722560779
 21
98.2774740184
 31
0.0
  0
SPLINE
  5
30B
100
AcDbEntity
  8
0
100
AcDbSpline
 62
7
  6
CONTINUOUS
 70
0
 71
3
 72
10
 73
6
 74
4
 42
0.0000001
 43
0.0000001
 44
0.0000000001
 12
1.1130245626
 22
0.1357745289
 32
0.0
 13
1.1063573844
 23
0.1820466035
 33
0.0
 40
0.0
 40
0.0
 40
0.0
 40
0.0
 40
0.1954100757
 40
0.600585419
 40
1.0
 40
1.0
 40
1.0
 40
1.0
 10
151.6182596413
 20
98.2830309381
 30
0.0
 10
151.6907583793
 20
98.2918748418
 30
0.0
 10
151.9134398545
 20
98.3202822769
 30
0.0
 10
152.283486595
 20
98.3727864149
 30
0.0
 10
152.5805560658
 20
98.4195367941
 30
0.0
 10
152.7278544895
 20
98.4437741501
 30
0.0
 11
151.6182596413
 21
98.2830309381
 31
0.0
 11
151.8356181004
 21
98.3106913739
 31
0.0
 11
152.2854493501
 21
98.3742315877
 31
0.0
 11
152.7278544895
 21
98.4437741501
 31
0.0
  0
SPLINE
  5
30C
100
AcDbEntity
  8
BEZUGSACHSEN
100
AcDbSpline
 62
7
  6
CONTINUOUS
 70
0
 71
3
 72
18
 73
14
 74
12
 42
0.0000001
 43
0.0000001
 44
0.0000000001
 12
-2.6242089124
 22
-0.9704387092
 32
0.0
 13
-2.6242089124
 23
0.9704387092
 33
0.0
 40
0.0
 40
0.0
 40
0.0
 40
0.0
 40
0.0799679098
 40
0.1663286595
 40
0.257944786
 40
0.3532485422
 40
0.4508026001
 40
0.549197501
 40
0.6467509057
 40
0.7420528253
 40
0.8336699519
 40
0.920031171
 40
1.0
 40
1.0
 40
1.0
 40
1.0
 10
108.6757968972
 20
144.8051837496
 30
0.0
 10
108.6058460633
 20
144.7793157646
 30
0.0
 10
108.4579578027
 20
144.7318708446
 30
0.0
 10
108.22403387
 20
144.6750047056
 30
0.0
 10
107.9728328957
 20
144.6309230337
 30
0.0
 10
107.709082546
 20
144.6008426394
 30
0.0
 10
107.4377336004
 20
144.5855892909
 30
0.0
 10
107.1638605212
 20
144.5855892988
 30
0.0
 10
106.8925138946
 20
144.6008424819
 30
0.0
 10
106.6287649072
 20
144.6309224856
 30
0.0
 10
106.3775642091
 20
144.6750037723
 30
0.0
 10
106.1436380577
 20
144.7318702226
 30
0.0
 10
105.9957485351
 20
144.7793154673
 30
0.0
 10
105.9257968972
 20
144.8051837496
 30
0.0
 11
108.6757968972
 21
144.8051837496
 31
0.0
 11
108.4629597092
 21
144.7361853604
 31
0.0
 11
108.228283186
 21
144.6786421268
 31
0.0
 11
107.9758657745
 21
144.6340129825
 31
0.0
 11
107.7109564978
 21
144.6035940417
 31
0.0
 11
107.4384461207
 21
144.5881768939
 31
0.0
 11
107.1631473916
 21
144.5881769019
 31
0.0
 11
106.890638837
 21
144.6035939102
 31
0.0
 11
106.6257346375
 21
144.6340120214
 31
0.0
 11
106.373314413
 21
144.6786413276
 31
0.0
 11
106.1386365614
 21
144.7361846594
 31
0.0
 11
105.9257968972
 21
144.8051837496
 31
0.0
  0
SPLINE
  5
30D
100
AcDbEntity
  8
0
100
AcDbSpline
 62
7
  6
CONTINUOUS
 70
0
 71
3
 72
20
 73
16
 74
14
 42
0.0000001
 43
0.0000001
 44
0.0000000001
 12
3.7923250615
 22
2.3951177001
 32
0.0
 13
3.8612164654
 23
2.2571232155
 33
0.0
 40
0.0
 40
0.0
 40
0.0
 40
0.0
 40
0.0110443663
 40
0.0568322144
 40
0.1178863303
 40
0.1927540801
 40
0.2772284108
 40
0.3686435817
 40
0.4653774506
 40
0.5658124071
 40
0.6682643426
 40
0.7710186997
 40
0.8719967173
 40
0.9664992493
 40
1.0
 40
1.0
 40
1.0
 40
1.0
 10
149.2347721925
 20
98.2590704424
 30
0.0
 10
149.2487334681
 20
98.2678879614
 30
0.0
 10
149.3213151944
 20
98.3122339416
 30
0.0
 10
149.4775633813
 20
98.3923477795
 30
0.0
 10
149.7232916584
 20
98.5065935908
 30
0.0
 10
150.0252497662
 20
98.6359707486
 30
0.0
 10
150.3708712001
 20
98.7782946548
 30
0.0
 10
150.7477516247
 20
98.930238007
 30
0.0
 10
151.1469591333
 20
99.0904275219
 30
0.0
 10
151.5607944153
 20
99.2583350206
 30
0.0
 10
151.9813027068
 20
99.4336335656
 30
0.0
 10
152.3996407348
 20
99.6161321954
 30
0.0
 10
152.8025618212
 20
99.8040759805
 30
0.0
 10
153.1063808331
 20
99.9598485501
 30
0.0
 10
153.2724958128
 20
100.0538325126
 30
0.0
 10
153.3156136962
 20
100.07903762
 30
0.0
 11
149.2347721925
 21
98.2590704424
 31
0.0
 11
149.277047142
 21
98.2849075685
 31
0.0
 11
149.4578570744
 21
98.3809750662
 31
0.0
 11
149.7050982969
 21
98.4967648087
 31
0.0
 11
150.0123779878
 21
98.6296474896
 31
0.0
 11
150.3614713391
 21
98.7739398181
 31
0.0
 11
150.7404393846
 21
98.927173762
 31
0.0
 11
151.1417379676
 21
99.0886251985
 31
0.0
 11
151.5577413916
 21
99.257858172
 31
0.0
 11
151.9803992505
 21
99.4346109106
 31
0.0
 11
152.401276079
 21
99.6189605547
 31
0.0
 11
152.8100485249
 21
99.8107699366
 31
0.0
 11
153.1852902402
 21
100.0051109242
 31
0.0
 11
153.3156136962
 21
100.07903762
 31
0.0
  0
SPLINE
  5
30E
100
AcDbEntity
  8
0
100
AcDbSpline
 62
7
  6
CONTINUOUS
 70
0
 71
3
 72
13
 73
9
 74
7
 42
0.0000001
 43
0.0000001
 44
0.0000000001
 12
-1.1831663147
 22
0.6970107903
 32
0.0
 13
-1.3102014408
 23
0.2729991554
 33
0.0
 40
0.0
 40
0.0
 40
0.0
 40
0.0
 40
0.0811645364
 40
0.2126113423
 40
0.3919935519
 40
0.6223924272
 40
0.9014679344
 40
1.0
 40
1.0
 40
1.0
 40
1.0
 10
154.0055532919
 20
138.9818906207
 30
0.0
 10
153.9735429101
 20
139.00074814
 30
0.0
 10
153.8908292567
 20
139.043053315
 30
0.0
 10
153.7244217482
 20
139.1020812186
 30
0.0
 10
153.4936442563
 20
139.1709941324
 30
0.0
 10
153.1954944507
 20
139.2467897954
 30
0.0
 10
152.9309622405
 20
139.3065247063
 30
0.0
 10
152.766163965
 20
139.3414142009
 30
0.0
 10
152.7231316802
 20
139.3503805912
 30
0.0
 11
154.0055532919
 21
138.9818906207
 31
0.0
 11
153.909291609
 21
139.0315487009
 31
0.0
 11
153.7446665736
 21
139.0935701243
 31
0.0
 11
153.5148932613
 21
139.1631401803
 31
0.0
 11
153.2163268182
 21
139.240206046
 31
0.0
 11
152.852133534
 21
139.323055796
 31
0.0
 11
152.7231316802
 21
139.3503805912
 31
0.0
  0
SPLINE
  5
30F
100
AcDbEntity
  8
0
100
AcDbSpline
 62
7
  6
CONTINUOUS
 70
0
 71
3
 72
10
 73
6
 74
4
 42
0.0000001
 43
0.0000001
 44
0.0000000001
 12
-1.0715320229
 22
0.2193616385
 32
0.0
 13
-1.0792075496
 23
0.1775792087
 33
0.0
 40
0.0
 40
0.0
 40
0.0
 40
0.0
 40
0.1959447991
 40
0.5997259508
 40
1.0
 40
1.0
 40
1.0
 40
1.0
 10
152.6507167512
 20
139.3653359821
 30
0.0
 10
152.5807297089
 20
139.3796635729
 30
0.0
 10
152.3662971012
 20
139.4224617701
 30
0.0
 10
152.0078983983
 20
139.4893058793
 30
0.0
 10
151.7189725233
 20
139.5388935837
 30
0.0
 10
151.574979598
 20
139.5625870333
 30
0.0
 11
152.6507167512
 21
139.3653359821
 31
0.0
 11
152.4405549245
 21
139.4073406665
 31
0.0
 11
152.0064514269
 21
139.4884915568
 31
0.0
 11
151.574979598
 21
139.5625870333
 31
0.0
  0
SPLINE
  5
310
100
AcDbEntity
  8
0
100
AcDbSpline
 62
7
  6
CONTINUOUS
 70
0
 71
3
 72
18
 73
14
 74
12
 42
0.0000001
 43
0.0000001
 44
0.0000000001
 12
-3.6659152586
 22
-0.8804495136
 32
0.0
 13
-3.7024179152
 23
-0.8312349235
 33
0.0
 40
0.0
 40
0.0
 40
0.0
 40
0.0
 40
0.0349881559
 40
0.0959127153
 40
0.1725229035
 40
0.2609923509
 40
0.357972117
 40
0.4617852353
 40
0.5707724163
 40
0.6829564787
 40
0.796267116
 40
0.9083468573
 40
1.0
 40
1.0
 40
1.0
 40
1.0
 10
155.020580821
 20
138.6029500446
 30
0.0
 10
154.9778262828
 20
138.5926816097
 30
0.0
 10
154.8571819233
 20
138.5699809154
 30
0.0
 10
154.6419673743
 20
138.5396272747
 30
0.0
 10
154.3573263843
 20
138.5097790133
 30
0.0
 10
154.0273137655
 20
138.4806596945
 30
0.0
 10
153.6626470161
 20
138.4512441791
 30
0.0
 10
153.2721462956
 20
138.4199961824
 30
0.0
 10
152.8626544239
 20
138.3848596342
 30
0.0
 10
152.4416640997
 20
138.3435203232
 30
0.0
 10
152.0176750497
 20
138.2932958132
 30
0.0
 10
151.6210480796
 20
138.2340166934
 30
0.0
 10
151.3679528792
 20
138.1851988943
 30
0.0
 10
151.2548401334
 20
138.1598037966
 30
0.0
 11
155.020580821
 21
138.6029500446
 31
0.0
 11
154.8899389267
 21
138.5768948238
 31
0.0
 11
154.6612107649
 21
138.5435709762
 31
0.0
 11
154.3722676978
 21
138.512090181
 31
0.0
 11
154.0379728734
 21
138.4820031499
 31
0.0
 11
153.6712665576
 21
138.451977478
 31
0.0
 11
153.2786958549
 21
138.4201511228
 31
0.0
 11
152.8667578744
 21
138.3843742055
 31
0.0
 11
152.4432297985
 21
138.3422537453
 31
0.0
 11
152.0164121409
 21
138.29093696
 31
0.0
 11
151.5960322067
 21
138.2269516094
 31
0.0
 11
151.2548401334
 21
138.1598037966
 31
0.0
  0
SPLINE
  5
311
100
AcDbEntity
  8
BEZUGSACHSEN
100
AcDbSpline
 62
7
  6
CONTINUOUS
 70
0
 71
3
 72
11
 73
7
 74
5
 42
0.0000001
 43
0.0000001
 44
0.0000000001
 12
0.0
 22
-0.4680658555
 32
0.0
 13
-0.1674374283
 23
-0.437093071
 33
0.0
 40
0.0
 40
0.0
 40
0.0
 40
0.0
 40
0.1445461367
 40
0.3576974325
 40
0.6432572252
 40
1.0
 40
1.0
 40
1.0
 40
1.0
 10
109.3007968972
 20
146.2666366053
 30
0.0
 10
109.3007968972
 20
146.2440842349
 30
0.0
 10
109.293698282
 20
146.1884057463
 30
0.0
 10
109.2702485299
 20
146.090789453
 30
0.0
 10
109.230153279
 20
145.9633774566
 30
0.0
 10
109.1957075948
 20
145.8692512369
 30
0.0
 10
109.1757968972
 20
145.8172746386
 30
0.0
 11
109.3007968972
 21
146.2666366053
 31
0.0
 11
109.2940895952
 21
146.1993127849
 31
0.0
 11
109.2719392945
 21
146.1020338749
 31
0.0
 11
109.2326316283
 21
145.9742836741
 31
0.0
 11
109.1757968972
 21
145.8172746386
 31
0.0
  0
SPLINE
  5
312
100
AcDbEntity
  8
BEZUGSACHSEN
100
AcDbSpline
 62
7
  6
CONTINUOUS
 70
0
 71
3
 72
12
 73
8
 74
6
 42
0.0000001
 43
0.0000001
 44
0.0000000001
 12
-0.1674556245
 22
0.4371405719
 32
0.0
 13
0.0
 23
0.4681167224
 33
0.0
 40
0.0
 40
0.0
 40
0.0
 40
0.0
 40
0.2995620764
 40
0.5419687552
 40
0.7353081792
 40
0.886011903
 40
1.0
 40
1.0
 40
1.0
 40
1.0
 10
105.4257968972
 20
145.8172746386
 30
0.0
 10
105.4090757791
 20
145.8609248844
 30
0.0
 10
105.3798255783
 20
145.9402928322
 30
0.0
 10
105.3440149063
 20
146.0493232743
 30
0.0
 10
105.3195643254
 20
146.1375682873
 30
0.0
 10
105.3050950522
 20
146.2075944611
 30
0.0
 10
105.3007968972
 20
146.2488500271
 30
0.0
 10
105.3007968972
 20
146.2666366053
 30
0.0
 11
105.4257968972
 21
145.8172746386
 31
0.0
 11
105.3776132585
 21
145.9489666836
 31
0.0
 11
105.3425704334
 21
146.0568948532
 31
0.0
 11
105.3188843553
 21
146.1442458709
 31
0.0
 11
105.3052524465
 21
146.2134632159
 31
0.0
 11
105.3007968972
 21
146.2666366053
 31
0.0
  0
SPLINE
  5
313
100
AcDbEntity
  8
BEZUGSACHSEN
100
AcDbSpline
 62
7
  6
CONTINUOUS
 70
0
 71
3
 72
19
 73
15
 74
13
 42
0.0000001
 43
0.0000001
 44
0.0000000001
 12
0.0
 22
-0.9530644332
 32
0.0
 13
-0.8939002421
 23
-0.3305664397
 33
0.0
 40
0.0
 40
0.0
 40
0.0
 40
0.0
 40
0.0479048512
 40
0.1038186277
 40
0.1656371908
 40
0.2321998811
 40
0.3035488221
 40
0.3800991219
 40
0.4626240486
 40
0.5522943159
 40
0.6500533187
 40
0.7587572076
 40
0.8782694549
 40
1.0
 40
1.0
 40
1.0
 40
1.0
 10
109.1757968972
 20
145.5610438496
 30
0.0
 10
109.1757968972
 20
145.5458250463
 30
0.0
 10
109.1741088603
 20
145.5128334809
 30
0.0
 10
109.1670027097
 20
145.4606420669
 30
0.0
 10
109.1547501452
 20
145.4033373208
 30
0.0
 10
109.1372047328
 20
145.3423095944
 30
0.0
 10
109.1140158217
 20
145.2781905997
 30
0.0
 10
109.0844471939
 20
145.211159513
 30
0.0
 10
109.0473237364
 20
145.1413118182
 30
0.0
 10
109.0009913484
 20
145.0690147369
 30
0.0
 10
108.9429091376
 20
144.9948028552
 30
0.0
 10
108.8700175321
 20
144.9208400378
 30
0.0
 10
108.7810849286
 20
144.8533797455
 30
0.0
 10
108.7120685518
 20
144.8185970939
 30
0.0
 10
108.6757968972
 20
144.8051837496
 30
0.0
 11
109.1757968972
 21
145.5610438496
 31
0.0
 11
109.1736501597
 21
145.5154379368
 31
0.0
 11
109.1666298353
 21
145.4626129562
 31
0.0
 11
109.1544296624
 21
145.4049728889
 31
0.0
 11
109.1369736483
 21
145.3439832586
 31
0.0
 11
109.1138830598
 21
145.2800235564
 31
0.0
 11
109.0844432261
 21
145.213269727
 31
0.0
 11
109.0475046826
 21
145.1438318853
 31
0.0
 11
109.001328357
 21
145.0719192841
 31
0.0
 11
108.9437840235
 21
144.9986429871
 31
0.0
 11
108.8708540917
 21
144.9250592923
 31
0.0
 11
108.7797567247
 21
144.8566843405
 31
0.0
 11
108.6757968972
 21
144.8051837496
 31
0.0
  0
SPLINE
  5
314
100
AcDbEntity
  8
0
100
AcDbSpline
 62
7
  6
CONTINUOUS
 70
0
 71
3
 72
98
 73
94
 74
92
 42
0.0000001
 43
0.0000001
 44
0.0000000001
 12
-24.7993951188
 22
-20.3002776286
 32
0.0
 13
30.9082741831
 23
-8.2273246981
 33
0.0
 40
0.0
 40
0.0
 40
0.0
 40
0.0
 40
0.0195355018
 40
0.0374022808
 40
0.0536603867
 40
0.0683746444
 40
0.0818401338
 40
0.0941605922
 40
0.1053229238
 40
0.1155141868
 40
0.1250477911
 40
0.1343246376
 40
0.1436263904
 40
0.1532821928
 40
0.163907887
 40
0.1759369824
 40
0.1894488987
 40
0.2039447534
 40
0.2190442554
 40
0.2346598291
 40
0.2506896421
 40
0.2669724787
 40
0.2833347202
 40
0.2995901819
 40
0.3154256833
 40
0.3300483737
 40
0.3427731481
 40
0.353677201
 40
0.3631687894
 40
0.3716629015
 40
0.3796130926
 40
0.3876400241
 40
0.396203106
 40
0.4057307834
 40
0.4164137627
 40
0.4281409922
 40
0.440883689
 40
0.4545193369
 40
0.4689836293
 40
0.4842806086
 40
0.5003237247
 40
0.5167147273
 40
0.5329621722
 40
0.5484387762
 40
0.5626161687
 40
0.5754551228
 40
0.587044396
 40
0.5974093247
 40
0.606517178
 40
0.6144639492
 40
0.6212224455
 40
0.6274197476
 40
0.6341481602
 40
0.6415358737
 40
0.6497198377
 40
0.6587753992
 40
0.6686869901
 40
0.6795653478
 40
0.6915040226
 40
0.7044947355
 40
0.7183911769
 40
0.7326481939
 40
0.7463696745
 40
0.7590479947
 40
0.7705624177
 40
0.7808572121
 40
0.7899018236
 40
0.7976958792
 40
0.8040775553
 40
0.8091288934
 40
0.8133584685
 40
0.817426296
 40
0.8220898397
 40
0.8279752708
 40
0.8354679879
 40
0.8448869734
 40
0.8563403723
 40
0.8694260693
 40
0.8832291362
 40
0.8972374096
 40
0.9112449434
 40
0.9250823449
 40
0.9385771747
 40
0.9514612474
 40
0.9633547945
 40
0.9737809564
 40
0.9821599723
 40
0.9883670268
 40
0.9926661178
 40
0.99539313
 40
0.9969598189
 40
0.9986989586
 40
1.0
 40
1.0
 40
1.0
 40
1.0
 10
152.7278544896
 20
118.9083301567
 30
0.0
 10
152.5663649465
 20
118.7761381197
 30
0.0
 10
152.2576700303
 20
118.5224328749
 30
0.0
 10
151.8225075502
 20
118.1491649734
 30
0.0
 10
151.4390406382
 20
117.7951185035
 30
0.0
 10
151.1076342177
 20
117.4548225857
 30
0.0
 10
150.8272109997
 20
117.1248004935
 30
0.0
 10
150.5982166838
 20
116.8025354369
 30
0.0
 10
150.4230801858
 20
116.4872618408
 30
0.0
 10
150.3029190306
 20
116.178721016
 30
0.0
 10
150.2354188417
 20
115.8749951345
 30
0.0
 10
150.2202947558
 20
115.5734991471
 30
0.0
 10
150.2596692736
 20
115.2728381248
 30
0.0
 10
150.3540601962
 20
114.9697946864
 30
0.0
 10
150.5062004365
 20
114.658652745
 30
0.0
 10
150.7216537881
 20
114.3367016531
 30
0.0
 10
150.9995063769
 20
114.0105460142
 30
0.0
 10
151.3279327688
 20
113.6871532277
 30
0.0
 10
151.6928209515
 20
113.3703842754
 30
0.0
 10
152.0842443695
 20
113.0601186164
 30
0.0
 10
152.4944773524
 20
112.7536884505
 30
0.0
 10
152.9153656557
 20
112.4483350969
 30
0.0
 10
153.3381516155
 20
112.1414913153
 30
0.0
 10
153.7522601787
 20
111.8308619889
 30
0.0
 10
154.1413274192
 20
111.5181078452
 30
0.0
 10
154.483996912
 20
111.2086502701
 30
0.0
 10
154.7626154535
 20
110.9087885517
 30
0.0
 10
154.9731020354
 20
110.623222419
 30
0.0
 10
155.1195703777
 20
110.3500753569
 30
0.0
 10
155.2058126097
 20
110.0849926256
 30
0.0
 10
155.235931117
 20
109.8235384907
 30
0.0
 10
155.2131887835
 20
109.5606658353
 30
0.0
 10
155.136011333
 20
109.2908963764
 30
0.0
 10
155.0011221839
 20
109.0132778826
 30
0.0
 10
154.8106375858
 20
108.7292296444
 30
0.0
 10
154.5696826585
 20
108.4405295516
 30
0.0
 10
154.2847282875
 20
108.1493736097
 30
0.0
 10
153.9613904156
 20
107.8561509699
 30
0.0
 10
153.6054405816
 20
107.5589906672
 30
0.0
 10
153.2213893253
 20
107.2557158615
 30
0.0
 10
152.8162415648
 20
106.9460942242
 30
0.0
 10
152.4014968371
 20
106.6323338181
 30
0.0
 10
151.9936024705
 20
106.3195466433
 30
0.0
 10
151.6101408976
 20
106.013834169
 30
0.0
 10
151.264527351
 20
105.719347053
 30
0.0
 10
150.9631522449
 20
105.437529012
 30
0.0
 10
150.7082336097
 20
105.1665371026
 30
0.0
 10
150.5036304075
 20
104.9044886399
 30
0.0
 10
150.3528619877
 20
104.6522144091
 30
0.0
 10
150.2589530931
 20
104.4142330885
 30
0.0
 10
150.2207161626
 20
104.1923384227
 30
0.0
 10
150.2354276631
 20
103.980489072
 30
0.0
 10
150.3049534604
 20
103.772481619
 30
0.0
 10
150.4327286301
 20
103.5691610169
 30
0.0
 10
150.6143504227
 20
103.3770360518
 30
0.0
 10
150.8433099822
 20
103.1977471315
 30
0.0
 10
151.1139644509
 20
103.0284429291
 30
0.0
 10
151.4241048826
 20
102.8664521185
 30
0.0
 10
151.7731310425
 20
102.7095007597
 30
0.0
 10
152.1585805742
 20
102.5560775388
 30
0.0
 10
152.5716248675
 20
102.4056754487
 30
0.0
 10
152.994559668
 20
102.2599025843
 30
0.0
 10
153.4058880233
 20
102.1204356469
 30
0.0
 10
153.7886131769
 20
101.9878482649
 30
0.0
 10
154.1344075052
 20
101.8605916944
 30
0.0
 10
154.4395662935
 20
101.73572948
 30
0.0
 10
154.7013958403
 20
101.6108395392
 30
0.0
 10
154.9156366723
 20
101.4849139008
 30
0.0
 10
155.0776172979
 20
101.3569510588
 30
0.0
 10
155.1837767217
 20
101.2249070961
 30
0.0
 10
155.2329659586
 20
101.087368779
 30
0.0
 10
155.2231517182
 20
100.9455564329
 30
0.0
 10
155.1555348718
 20
100.8019192623
 30
0.0
 10
155.0305891024
 20
100.6534665018
 30
0.0
 10
154.8449146108
 20
100.4948174677
 30
0.0
 10
154.5937617049
 20
100.3245105439
 30
0.0
 10
154.2783984749
 20
100.1447236522
 30
0.0
 10
153.9123463315
 20
99.9606588213
 30
0.0
 10
153.5153803411
 20
99.7780466833
 30
0.0
 10
153.105221046
 20
99.6009189206
 30
0.0
 10
152.6920547908
 20
99.4300043219
 30
0.0
 10
152.282457019
 20
99.2648786278
 30
0.0
 10
151.8834249938
 20
99.1056626774
 30
0.0
 10
151.5039518748
 20
98.9534429973
 30
0.0
 10
151.1560281185
 20
98.8106964761
 30
0.0
 10
150.8544341818
 20
98.6817151825
 30
0.0
 10
150.6123108639
 20
98.5687778337
 30
0.0
 10
150.4326552085
 20
98.476355397
 30
0.0
 10
150.3147843146
 20
98.3979463278
 30
0.0
 10
150.2418190428
 20
98.3421204238
 30
0.0
 10
150.2198250893
 20
98.2697152804
 30
0.0
 10
150.2685485351
 20
98.2388071192
 30
0.0
 10
150.2999295464
 20
98.2279105171
 30
0.0
 10
150.3133338608
 20
98.2243424872
 30
0.0
 11
152.7278544896
 21
118.9083301567
 31
0.0
 11
152.2453647595
 21
118.5093487976
 31
0.0
 11
151.8118747738
 21
118.1352328647
 31
0.0
 11
151.4302803867
 21
117.7804400478
 31
0.0
 11
151.1024221424
 21
117.441488434
 31
0.0
 11
150.8243899151
 21
117.1114380044
 31
0.0
 11
150.5974820978
 21
116.7882942961
 31
0.0
 11
150.4256771019
 21
116.4745130156
 31
0.0
 11
150.3085898463
 21
116.1696060758
 31
0.0
 11
150.2434677084
 21
115.8710883213
 31
0.0
 11
150.2292601151
 21
115.574118258
 31
0.0
 11
150.2673730983
 21
115.2784567217
 31
0.0
 11
150.3579438189
 21
114.9825527326
 31
0.0
 11
150.5058147012
 21
114.6757945431
 31
0.0
 11
150.7183875784
 21
114.3541815977
 31
0.0
 11
150.9971033983
 21
114.0227617299
 31
0.0
 11
151.3265427867
 21
113.6952004733
 31
0.0
 11
151.6909035941
 21
113.3767394936
 31
0.0
 11
152.0822067019
 21
113.0647475041
 31
0.0
 11
152.4930083211
 21
112.7562619986
 31
0.0
 11
152.9146701594
 21
112.4488207966
 31
0.0
 11
153.3382600406
 21
112.1397045264
 31
0.0
 11
153.7540560302
 21
111.8258293689
 31
0.0
 11
154.1481891417
 21
111.5061096484
 31
0.0
 11
154.493964006
 21
111.1897872896
 31
0.0
 11
154.7695135215
 21
110.889150965
 31
0.0
 11
154.9745858232
 21
110.6061894717
 31
0.0
 11
155.1158883067
 21
110.3368081069
 31
0.0
 11
155.1984318509
 21
110.0773999707
 31
0.0
 11
155.2273015535
 21
109.8242485134
 31
0.0
 11
155.205808419
 21
109.5678962202
 31
0.0
 11
155.1318376691
 21
109.3036185817
 31
0.0
 11
155.0008056449
 21
109.0278137302
 31
0.0
 11
154.8123319914
 21
108.7419854077
 31
0.0
 11
154.5731386761
 21
108.4520836529
 31
0.0
 11
154.2887056041
 21
108.1590369369
 31
0.0
 11
153.9660613264
 21
107.8642957175
 31
0.0
 11
153.6109881749
 21
107.5662841146
 31
0.0
 11
153.226872351
 21
107.2616588035
 31
0.0
 11
152.8189451819
 21
106.9486812606
 31
0.0
 11
152.4006200471
 21
106.6309504073
 31
0.0
 11
151.9880950019
 21
106.3132093638
 31
0.0
 11
151.601069019
 21
106.0029997649
 31
0.0
 11
151.2560735284
 21
105.7073210687
 31
0.0
 11
150.9566343656
 21
105.4251085275
 31
0.0
 11
150.7037889855
 21
105.1530390202
 31
0.0
 11
150.5013545746
 21
104.8896672912
 31
0.0
 11
150.3540411263
 21
104.6376738388
 31
0.0
 11
150.2633467477
 21
104.3996868434
 31
0.0
 11
150.2287739394
 21
104.1858636378
 31
0.0
 11
150.2429798508
 21
103.9877576183
 31
0.0
 11
150.3100961252
 21
103.7828324846
 31
0.0
 11
150.4339320517
 21
103.5810339159
 31
0.0
 11
150.6120327861
 21
103.3884898087
 31
0.0
 11
150.8388398011
 21
103.2074235704
 31
0.0
 11
151.1071233933
 21
103.0373443234
 31
0.0
 11
151.4154632414
 21
102.874637487
 31
0.0
 11
151.7639081989
 21
102.716579613
 31
0.0
 11
152.1502873477
 21
102.5615149966
 31
0.0
 11
152.5684234794
 21
102.4081893776
 31
0.0
 11
153.0000930196
 21
102.2584073804
 31
0.0
 11
153.4162807151
 21
102.1163816263
 31
0.0
 11
153.7999113033
 21
101.982496463
 31
0.0
 11
154.1458084376
 21
101.8539212933
 31
0.0
 11
154.450611701
 21
101.7276236726
 31
0.0
 11
154.7114070355
 21
101.6010984613
 31
0.0
 11
154.9252318703
 21
101.4719737943
 31
0.0
 11
155.082959079
 21
101.3417737742
 31
0.0
 11
155.1808430633
 21
101.2128299358
 31
0.0
 11
155.223984654
 21
101.0843265858
 31
0.0
 11
155.216270958
 21
100.9541869091
 31
0.0
 11
155.1564466
 21
100.8172222447
 31
0.0
 11
155.0385633389
 21
100.6699778095
 31
0.0
 11
154.8582475901
 21
100.5113931635
 31
0.0
 11
154.6099364744
 21
100.3397420197
 31
0.0
 11
154.2921666703
 21
100.1560053504
 31
0.0
 11
153.9181794021
 21
99.9662386539
 31
0.0
 11
153.5166766875
 21
99.7805356878
 31
0.0
 11
153.1047669209
 21
99.6019799267
 31
0.0
 11
152.6901195764
 21
99.4299389065
 31
0.0
 11
152.2789642663
 21
99.2637580196
 31
0.0
 11
151.8774139825
 21
99.1031185319
 31
0.0
 11
151.4943445556
 21
98.9489835407
 31
0.0
 11
151.1418985446
 21
98.8038169609
 31
0.0
 11
150.8351554626
 21
98.6713003135
 31
0.0
 11
150.5920903422
 21
98.5571483126
 31
0.0
 11
150.4167262683
 21
98.4632361334
 31
0.0
 11
150.3018751647
 21
98.3871277711
 31
0.0
 11
150.2403589403
 21
98.3250474573
 31
0.0
 11
150.2310133269
 21
98.2757147251
 31
0.0
 11
150.2729291069
 21
98.2389767955
 31
0.0
 11
150.3133338608
 21
98.2243424872
 31
0.0
  0
SPLINE
  5
315
100
AcDbEntity
  8
0
100
AcDbSpline
 62
7
  6
CONTINUOUS
 70
0
 71
3
 72
98
 73
94
 74
92
 42
0.0000001
 43
0.0000001
 44
0.0000000001
 12
24.6689615309
 22
20.3806956838
 32
0.0
 13
-28.376927523
 23
17.143754926
 33
0.0
 40
0.0
 40
0.0
 40
0.0
 40
0.0
 40
0.0175841644
 40
0.0334788347
 40
0.048098173
 40
0.0618155142
 40
0.0749460408
 40
0.0874251665
 40
0.0989120826
 40
0.1093973749
 40
0.1189898395
 40
0.1280314774
 40
0.1369454287
 40
0.1460746954
 40
0.1559650756
 40
0.1671153034
 40
0.1797747015
 40
0.1937230817
 40
0.2085171407
 40
0.2240553075
 40
0.2403559698
 40
0.2573162875
 40
0.2747303287
 40
0.2923959732
 40
0.3100764143
 40
0.3271271135
 40
0.3424548934
 40
0.3555700083
 40
0.3667773112
 40
0.3765741935
 40
0.3853197163
 40
0.3935889933
 40
0.4019212871
 40
0.4107414815
 40
0.420441626
 40
0.4310631423
 40
0.4425673027
 40
0.4549347734
 40
0.4680510778
 40
0.4819101413
 40
0.4964835997
 40
0.5114827354
 40
0.5264109242
 40
0.5407554831
 40
0.5540086025
 40
0.5659953994
 40
0.5768414944
 40
0.5866753066
 40
0.5954232372
 40
0.603158443
 40
0.6099603525
 40
0.6159737367
 40
0.6223484774
 40
0.6297246862
 40
0.6380735113
 40
0.647402187
 40
0.6575396359
 40
0.6684838549
 40
0.6804055867
 40
0.6934801861
 40
0.7077776506
 40
0.7232337237
 40
0.7390994651
 40
0.7543380808
 40
0.7684719528
 40
0.7813294068
 40
0.7928444644
 40
0.8030140326
 40
0.8117937108
 40
0.8189635045
 40
0.8246185731
 40
0.8292155697
 40
0.8333441959
 40
0.8377625136
 40
0.8431623845
 40
0.8500841705
 40
0.8589442692
 40
0.8699246946
 40
0.8824670936
 40
0.8955479535
 40
0.90873654
 40
0.9218343232
 40
0.9346717211
 40
0.9470694301
 40
0.9587552534
 40
0.9693984882
 40
0.9785187718
 40
0.9856537611
 40
0.9908166186
 40
0.9942628454
 40
0.9963152411
 40
0.9977412012
 40
1.0
 40
1.0
 40
1.0
 40
1.0
 10
151.574979598
 20
118.9083301567
 30
0.0
 10
151.7195739567
 20
119.0277893248
 30
0.0
 10
151.9952146611
 20
119.2548124506
 30
0.0
 10
152.387678554
 20
119.5852578503
 30
0.0
 10
152.7414742308
 20
119.8974646416
 30
0.0
 10
153.0621116169
 20
120.2023430375
 30
0.0
 10
153.3503344524
 20
120.5074881968
 30
0.0
 10
153.6005857368
 20
120.8145840684
 30
0.0
 10
153.8039764645
 20
121.1215994394
 30
0.0
 10
153.9521290466
 20
121.4252306973
 30
0.0
 10
154.0440887072
 20
121.7233477444
 30
0.0
 10
154.0818907113
 20
122.0162610676
 30
0.0
 10
154.0669813292
 20
122.3063620856
 30
0.0
 10
153.9987012582
 20
122.5978361866
 30
0.0
 10
153.8766718592
 20
122.8968098042
 30
0.0
 10
153.697055157
 20
123.2092204795
 30
0.0
 10
153.457875723
 20
123.5341036484
 30
0.0
 10
153.1652809478
 20
123.8654156011
 30
0.0
 10
152.8310380801
 20
124.1994065855
 30
0.0
 10
152.4642239639
 20
124.5354987359
 30
0.0
 10
152.0704174696
 20
124.8759169787
 30
0.0
 10
151.6561677382
 20
125.223131687
 30
0.0
 10
151.230071497
 20
125.5788685983
 30
0.0
 10
150.8023533192
 20
125.9446360725
 30
0.0
 10
150.38743235
 20
126.3192145208
 30
0.0
 10
150.0072203751
 20
126.694476162
 30
0.0
 10
149.6854372974
 20
127.0583976317
 30
0.0
 10
149.4355517926
 20
127.400535892
 30
0.0
 10
149.2552813109
 20
127.7177505285
 30
0.0
 10
149.1378008152
 20
128.0138852686
 30
0.0
 10
149.0780639396
 20
128.2950652408
 30
0.0
 10
149.070704374
 20
128.5668805306
 30
0.0
 10
149.1149816804
 20
128.836059799
 30
0.0
 10
149.2145808499
 20
129.1063779964
 30
0.0
 10
149.3731300277
 20
129.3753929205
 30
0.0
 10
149.5870307458
 20
129.6401949791
 30
0.0
 10
149.849865262
 20
129.8985295213
 30
0.0
 10
150.1550814633
 20
130.1491370023
 30
0.0
 10
150.496673779
 20
130.3932642906
 30
0.0
 10
150.8691240769
 20
130.6336425611
 30
0.0
 10
151.266410157
 20
130.8720054356
 30
0.0
 10
151.6781902142
 20
131.108118092
 30
0.0
 10
152.0893188674
 20
131.3404101416
 30
0.0
 10
152.4825219472
 20
131.5665800558
 30
0.0
 10
152.8434905916
 20
131.7857333221
 30
0.0
 10
153.1644332538
 20
131.9984773941
 30
0.0
 10
153.4434421618
 20
132.2076243165
 30
0.0
 10
153.6783545456
 20
132.4166284764
 30
0.0
 10
153.863825881
 20
132.6286597063
 30
0.0
 10
153.993983918
 20
132.8420351221
 30
0.0
 10
154.0655347598
 20
133.0514346925
 30
0.0
 10
154.0824837138
 20
133.2574729134
 30
0.0
 10
154.0470518985
 20
133.4673206861
 30
0.0
 10
153.9565336027
 20
133.6867596964
 30
0.0
 10
153.8112428358
 20
133.9123448274
 30
0.0
 10
153.6177073501
 20
134.1380959497
 30
0.0
 10
153.3828949842
 20
134.3623987846
 30
0.0
 10
153.1120027325
 20
134.5875101012
 30
0.0
 10
152.8050185533
 20
134.8173224953
 30
0.0
 10
152.4600943696
 20
135.0555447611
 30
0.0
 10
152.0771877768
 20
135.3047412808
 30
0.0
 10
151.6647890781
 20
135.5630197435
 30
0.0
 10
151.2418390699
 20
135.8233112822
 30
0.0
 10
150.8314158947
 20
136.0770544716
 30
0.0
 10
150.451052661
 20
136.3183720316
 30
0.0
 10
150.1091427398
 20
136.5460443361
 30
0.0
 10
149.8099868584
 20
136.7612992269
 30
0.0
 10
149.5563970041
 20
136.9648111721
 30
0.0
 10
149.3527495975
 20
137.1554662281
 30
0.0
 10
149.2030642258
 20
137.331697021
 30
0.0
 10
149.1091302199
 20
137.4936282717
 30
0.0
 10
149.0683009329
 20
137.6440367908
 30
0.0
 10
149.0824907397
 20
137.7872181067
 30
0.0
 10
149.1574479693
 20
137.919999381
 30
0.0
 10
149.29323067
 20
138.0392760167
 30
0.0
 10
149.4918439404
 20
138.149155553
 30
0.0
 10
149.7596627572
 20
138.2499411504
 30
0.0
 10
150.0938816638
 20
138.3386203464
 30
0.0
 10
150.4772694974
 20
138.4133947001
 30
0.0
 10
150.8867499699
 20
138.4748277952
 30
0.0
 10
151.3037039324
 20
138.5248422892
 30
0.0
 10
151.7189474135
 20
138.5664325503
 30
0.0
 10
152.1262545479
 20
138.6022474921
 30
0.0
 10
152.5187288335
 20
138.6345014278
 30
0.0
 10
152.8879080923
 20
138.6651478427
 30
0.0
 10
153.2218480804
 20
138.6955347084
 30
0.0
 10
153.5074840364
 20
138.7267389125
 30
0.0
 10
153.7325783598
 20
138.7597198269
 30
0.0
 10
153.8995584527
 20
138.7941503923
 30
0.0
 10
154.0029255188
 20
138.8295230203
 30
0.0
 10
154.0765192619
 20
138.8694762966
 30
0.0
 10
154.0716093725
 20
138.9402681829
 30
0.0
 10
154.0363331615
 20
138.9633659522
 30
0.0
 10
154.014967238
 20
138.97627405
 30
0.0
 11
151.574979598
 21
118.9083301567
 31
0.0
 11
152.0084446212
 21
119.2670922877
 31
0.0
 11
152.39675273
 21
119.5955784346
 31
0.0
 11
152.7466794899
 21
119.9060471873
 31
0.0
 11
153.0638215656
 21
120.20950926
 31
0.0
 11
153.3511839986
 21
120.5160372743
 31
0.0
 11
153.6018064085
 21
120.826912869
 31
0.0
 11
153.8026228276
 21
121.1347758403
 31
0.0
 11
153.9479110398
 21
121.4372053884
 31
0.0
 11
154.0370099293
 21
121.7309378038
 31
0.0
 11
154.0733119811
 21
122.0179738973
 31
0.0
 11
154.0587595112
 21
122.3028391778
 31
0.0
 11
153.9935489182
 21
122.5875943971
 31
0.0
 11
153.8757929466
 21
122.8813528286
 31
0.0
 11
153.6998527497
 21
123.1917523118
 31
0.0
 11
153.461627983
 21
123.5193868918
 31
0.0
 11
153.1680009811
 21
123.8555361592
 31
0.0
 11
152.8343623937
 21
124.1913739003
 31
0.0
 11
152.4686751913
 21
124.528249439
 31
0.0
 11
152.0749045395
 21
124.87032378
 31
0.0
 11
151.6597660827
 21
125.2198893419
 31
0.0
 11
151.2328319254
 21
125.5779855941
 31
0.0
 11
150.8041333259
 21
125.9464426384
 31
0.0
 11
150.3853575214
 21
126.3268442997
 31
0.0
 11
149.9988225802
 21
126.7119083
 31
0.0
 11
149.6761544869
 21
127.081297488
 31
0.0
 11
149.4307325703
 21
127.4217244304
 31
0.0
 11
149.2558099525
 21
127.7347922551
 31
0.0
 11
149.14255697
 21
128.0271096876
 31
0.0
 11
149.0857129624
 21
128.3011228724
 31
0.0
 11
149.0790926127
 21
128.5656479138
 31
0.0
 11
149.1220952049
 21
128.828781562
 31
0.0
 11
149.2185902871
 21
129.0940101736
 31
0.0
 11
149.3740455945
 21
129.3626700528
 31
0.0
 11
149.5856820401
 21
129.628614355
 31
0.0
 11
149.846790054
 21
129.8881050111
 31
0.0
 11
150.1514871778
 21
130.1406406617
 31
0.0
 11
150.4920214171
 21
130.3859787991
 31
0.0
 11
150.8639578922
 21
130.6275016808
 31
0.0
 11
151.2632771446
 21
130.8683591109
 31
0.0
 11
151.6790957496
 21
131.1080520063
 31
0.0
 11
152.0944323681
 21
131.3440164719
 31
0.0
 11
152.4916647476
 21
131.5740096902
 31
0.0
 11
152.8534715003
 21
131.7952433001
 31
0.0
 11
153.1723586929
 21
132.0083926889
 31
0.0
 11
153.4489115702
 21
132.218086283
 31
0.0
 11
153.6821564996
 21
132.4293085113
 31
0.0
 11
153.8641948862
 21
132.6419575678
 31
0.0
 11
153.9905242456
 21
132.8548099574
 31
0.0
 11
154.0588990596
 21
133.0614449551
 31
0.0
 11
154.074353546
 21
133.2532450881
 31
0.0
 11
154.0420408092
 21
133.4546543107
 31
0.0
 11
153.9546240045
 21
133.6739002343
 31
0.0
 11
153.812355999
 21
133.9000212496
 31
0.0
 11
153.6199215168
 21
134.128222229
 31
0.0
 11
153.3867526363
 21
134.3537425631
 31
0.0
 11
153.1182795863
 21
134.5786079431
 31
0.0
 11
152.8135201915
 21
134.8080650743
 31
0.0
 11
152.4698142058
 21
135.0466067595
 31
0.0
 11
152.0868629594
 21
135.2969218224
 31
0.0
 11
151.6681577762
 21
135.5601572816
 31
0.0
 11
151.2362346527
 21
135.8269680257
 31
0.0
 11
150.8219111904
 21
136.0840837357
 31
0.0
 11
150.4405007836
 21
136.3271329719
 31
0.0
 11
150.0987064813
 21
136.5561456655
 31
0.0
 11
149.800391446
 21
136.7724273892
 31
0.0
 11
149.5477050319
 21
136.9774751369
 31
0.0
 11
149.3443947691
 21
137.1713625018
 31
0.0
 11
149.1987290881
 21
137.3486126545
 31
0.0
 11
149.1113877074
 21
137.5070947478
 31
0.0
 11
149.0764618613
 21
137.6499872586
 31
0.0
 11
149.0907435793
 21
137.781324588
 31
0.0
 11
149.1576141526
 21
137.9058919044
 31
0.0
 11
149.283880338
 21
138.0238462773
 31
0.0
 11
149.4755837967
 21
138.1347851729
 31
0.0
 11
149.739684482
 21
138.2378906871
 31
0.0
 11
150.0785459606
 21
138.3307773137
 31
0.0
 11
150.4720985506
 21
138.4094708084
 31
0.0
 11
150.8858804538
 21
138.4726225345
 31
0.0
 11
151.3048124944
 21
138.5235851598
 31
0.0
 11
151.7217900141
 21
138.5658578502
 31
0.0
 11
152.1309565371
 21
138.6022617734
 31
0.0
 11
152.5263016411
 21
138.6351801687
 31
0.0
 11
152.8989146068
 21
138.6665799067
 31
0.0
 11
153.2380232027
 21
138.6981173302
 31
0.0
 11
153.5280055884
 21
138.7309854015
 31
0.0
 11
153.7537034938
 21
138.7654350773
 31
0.0
 11
153.9149457389
 21
138.8014059428
 31
0.0
 11
154.0184533859
 21
138.8394434961
 31
0.0
 11
154.069270062
 21
138.8810463344
 31
0.0
 11
154.0675114056
 21
138.9266416038
 31
0.0
 11
154.014967238
 21
138.97627405
 31
0.0
  0
SPLINE
  5
316
100
AcDbEntity
  8
0
100
AcDbSpline
 62
7
  6
CONTINUOUS
 70
0
 71
3
 72
19
 73
15
 74
13
 42
0.0000001
 43
0.0000001
 44
0.0000000001
 12
-2.7355223316
 22
-0.4501190631
 32
0.0
 13
2.3511502218
 23
1.4849153014
 33
0.0
 40
0.0
 40
0.0
 40
0.0
 40
0.0
 40
0.1640517992
 40
0.3329499767
 40
0.490680787
 40
0.6247099863
 40
0.7291551763
 40
0.8066504189
 40
0.8608463648
 40
0.8947816151
 40
0.9140192117
 40
0.9330361711
 40
0.9661470456
 40
1.0
 40
1.0
 40
1.0
 40
1.0
 10
151.574979598
 20
98.2540732801
 30
0.0
 10
151.4253904779
 20
98.2294589994
 30
0.0
 10
151.121429275
 20
98.1816790937
 30
0.0
 10
150.6724256114
 20
98.1182839636
 30
0.0
 10
150.2497899142
 20
98.06693221
 30
0.0
 10
149.8853569904
 20
98.0316459902
 30
0.0
 10
149.5936732547
 20
98.0141085154
 30
0.0
 10
149.3757688849
 20
98.0102296718
 30
0.0
 10
149.2218685266
 20
98.0234544364
 30
0.0
 10
149.1262733102
 20
98.0406574357
 30
0.0
 10
149.0647102084
 20
98.0889191264
 30
0.0
 10
149.0947110939
 20
98.1603011323
 30
0.0
 10
149.1567871708
 20
98.2077428852
 30
0.0
 10
149.2082410654
 20
98.2423141857
 30
0.0
 10
149.2347721925
 20
98.2590704424
 30
0.0
 11
151.574979598
 21
98.2540732801
 31
0.0
 11
151.1256815963
 21
98.1835309897
 31
0.0
 11
150.6619973504
 21
98.118389071
 31
0.0
 11
150.2278444013
 21
98.0662013931
 31
0.0
 11
149.8578945252
 21
98.0315389946
 31
0.0
 11
149.5688155958
 21
98.0149556992
 31
0.0
 11
149.3539761446
 21
98.0142372984
 31
0.0
 11
149.2043372693
 21
98.0277509467
 31
0.0
 11
149.1140005719
 21
98.0540212837
 31
0.0
 11
149.0768391343
 21
98.0922755244
 31
0.0
 11
149.0908785785
 21
98.1430926796
 31
0.0
 11
149.1570111854
 21
98.206752168
 31
0.0
 11
149.2347721925
 21
98.2590704424
 31
0.0
  0
SPLINE
  5
317
100
AcDbEntity
  8
0
100
AcDbSpline
 62
7
  6
CONTINUOUS
 70
0
 71
3
 72
20
 73
16
 74
14
 42
0.0000001
 43
0.0000001
 44
0.0000000001
 12
2.8200963506
 22
-0.4640353736
 32
0.0
 13
-2.7615907558
 23
-0.6632562583
 33
0.0
 40
0.0
 40
0.0
 40
0.0
 40
0.0
 40
0.15620058
 40
0.3157908082
 40
0.4660176179
 40
0.596888259
 40
0.7024682844
 40
0.7835916424
 40
0.8429902159
 40
0.8830976717
 40
0.9071177453
 40
0.9228221305
 40
0.9468730636
 40
0.9869839229
 40
1.0
 40
1.0
 40
1.0
 40
1.0
 10
152.7278544895
 20
139.3728861633
 30
0.0
 10
152.8746880514
 20
139.3487252985
 30
0.0
 10
153.1712086202
 20
139.2978123822
 30
0.0
 10
153.6076235225
 20
139.2162702547
 30
0.0
 10
154.0190014064
 20
139.1321092438
 30
0.0
 10
154.3781246426
 20
139.0504554007
 30
0.0
 10
154.6715368677
 20
138.9750862444
 30
0.0
 10
154.8952625744
 20
138.9075628976
 30
0.0
 10
155.0590537681
 20
138.8482594696
 30
0.0
 10
155.160125521
 20
138.7949969908
 30
0.0
 10
155.2287270654
 20
138.747361178
 30
0.0
 10
155.2249903049
 20
138.6770202839
 30
0.0
 10
155.1483990313
 20
138.640621969
 30
0.0
 10
155.0810650007
 20
138.6182103811
 30
0.0
 10
155.0325625138
 20
138.6058277095
 30
0.0
 10
155.020580821
 20
138.6029500446
 30
0.0
 11
152.7278544895
 21
139.3728861633
 31
0.0
 11
153.1678326166
 21
139.2972962943
 31
0.0
 11
153.616146642
 21
139.2133165646
 31
0.0
 11
154.0366888744
 21
139.1267915991
 31
0.0
 11
154.4012636925
 21
139.0432199559
 31
0.0
 11
154.6932467734
 21
138.9670703052
 31
0.0
 11
154.9149045141
 21
138.8990758995
 31
0.0
 11
155.0734065488
 21
138.8382784829
 31
0.0
 11
155.1743196166
 21
138.7839084459
 31
0.0
 11
155.2225409754
 21
138.7350464048
 31
0.0
 11
155.2198935759
 21
138.6902411195
 31
0.0
 11
155.1645806418
 21
138.6494318676
 31
0.0
 11
155.056199533
 21
138.6120779714
 31
0.0
 11
155.020580821
 21
138.6029500446
 31
0.0
  0
SPLINE
  5
318
100
AcDbEntity
  8
BEZUGSACHSEN
100
AcDbSpline
 62
7
  6
CONTINUOUS
 70
0
 71
3
 72
18
 73
14
 74
12
 42
0.0000001
 43
0.0000001
 44
0.0000000001
 12
2.6737590161
 22
0.7427664394
 32
0.0
 13
2.6737590161
 23
-0.7427664394
 33
0.0
 40
0.0
 40
0.0
 40
0.0
 40
0.0
 40
0.0788628999
 40
0.1647195541
 40
0.2563676281
 40
0.3521236596
 40
0.4503969613
 40
0.5496032532
 40
0.6478758258
 40
0.7436299262
 40
0.8352788674
 40
0.9211360457
 40
1.0
 40
1.0
 40
1.0
 40
1.0
 10
105.9257968972
 20
145.798662489
 30
0.0
 10
105.9960836938
 20
145.8181880608
 30
0.0
 10
106.1445345679
 20
145.8531355158
 30
0.0
 10
106.3783134512
 20
145.8935384883
 30
0.0
 10
106.6293262649
 20
145.9240634586
 30
0.0
 10
106.8928611691
 20
145.9445066343
 30
0.0
 10
107.1639787977
 20
145.9547552766
 30
0.0
 10
107.4376149168
 20
145.9547552655
 30
0.0
 10
107.7087300858
 20
145.9445067313
 30
0.0
 10
107.9722633442
 20
145.9240638447
 30
0.0
 10
108.2232756954
 20
145.8935391949
 30
0.0
 10
108.457056843
 20
145.8531360362
 30
0.0
 10
108.605509161
 20
145.8181883219
 30
0.0
 10
108.6757968972
 20
145.798662489
 30
0.0
 11
105.9257968972
 21
145.798662489
 31
0.0
 11
106.1386338685
 21
145.8495914515
 31
0.0
 11
106.373310313
 21
145.8907200079
 31
0.0
 11
106.6257279079
 21
145.9218052462
 31
0.0
 11
106.8906373689
 21
145.9425964164
 31
0.0
 11
107.1631478901
 21
145.9530134446
 31
0.0
 11
107.4384464988
 21
145.9530134333
 31
0.0
 11
107.7109549989
 21
145.9425964991
 31
0.0
 11
107.975859131
 21
145.921805922
 31
0.0
 11
108.2282791464
 21
145.8907206494
 31
0.0
 11
108.4629570585
 21
145.8495920402
 31
0.0
 11
108.6757968972
 21
145.798662489
 31
0.0
  0
SPLINE
  5
319
100
AcDbEntity
  8
0
100
AcDbSpline
 62
7
  6
CONTINUOUS
 70
0
 71
3
 72
82
 73
78
 74
76
 42
0.0000001
 43
0.0000001
 44
0.0000000001
 12
23.6334464434
 22
13.8152318336
 32
0.0
 13
21.100131045
 23
17.4322437199
 33
0.0
 40
0.0
 40
0.0
 40
0.0
 40
0.0
 40
0.0077667428
 40
0.0184934452
 40
0.0269821247
 40
0.0336781395
 40
0.0390364636
 40
0.0438196525
 40
0.0489002509
 40
0.055026634
 40
0.0627541226
 40
0.0721377096
 40
0.0830011061
 40
0.095212669
 40
0.1085602216
 40
0.1229593753
 40
0.1383419351
 40
0.1543773879
 40
0.1704758534
 40
0.1860200734
 40
0.2003923738
 40
0.2133445724
 40
0.2250278735
 40
0.2356295015
 40
0.2451862803
 40
0.2538452623
 40
0.2617592645
 40
0.2690720513
 40
0.277083567
 40
0.2864843462
 40
0.2972495647
 40
0.3094680676
 40
0.3230304102
 40
0.3379032342
 40
0.3541236553
 40
0.3716961977
 40
0.3904761924
 40
0.4101399144
 40
0.4297775294
 40
0.4484279423
 40
0.4658266381
 40
0.4819394838
 40
0.4967942155
 40
0.5104583795
 40
0.5229629274
 40
0.5341369774
 40
0.5441975513
 40
0.5536456196
 40
0.5630395454
 40
0.5731234956
 40
0.5844386357
 40
0.5974716797
 40
0.6125608705
 40
0.6296566366
 40
0.6479501485
 40
0.6665964251
 40
0.685341499
 40
0.7040765261
 40
0.7227076149
 40
0.7411364032
 40
0.7591508879
 40
0.7764726194
 40
0.7925821694
 40
0.8068529488
 40
0.8193883726
 40
0.8307586731
 40
0.8417270613
 40
0.8526778894
 40
0.863929817
 40
0.875948609
 40
0.8891037297
 40
0.9036183267
 40
0.9194832165
 40
0.936816832
 40
0.9559659553
 40
0.977004663
 40
1.0
 40
1.0
 40
1.0
 40
1.0
 10
153.3156136962
 20
100.07903762
 30
0.0
 10
153.3767986632
 20
100.114804071
 30
0.0
 10
153.5207731102
 20
100.2028820852
 30
0.0
 10
153.722461642
 20
100.3447002362
 30
0.0
 10
153.8990795448
 20
100.5029315357
 30
0.0
 10
154.015746404
 20
100.6514624047
 30
0.0
 10
154.0752536596
 20
100.796120825
 30
0.0
 10
154.0766784083
 20
100.9386956672
 30
0.0
 10
154.0195038602
 20
101.0764600371
 30
0.0
 10
153.9058097691
 20
101.209028789
 30
0.0
 10
153.7364118182
 20
101.3380480841
 30
0.0
 10
153.5148586519
 20
101.465557071
 30
0.0
 10
153.2467835248
 20
101.5918605782
 30
0.0
 10
152.9389293048
 20
101.7171846187
 30
0.0
 10
152.5969216021
 20
101.8434797388
 30
0.0
 10
152.2255077476
 20
101.9734087618
 30
0.0
 10
151.8301936968
 20
102.1092387506
 30
0.0
 10
151.4209331857
 20
102.2521972277
 30
0.0
 10
151.0127129
 20
102.4025067234
 30
0.0
 10
150.6231177172
 20
102.5591298743
 30
0.0
 10
150.2669782472
 20
102.7211896735
 30
0.0
 10
149.9523256501
 20
102.8880517019
 30
0.0
 10
149.680826658
 20
103.0610065009
 30
0.0
 10
149.4533457322
 20
103.2429265461
 30
0.0
 10
149.2741321359
 20
103.4370687948
 30
0.0
 10
149.1487540931
 20
103.6420582515
 30
0.0
 10
149.0812655085
 20
103.8516661316
 30
0.0
 10
149.06825088
 20
104.0653163326
 30
0.0
 10
149.1080266175
 20
104.2892190838
 30
0.0
 10
149.2034419969
 20
104.5294539113
 30
0.0
 10
149.3555332311
 20
104.7838724324
 30
0.0
 10
149.5607859661
 20
105.0474120805
 30
0.0
 10
149.814472003
 20
105.3184498018
 30
0.0
 10
150.1111812515
 20
105.597897178
 30
0.0
 10
150.4479160063
 20
105.887433594
 30
0.0
 10
150.8214858686
 20
106.1883380159
 30
0.0
 10
151.2255737972
 20
106.5012224532
 30
0.0
 10
151.646917925
 20
106.8225468683
 30
0.0
 10
152.0658706616
 20
107.1450643906
 30
0.0
 10
152.4633011669
 20
107.4616045628
 30
0.0
 10
152.8269867848
 20
107.7686697246
 30
0.0
 10
153.1517828421
 20
108.0676439032
 30
0.0
 10
153.4341740644
 20
108.3614538075
 30
0.0
 10
153.6713747063
 20
108.6516227425
 30
0.0
 10
153.8583083095
 20
108.9374514074
 30
0.0
 10
153.9896485302
 20
109.2172629646
 30
0.0
 10
154.0632764092
 20
109.4889715495
 30
0.0
 10
154.0827008397
 20
109.7536183534
 30
0.0
 10
154.049442092
 20
110.0171605546
 30
0.0
 10
153.9597869796
 20
110.2851552355
 30
0.0
 10
153.809258351
 20
110.5623457819
 30
0.0
 10
153.5942721486
 20
110.852008297
 30
0.0
 10
153.312600709
 20
111.1543221237
 30
0.0
 10
152.9708632127
 20
111.4635880781
 30
0.0
 10
152.5875343203
 20
111.7737868929
 30
0.0
 10
152.1824624985
 20
112.0804618733
 30
0.0
 10
151.7695169894
 20
112.3832433805
 30
0.0
 10
151.3565427553
 20
112.6857493381
 30
0.0
 10
150.9498671077
 20
112.9919482716
 30
0.0
 10
150.5569387472
 20
113.3052745507
 30
0.0
 10
150.1871682946
 20
113.6279050358
 30
0.0
 10
149.8532883181
 20
113.9583751131
 30
0.0
 10
149.5715541784
 20
114.2910871678
 30
0.0
 10
149.3543338851
 20
114.6180900042
 30
0.0
 10
149.2017962709
 20
114.9325071386
 30
0.0
 10
149.1073026801
 20
115.2377254067
 30
0.0
 10
149.0675590911
 20
115.5404133814
 30
0.0
 10
149.0821235553
 20
115.8442317248
 30
0.0
 10
149.1490248125
 20
116.1505270072
 30
0.0
 10
149.2686059702
 20
116.46181583
 30
0.0
 10
149.443254774
 20
116.7800477608
 30
0.0
 10
149.6719924682
 20
117.1055156
 30
0.0
 10
149.9524361884
 20
117.4389817816
 30
0.0
 10
150.2841533973
 20
117.7829581411
 30
0.0
 10
150.6681691974
 20
118.1408852957
 30
0.0
 10
151.1040291756
 20
118.5182284329
 30
0.0
 10
151.4132447235
 20
118.7747100505
 30
0.0
 10
151.574979598
 20
118.9083301567
 30
0.0
 11
153.3156136962
 21
100.07903762
 31
0.0
 11
153.4967173153
 21
100.1903939958
 31
0.0
 11
153.7352464974
 21
100.3615568585
 31
0.0
 11
153.9059028534
 21
100.5192106542
 31
0.0
 11
154.0153651362
 21
100.6661972367
 31
0.0
 11
154.0675456037
 21
100.8032557932
 31
0.0
 11
154.0681399137
 21
100.934168729
 31
0.0
 11
154.0176485731
 21
101.0637322971
 31
0.0
 11
153.9119417963
 21
101.1938924872
 31
0.0
 11
153.7462860958
 21
101.3253836505
 31
0.0
 11
153.5251035043
 21
101.455912095
 31
0.0
 11
153.2569293943
 21
101.5843111345
 31
0.0
 11
152.9479078306
 21
101.7116412648
 31
0.0
 11
152.6055851535
 21
101.8392048723
 31
0.0
 11
152.2338620798
 21
101.9701124534
 31
0.0
 11
151.8359402886
 21
102.1076345571
 31
0.0
 11
151.4218841903
 21
102.2531597667
 31
0.0
 11
151.0087479701
 21
102.4063110449
 31
0.0
 11
150.6144798014
 21
102.5661606795
 31
0.0
 11
150.2570044485
 21
102.7303174701
 31
0.0
 11
149.9445518326
 21
102.8977741495
 31
0.0
 11
149.6759274371
 21
103.0712461721
 31
0.0
 11
149.4510396009
 21
103.2546038612
 31
0.0
 11
149.2756718134
 21
103.4486730077
 31
0.0
 11
149.1541046847
 21
103.6521117647
 31
0.0
 11
149.0888850126
 21
103.858663249
 31
0.0
 11
149.0762105112
 21
104.0584100711
 31
0.0
 11
149.1123438337
 21
104.274684941
 31
0.0
 11
149.2045634504
 21
104.5148866738
 31
0.0
 11
149.3533461414
 21
104.7692028164
 31
0.0
 11
149.5568514804
 21
105.0345702454
 31
0.0
 11
149.8089091065
 21
105.3070661449
 31
0.0
 11
150.1041832403
 21
105.5872704917
 31
0.0
 11
150.4400115593
 21
105.8776301669
 31
0.0
 11
150.813823591
 21
106.1802552123
 31
0.0
 11
151.2195714515
 21
106.4957974879
 31
0.0
 11
151.6468609207
 21
106.823015558
 31
0.0
 11
152.0720764411
 21
107.1517572661
 31
0.0
 11
152.4706457449
 21
107.4706732633
 31
0.0
 11
152.8336314478
 21
107.7789012438
 31
0.0
 11
153.1569769189
 21
108.078787129
 31
0.0
 11
153.4374895593
 21
108.3730846898
 31
0.0
 11
153.6725417121
 21
108.6639699405
 31
0.0
 11
153.8576183423
 21
108.9518561871
 31
0.0
 11
153.9852033388
 21
109.2298023526
 31
0.0
 11
154.0557830968
 21
109.495957624
 31
0.0
 11
154.074105989
 21
109.7538981366
 31
0.0
 11
154.0422537424
 21
110.009026096
 31
0.0
 11
153.9564328959
 21
110.2713382511
 31
0.0
 11
153.8110917201
 21
110.5448064142
 31
0.0
 11
153.6007825774
 21
110.8329246872
 31
0.0
 11
153.3212744622
 21
111.1369522363
 31
0.0
 11
152.9762957446
 21
111.4530616532
 31
0.0
 11
152.5884029808
 21
111.7696481325
 31
0.0
 11
152.1824088368
 21
112.0788698889
 31
0.0
 11
151.7694196019
 21
112.3832652296
 31
0.0
 11
151.3564462878
 21
112.6872185126
 31
0.0
 11
150.9498373898
 21
112.9949431176
 31
0.0
 11
150.5563776885
 21
113.31053546
 31
0.0
 11
150.1859634186
 21
113.6359459796
 31
0.0
 11
149.8506610567
 21
113.971108133
 31
0.0
 11
149.567908734
 21
114.3094207247
 31
0.0
 11
149.3536487461
 21
114.63599453
 31
0.0
 11
149.2055942116
 21
114.9454955105
 31
0.0
 11
149.1149856071
 21
115.2432140884
 31
0.0
 11
149.076500701
 21
115.540938173
 31
0.0
 11
149.0901788355
 21
115.8403464151
 31
0.0
 11
149.1547502742
 21
116.1414623701
 31
0.0
 11
149.2712886216
 21
116.4490776057
 31
0.0
 11
149.4426115988
 21
116.7657562322
 31
0.0
 11
149.6692219755
 21
117.0920429058
 31
0.0
 11
149.9472841598
 21
117.4255479319
 31
0.0
 11
150.2754426047
 21
117.7681583366
 31
0.0
 11
150.6575826887
 21
118.126843624
 31
0.0
 11
151.0917764503
 21
118.5050594787
 31
0.0
 11
151.574979598
 21
118.9083301567
 31
0.0
  0
SPLINE
  5
31A
100
AcDbEntity
  8
0
100
AcDbSpline
 62
7
  6
CONTINUOUS
 70
0
 71
3
 72
18
 73
14
 74
12
 42
0.0000001
 43
0.0000001
 44
0.0000000001
 12
0.0
 22
-1.7642310143
 32
0.0
 13
-1.7642310143
 23
0.0
 33
0.0
 40
0.0
 40
0.0
 40
0.0
 40
0.0
 40
0.0962938316
 40
0.1935830579
 40
0.2901642927
 40
0.3844575256
 40
0.4765796276
 40
0.5665887284
 40
0.6541294548
 40
0.7396658227
 40
0.8259929911
 40
0.9131223294
 40
1.0
 40
1.0
 40
1.0
 40
1.0
 10
115.2257968972
 20
94.3146190703
 30
0.0
 10
115.2257968972
 20
94.2579908822
 30
0.0
 10
115.2196194767
 20
94.1440505121
 30
0.0
 10
115.1915302301
 20
93.9753860796
 30
0.0
 10
115.1445642955
 20
93.8121500091
 30
0.0
 10
115.0796096456
 20
93.658476498
 30
0.0
 10
114.9978712349
 20
93.517441949
 30
0.0
 10
114.9005769696
 20
93.3915775202
 30
0.0
 10
114.7892512895
 20
93.2833466735
 30
0.0
 10
114.6646463252
 20
93.1942860286
 30
0.0
 10
114.5273445043
 20
93.1266580657
 30
0.0
 10
114.3794737509
 20
93.0839640289
 30
0.0
 10
114.2768876576
 20
93.0742320497
 30
0.0
 10
114.2257968972
 20
93.0742320497
 30
0.0
 11
115.2257968972
 21
94.3146190703
 31
0.0
 11
115.2165428762
 21
94.1449867377
 31
0.0
 11
115.1882306902
 21
93.9756972229
 31
0.0
 11
115.1409395657
 21
93.8119997877
 31
0.0
 11
115.0759550812
 21
93.6588625354
 31
0.0
 11
114.9942135922
 21
93.5183897723
 31
0.0
 11
114.8968406656
 21
93.392950736
 31
0.0
 11
114.7858705862
 21
93.285535687
 31
0.0
 11
114.6629066865
 21
93.1980572669
 31
0.0
 11
114.5261428837
 21
93.1310402724
 31
0.0
 11
114.3783907184
 21
93.0886375288
 31
0.0
 11
114.2257968972
 21
93.0742320497
 31
0.0
  0
SPLINE
  5
31B
100
AcDbEntity
  8
BEZUGSACHSEN
100
AcDbSpline
 62
7
  6
CONTINUOUS
 70
0
 71
3
 72
11
 73
7
 74
5
 42
0.0000001
 43
0.0000001
 44
0.0000000001
 12
0.0
 22
0.1830126193
 32
0.0
 13
0.1451726273
 23
-0.1114384454
 33
0.0
 40
0.0
 40
0.0
 40
0.0
 40
0.0
 40
0.2465776366
 40
0.4184562595
 40
0.6350985973
 40
1.0
 40
1.0
 40
1.0
 40
1.0
 10
105.3007968972
 20
146.2666366053
 30
0.0
 10
105.3007968972
 20
146.2816788783
 30
0.0
 10
105.3007693829
 20
146.3080921405
 30
0.0
 10
105.3301874251
 20
146.3414266726
 30
0.0
 10
105.3803501913
 20
146.3266719448
 30
0.0
 10
105.4081389988
 20
146.3069012116
 30
0.0
 10
105.4257968972
 20
146.2933465299
 30
0.0
 11
105.3007968972
 21
146.2666366053
 31
0.0
 11
105.307504255
 21
146.3112621714
 31
0.0
 11
105.3296544328
 21
146.3335970511
 31
0.0
 11
105.3689622316
 21
146.3284121503
 31
0.0
 11
105.4257968972
 21
146.2933465299
 31
0.0
  0
SPLINE
  5
31C
100
AcDbEntity
  8
0
100
AcDbSpline
 62
7
  6
CONTINUOUS
 70
0
 71
3
 72
15
 73
11
 74
9
 42
0.0000001
 43
0.0000001
 44
0.0000000001
 12
-0.9130905362
 22
0.0
 32
0.0
 13
-0.0
 23
-0.9130905362
 33
0.0
 40
0.0
 40
0.0
 40
0.0
 40
0.0
 40
0.095246705
 40
0.1989926597
 40
0.3085683636
 40
0.4267140162
 40
0.5551384148
 40
0.6926402133
 40
0.8400968689
 40
1.0
 40
1.0
 40
1.0
 40
1.0
 10
105.9257968972
 20
97.7242411982
 30
0.0
 10
105.8968072756
 20
97.7242411982
 30
0.0
 10
105.8360259272
 20
97.7171467088
 30
0.0
 10
105.7470611906
 20
97.6845404887
 30
0.0
 10
105.661873009
 20
97.6290161845
 30
0.0
 10
105.5847389376
 20
97.5518444239
 30
0.0
 10
105.5189061799
 20
97.4544543576
 30
0.0
 10
105.4675607836
 20
97.3389146405
 30
0.0
 10
105.4337476838
 20
97.2072054864
 30
0.0
 10
105.4257968972
 20
97.1134500164
 30
0.0
 10
105.4257968972
 20
97.0647813379
 30
0.0
 11
105.9257968972
 21
97.7242411982
 31
0.0
 11
105.8394029571
 21
97.7142576831
 31
0.0
 11
105.7503218123
 21
97.6820362893
 31
0.0
 11
105.6662068672
 21
97.6278589286
 31
0.0
 11
105.5895223455
 21
97.5519835215
 31
0.0
 11
105.5233894442
 21
97.4551482248
 31
0.0
 11
105.4719952641
 21
97.3405976236
 31
0.0
 11
105.4382407657
 21
97.2102561213
 31
0.0
 11
105.4257968972
 21
97.0647813379
 31
0.0
  0
SPLINE
  5
31D
100
AcDbEntity
  8
0
100
AcDbSpline
 62
7
  6
CONTINUOUS
 70
0
 71
3
 72
15
 73
11
 74
9
 42
0.0000001
 43
0.0000001
 44
0.0000000001
 12
0.0
 22
0.9130903992
 32
0.0
 13
-0.9130903992
 23
-0.0
 33
0.0
 40
0.0
 40
0.0
 40
0.0
 40
0.0
 40
0.1600918462
 40
0.3075422057
 40
0.4449036121
 40
0.5732119493
 40
0.6912879168
 40
0.8006702292
 40
0.9045439847
 40
1.0
 40
1.0
 40
1.0
 40
1.0
 10
109.1757968972
 20
97.0647813379
 30
0.0
 10
109.1757968972
 20
97.1135074471
 30
0.0
 10
109.1678319999
 20
97.2073191794
 30
0.0
 10
109.1339883053
 20
97.3390337252
 30
0.0
 10
109.0826593115
 20
97.4544915347
 30
0.0
 10
109.0168848645
 20
97.5517988894
 30
0.0
 10
108.939847002
 20
97.6289016086
 30
0.0
 10
108.8547226383
 20
97.6844404919
 30
0.0
 10
108.7657354807
 20
97.7171185903
 30
0.0
 10
108.704850221
 20
97.7242411982
 30
0.0
 10
108.6757968972
 20
97.7242411982
 30
0.0
 11
109.1757968972
 21
97.0647813379
 31
0.0
 11
109.1633235288
 21
97.2104265184
 31
0.0
 11
109.1295431329
 21
97.3407553516
 31
0.0
 11
109.0781855662
 21
97.4551818562
 31
0.0
 11
109.0121148831
 21
97.5519312925
 31
0.0
 11
108.9354897015
 21
97.627776181
 31
0.0
 11
108.8515492588
 21
97.6818983144
 31
0.0
 11
108.7623781662
 21
97.7142140136
 31
0.0
 11
108.6757968972
 21
97.7242411982
 31
0.0
  0
SPLINE
  5
31E
100
AcDbEntity
  8
BEZUGSACHSEN
100
AcDbSpline
 62
7
  6
CONTINUOUS
 70
0
 71
3
 72
12
 73
8
 74
6
 42
0.0000001
 43
0.0000001
 44
0.0000000001
 12
0.1458774432
 22
0.1119794812
 32
0.0
 13
0.0
 23
-0.1839011491
 33
0.0
 40
0.0
 40
0.0
 40
0.0
 40
0.0
 40
0.3119503866
 40
0.5109744676
 40
0.6456308384
 40
0.7914381086
 40
1.0
 40
1.0
 40
1.0
 40
1.0
 10
109.1757968972
 20
146.2933465299
 30
0.0
 10
109.1909657389
 20
146.3049905441
 30
0.0
 10
109.2168209453
 20
146.3224469681
 30
0.0
 10
109.2543902581
 20
146.3383245546
 30
0.0
 10
109.28587651
 20
146.3304841684
 30
0.0
 10
109.2995712775
 20
146.3009726972
 30
0.0
 10
109.3007968972
 20
146.2794215291
 30
0.0
 10
109.3007968972
 20
146.2666366053
 30
0.0
 11
109.1757968972
 21
146.2933465299
 31
0.0
 11
109.2239805329
 21
146.324482179
 31
0.0
 11
109.2590233249
 21
146.3350471285
 31
0.0
 11
109.2827093572
 21
146.3278221103
 31
0.0
 11
109.2963413142
 21
146.3047317004
 31
0.0
 11
109.3007968972
 21
146.2666366053
 31
0.0
  0
SPLINE
  5
31F
100
AcDbEntity
  8
0
100
AcDbSpline
 62
7
  6
CONTINUOUS
 70
0
 71
3
 72
18
 73
14
 74
12
 42
0.0000001
 43
0.0000001
 44
0.0000000001
 12
-1.7642311185
 22
0.0
 32
0.0
 13
0.0
 23
1.7642311185
 33
0.0
 40
0.0
 40
0.0
 40
0.0
 40
0.0
 40
0.086900447
 40
0.1740038441
 40
0.2602721501
 40
0.345790636
 40
0.4333324854
 40
0.523356292
 40
0.6154993271
 40
0.7098280223
 40
0.8064563316
 40
0.9037424561
 40
1.0
 40
1.0
 40
1.0
 40
1.0
 10
100.3757968972
 20
93.0742320497
 30
0.0
 10
100.3246927397
 20
93.0742320497
 30
0.0
 10
100.2221083126
 20
93.0839664767
 30
0.0
 10
100.0742742067
 20
93.126653195
 30
0.0
 10
99.9370232552
 20
93.1942447507
 30
0.0
 10
99.8124431037
 20
93.2832631504
 30
0.0
 10
99.7011038891
 20
93.3914784952
 30
0.0
 10
99.6037825536
 20
93.5173497296
 30
0.0
 10
99.5220124879
 20
93.6584146858
 30
0.0
 10
99.4570290059
 20
93.8121426
 30
0.0
 10
99.4100532903
 20
93.9754250114
 30
0.0
 10
99.3819707325
 20
94.1440951152
 30
0.0
 10
99.3757968972
 20
94.2580122189
 30
0.0
 10
99.3757968972
 20
94.3146190703
 30
0.0
 11
100.3757968972
 21
93.0742320497
 31
0.0
 11
100.2231634168
 21
93.0886450629
 31
0.0
 11
100.0754561148
 21
93.1310382555
 31
0.0
 11
99.9387813029
 21
93.1980008765
 31
0.0
 11
99.8158318114
 21
93.2854451406
 31
0.0
 11
99.7048460591
 21
93.3928468578
 31
0.0
 11
99.607443498
 21
93.5182957446
 31
0.0
 11
99.5256728234
 21
93.6587942633
 31
0.0
 11
99.4606587818
 21
93.8119869475
 31
0.0
 11
99.4133477317
 21
93.9757650831
 31
0.0
 11
99.3850439259
 21
94.1450504614
 31
0.0
 11
99.3757968972
 21
94.3146190703
 31
0.0
  0
SPLINE
  5
320
100
AcDbEntity
  8
BEZUGSACHSEN
100
AcDbSpline
 62
7
  6
CONTINUOUS
 70
0
 71
3
 72
11
 73
7
 74
5
 42
0.0000001
 43
0.0000001
 44
0.0000000001
 12
0.0
 22
-0.1395867963
 32
0.0
 13
0.0661959442
 23
-0.1231095805
 33
0.0
 40
0.0
 40
0.0
 40
0.0
 40
0.0
 40
0.2989089425
 40
0.5912641764
 40
0.8672480948
 40
1.0
 40
1.0
 40
1.0
 40
1.0
 10
105.4257968972
 20
146.0371157409
 30
0.0
 10
105.4257968972
 20
146.023207827
 30
0.0
 10
105.4270868178
 20
145.9956681077
 30
0.0
 10
105.4338142659
 20
145.955758146
 30
0.0
 10
105.4440230088
 20
145.924623014
 30
0.0
 10
105.4522911671
 20
145.9074448068
 30
0.0
 10
105.4552203797
 20
145.9019971297
 30
0.0
 11
105.4257968972
 21
146.0371157409
 31
0.0
 11
105.4279436511
 21
145.9954472628
 31
0.0
 11
105.4349645023
 21
145.9552468094
 31
0.0
 11
105.447164749
 21
145.9187060063
 31
0.0
 11
105.4552203797
 21
145.9019971297
 31
0.0
  0
SPLINE
  5
321
100
AcDbEntity
  8
BEZUGSACHSEN
100
AcDbSpline
 62
7
  6
CONTINUOUS
 70
0
 71
3
 72
16
 73
12
 74
10
 42
0.0000001
 43
0.0000001
 44
0.0000000001
 12
0.244791693
 22
-0.4552575388
 32
0.0
 13
0.497355697
 23
0.1381647029
 33
0.0
 40
0.0
 40
0.0
 40
0.0
 40
0.0
 40
0.0354819688
 40
0.1069116572
 40
0.1821577292
 40
0.2654043123
 40
0.3615453499
 40
0.4759438992
 40
0.6177190239
 40
0.7944984177
 40
1.0
 40
1.0
 40
1.0
 40
1.0
 10
105.4552203797
 20
145.9019971297
 30
0.0
 10
105.4581156101
 20
145.8966126518
 30
0.0
 10
105.467557036
 20
145.8807758426
 30
0.0
 10
105.4873202668
 20
145.8562125005
 30
0.0
 10
105.5175730499
 20
145.8303840799
 30
0.0
 10
105.5555400482
 20
145.8081082435
 30
0.0
 10
105.6028732553
 20
145.7898035695
 30
0.0
 10
105.6622221923
 20
145.7764868831
 30
0.0
 10
105.736722755
 20
145.7705250602
 30
0.0
 10
105.8270186449
 20
145.7759596763
 30
0.0
 10
105.8917277697
 20
145.789198134
 30
0.0
 10
105.9257968972
 20
145.798662489
 30
0.0
 11
105.4552203797
 21
145.9019971297
 31
0.0
 11
105.4646201635
 21
145.8862571949
 31
0.0
 11
105.487709167
 21
145.8575101897
 31
0.0
 11
105.5171464572
 21
145.8321706846
 31
0.0
 11
105.5540813957
 21
145.8102088501
 31
0.0
 11
105.6002539392
 21
145.7920170911
 31
0.0
 11
105.6577954768
 21
145.7787491401
 31
0.0
 11
105.7307136787
 21
145.7725302892
 31
0.0
 11
105.8218219883
 21
145.7776450314
 31
0.0
 11
105.9257968972
 21
145.798662489
 31
0.0
  0
SPLINE
  5
322
100
AcDbEntity
  8
0
100
AcDbSpline
 62
7
  6
CONTINUOUS
 70
0
 71
3
 72
84
 73
80
 74
78
 42
0.0000001
 43
0.0000001
 44
0.0000000001
 12
-27.0627276838
 22
-6.0758901048
 32
0.0
 13
-21.458861326
 23
-17.5657849889
 33
0.0
 40
0.0
 40
0.0
 40
0.0
 40
0.0
 40
0.0020121918
 40
0.0145469199
 40
0.0245407834
 40
0.0323017379
 40
0.0383707183
 40
0.043368634
 40
0.0481075424
 40
0.0534517703
 40
0.0600579041
 40
0.0684347758
 40
0.0786771736
 40
0.0905615649
 40
0.1039593914
 40
0.1186602359
 40
0.134514289
 40
0.1513970606
 40
0.1689770351
 40
0.1865265277
 40
0.2033533567
 40
0.2189384465
 40
0.2329897917
 40
0.2457178579
 40
0.257392285
 40
0.2680555365
 40
0.2775687186
 40
0.2859598696
 40
0.2931960369
 40
0.3000840123
 40
0.3079047741
 40
0.3168289755
 40
0.3269579562
 40
0.3382937467
 40
0.3506760372
 40
0.364200311
 40
0.3789764469
 40
0.3950352987
 40
0.4122789073
 40
0.4301740716
 40
0.4476698289
 40
0.4641214934
 40
0.4794255208
 40
0.4935810139
 40
0.5066148984
 40
0.5186668505
 40
0.5296771436
 40
0.5397032399
 40
0.5492049994
 40
0.558666482
 40
0.5687345338
 40
0.5800690243
 40
0.5931035919
 40
0.6083187557
 40
0.6258631335
 40
0.6451055764
 40
0.6649214464
 40
0.6847147708
 40
0.7043075732
 40
0.723555707
 40
0.7423123051
 40
0.7604250186
 40
0.7777064681
 40
0.7938999607
 40
0.8084926616
 40
0.8212621661
 40
0.8325423589
 40
0.8429600019
 40
0.8531510344
 40
0.8634908546
 40
0.8744544586
 40
0.8864426792
 40
0.8995922509
 40
0.9138993764
 40
0.9289734296
 40
0.9447370134
 40
0.9615424594
 40
0.9798082234
 40
1.0
 40
1.0
 40
1.0
 40
1.0
 10
151.2548401334
 20
138.1598037966
 30
0.0
 10
151.2366883337
 20
138.1557285111
 30
0.0
 10
151.1056009579
 20
138.12562746
 30
0.0
 10
150.8862925196
 20
138.0665905534
 30
0.0
 10
150.6242266128
 20
137.9659583906
 30
0.0
 10
150.4317747182
 20
137.8567142456
 30
0.0
 10
150.301431053
 20
137.7379235439
 30
0.0
 10
150.2317508799
 20
137.6051761143
 30
0.0
 10
150.2226432563
 20
137.4624046317
 30
0.0
 10
150.2681653242
 20
137.3125323942
 30
0.0
 10
150.3667388641
 20
137.1510385309
 30
0.0
 10
150.5209660239
 20
136.9751764067
 30
0.0
 10
150.7292665817
 20
136.7846088003
 30
0.0
 10
150.9873770144
 20
136.5812662031
 30
0.0
 10
151.2890451493
 20
136.3675455689
 30
0.0
 10
151.6285003778
 20
136.1442007276
 30
0.0
 10
151.9997460505
 20
135.9107944917
 30
0.0
 10
152.396161117
 20
135.667494424
 30
0.0
 10
152.806421622
 20
135.4167990407
 30
0.0
 10
153.2144230746
 20
135.1634022711
 30
0.0
 10
153.6026274495
 20
134.9131555961
 30
0.0
 10
153.9571110703
 20
134.6705062281
 30
0.0
 10
154.2714625571
 20
134.4367425443
 30
0.0
 10
154.5454531004
 20
134.2099660937
 30
0.0
 10
154.7802244976
 20
133.9859216952
 30
0.0
 10
154.9719894463
 20
133.7616065624
 30
0.0
 10
155.1148213034
 20
133.538170493
 30
0.0
 10
155.2027127588
 20
133.3212174612
 30
0.0
 10
155.235713836
 20
133.113675082
 30
0.0
 10
155.2163871373
 20
132.9096609415
 30
0.0
 10
155.1422137674
 20
132.7019608254
 30
0.0
 10
155.0091867945
 20
132.4903159156
 30
0.0
 10
154.8210027351
 20
132.2804371086
 30
0.0
 10
154.5847704747
 20
132.0744991731
 30
0.0
 10
154.3074829599
 20
131.8700566386
 30
0.0
 10
153.9926637446
 20
131.6641100867
 30
0.0
 10
153.641117118
 20
131.452908002
 30
0.0
 10
153.2549384314
 20
131.2329094574
 30
0.0
 10
152.8418255764
 20
131.0020130313
 30
0.0
 10
152.4185281623
 20
130.7621015442
 30
0.0
 10
152.0064910095
 20
130.5172775362
 30
0.0
 10
151.6232548533
 20
130.2712685674
 30
0.0
 10
151.2777948033
 20
130.0243318223
 30
0.0
 10
150.9746470054
 20
129.7738816416
 30
0.0
 10
150.7168336158
 20
129.5178070516
 30
0.0
 10
150.5085772483
 20
129.2558665401
 30
0.0
 10
150.3556122481
 20
128.9893081073
 30
0.0
 10
150.2613784878
 20
128.7214223115
 30
0.0
 10
150.2221097261
 20
128.4546761809
 30
0.0
 10
150.2342626975
 20
128.1850336533
 30
0.0
 10
150.2989908027
 20
127.9056684561
 30
0.0
 10
150.4218552576
 20
127.6106600206
 30
0.0
 10
150.6078933081
 20
127.2945115707
 30
0.0
 10
150.8625089271
 20
126.9554226039
 30
0.0
 10
151.1850508939
 20
126.5983423292
 30
0.0
 10
151.560354813
 20
126.2334294933
 30
0.0
 10
151.9662273395
 20
125.8710390282
 30
0.0
 10
152.3837241603
 20
125.5171821687
 30
0.0
 10
152.8012195046
 20
125.1715403811
 30
0.0
 10
153.2107902149
 20
124.8313498869
 30
0.0
 10
153.6049915976
 20
124.4941018196
 30
0.0
 10
153.9759949748
 20
124.1579138416
 30
0.0
 10
154.3152693899
 20
123.8225111092
 30
0.0
 10
154.6112466883
 20
123.4905404819
 30
0.0
 10
154.8515810518
 20
123.1666378003
 30
0.0
 10
155.0309364809
 20
122.8566650712
 30
0.0
 10
155.1523206091
 20
122.5608736556
 30
0.0
 10
155.2201275834
 20
122.2725412302
 30
0.0
 10
155.2346949338
 20
121.9852224212
 30
0.0
 10
155.1965328773
 20
121.6950709847
 30
0.0
 10
155.1043119679
 20
121.400018949
 30
0.0
 10
154.9561224287
 20
121.0997092816
 30
0.0
 10
154.7528689155
 20
120.796026301
 30
0.0
 10
154.5027592785
 20
120.4920947245
 30
0.0
 10
154.2145676536
 20
120.1899029509
 30
0.0
 10
153.8938625396
 20
119.8878561641
 30
0.0
 10
153.5400179644
 20
119.5785482855
 30
0.0
 10
153.1477140935
 20
119.2513169542
 30
0.0
 10
152.8722853345
 20
119.0265582924
 30
0.0
 10
152.7278544896
 20
118.9083301567
 30
0.0
 11
151.2548401334
 21
138.1598037966
 31
0.0
 11
151.2004440435
 21
138.1473074612
 31
0.0
 11
150.8655700269
 21
138.0540849915
 31
0.0
 11
150.6081357602
 21
137.951434145
 31
0.0
 11
150.4231379512
 21
137.8414481488
 31
0.0
 11
150.3023845126
 21
137.7242121758
 31
0.0
 11
150.240369501
 21
137.600260168
 31
0.0
 11
150.2304288443
 21
137.4692193396
 31
0.0
 11
150.2697940978
 21
137.3263391804
 31
0.0
 11
150.3618354484
 21
137.1679408006
 31
0.0
 11
150.5122539851
 21
136.9909117375
 31
0.0
 11
150.7201256425
 21
136.797348354
 31
0.0
 11
150.9779407383
 21
136.5920447638
 31
0.0
 11
151.2803529852
 21
136.3761957902
 31
0.0
 11
151.6203208786
 21
136.1512009494
 31
0.0
 11
151.9920977803
 21
135.9165079799
 31
0.0
 11
152.3907459017
 21
135.6709933019
 31
0.0
 11
152.8063542544
 21
135.4161490448
 31
0.0
 11
153.21935709
 21
135.1586979618
 31
0.0
 11
153.6110462831
 21
134.9050700841
 31
0.0
 11
153.9670982081
 21
134.6600743626
 31
0.0
 11
154.2791066477
 21
134.4266431496
 31
0.0
 11
154.5501057597
 21
134.2004867728
 31
0.0
 11
154.7828792956
 21
133.9754743104
 31
0.0
 11
154.9731602184
 21
133.7491189312
 31
0.0
 11
155.1128301124
 21
133.525308998
 31
0.0
 11
155.1976027828
 21
133.3086000791
 31
0.0
 11
155.2275253937
 21
133.1101733265
 31
0.0
 11
155.2099257045
 21
132.9199715395
 31
0.0
 11
155.1390601988
 21
132.7149938419
 31
0.0
 11
155.0099570053
 21
132.503854722
 31
0.0
 11
154.8247147767
 21
132.2927010142
 31
0.0
 11
154.5895492526
 21
132.0840892488
 31
0.0
 11
154.314252032
 21
131.8788541598
 31
0.0
 11
154.0011452712
 21
131.6723933007
 31
0.0
 11
153.650523226
 21
131.4603277297
 31
0.0
 11
153.2641701137
 21
131.2388410369
 31
0.0
 11
152.8473096213
 21
131.0045439789
 31
0.0
 11
152.4161697729
 21
130.7587935557
 31
0.0
 11
151.9996952535
 21
130.5098896637
 31
0.0
 11
151.6165126101
 21
130.2622665668
 31
0.0
 11
151.2722574926
 21
130.0140576516
 31
0.0
 11
150.9708023496
 21
129.762615036
 31
0.0
 11
150.7158030641
 21
129.5064481972
 31
0.0
 11
150.5097886499
 21
129.2432739086
 31
0.0
 11
150.3599205554
 21
128.9772521674
 31
0.0
 11
150.2686720091
 21
128.7146125621
 31
0.0
 11
150.2304973651
 21
128.4538938898
 31
0.0
 11
150.2417030957
 21
128.191751593
 31
0.0
 11
150.3032997602
 21
127.9194281536
 31
0.0
 11
150.4217575573
 21
127.6282808073
 31
0.0
 11
150.6028183927
 21
127.3154281995
 31
0.0
 11
150.8540987167
 21
126.9764712983
 31
0.0
 11
151.1780998699
 21
126.6135145319
 31
0.0
 11
151.5590747713
 21
126.2398681388
 31
0.0
 11
151.9679247411
 21
125.8726904457
 31
0.0
 11
152.3858172186
 21
125.5168015989
 31
0.0
 11
152.8035805191
 21
125.1693953362
 31
0.0
 11
153.2134438993
 21
124.8274392448
 31
0.0
 11
153.6078612285
 21
124.4883363878
 31
0.0
 11
153.9791445092
 21
124.1500350079
 31
0.0
 11
154.3186851082
 21
123.811826964
 31
0.0
 11
154.6156551772
 21
123.4749688316
 31
0.0
 11
154.8548202323
 21
123.1485263747
 31
0.0
 11
155.0302572675
 21
122.8409201009
 31
0.0
 11
155.1471754336
 21
122.5507738502
 31
0.0
 11
155.2118905926
 21
122.2692179543
 31
0.0
 11
155.2261143116
 21
121.9869628681
 31
0.0
 11
155.1894679198
 21
121.7025749179
 31
0.0
 11
155.1001601949
 21
121.4119494661
 31
0.0
 11
154.9548977805
 21
121.1129123156
 31
0.0
 11
154.7542500061
 21
120.8084192163
 31
0.0
 11
154.5037647054
 21
120.5007265643
 31
0.0
 11
154.2164074897
 21
120.1971274216
 31
0.0
 11
153.8991265108
 21
119.8964085259
 31
0.0
 11
153.5490700484
 21
119.5887481042
 31
0.0
 11
153.1608396883
 21
119.2633896827
 31
0.0
 11
152.7278544896
 21
118.9083301567
 31
0.0
  0
SPLINE
  5
323
100
AcDbEntity
  8
BEZUGSACHSEN
100
AcDbSpline
 62
7
  6
CONTINUOUS
 70
0
 71
3
 72
16
 73
12
 74
10
 42
0.0000001
 43
0.0000001
 44
0.0000000001
 12
0.4973714463
 22
-0.1381690781
 32
0.0
 13
0.2447633051
 23
0.4552915049
 33
0.0
 40
0.0
 40
0.0
 40
0.0
 40
0.0
 40
0.2054084362
 40
0.3821123936
 40
0.5239763358
 40
0.6383788277
 40
0.7345406286
 40
0.8178119434
 40
0.8930732946
 40
0.9645140243
 40
1.0
 40
1.0
 40
1.0
 40
1.0
 10
108.6757968972
 20
145.798662489
 30
0.0
 10
108.7098516609
 20
145.7892021243
 30
0.0
 10
108.7745337139
 20
145.7759672707
 30
0.0
 10
108.8648178063
 20
145.7705248508
 30
0.0
 10
108.9393246785
 20
145.7764788225
 30
0.0
 10
108.9986955519
 20
145.7897958179
 30
0.0
 10
109.046039588
 20
145.8081007691
 30
0.0
 10
109.0840178381
 20
145.8303811843
 30
0.0
 10
109.1142781493
 20
145.8562164972
 30
0.0
 10
109.1340440658
 20
145.8807857921
 30
0.0
 10
109.1434859374
 20
145.8966260461
 30
0.0
 10
109.146381159
 20
145.9020115338
 30
0.0
 11
108.6757968972
 21
145.798662489
 31
0.0
 11
108.7797273139
 21
145.7776506503
 31
0.0
 11
108.8707991201
 21
145.7725288723
 31
0.0
 11
108.9437659799
 21
145.7787439947
 31
0.0
 11
109.0013123119
 21
145.7920085332
 31
0.0
 11
109.0474975573
 21
145.8102015791
 31
0.0
 11
109.0844454254
 21
145.8321693109
 31
0.0
 11
109.113889354
 21
145.8575150793
 31
0.0
 11
109.1369811841
 21
145.886268622
 31
0.0
 11
109.146381159
 21
145.9020115338
 31
0.0
  0
SPLINE
  5
324
100
AcDbEntity
  8
BEZUGSACHSEN
100
AcDbSpline
 62
7
  6
CONTINUOUS
 70
0
 71
3
 72
11
 73
7
 74
5
 42
0.0000001
 43
0.0000001
 44
0.0000000001
 12
0.0661784389
 22
0.1231004829
 32
0.0
 13
-0.0
 23
0.1395704877
 33
0.0
 40
0.0
 40
0.0
 40
0.0
 40
0.0
 40
0.1327767541
 40
0.408761515
 40
0.7011191023
 40
1.0
 40
1.0
 40
1.0
 40
1.0
 10
109.146381159
 20
145.9020115338
 30
0.0
 10
109.1493101451
 20
145.907459828
 30
0.0
 10
109.1575764706
 20
145.9246377799
 30
0.0
 10
109.167782405
 20
145.9557711144
 30
0.0
 10
109.1745074515
 20
145.9956754696
 30
0.0
 10
109.1757968972
 20
146.0232107567
 30
0.0
 10
109.1757968972
 20
146.0371157409
 30
0.0
 11
109.146381159
 21
145.9020115338
 31
0.0
 11
109.1544360145
 21
145.9187222345
 31
0.0
 11
109.1666324948
 21
145.9552596738
 31
0.0
 11
109.1736510885
 21
145.9954560148
 31
0.0
 11
109.1757968972
 21
146.0371157409
 31
0.0
  0
ENDSEC
  0
SECTION
  2
OBJECTS
  0
DICTIONARY
  5
C
100
AcDbDictionary
280
0
281
1
  3
ACAD_GROUP
350
D
  3
ACAD_MLINESTYLE
350
17
  3
ACAD_LAYOUT
350
1A
  3
ACAD_PLOTSETTINGS
350
19
  3
ACAD_PLOTSTYLENAME
350
E
  0
DICTIONARY
  5
D
102
{ACAD_REACTORS
330
C
102
}
100
AcDbDictionary
280
0
281
1
  0
ACDBDICTIONARYWDFLT
  5
E
102
{ACAD_REACTORS
330
C
102
}
100
AcDbDictionary
281
1
  3
Normal
350
F
100
AcDbDictionaryWithDefault
340
F
  0
DICTIONARY
  5
17
102
{ACAD_REACTORS
330
C
102
}
100
AcDbDictionary
280
0
281
1
  3
Standard
350
18
  0
DICTIONARY
  5
19
102
{ACAD_REACTORS
330
C
102
}
100
AcDbDictionary
281
1
  0
DICTIONARY
  5
1A
102
{ACAD_REACTORS
330
C
102
}
100
AcDbDictionary
281
1
  3
Model
350
325
  3
Layout1
350
326
  0
ACDBPLACEHOLDER
  5
F
102
{ACAD_REACTORS
330
E
102
}
  0
MLINESTYLE
  5
18
102
{ACAD_REACTORS
330
17
102
}
100
AcDbMlineStyle
  2
STANDARD
 70
0
  3

 62
256
 51
90.0
 52
90.0
 71
2
 49
0.5
 62
256
  6
BYLAYER
 49
-0.5
 62
256
  6
BYLAYER
  0
LAYOUT
  5
325
102
{ACAD_REACTORS
330
1A
102
}
100
AcDbPlotSettings
  1

  2
none_device
  4
ISO_A4_(297.00_x_210.00_MM)
  6

 40
0.0
 41
0.0
 42
0.0
 43
0.0
 44
297.0
 45
210.0
 46
0.0
 47
0.0
 48
0.0
 49
0.0
140
0.0
141
0.0
142
1.0
143
1.0
 70
1024
 72
1
 73
0
 74
0
  7

 75
0
147
1.0
148
0.0
149
0.0
100
AcDbLayout
  1
Model
 70
0
 71
0
 10
0.0
 20
0.0
 11
297.0
 21
210.0
 12
0.0
 22
0.0
 32
0.0
 14
0.0
 24
0.0
 34
0.0
 15
0.0
 25
0.0
 35
0.0
146
0.0
 13
0.0
 23
0.0
 33
0.0
 16
1.0
 26
0.0
 36
0.0
 17
0.0
 27
1.0
 37
0.0
 76
0
330
217
345
0
346
0
  0
LAYOUT
  5
326
102
{ACAD_REACTORS
330
1A
102
}
100
AcDbPlotSettings
  1

  2
none_device
  4
ISO_A4_(297.00_x_210.00_MM)
  6

 40
0.0
 41
0.0
 42
0.0
 43
0.0
 44
297.0
 45
210.0
 46
0.0
 47
0.0
 48
0.0
 49
0.0
140
0.0
141
0.0
142
1.0
143
1.0
 70
0
 72
1
 73
0
 74
0
  7

 75
0
147
1.0
148
0.0
149
0.0
100
AcDbLayout
  1
Layout1
 70
0
 71
1
 10
0.0
 20
0.0
 11
297.0
 21
210.0
 12
0.0
 22
0.0
 32
0.0
 14
0.0
 24
0.0
 34
0.0
 15
0.0
 25
0.0
 35
0.0
146
0.0
 13
0.0
 23
0.0
 33
0.0
 16
1.0
 26
0.0
 36
0.0
 17
0.0
 27
1.0
 37
0.0
 76
0
330
218
345
0
346
0
  0
ENDSEC
  0
EOF
