999
DXF file: 4048208_8_1.dxf
999
Pro/ENGINEER 2008230 by Parametric Technology Corporation
  0
SECTION
  2
HEADER
  9
$ACADVER
  1
AC1021
  9
$DWGCODEPAGE
  3
ANSI_1252
  9
$EXTMAX
 10
420.0
 20
297.0
 30
0.0
  9
$EXTMIN
 10
0.0
 20
-0.0
 30
0.0
  9
$LIMMIN
 10
0.0
 20
-0.0
  9
$LIMMAX
 10
420.0
 20
297.0
  9
$VIEWCTR
 10
210.0
 20
148.5
  9
$VIEWSIZE
 40
297.0
  9
$CLAYER
  8
0
  9
$LTSCALE
 40
23.1
  9
$CELTYPE
  6
BYLAYER
  9
$DIMSCALE
 40
1.0
  9
$DIMASZ
 40
3.5
  9
$DIMEXO
 40
2.625
  9
$DIMDLI
 40
15.96
  9
$DIMEXE
 40
7.56
  9
$DIMCEN
 40
3.78
  9
$DIMLFAC
 40
1.0
  9
$DIMBLK
  1
_FILLED
  9
$DIMTXT
 40
3.5
  9
$DIMTOL
 70
1
  9
$DIMLIM
 70
0
  9
$DIMTFAC
 40
1.0
  9
$DIMTP
 40
0.005
  9
$DIMTM
 40
0.005
  9
$PDMODE
 70
3
  9
$PDSIZE
 40
0.3125
  9
$HANDSEED
  5
395
  9
$TILEMODE
 70
1
  9
$MEASUREMENT
 70
1
  9
$INSUNITS
 70
4
  0
ENDSEC
  0
SECTION
  2
CLASSES
  0
CLASS
  1
ACDBDICTIONARYWDFLT
  2
AcDbDictionaryWithDefault
  3
AutoCAD 2000
 90
0
 91
1
280
0
281
0
  0
CLASS
  1
ACDBPLACEHOLDER
  2
AcDbPlaceHolder
  3
AutoCAD 2000
 90
0
 91
1
280
0
281
0
  0
CLASS
  1
LAYOUT
  2
AcDbLayout
  3
AutoCAD 2000
 90
0
 91
0
280
0
281
0
  0
ENDSEC
  0
SECTION
  2
TABLES
  0
TABLE
  2
VPORT
  5
8
100
AcDbSymbolTable
 70
2
  0
VPORT
  5
1F4
100
AcDbSymbolTableRecord
100
AcDbViewportTableRecord
  2
*ACTIVE
 70
0
 10
0.0
 20
0.0
 11
1.0
 21
1.0
 12
210.0
 22
148.5
 13
0.0
 23
0.0
 14
1.0
 24
1.0
 15
0.0
 25
0.0
 16
0.0
 26
0.0
 36
1.0
 17
0.0
 27
0.0
 37
0.0
 40
297.0
 41
1.4141414141
 42
50.0
 43
0.0
 44
0.0
 50
0.0
 51
0.0
 71
0
 72
100
 73
1
 74
1
 75
0
 76
0
 77
0
 78
0
  0
ENDTAB
  0
TABLE
  2
LTYPE
  5
5
100
AcDbSymbolTable
 70
6
  0
LTYPE
  5
14
100
AcDbSymbolTableRecord
100
AcDbLinetypeTableRecord
  2
BYBLOCK
 70
0
  3

 72
65
 73
0
 40
0.0
  0
LTYPE
  5
15
100
AcDbSymbolTableRecord
100
AcDbLinetypeTableRecord
  2
BYLAYER
 70
0
  3

 72
65
 73
0
 40
0.0
  0
LTYPE
  5
16
100
AcDbSymbolTableRecord
100
AcDbLinetypeTableRecord
  2
CONTINUOUS
 70
64
  3
Solid line
 72
65
 73
0
 40
0.0
  0
LTYPE
  5
1F5
100
AcDbSymbolTableRecord
100
AcDbLinetypeTableRecord
  2
CENTER
 70
64
  3
____ _ ____ _ ____ _ ____ _ ____ _ ____ _ ____
 72
65
 73
4
 40
0.6
 49
0.375
 74
0
 49
-0.075
 74
0
 49
0.075
 74
0
 49
-0.075
 74
0
  0
LTYPE
  5
1F6
100
AcDbSymbolTableRecord
100
AcDbLinetypeTableRecord
  2
HIDDEN
 70
64
  3
- - - - - - - - - - - - - - - - - - - -
 72
65
 73
2
 40
0.2
 49
0.1
 74
0
 49
-0.1
 74
0
  0
LTYPE
  5
1F7
100
AcDbSymbolTableRecord
100
AcDbLinetypeTableRecord
  2
PHANTOM
 70
64
  3
_____ _ _ _____ _ _ _____ _ _ _____
 72
65
 73
6
 40
0.8
 49
0.45
 74
0
 49
-0.05
 74
0
 49
0.1
 74
0
 49
-0.05
 74
0
 49
0.1
 74
0
 49
-0.05
 74
0
  0
LTYPE
  5
1F8
100
AcDbSymbolTableRecord
100
AcDbLinetypeTableRecord
  2
DOT
 70
64
  3
. . . . . . . . . . . . . . . . . . . .
 72
65
 73
2
 40
0.2
 49
0.1
 74
0
 49
-0.1
 74
0
  0
LTYPE
  5
1F9
100
AcDbSymbolTableRecord
100
AcDbLinetypeTableRecord
  2
DASHED
 70
64
  3
- - - - - - - - - - - - - - - - - - - -
 72
65
 73
2
 40
0.2
 49
0.1
 74
0
 49
-0.1
 74
0
  0
ENDTAB
  0
TABLE
  2
LAYER
  5
2
100
AcDbSymbolTable
 70
36
  0
LAYER
  5
10
100
AcDbSymbolTableRecord
100
AcDbLayerTableRecord
  2
0
 70
0
 62
7
  6
CONTINUOUS
370
-3
390
F
  0
LAYER
  5
1FA
100
AcDbSymbolTableRecord
100
AcDbLayerTableRecord
  2
DEFAULT_1
 70
0
 62
7
  6
CENTER
370
-3
390
F
  0
LAYER
  5
1FB
100
AcDbSymbolTableRecord
100
AcDbLayerTableRecord
  2
DEFAULT_2
 70
0
 62
8
  6
HIDDEN
370
-3
390
F
  0
LAYER
  5
1FC
100
AcDbSymbolTableRecord
100
AcDbLayerTableRecord
  2
DEFAULT_3
 70
0
 62
7
  6
PHANTOM
370
-3
390
F
  0
LAYER
  5
1FD
100
AcDbSymbolTableRecord
100
AcDbLayerTableRecord
  2
ANALYSEN
 70
0
 62
7
  6
CONTINUOUS
370
-3
390
F
  0
LAYER
  5
1FE
100
AcDbSymbolTableRecord
100
AcDbLayerTableRecord
  2
AUSSENKONTUR
 70
0
 62
7
  6
CONTINUOUS
370
-3
390
F
  0
LAYER
  5
1FF
100
AcDbSymbolTableRecord
100
AcDbLayerTableRecord
  2
BEZUGSACHSEN
 70
0
 62
7
  6
CONTINUOUS
370
-3
390
F
  0
LAYER
  5
200
100
AcDbSymbolTableRecord
100
AcDbLayerTableRecord
  2
BEZUGSACHSENKENNZEICHEN
 70
0
 62
7
  6
CONTINUOUS
370
-3
390
F
  0
LAYER
  5
201
100
AcDbSymbolTableRecord
100
AcDbLayerTableRecord
  2
BEZUGSEBENEN
 70
0
 62
7
  6
CONTINUOUS
370
-3
390
F
  0
LAYER
  5
202
100
AcDbSymbolTableRecord
100
AcDbLayerTableRecord
  2
BEZUGSPUNKTE
 70
0
 62
7
  6
CONTINUOUS
370
-3
390
F
  0
LAYER
  5
203
100
AcDbSymbolTableRecord
100
AcDbLayerTableRecord
  2
BOHRUNGEN
 70
0
 62
7
  6
CONTINUOUS
370
-3
390
F
  0
LAYER
  5
204
100
AcDbSymbolTableRecord
100
AcDbLayerTableRecord
  2
FASEN
 70
0
 62
7
  6
CONTINUOUS
370
-3
390
F
  0
LAYER
  5
205
100
AcDbSymbolTableRecord
100
AcDbLayerTableRecord
  2
FLAECHEN
 70
0
 62
7
  6
CONTINUOUS
370
-3
390
F
  0
LAYER
  5
206
100
AcDbSymbolTableRecord
100
AcDbLayerTableRecord
  2
GEWINDE
 70
0
 62
7
  6
CONTINUOUS
370
-3
390
F
  0
LAYER
  5
207
100
AcDbSymbolTableRecord
100
AcDbLayerTableRecord
  2
HILFEN
 70
0
 62
7
  6
CONTINUOUS
370
-3
390
F
  0
LAYER
  5
208
100
AcDbSymbolTableRecord
100
AcDbLayerTableRecord
  2
INNENKONTUR
 70
0
 62
7
  6
CONTINUOUS
370
-3
390
F
  0
LAYER
  5
209
100
AcDbSymbolTableRecord
100
AcDbLayerTableRecord
  2
KURVEN
 70
0
 62
7
  6
CONTINUOUS
370
-3
390
F
  0
LAYER
  5
20A
100
AcDbSymbolTableRecord
100
AcDbLayerTableRecord
  2
MAKINO
 70
0
 62
7
  6
CONTINUOUS
370
-3
390
F
  0
LAYER
  5
20B
100
AcDbSymbolTableRecord
100
AcDbLayerTableRecord
  2
OELVERDR_RILLE
 70
0
 62
7
  6
CONTINUOUS
370
-3
390
F
  0
LAYER
  5
20C
100
AcDbSymbolTableRecord
100
AcDbLayerTableRecord
  2
PLATZIERUNG
 70
0
 62
7
  6
CONTINUOUS
370
-3
390
F
  0
LAYER
  5
20D
100
AcDbSymbolTableRecord
100
AcDbLayerTableRecord
  2
PUNKTE
 70
0
 62
7
  6
CONTINUOUS
370
-3
390
F
  0
LAYER
  5
20E
100
AcDbSymbolTableRecord
100
AcDbLayerTableRecord
  2
RUNDUNGEN
 70
0
 62
7
  6
CONTINUOUS
370
-3
390
F
  0
LAYER
  5
20F
100
AcDbSymbolTableRecord
100
AcDbLayerTableRecord
  2
TEIL_STARTBEZUEGE
 70
0
 62
7
  6
CONTINUOUS
370
-3
390
F
  0
LAYER
  5
210
100
AcDbSymbolTableRecord
100
AcDbLayerTableRecord
  2
VERERBUNG
 70
0
 62
7
  6
CONTINUOUS
370
-3
390
F
  0
LAYER
  5
211
100
AcDbSymbolTableRecord
100
AcDbLayerTableRecord
  2
VOLUMEN
 70
0
 62
7
  6
CONTINUOUS
370
-3
390
F
  0
LAYER
  5
212
100
AcDbSymbolTableRecord
100
AcDbLayerTableRecord
  2
ZEICHNUNG
 70
0
 62
7
  6
CONTINUOUS
370
-3
390
F
  0
LAYER
  5
213
100
AcDbSymbolTableRecord
100
AcDbLayerTableRecord
  2
ZEICHNUNGSBEMASSUNGEN
 70
0
 62
7
  6
CONTINUOUS
370
-3
390
F
  0
ENDTAB
  0
TABLE
  2
STYLE
  5
3
100
AcDbSymbolTable
 70
1
  0
STYLE
  5
11
100
AcDbSymbolTableRecord
100
AcDbTextStyleTableRecord
  2
STANDARD
 70
0
 40
0.0
 41
0.7
 50
0.0
 71
0
 42
0.2
  3
txt
  4

  0
STYLE
  5
214
100
AcDbSymbolTableRecord
100
AcDbTextStyleTableRecord
  2
TEXTSTYLE_1
 70
0
 40
0.0
 41
0.8
 50
0.0
 71
0
 42
0.2
  3
gdt
  4

  0
STYLE
  5
215
100
AcDbSymbolTableRecord
100
AcDbTextStyleTableRecord
  2
TEXTSTYLE_2
 70
0
 40
0.0
 41
0.7
 50
0.0
 71
0
 42
0.2
  3
txt
  4

  0
STYLE
  5
216
100
AcDbSymbolTableRecord
100
AcDbTextStyleTableRecord
  2
TEXTSTYLE_3
 70
0
 40
0.0
 41
0.7
 50
0.0
 71
0
 42
0.2
  3
gdt
  4

  0
ENDTAB
  0
TABLE
  2
VIEW
  5
6
100
AcDbSymbolTable
 70
0
  0
ENDTAB
  0
TABLE
  2
UCS
  5
7
100
AcDbSymbolTable
 70
0
  0
ENDTAB
  0
TABLE
  2
APPID
  5
9
100
AcDbSymbolTable
 70
1
  0
APPID
  5
217
100
AcDbSymbolTableRecord
100
AcDbRegAppTableRecord
  2
ACAD
 70
0
  0
ENDTAB
  0
TABLE
  2
BLOCK_RECORD
  5
1
100
AcDbSymbolTable
 70
0
  0
BLOCK_RECORD
  5
218
100
AcDbSymbolTableRecord
100
AcDbBlockTableRecord
  2
*Model_Space
  0
BLOCK_RECORD
  5
219
100
AcDbSymbolTableRecord
100
AcDbBlockTableRecord
  2
*Paper_Space
  0
BLOCK_RECORD
  5
21A
100
AcDbSymbolTableRecord
100
AcDbBlockTableRecord
  2
_FILLED
  0
BLOCK_RECORD
  5
21B
100
AcDbSymbolTableRecord
100
AcDbBlockTableRecord
  2
*D0
  0
BLOCK_RECORD
  5
21C
100
AcDbSymbolTableRecord
100
AcDbBlockTableRecord
  2
*D1
  0
BLOCK_RECORD
  5
21D
100
AcDbSymbolTableRecord
100
AcDbBlockTableRecord
  2
*D2
  0
BLOCK_RECORD
  5
21E
100
AcDbSymbolTableRecord
100
AcDbBlockTableRecord
  2
*D3
  0
BLOCK_RECORD
  5
21F
100
AcDbSymbolTableRecord
100
AcDbBlockTableRecord
  2
*D4
  0
BLOCK_RECORD
  5
220
100
AcDbSymbolTableRecord
100
AcDbBlockTableRecord
  2
*D5
  0
BLOCK_RECORD
  5
221
100
AcDbSymbolTableRecord
100
AcDbBlockTableRecord
  2
*D6
  0
BLOCK_RECORD
  5
222
100
AcDbSymbolTableRecord
100
AcDbBlockTableRecord
  2
*D7
  0
ENDTAB
  0
TABLE
  2
DIMSTYLE
  5
A
100
AcDbSymbolTable
 70
1
100
AcDbDimStyleTable
 71
0
  0
DIMSTYLE
105
223
100
AcDbSymbolTableRecord
100
AcDbDimStyleTableRecord
  2
STANDARD
 70
0
  3

  4

 40
1.0
 41
3.5
 42
0.0625
 43
0.38
 44
0.18
 45
0.0
 46
0.0
 47
0.005
 48
0.005
140
3.5
141
0.09
142
0.0
143
25.4
144
1.0
145
0.0
146
1.0
147
0.09
 71
1.0
 72
0.0
 73
0
 74
0
 75
0
 76
0
 77
1
 78
8
170
0
171
2
172
0
173
0
174
0
175
0
176
0
177
0
178
5
270
2
271
3
272
3
273
2
274
2
275
0
280
0
281
0
282
0
283
1
284
8
285
0
286
0
287
3
288
0
340
11
341
21A
342
21A
343
21A
344
21A
  0
DIMSTYLE
105
224
100
AcDbSymbolTableRecord
100
AcDbDimStyleTableRecord
  2
DIMSTYLE_1
 70
0
  3

  4

 40
1.0
 41
3.5
 42
0.0625
 43
0.38
 44
0.18
 45
0.0
 46
0.0
 47
0.5
 48
0.5
140
3.5
141
0.09
142
0.0
143
25.4
144
1.0
145
0.0
146
1.0
147
0.09
 71
0.0
 72
0.0
 73
0
 74
0
 75
0
 76
0
 77
1
 78
8
170
0
171
2
172
0
173
0
174
0
175
0
176
0
177
0
178
0
270
2
271
3
272
3
273
2
274
2
275
0
280
0
281
0
282
0
283
1
284
8
285
0
286
0
287
3
288
0
340
215
341
21A
342
21A
343
21A
344
21A
  0
DIMSTYLE
105
225
100
AcDbSymbolTableRecord
100
AcDbDimStyleTableRecord
  2
DIMSTYLE_2
 70
0
  3

  4

 40
1.0
 41
3.5
 42
0.0625
 43
0.38
 44
0.18
 45
0.0
 46
0.0
 47
0.1
 48
0.1
140
3.5
141
0.09
142
0.0
143
25.4
144
1.0
145
0.0
146
1.0
147
0.09
 71
0.0
 72
0.0
 73
0
 74
0
 75
0
 76
0
 77
1
 78
8
170
0
171
2
172
0
173
0
174
0
175
0
176
0
177
0
178
0
270
2
271
3
272
3
273
2
274
2
275
0
280
0
281
0
282
0
283
1
284
8
285
0
286
0
287
3
288
0
340
215
341
21A
342
21A
343
21A
344
21A
  0
DIMSTYLE
105
226
100
AcDbSymbolTableRecord
100
AcDbDimStyleTableRecord
  2
DIMSTYLE_3
 70
0
  3

  4

 40
1.0
 41
3.5
 42
0.0625
 43
0.38
 44
0.18
 45
0.0
 46
0.0
 47
0.1
 48
0.1
140
3.5
141
0.09
142
0.0
143
25.4
144
1.0
145
0.0
146
1.0
147
0.09
 71
0.0
 72
0.0
 73
0
 74
0
 75
0
 76
0
 77
1
 78
8
170
0
171
2
172
0
173
0
174
0
175
0
176
0
177
0
178
0
270
2
271
3
272
3
273
2
274
2
275
0
280
0
281
0
282
0
283
1
284
8
285
0
286
0
287
3
288
0
340
215
341
21A
342
21A
343
21A
344
21A
  0
DIMSTYLE
105
227
100
AcDbSymbolTableRecord
100
AcDbDimStyleTableRecord
  2
DIMSTYLE_4
 70
0
  3

  4

 40
1.0
 41
3.5
 42
0.0625
 43
0.38
 44
0.18
 45
0.0
 46
0.0
 47
0.1
 48
0.1
140
3.5
141
0.09
142
0.0
143
25.4
144
1.0
145
0.0
146
1.0
147
0.09
 71
0.0
 72
0.0
 73
0
 74
0
 75
0
 76
0
 77
1
 78
8
170
0
171
2
172
0
173
0
174
0
175
0
176
0
177
0
178
0
270
2
271
1
272
1
273
2
274
2
275
0
280
0
281
0
282
0
283
1
284
8
285
0
286
0
287
3
288
0
340
215
341
21A
342
21A
343
21A
344
21A
  0
DIMSTYLE
105
228
100
AcDbSymbolTableRecord
100
AcDbDimStyleTableRecord
  2
DIMSTYLE_5
 70
0
  3

  4

 40
1.0
 41
3.5
 42
0.0625
 43
0.38
 44
0.18
 45
0.0
 46
0.0
 47
0.2
 48
0.2
140
3.5
141
0.09
142
0.0
143
25.4
144
1.0
145
0.0
146
1.0
147
0.09
 71
0.0
 72
0.0
 73
0
 74
0
 75
0
 76
0
 77
1
 78
8
170
0
171
2
172
0
173
0
174
0
175
0
176
0
177
0
178
0
270
2
271
3
272
3
273
2
274
2
275
0
280
0
281
0
282
0
283
1
284
8
285
0
286
0
287
3
288
0
340
215
341
21A
342
21A
343
21A
344
21A
  0
ENDTAB
  0
ENDSEC
  0
SECTION
  2
BLOCKS
  0
BLOCK
  5
20
100
AcDbEntity
  8
0
100
AcDbBlockBegin
  2
*Model_Space
 70
0
 10
0.0
 20
0.0
 30
0.0
  3
*Model_Space
  1

  0
ENDBLK
  5
21
100
AcDbEntity
  8
0
100
AcDbBlockEnd
  0
BLOCK
  5
1C
100
AcDbEntity
  8
0
100
AcDbBlockBegin
  2
*Paper_Space
 70
0
 10
0.0
 20
0.0
 30
0.0
  3
*Paper_Space
  1

  0
ENDBLK
  5
1D
100
AcDbEntity
  8
0
100
AcDbBlockEnd
  0
BLOCK
  5
229
100
AcDbEntity
  8
0
100
AcDbBlockBegin
  2
_FILLED
 70
64
 10
0.0
 20
0.0
  3
_FILLED
  1

  0
SOLID
  5
22A
100
AcDbEntity
  8
0
  6
BYBLOCK
 62
0
100
AcDbTrace
 10
0.0
 20
0.0
 11
-1.0
 21
0.125
 12
-1.0
 22
-0.125
 13
-1.0
 23
-0.125
  0
ENDBLK
  5
22B
100
AcDbEntity
  8
0
  6
BYBLOCK
 62
0
100
AcDbBlockEnd
  0
BLOCK
  5
22C
100
AcDbEntity
  8
0
100
AcDbBlockBegin
 62
2
  6
CONTINUOUS
  2
*D0
 70
65
 10
0.0
 20
0.0
  3
*D0
  1

  0
MTEXT
  5
22D
100
AcDbEntity
  8
0
100
AcDbMText
 62
2
  6
CONTINUOUS
  7
TEXTSTYLE_2
 71
2
 72
1
 10
294.5592711693
 20
242.822302541
 30
0.0
 11
1.0
 21
0.0
 31
0.0
 44
0.9
  1
160
 40
3.5
 41
7.35
  0
LINE
  5
22E
100
AcDbEntity
  8
0
100
AcDbLine
 62
2
  6
CONTINUOUS
 10
362.8104853718
 20
166.975153128
 11
362.8104853718
 21
239.947302541
  0
LINE
  5
22F
100
AcDbEntity
  8
0
100
AcDbLine
 62
2
  6
CONTINUOUS
 10
202.8104853718
 20
198.248713277
 11
202.8104853718
 21
239.947302541
  0
LINE
  5
230
100
AcDbEntity
  8
0
100
AcDbLine
 62
2
  6
CONTINUOUS
 10
362.8104853718
 20
238.447302541
 11
282.8104853718
 21
238.447302541
  0
LINE
  5
231
100
AcDbEntity
  8
0
100
AcDbLine
 62
2
  6
CONTINUOUS
 10
202.8104853718
 20
238.447302541
 11
282.8104853718
 21
238.447302541
  0
INSERT
  5
232
100
AcDbEntity
  8
0
100
AcDbBlockReference
 62
2
  6
CONTINUOUS
  2
_FILLED
 10
362.8104853718
 20
238.447302541
 41
3.5
 42
3.5
 43
3.5
  0
INSERT
  5
233
100
AcDbEntity
  8
0
100
AcDbBlockReference
 62
2
  6
CONTINUOUS
  2
_FILLED
 10
202.8104853718
 20
238.447302541
 41
3.5
 42
3.5
 43
3.5
 50
180.0
  0
ENDBLK
  5
234
100
AcDbEntity
  8
0
  6
BYBLOCK
 62
0
100
AcDbBlockEnd
  0
BLOCK
  5
235
100
AcDbEntity
  8
0
100
AcDbBlockBegin
 62
2
  6
CONTINUOUS
  2
*D1
 70
65
 10
0.0
 20
0.0
  3
*D1
  1

  0
MTEXT
  5
236
100
AcDbEntity
  8
0
100
AcDbMText
 62
2
  6
CONTINUOUS
  7
TEXTSTYLE_2
 71
2
 72
1
 10
270.3050550764
 20
249.5018839127
 30
0.0
 11
1.0
 21
0.0
 31
0.0
 44
0.9
  1
228.4
 40
3.5
 41
12.25
  0
LINE
  5
237
100
AcDbEntity
  8
0
100
AcDbLine
 62
2
  6
CONTINUOUS
 10
134.4104853718
 20
182.1672216424
 11
134.4104853718
 21
246.6268839127
  0
LINE
  5
238
100
AcDbEntity
  8
0
100
AcDbLine
 62
2
  6
CONTINUOUS
 10
362.8104853718
 20
164.5941314586
 11
362.8104853718
 21
246.6268839127
  0
LINE
  5
239
100
AcDbEntity
  8
0
100
AcDbLine
 62
2
  6
CONTINUOUS
 10
134.4104853718
 20
245.1268839127
 11
248.6104853718
 21
245.1268839127
  0
LINE
  5
23A
100
AcDbEntity
  8
0
100
AcDbLine
 62
2
  6
CONTINUOUS
 10
362.8104853718
 20
245.1268839127
 11
248.6104853718
 21
245.1268839127
  0
INSERT
  5
23B
100
AcDbEntity
  8
0
100
AcDbBlockReference
 62
2
  6
CONTINUOUS
  2
_FILLED
 10
134.4104853718
 20
245.1268839127
 41
3.5
 42
3.5
 43
3.5
 50
180.0
  0
INSERT
  5
23C
100
AcDbEntity
  8
0
100
AcDbBlockReference
 62
2
  6
CONTINUOUS
  2
_FILLED
 10
362.8104853718
 20
245.1268839127
 41
3.5
 42
3.5
 43
3.5
  0
ENDBLK
  5
23D
100
AcDbEntity
  8
0
  6
BYBLOCK
 62
0
100
AcDbBlockEnd
  0
BLOCK
  5
23E
100
AcDbEntity
  8
0
100
AcDbBlockBegin
 62
2
  6
CONTINUOUS
  2
*D2
 70
65
 10
0.0
 20
0.0
  3
*D2
  1

  0
MTEXT
  5
23F
100
AcDbEntity
  8
0
100
AcDbMText
 62
2
  6
CONTINUOUS
  7
TEXTSTYLE_2
 71
2
 72
1
 10
301.9514149393
 20
235.3975053704
 30
0.0
 11
1.0
 21
0.0
 31
0.0
 44
0.9
  1
140.9
 40
3.5
 41
12.25
  0
LINE
  5
240
100
AcDbEntity
  8
0
100
AcDbLine
 62
2
  6
CONTINUOUS
 10
362.8104853718
 20
167.522028128
 11
362.8104853718
 21
232.5225053704
  0
LINE
  5
241
100
AcDbEntity
  8
0
100
AcDbLine
 62
2
  6
CONTINUOUS
 10
221.9104853718
 20
201.9057832249
 11
221.9104853718
 21
232.5225053704
  0
LINE
  5
242
100
AcDbEntity
  8
0
100
AcDbLine
 62
2
  6
CONTINUOUS
 10
362.8104853718
 20
231.0225053704
 11
292.3604853718
 21
231.0225053704
  0
LINE
  5
243
100
AcDbEntity
  8
0
100
AcDbLine
 62
2
  6
CONTINUOUS
 10
221.9104853718
 20
231.0225053704
 11
292.3604853718
 21
231.0225053704
  0
INSERT
  5
244
100
AcDbEntity
  8
0
100
AcDbBlockReference
 62
2
  6
CONTINUOUS
  2
_FILLED
 10
362.8104853718
 20
231.0225053704
 41
3.5
 42
3.5
 43
3.5
  0
INSERT
  5
245
100
AcDbEntity
  8
0
100
AcDbBlockReference
 62
2
  6
CONTINUOUS
  2
_FILLED
 10
221.9104853718
 20
231.0225053704
 41
3.5
 42
3.5
 43
3.5
 50
180.0
  0
ENDBLK
  5
246
100
AcDbEntity
  8
0
  6
BYBLOCK
 62
0
100
AcDbBlockEnd
  0
BLOCK
  5
247
100
AcDbEntity
  8
0
100
AcDbBlockBegin
 62
2
  6
CONTINUOUS
  2
*D3
 70
65
 10
0.0
 20
0.0
  3
*D3
  1

  0
MTEXT
  5
248
100
AcDbEntity
  8
0
100
AcDbMText
 62
2
  6
CONTINUOUS
  7
TEXTSTYLE_2
 71
1
 72
1
 10
375.4369559415
 20
191.7484824558
 30
0.0
 11
0.8352783935
 21
0.5498272504
 31
0.0
 44
0.9
  1
R0.3
 40
3.5
 41
9.8
  0
LINE
  5
249
100
AcDbEntity
  8
0
100
AcDbLine
 62
2
  6
CONTINUOUS
 10
362.7610688899
 20
178.1667255079
 11
386.0281784187
 21
193.4824465385
  0
INSERT
  5
24A
100
AcDbEntity
  8
0
100
AcDbBlockReference
 62
2
  6
CONTINUOUS
  2
_FILLED
 10
362.7610688899
 20
178.1667255079
 41
3.5
 42
3.5
 43
3.5
 50
213.3551624358
  0
ENDBLK
  5
24B
100
AcDbEntity
  8
0
  6
BYBLOCK
 62
0
100
AcDbBlockEnd
  0
BLOCK
  5
24C
100
AcDbEntity
  8
0
100
AcDbBlockBegin
 62
2
  6
CONTINUOUS
  2
*D4
 70
65
 10
0.0
 20
0.0
  3
*D4
  1

  0
MTEXT
  5
24D
100
AcDbEntity
  8
0
100
AcDbMText
 62
2
  6
CONTINUOUS
  7
TEXTSTYLE_3
 71
1
 72
1
 10
398.9081298941
 20
182.4138488101
 30
0.0
 11
0.0
 21
1.0
 31
0.0
 44
0.9
  1
{\Fgdt;n}\Ftxt;14
 40
3.5
 41
9.5666666667
  0
LINE
  5
24E
100
AcDbEntity
  8
0
100
AcDbLine
 62
2
  6
CONTINUOUS
 10
364.3104853718
 20
164.2864667028
 11
404.7831298941
 21
164.2864667028
  0
LINE
  5
24F
100
AcDbEntity
  8
0
100
AcDbLine
 62
2
  6
CONTINUOUS
 10
364.3104853718
 20
178.2864667028
 11
404.7831298941
 21
178.2864667028
  0
LINE
  5
250
100
AcDbEntity
  8
0
100
AcDbLine
 62
2
  6
CONTINUOUS
 10
403.2831298941
 20
164.2864667028
 11
403.2831298941
 21
171.2864667028
  0
LINE
  5
251
100
AcDbEntity
  8
0
100
AcDbLine
 62
2
  6
CONTINUOUS
 10
403.2831298941
 20
178.2864667028
 11
403.2831298941
 21
171.2864667028
  0
LINE
  5
252
100
AcDbEntity
  8
0
100
AcDbLine
 62
2
  6
CONTINUOUS
 10
403.2831298941
 20
171.2864667028
 11
403.2831298941
 21
191.9805154768
  0
INSERT
  5
253
100
AcDbEntity
  8
0
100
AcDbBlockReference
 62
2
  6
CONTINUOUS
  2
_FILLED
 10
403.2831298941
 20
164.2864667028
 41
3.5
 42
3.5
 43
3.5
 50
270.0
  0
INSERT
  5
254
100
AcDbEntity
  8
0
100
AcDbBlockReference
 62
2
  6
CONTINUOUS
  2
_FILLED
 10
403.2831298941
 20
178.2864667028
 41
3.5
 42
3.5
 43
3.5
 50
90.0
  0
ENDBLK
  5
255
100
AcDbEntity
  8
0
  6
BYBLOCK
 62
0
100
AcDbBlockEnd
  0
BLOCK
  5
256
100
AcDbEntity
  8
0
100
AcDbBlockBegin
 62
2
  6
CONTINUOUS
  2
*D5
 70
65
 10
0.0
 20
0.0
  3
*D5
  1

  0
MTEXT
  5
257
100
AcDbEntity
  8
0
100
AcDbMText
 62
2
  6
CONTINUOUS
  7
TEXTSTYLE_2
 71
2
 72
1
 10
343.5861215755
 20
195.3915596996
 30
0.0
 11
0.1558363551
 21
0.9877828863
 31
0.0
 44
0.9
  1
3\Fgdt;{\Fgdt;~}
 40
3.5
 41
4.7833333333
  0
LINE
  5
258
100
AcDbEntity
  8
0
100
AcDbLine
 62
2
  6
CONTINUOUS
 10
351.9006269315
 20
178.858228156
 11
347.4008017685
 21
179.094054
  0
LINE
  5
259
100
AcDbEntity
  8
0
100
AcDbLine
 62
2
  6
CONTINUOUS
 10
351.6454876133
 20
171.2864667028
 11
347.1963528999
 21
171.2864667028
  0
ARC
  5
25A
100
AcDbEntity
  8
0
100
AcDbCircle
 62
2
  6
CONTINUOUS
 10
496.3784421893
 20
171.2864667028
 40
147.6820892894
100
AcDbArc
 50
171.0346946822
 51
180.0
  0
SOLID
  5
25B
100
AcDbEntity
  8
0
100
AcDbTrace
 62
2
  6
CONTINUOUS
 10
349.194140565
 20
175.5007032208
 11
348.8987460706
 21
179.0155500656
 12
348.3198584341
 22
175.5361398635
 13
348.3198584341
 23
175.5361398635
  0
SOLID
  5
25C
100
AcDbEntity
  8
0
100
AcDbTrace
 62
2
  6
CONTINUOUS
 10
348.3003568689
 20
174.7914051321
 11
348.6963528999
 21
171.2864667028
 12
349.175295437
 22
174.7810368189
 13
349.175295437
 23
174.7810368189
  0
ENDBLK
  5
25D
100
AcDbEntity
  8
0
  6
BYBLOCK
 62
0
100
AcDbBlockEnd
  0
BLOCK
  5
25E
100
AcDbEntity
  8
0
100
AcDbBlockBegin
 62
2
  6
CONTINUOUS
  2
*D6
 70
65
 10
0.0
 20
0.0
  3
*D6
  1

  0
MTEXT
  5
25F
100
AcDbEntity
  8
0
100
AcDbMText
 62
2
  6
CONTINUOUS
  7
TEXTSTYLE_3
 71
1
 72
1
 10
387.0189809565
 20
179.9750207266
 30
0.0
 11
0.0
 21
1.0
 31
0.0
 44
0.9
  1
{\Fgdt;n}\Ftxt;8
 40
3.5
 41
7.1166666667
  0
LINE
  5
260
100
AcDbEntity
  8
0
100
AcDbLine
 62
2
  6
CONTINUOUS
 10
364.3104853718
 20
167.2864667028
 11
392.8939809565
 21
167.2864667028
  0
LINE
  5
261
100
AcDbEntity
  8
0
100
AcDbLine
 62
2
  6
CONTINUOUS
 10
364.3104853718
 20
175.2864667028
 11
392.8939809565
 21
175.2864667028
  0
LINE
  5
262
100
AcDbEntity
  8
0
100
AcDbLine
 62
2
  6
CONTINUOUS
 10
391.3939809565
 20
167.2864667028
 11
391.3939809565
 21
161.2864667028
  0
LINE
  5
263
100
AcDbEntity
  8
0
100
AcDbLine
 62
2
  6
CONTINUOUS
 10
391.3939809565
 20
161.2864667028
 11
391.3939809565
 21
171.2864667028
  0
LINE
  5
264
100
AcDbEntity
  8
0
100
AcDbLine
 62
2
  6
CONTINUOUS
 10
391.3939809565
 20
175.2864667028
 11
391.3939809565
 21
187.0916873933
  0
LINE
  5
265
100
AcDbEntity
  8
0
100
AcDbLine
 62
2
  6
CONTINUOUS
 10
391.3939809565
 20
187.0916873933
 11
391.3939809565
 21
171.2864667028
  0
INSERT
  5
266
100
AcDbEntity
  8
0
100
AcDbBlockReference
 62
2
  6
CONTINUOUS
  2
_FILLED
 10
391.3939809565
 20
167.2864667028
 41
3.5
 42
3.5
 43
3.5
 50
90.0
  0
INSERT
  5
267
100
AcDbEntity
  8
0
100
AcDbBlockReference
 62
2
  6
CONTINUOUS
  2
_FILLED
 10
391.3939809565
 20
175.2864667028
 41
3.5
 42
3.5
 43
3.5
 50
270.0
  0
ENDBLK
  5
268
100
AcDbEntity
  8
0
  6
BYBLOCK
 62
0
100
AcDbBlockEnd
  0
BLOCK
  5
269
100
AcDbEntity
  8
0
100
AcDbBlockBegin
 62
2
  6
CONTINUOUS
  2
*D7
 70
65
 10
0.0
 20
0.0
  3
*D7
  1

  0
MTEXT
  5
26A
100
AcDbEntity
  8
0
100
AcDbMText
 62
2
  6
CONTINUOUS
  7
TEXTSTYLE_2
 71
1
 72
1
 10
229.1881393064
 20
201.6187675491
 30
0.0
 11
0.9438624501
 21
0.3303387281
 31
0.0
 44
0.9
  1
R1
 40
3.5
 41
4.9
  0
LINE
  5
26B
100
AcDbEntity
  8
0
100
AcDbLine
 62
2
  6
CONTINUOUS
 10
221.9666229217
 20
194.4561279747
 11
235.2582972475
 21
199.1080290979
  0
INSERT
  5
26C
100
AcDbEntity
  8
0
100
AcDbBlockReference
 62
2
  6
CONTINUOUS
  2
_FILLED
 10
221.9666229217
 20
194.4561279747
 41
3.5
 42
3.5
 43
3.5
 50
199.2893361941
  0
ENDBLK
  5
26D
100
AcDbEntity
  8
0
  6
BYBLOCK
 62
0
100
AcDbBlockEnd
  0
ENDSEC
  0
SECTION
  2
ENTITIES
  0
SPLINE
  5
26E
100
AcDbEntity
  8
0
100
AcDbSpline
 62
2
  6
CONTINUOUS
 70
4
 71
3
 72
8
 73
4
 74
0
 42
0.0000001
 43
0.0000001
 44
0.0000000001
 40
0.0
 40
0.0
 40
0.0
 40
0.0
 40
1.0
 40
1.0
 40
1.0
 40
1.0
 10
362.8104853718
 20
178.0017773328
 30
0.0
 41
1.0
 10
362.8104853718
 20
178.1703024608
 30
0.0
 41
0.8169162473
 10
362.6944803288
 20
178.2925462695
 30
0.0
 41
0.8169162473
 10
362.5261861587
 20
178.3013661933
 30
0.0
 41
1.0
  0
SPLINE
  5
26F
100
AcDbEntity
  8
0
100
AcDbSpline
 62
2
  6
CONTINUOUS
 70
4
 71
3
 72
8
 73
4
 74
0
 42
0.0000001
 43
0.0000001
 44
0.0000000001
 40
0.0
 40
0.0
 40
0.0
 40
0.0
 40
1.0
 40
1.0
 40
1.0
 40
1.0
 10
276.2960009332
 20
188.993573484
 30
0.0
 41
1.0
 10
276.1059581354
 20
189.1836162818
 30
0.0
 41
0.9492530217
 10
275.8576552541
 20
189.2864667028
 30
0.0
 41
0.9492530217
 10
275.5888941521
 20
189.2864667028
 30
0.0
 41
1.0
  0
SPLINE
  5
270
100
AcDbEntity
  8
0
100
AcDbSpline
 62
2
  6
CONTINUOUS
 70
4
 71
3
 72
8
 73
4
 74
0
 42
0.0000001
 43
0.0000001
 44
0.0000000001
 40
0.0
 40
0.0
 40
0.0
 40
0.0
 40
1.0
 40
1.0
 40
1.0
 40
1.0
 10
266.6705540371
 20
189.961847586
 30
0.0
 41
1.0
 10
266.5498071081
 20
190.1709874019
 30
0.0
 41
0.9370196339
 10
266.3517326531
 20
190.3091387455
 30
0.0
 41
0.9370196339
 10
266.1137550771
 20
190.3501991502
 30
0.0
 41
1.0
  0
SPLINE
  5
271
100
AcDbEntity
  8
0
100
AcDbSpline
 62
2
  6
CONTINUOUS
 70
4
 71
3
 72
8
 73
4
 74
0
 42
0.0000001
 43
0.0000001
 44
0.0000000001
 40
0.0
 40
0.0
 40
0.0
 40
0.0
 40
1.0
 40
1.0
 40
1.0
 40
1.0
 10
221.9104853718
 20
202.0614667028
 30
0.0
 41
1.0
 10
221.9104853718
 20
202.6472531405
 30
0.0
 41
0.8047378541
 10
221.4962718094
 20
203.0614667028
 30
0.0
 41
0.8047378541
 10
220.9104853718
 20
203.0614667028
 30
0.0
 41
1.0
  0
SPLINE
  5
272
100
AcDbEntity
  8
0
100
AcDbSpline
 62
2
  6
CONTINUOUS
 70
4
 71
3
 72
8
 73
4
 74
0
 42
0.0000001
 43
0.0000001
 44
0.0000000001
 40
0.0
 40
0.0
 40
0.0
 40
0.0
 40
1.0
 40
1.0
 40
1.0
 40
1.0
 10
207.0604853718
 20
203.0614667028
 30
0.0
 41
1.0
 10
206.4746989342
 20
203.0614667028
 30
0.0
 41
0.8047378541
 10
206.0604853718
 20
202.6472531405
 30
0.0
 41
0.8047378541
 10
206.0604853718
 20
202.0614667028
 30
0.0
 41
1.0
  0
SPLINE
  5
273
100
AcDbEntity
  8
0
100
AcDbSpline
 62
2
  6
CONTINUOUS
 70
4
 71
3
 72
8
 73
4
 74
0
 42
0.0000001
 43
0.0000001
 44
0.0000000001
 40
0.0
 40
0.0
 40
0.0
 40
0.0
 40
1.0
 40
1.0
 40
1.0
 40
1.0
 10
136.1218480334
 20
183.8882285811
 30
0.0
 41
1.0
 10
135.0915368353
 20
183.7379623426
 30
0.0
 41
0.8376080973
 10
134.4104853718
 20
182.9503774192
 30
0.0
 41
0.8376080973
 10
134.4104853718
 20
181.9091660538
 30
0.0
 41
1.0
  0
SPLINE
  5
274
100
AcDbEntity
  8
0
100
AcDbSpline
 62
2
  6
CONTINUOUS
 70
4
 71
3
 72
8
 73
4
 74
0
 42
0.0000001
 43
0.0000001
 44
0.0000000001
 40
0.0
 40
0.0
 40
0.0
 40
0.0
 40
1.0
 40
1.0
 40
1.0
 40
1.0
 10
134.4104853718
 20
180.7102271335
 30
0.0
 41
1.0
 10
134.4104853718
 20
180.563816972
 30
0.0
 41
0.9106836025
 10
134.4836904525
 20
180.4370220528
 30
0.0
 41
0.9106836025
 10
134.6104853718
 20
180.363816972
 30
0.0
 41
1.0
  0
SPLINE
  5
275
100
AcDbEntity
  8
0
100
AcDbSpline
 62
2
  6
CONTINUOUS
 70
4
 71
3
 72
8
 73
4
 74
0
 42
0.0000001
 43
0.0000001
 44
0.0000000001
 40
0.0
 40
0.0
 40
0.0
 40
0.0
 40
1.0
 40
1.0
 40
1.0
 40
1.0
 10
135.5176650488
 20
179.8400565413
 30
0.0
 41
1.0
 10
135.5788260882
 20
179.8047451988
 30
0.0
 41
0.9772838842
 10
135.6470423636
 20
179.7864667028
 30
0.0
 41
0.9772838842
 10
135.7176650488
 20
179.7864667028
 30
0.0
 41
1.0
  0
SPLINE
  5
276
100
AcDbEntity
  8
0
100
AcDbSpline
 62
2
  6
CONTINUOUS
 70
0
 71
3
 72
26
 73
22
 74
0
 42
0.0000001
 43
0.0000001
 44
0.0000000001
 40
0.0
 40
0.0
 40
0.0
 40
0.0
 40
0.0526315789
 40
0.1052631579
 40
0.1578947368
 40
0.2105263158
 40
0.2631578947
 40
0.3157894737
 40
0.3684210526
 40
0.4210526316
 40
0.4736842105
 40
0.5263157895
 40
0.5789473684
 40
0.6315789474
 40
0.6842105263
 40
0.7368421053
 40
0.7894736842
 40
0.8421052632
 40
0.8947368421
 40
0.9473684211
 40
1.0
 40
1.0
 40
1.0
 40
1.0
 10
212.5938992306
 20
175.4864667028
 30
0.0
 10
212.6369320064
 20
175.6083535367
 30
0.0
 10
212.7256629415
 20
175.8377279081
 30
0.0
 10
212.8648476246
 20
176.1385238944
 30
0.0
 10
213.0095338027
 20
176.3984903786
 30
0.0
 10
213.1587265379
 20
176.6184408716
 30
0.0
 10
213.3121165667
 20
176.7996672403
 30
0.0
 10
213.4679402421
 20
176.941500218
 30
0.0
 10
213.6236336315
 20
177.0436051528
 30
0.0
 10
213.7736433778
 20
177.1064432059
 30
0.0
 10
213.9159706136
 20
177.1353024115
 30
0.0
 10
214.0551777595
 20
177.1352822503
 30
0.0
 10
214.1971588612
 20
177.106429901
 30
0.0
 10
214.3458323019
 20
177.0443051094
 30
0.0
 10
214.5005682057
 20
176.9433692908
 30
0.0
 10
214.6561454147
 20
176.8024798424
 30
0.0
 10
214.8097125298
 20
176.6218218166
 30
0.0
 10
214.9594919399
 20
176.4017177858
 30
0.0
 10
215.1047811591
 20
176.1412379241
 30
0.0
 10
215.2446410872
 20
175.8393948353
 30
0.0
 10
215.3338209122
 20
175.6089705081
 30
0.0
 10
215.377071513
 20
175.4864667028
 30
0.0
  0
SPLINE
  5
277
100
AcDbEntity
  8
0
100
AcDbSpline
 62
2
  6
CONTINUOUS
 70
4
 71
3
 72
8
 73
4
 74
0
 42
0.0000001
 43
0.0000001
 44
0.0000000001
 40
0.0
 40
0.0
 40
0.0
 40
0.0
 40
1.0
 40
1.0
 40
1.0
 40
1.0
 10
362.8104853718
 20
164.5711560729
 30
0.0
 41
1.0
 10
362.8104853718
 20
164.4026309449
 30
0.0
 41
0.8169162473
 10
362.6944803288
 20
164.2803871362
 30
0.0
 41
0.8169162473
 10
362.5261861587
 20
164.2715672124
 30
0.0
 41
1.0
  0
SPLINE
  5
278
100
AcDbEntity
  8
0
100
AcDbSpline
 62
2
  6
CONTINUOUS
 70
4
 71
3
 72
8
 73
4
 74
0
 42
0.0000001
 43
0.0000001
 44
0.0000000001
 40
0.0
 40
0.0
 40
0.0
 40
0.0
 40
1.0
 40
1.0
 40
1.0
 40
1.0
 10
276.2960009332
 20
153.5793599217
 30
0.0
 41
1.0
 10
276.1059581354
 20
153.3893171239
 30
0.0
 41
0.9492530217
 10
275.8576552541
 20
153.2864667028
 30
0.0
 41
0.9492530217
 10
275.5888941521
 20
153.2864667028
 30
0.0
 41
1.0
  0
SPLINE
  5
279
100
AcDbEntity
  8
0
100
AcDbSpline
 62
2
  6
CONTINUOUS
 70
4
 71
3
 72
8
 73
4
 74
0
 42
0.0000001
 43
0.0000001
 44
0.0000000001
 40
0.0
 40
0.0
 40
0.0
 40
0.0
 40
1.0
 40
1.0
 40
1.0
 40
1.0
 10
266.6705540371
 20
152.6110858197
 30
0.0
 41
1.0
 10
266.5498071081
 20
152.4019460038
 30
0.0
 41
0.9370196339
 10
266.3517326531
 20
152.2637946602
 30
0.0
 41
0.9370196339
 10
266.1137550771
 20
152.2227342555
 30
0.0
 41
1.0
  0
SPLINE
  5
27A
100
AcDbEntity
  8
0
100
AcDbSpline
 62
2
  6
CONTINUOUS
 70
4
 71
3
 72
8
 73
4
 74
0
 42
0.0000001
 43
0.0000001
 44
0.0000000001
 40
0.0
 40
0.0
 40
0.0
 40
0.0
 40
1.0
 40
1.0
 40
1.0
 40
1.0
 10
221.9104853718
 20
140.5114667028
 30
0.0
 41
1.0
 10
221.9104853718
 20
139.9256802652
 30
0.0
 41
0.8047378541
 10
221.4962718094
 20
139.5114667028
 30
0.0
 41
0.8047378541
 10
220.9104853718
 20
139.5114667028
 30
0.0
 41
1.0
  0
SPLINE
  5
27B
100
AcDbEntity
  8
0
100
AcDbSpline
 62
2
  6
CONTINUOUS
 70
4
 71
3
 72
8
 73
4
 74
0
 42
0.0000001
 43
0.0000001
 44
0.0000000001
 40
0.0
 40
0.0
 40
0.0
 40
0.0
 40
1.0
 40
1.0
 40
1.0
 40
1.0
 10
207.0604853718
 20
139.5114667028
 30
0.0
 41
1.0
 10
206.4746989342
 20
139.5114667028
 30
0.0
 41
0.8047378541
 10
206.0604853718
 20
139.9256802652
 30
0.0
 41
0.8047378541
 10
206.0604853718
 20
140.5114667028
 30
0.0
 41
1.0
  0
SPLINE
  5
27C
100
AcDbEntity
  8
0
100
AcDbSpline
 62
2
  6
CONTINUOUS
 70
4
 71
3
 72
8
 73
4
 74
0
 42
0.0000001
 43
0.0000001
 44
0.0000000001
 40
0.0
 40
0.0
 40
0.0
 40
0.0
 40
1.0
 40
1.0
 40
1.0
 40
1.0
 10
136.1218480334
 20
158.6847048246
 30
0.0
 41
1.0
 10
135.0915368353
 20
158.8349710631
 30
0.0
 41
0.8376080973
 10
134.4104853718
 20
159.6225559865
 30
0.0
 41
0.8376080973
 10
134.4104853718
 20
160.6637673518
 30
0.0
 41
1.0
  0
SPLINE
  5
27D
100
AcDbEntity
  8
0
100
AcDbSpline
 62
2
  6
CONTINUOUS
 70
4
 71
3
 72
8
 73
4
 74
0
 42
0.0000001
 43
0.0000001
 44
0.0000000001
 40
0.0
 40
0.0
 40
0.0
 40
0.0
 40
1.0
 40
1.0
 40
1.0
 40
1.0
 10
134.4104853718
 20
161.8627062721
 30
0.0
 41
1.0
 10
134.4104853718
 20
162.0091164337
 30
0.0
 41
0.9106836025
 10
134.4836904525
 20
162.1359113529
 30
0.0
 41
0.9106836025
 10
134.6104853718
 20
162.2091164337
 30
0.0
 41
1.0
  0
SPLINE
  5
27E
100
AcDbEntity
  8
0
100
AcDbSpline
 62
2
  6
CONTINUOUS
 70
4
 71
3
 72
8
 73
4
 74
0
 42
0.0000001
 43
0.0000001
 44
0.0000000001
 40
0.0
 40
0.0
 40
0.0
 40
0.0
 40
1.0
 40
1.0
 40
1.0
 40
1.0
 10
135.5176650488
 20
162.7328768644
 30
0.0
 41
1.0
 10
135.5788260882
 20
162.7681882069
 30
0.0
 41
0.9772838842
 10
135.6470423636
 20
162.7864667028
 30
0.0
 41
0.9772838842
 10
135.7176650488
 20
162.7864667028
 30
0.0
 41
1.0
  0
SPLINE
  5
27F
100
AcDbEntity
  8
0
100
AcDbSpline
 62
2
  6
CONTINUOUS
 70
0
 71
3
 72
26
 73
22
 74
0
 42
0.0000001
 43
0.0000001
 44
0.0000000001
 40
0.0
 40
0.0
 40
0.0
 40
0.0
 40
0.0526315789
 40
0.1052631579
 40
0.1578947368
 40
0.2105263158
 40
0.2631578947
 40
0.3157894737
 40
0.3684210526
 40
0.4210526316
 40
0.4736842105
 40
0.5263157895
 40
0.5789473684
 40
0.6315789474
 40
0.6842105263
 40
0.7368421053
 40
0.7894736842
 40
0.8421052632
 40
0.8947368421
 40
0.9473684211
 40
1.0
 40
1.0
 40
1.0
 40
1.0
 10
212.5938992306
 20
167.0864667028
 30
0.0
 10
212.6371498313
 20
166.9639628976
 30
0.0
 10
212.7263296564
 20
166.7335385704
 30
0.0
 10
212.8661895844
 20
166.4316954816
 30
0.0
 10
213.0114788036
 20
166.1712156199
 30
0.0
 10
213.1612582138
 20
165.9511115891
 30
0.0
 10
213.3148253289
 20
165.7704535633
 30
0.0
 10
213.4704025378
 20
165.6295641149
 30
0.0
 10
213.6251384417
 20
165.5286282963
 30
0.0
 10
213.7738118824
 20
165.4665035047
 30
0.0
 10
213.915792984
 20
165.4376511553
 30
0.0
 10
214.05500013
 20
165.4376309942
 30
0.0
 10
214.1973273657
 20
165.4664901998
 30
0.0
 10
214.347337112
 20
165.5293282529
 30
0.0
 10
214.5030305014
 20
165.6314331877
 30
0.0
 10
214.6588541769
 20
165.7732661653
 30
0.0
 10
214.8122442056
 20
165.9544925341
 30
0.0
 10
214.9614369408
 20
166.1744430271
 30
0.0
 10
215.1061231189
 20
166.4344095113
 30
0.0
 10
215.2453078021
 20
166.7352054976
 30
0.0
 10
215.3340387372
 20
166.964579869
 30
0.0
 10
215.377071513
 20
167.0864667028
 30
0.0
  0
LINE
  5
280
100
AcDbEntity
  8
0
100
AcDbLine
 62
2
  6
CONTINUOUS
 10
134.4104853718
 20
181.9091660538
 11
134.4104853718
 21
180.7102271335
  0
LINE
  5
281
100
AcDbEntity
  8
0
100
AcDbLine
 62
2
  6
CONTINUOUS
 10
134.4104853718
 20
161.8627062721
 11
134.4104853718
 21
160.6637673518
  0
LINE
  5
282
100
AcDbEntity
  8
0
100
AcDbLine
 62
2
  6
CONTINUOUS
 10
142.6104853718
 20
179.3864667028
 11
142.6104853718
 21
179.2064667028
  0
LINE
  5
283
100
AcDbEntity
  8
0
100
AcDbLine
 62
2
  6
CONTINUOUS
 10
142.6104853718
 20
163.3664667028
 11
142.6104853718
 21
163.1864667028
  0
LINE
  5
284
100
AcDbEntity
  8
0
100
AcDbLine
 62
2
  6
CONTINUOUS
 10
142.6104853718
 20
163.3664667028
 11
143.6104853718
 21
164.3664667028
  0
LINE
  5
285
100
AcDbEntity
  8
0
100
AcDbLine
 62
2
  6
CONTINUOUS
 10
134.6104853718
 20
162.2091164337
 11
135.5176650488
 21
162.7328768644
  0
LINE
  5
286
100
AcDbEntity
  8
0
100
AcDbLine
 62
2
  6
CONTINUOUS
 10
177.4104853718
 20
164.3664667028
 11
179.0448262555
 21
167.0864667028
  0
LINE
  5
287
100
AcDbEntity
  8
0
100
AcDbLine
 62
2
  6
CONTINUOUS
 10
215.8604853718
 20
200.184061967
 11
217.5217557706
 21
203.0614667028
  0
LINE
  5
288
100
AcDbEntity
  8
0
100
AcDbLine
 62
2
  6
CONTINUOUS
 10
142.6104853718
 20
179.2064667028
 11
143.6104853718
 21
178.2064667028
  0
LINE
  5
289
100
AcDbEntity
  8
0
100
AcDbLine
 62
2
  6
CONTINUOUS
 10
206.0604853718
 20
202.0614667028
 11
206.0604853718
 21
194.1614667028
  0
LINE
  5
28A
100
AcDbEntity
  8
0
100
AcDbLine
 62
2
  6
CONTINUOUS
 10
206.0604853718
 20
148.4114667028
 11
206.0604853718
 21
140.5114667028
  0
LINE
  5
28B
100
AcDbEntity
  8
0
100
AcDbLine
 62
2
  6
CONTINUOUS
 10
246.1978621706
 20
148.7864667028
 11
256.7456527095
 21
150.6063715673
  0
LINE
  5
28C
100
AcDbEntity
  8
0
100
AcDbLine
 62
2
  6
CONTINUOUS
 10
257.9053791802
 20
150.8064695725
 11
266.1137550771
 21
152.2227342555
  0
LINE
  5
28D
100
AcDbEntity
  8
0
100
AcDbLine
 62
2
  6
CONTINUOUS
 10
207.0604853718
 20
139.5114667028
 11
210.449214973
 21
139.5114667028
  0
LINE
  5
28E
100
AcDbEntity
  8
0
100
AcDbLine
 62
2
  6
CONTINUOUS
 10
217.5217557706
 20
139.5114667028
 11
220.9104853718
 21
139.5114667028
  0
LINE
  5
28F
100
AcDbEntity
  8
0
100
AcDbLine
 62
2
  6
CONTINUOUS
 10
212.6104853718
 20
143.1614667028
 11
215.3604853718
 21
143.1614667028
  0
LINE
  5
290
100
AcDbEntity
  8
0
100
AcDbLine
 62
2
  6
CONTINUOUS
 10
222.9104853718
 20
148.7864667028
 11
246.1978621706
 21
148.7864667028
  0
LINE
  5
291
100
AcDbEntity
  8
0
100
AcDbLine
 62
2
  6
CONTINUOUS
 10
203.4104853718
 20
149.4114667028
 11
205.0604853718
 21
149.4114667028
  0
LINE
  5
292
100
AcDbEntity
  8
0
100
AcDbLine
 62
2
  6
CONTINUOUS
 10
136.1218480334
 20
158.6847048246
 11
202.1042675891
 21
149.0614667028
  0
LINE
  5
293
100
AcDbEntity
  8
0
100
AcDbLine
 62
2
  6
CONTINUOUS
 10
138.6104853718
 20
162.7864667028
 11
139.2805956048
 21
162.6069112071
  0
LINE
  5
294
100
AcDbEntity
  8
0
100
AcDbLine
 62
2
  6
CONTINUOUS
 10
134.6104853718
 20
180.363816972
 11
135.5176650488
 21
179.8400565413
  0
LINE
  5
295
100
AcDbEntity
  8
0
100
AcDbLine
 62
2
  6
CONTINUOUS
 10
177.4104853718
 20
178.2064667028
 11
179.0448262555
 21
175.4864667028
  0
LINE
  5
296
100
AcDbEntity
  8
0
100
AcDbLine
 62
2
  6
CONTINUOUS
 10
212.1104853718
 20
200.184061967
 11
212.1104853718
 21
199.9114667028
  0
LINE
  5
297
100
AcDbEntity
  8
0
100
AcDbLine
 62
2
  6
CONTINUOUS
 10
212.1104853718
 20
142.6614667028
 11
212.1104853718
 21
142.3888714387
  0
LINE
  5
298
100
AcDbEntity
  8
0
100
AcDbLine
 62
2
  6
CONTINUOUS
 10
215.8604853718
 20
200.184061967
 11
215.8604853718
 21
199.9114667028
  0
LINE
  5
299
100
AcDbEntity
  8
0
100
AcDbLine
 62
2
  6
CONTINUOUS
 10
215.8604853718
 20
142.6614667028
 11
215.8604853718
 21
142.3888714387
  0
LINE
  5
29A
100
AcDbEntity
  8
0
100
AcDbLine
 62
2
  6
CONTINUOUS
 10
221.9104853718
 20
202.0614667028
 11
221.9104853718
 21
194.7864667028
  0
LINE
  5
29B
100
AcDbEntity
  8
0
100
AcDbLine
 62
2
  6
CONTINUOUS
 10
221.9104853718
 20
147.7864667028
 11
221.9104853718
 21
140.5114667028
  0
LINE
  5
29C
100
AcDbEntity
  8
0
100
AcDbLine
 62
2
  6
CONTINUOUS
 10
210.449214973
 20
139.5114667028
 11
212.1104853718
 21
142.3888714387
  0
LINE
  5
29D
100
AcDbEntity
  8
0
100
AcDbLine
 62
2
  6
CONTINUOUS
 10
271.3104853718
 20
179.7843151553
 11
273.8104853718
 21
181.2864667028
  0
LINE
  5
29E
100
AcDbEntity
  8
0
100
AcDbLine
 62
2
  6
CONTINUOUS
 10
202.1042675891
 20
149.0614667028
 11
203.4104853718
 21
149.4114667028
  0
LINE
  5
29F
100
AcDbEntity
  8
0
100
AcDbLine
 62
2
  6
CONTINUOUS
 10
362.1258521788
 20
175.3578020551
 11
361.3104853718
 21
175.2864667028
  0
LINE
  5
2A0
100
AcDbEntity
  8
0
100
AcDbLine
 62
2
  6
CONTINUOUS
 10
283.5771612972
 20
160.1340241429
 11
362.5261861587
 21
164.2715672124
  0
LINE
  5
2A1
100
AcDbEntity
  8
0
100
AcDbLine
 62
2
  6
CONTINUOUS
 10
267.5223655871
 20
153.2864667028
 11
268.8104853718
 21
153.2864667028
  0
LINE
  5
2A2
100
AcDbEntity
  8
0
100
AcDbLine
 62
2
  6
CONTINUOUS
 10
273.8104853718
 20
153.2864667028
 11
275.5888941521
 21
153.2864667028
  0
LINE
  5
2A3
100
AcDbEntity
  8
0
100
AcDbLine
 62
2
  6
CONTINUOUS
 10
139.4358870318
 20
162.5864667028
 11
142.0104853718
 21
162.5864667028
  0
LINE
  5
2A4
100
AcDbEntity
  8
0
100
AcDbLine
 62
2
  6
CONTINUOUS
 10
135.7176650488
 20
162.7864667028
 11
138.6104853718
 21
162.7864667028
  0
LINE
  5
2A5
100
AcDbEntity
  8
0
100
AcDbLine
 62
2
  6
CONTINUOUS
 10
143.6104853718
 20
164.3664667028
 11
177.4104853718
 21
164.3664667028
  0
LINE
  5
2A6
100
AcDbEntity
  8
0
100
AcDbLine
 62
2
  6
CONTINUOUS
 10
215.8604853718
 20
142.3888714387
 11
217.5217557706
 21
139.5114667028
  0
LINE
  5
2A7
100
AcDbEntity
  8
0
100
AcDbLine
 62
2
  6
CONTINUOUS
 10
271.3104853718
 20
162.7886182504
 11
268.8104853718
 21
161.2864667028
  0
LINE
  5
2A8
100
AcDbEntity
  8
0
100
AcDbLine
 62
2
  6
CONTINUOUS
 10
179.0448262555
 20
167.0864667028
 11
212.5938992306
 21
167.0864667028
  0
LINE
  5
2A9
100
AcDbEntity
  8
0
100
AcDbLine
 62
2
  6
CONTINUOUS
 10
215.377071513
 20
167.0864667028
 11
336.6904853718
 21
167.0864667028
  0
LINE
  5
2AA
100
AcDbEntity
  8
0
100
AcDbLine
 62
2
  6
CONTINUOUS
 10
361.3104853718
 20
167.2864667028
 11
336.8106574956
 21
167.2864667028
  0
LINE
  5
2AB
100
AcDbEntity
  8
0
100
AcDbLine
 62
2
  6
CONTINUOUS
 10
361.3104853718
 20
175.2864667028
 11
336.8106574956
 21
175.2864667028
  0
LINE
  5
2AC
100
AcDbEntity
  8
0
100
AcDbLine
 62
2
  6
CONTINUOUS
 10
336.6904853718
 20
175.4864667028
 11
215.377071513
 21
175.4864667028
  0
LINE
  5
2AD
100
AcDbEntity
  8
0
100
AcDbLine
 62
2
  6
CONTINUOUS
 10
179.0448262555
 20
175.4864667028
 11
212.5938992306
 21
175.4864667028
  0
LINE
  5
2AE
100
AcDbEntity
  8
0
100
AcDbLine
 62
2
  6
CONTINUOUS
 10
143.6104853718
 20
178.2064667028
 11
177.4104853718
 21
178.2064667028
  0
LINE
  5
2AF
100
AcDbEntity
  8
0
100
AcDbLine
 62
2
  6
CONTINUOUS
 10
210.449214973
 20
203.0614667028
 11
212.1104853718
 21
200.184061967
  0
LINE
  5
2B0
100
AcDbEntity
  8
0
100
AcDbLine
 62
2
  6
CONTINUOUS
 10
276.2960009332
 20
153.5793599217
 11
282.2676196473
 21
159.5509786357
  0
LINE
  5
2B1
100
AcDbEntity
  8
0
100
AcDbLine
 62
2
  6
CONTINUOUS
 10
136.1218480334
 20
183.8882285811
 11
202.1042675891
 21
193.5114667028
  0
LINE
  5
2B2
100
AcDbEntity
  8
0
100
AcDbLine
 62
2
  6
CONTINUOUS
 10
135.7176650488
 20
179.7864667028
 11
138.6104853718
 21
179.7864667028
  0
LINE
  5
2B3
100
AcDbEntity
  8
0
100
AcDbLine
 62
2
  6
CONTINUOUS
 10
139.4358870318
 20
179.9864667028
 11
142.0104853718
 21
179.9864667028
  0
LINE
  5
2B4
100
AcDbEntity
  8
0
100
AcDbLine
 62
2
  6
CONTINUOUS
 10
275.5888941521
 20
189.2864667028
 11
273.8104853718
 21
189.2864667028
  0
LINE
  5
2B5
100
AcDbEntity
  8
0
100
AcDbLine
 62
2
  6
CONTINUOUS
 10
267.5223655871
 20
189.2864667028
 11
268.8104853718
 21
189.2864667028
  0
LINE
  5
2B6
100
AcDbEntity
  8
0
100
AcDbLine
 62
2
  6
CONTINUOUS
 10
203.4104853718
 20
193.1614667028
 11
205.0604853718
 21
193.1614667028
  0
LINE
  5
2B7
100
AcDbEntity
  8
0
100
AcDbLine
 62
2
  6
CONTINUOUS
 10
222.9104853718
 20
193.7864667028
 11
246.1978621706
 21
193.7864667028
  0
LINE
  5
2B8
100
AcDbEntity
  8
0
100
AcDbLine
 62
2
  6
CONTINUOUS
 10
283.5771612972
 20
182.4389092628
 11
362.5261861587
 21
178.3013661933
  0
LINE
  5
2B9
100
AcDbEntity
  8
0
100
AcDbLine
 62
2
  6
CONTINUOUS
 10
362.1258521788
 20
167.2151313506
 11
361.3104853718
 21
167.2864667028
  0
LINE
  5
2BA
100
AcDbEntity
  8
0
100
AcDbLine
 62
2
  6
CONTINUOUS
 10
202.1042675891
 20
193.5114667028
 11
203.4104853718
 21
193.1614667028
  0
LINE
  5
2BB
100
AcDbEntity
  8
0
100
AcDbLine
 62
2
  6
CONTINUOUS
 10
271.3104853718
 20
162.7886182504
 11
273.8104853718
 21
161.2864667028
  0
LINE
  5
2BC
100
AcDbEntity
  8
0
100
AcDbLine
 62
2
  6
CONTINUOUS
 10
268.8104853718
 20
161.2864667028
 11
268.8104853718
 21
153.2864667028
  0
LINE
  5
2BD
100
AcDbEntity
  8
0
100
AcDbLine
 62
2
  6
CONTINUOUS
 10
268.8104853718
 20
181.2864667028
 11
268.8104853718
 21
189.2864667028
  0
LINE
  5
2BE
100
AcDbEntity
  8
0
100
AcDbLine
 62
2
  6
CONTINUOUS
 10
266.6705540371
 20
152.6110858197
 11
266.8295452641
 21
152.8864667028
  0
LINE
  5
2BF
100
AcDbEntity
  8
0
100
AcDbLine
 62
2
  6
CONTINUOUS
 10
138.6104853718
 20
179.7864667028
 11
139.2805956048
 21
179.9660221986
  0
LINE
  5
2C0
100
AcDbEntity
  8
0
100
AcDbLine
 62
2
  6
CONTINUOUS
 10
212.6104853718
 20
199.4114667028
 11
215.3604853718
 21
199.4114667028
  0
LINE
  5
2C1
100
AcDbEntity
  8
0
100
AcDbLine
 62
2
  6
CONTINUOUS
 10
207.0604853718
 20
203.0614667028
 11
210.449214973
 21
203.0614667028
  0
LINE
  5
2C2
100
AcDbEntity
  8
0
100
AcDbLine
 62
2
  6
CONTINUOUS
 10
217.5217557706
 20
203.0614667028
 11
220.9104853718
 21
203.0614667028
  0
LINE
  5
2C3
100
AcDbEntity
  8
0
100
AcDbLine
 62
2
  6
CONTINUOUS
 10
266.1137550771
 20
190.3501991502
 11
257.9053791802
 21
191.7664638332
  0
LINE
  5
2C4
100
AcDbEntity
  8
0
100
AcDbLine
 62
2
  6
CONTINUOUS
 10
246.1978621706
 20
193.7864667028
 11
256.7456527095
 21
191.9665618384
  0
LINE
  5
2C5
100
AcDbEntity
  8
0
100
AcDbLine
 62
2
  6
CONTINUOUS
 10
271.3104853718
 20
179.7843151553
 11
268.8104853718
 21
181.2864667028
  0
LINE
  5
2C6
100
AcDbEntity
  8
0
100
AcDbLine
 62
2
  6
CONTINUOUS
 10
273.8104853718
 20
161.2864667028
 11
273.8104853718
 21
153.2864667028
  0
LINE
  5
2C7
100
AcDbEntity
  8
0
100
AcDbLine
 62
2
  6
CONTINUOUS
 10
273.8104853718
 20
181.2864667028
 11
273.8104853718
 21
189.2864667028
  0
LINE
  5
2C8
100
AcDbEntity
  8
0
100
AcDbLine
 62
2
  6
CONTINUOUS
 10
266.6705540371
 20
189.961847586
 11
266.8295452641
 21
189.6864667028
  0
LINE
  5
2C9
100
AcDbEntity
  8
0
100
AcDbLine
 62
2
  6
CONTINUOUS
 10
276.2960009332
 20
188.993573484
 11
282.2676196473
 21
183.0219547699
  0
LINE
  5
2CA
100
AcDbEntity
  8
0
100
AcDbLine
 62
2
  6
CONTINUOUS
 10
336.6904853718
 20
167.0864667028
 11
336.8106574956
 21
167.2864667028
  0
LINE
  5
2CB
100
AcDbEntity
  8
0
100
AcDbLine
 62
2
  6
CONTINUOUS
 10
336.6904853718
 20
175.4864667028
 11
336.8106574956
 21
175.2864667028
  0
LINE
  5
2CC
100
AcDbEntity
  8
0
100
AcDbLine
 62
2
  6
CONTINUOUS
 10
362.8104853718
 20
178.0017773328
 11
362.8104853718
 21
176.1049480786
  0
LINE
  5
2CD
100
AcDbEntity
  8
0
100
AcDbLine
 62
2
  6
CONTINUOUS
 10
362.8104853718
 20
166.467985327
 11
362.8104853718
 21
164.5711560729
  0
ARC
  5
2CE
100
AcDbEntity
  8
0
100
AcDbCircle
 62
2
  6
CONTINUOUS
 10
222.9104853718
 20
147.7864667028
 40
1.0
100
AcDbArc
 50
89.9999999988
 51
180.0000000012
  0
ARC
  5
2CF
100
AcDbEntity
  8
0
100
AcDbCircle
 62
2
  6
CONTINUOUS
 10
205.0604853718
 20
148.4114667028
 40
1.0
100
AcDbArc
 50
0.0
 51
90.0000000012
  0
ARC
  5
2D0
100
AcDbEntity
  8
0
100
AcDbCircle
 62
2
  6
CONTINUOUS
 10
142.0104853718
 20
163.1864667028
 40
0.6
100
AcDbArc
 50
270.0000000034
 51
359.9999999966
  0
ARC
  5
2D1
100
AcDbEntity
  8
0
100
AcDbCircle
 62
2
  6
CONTINUOUS
 10
139.4358870317
 20
163.1864666995
 40
0.5999999967
100
AcDbArc
 50
254.9999999309
 51
270.00000001
  0
ARC
  5
2D2
100
AcDbEntity
  8
0
100
AcDbCircle
 62
2
  6
CONTINUOUS
 10
215.3604853718
 20
142.6614667028
 40
0.5
100
AcDbArc
 50
0.0
 51
90.0000000047
  0
ARC
  5
2D3
100
AcDbEntity
  8
0
100
AcDbCircle
 62
2
  6
CONTINUOUS
 10
212.6104853718
 20
142.6614667028
 40
0.5
100
AcDbArc
 50
89.9999999953
 51
180.0000000047
  0
ARC
  5
2D4
100
AcDbEntity
  8
0
100
AcDbCircle
 62
2
  6
CONTINUOUS
 10
222.9104853718
 20
194.7864667028
 40
1.0
100
AcDbArc
 50
180.0000000022
 51
269.9999999978
  0
ARC
  5
2D5
100
AcDbEntity
  8
0
100
AcDbCircle
 62
2
  6
CONTINUOUS
 10
205.0604853718
 20
194.1614667028
 40
1.0
100
AcDbArc
 50
270.0000000022
 51
359.9999999978
  0
ARC
  5
2D6
100
AcDbEntity
  8
0
100
AcDbCircle
 62
2
  6
CONTINUOUS
 10
139.4358870319
 20
179.3864667019
 40
0.6000000009
100
AcDbArc
 50
90.0000000072
 51
104.9999999794
  0
ARC
  5
2D7
100
AcDbEntity
  8
0
100
AcDbCircle
 62
2
  6
CONTINUOUS
 10
142.0104853718
 20
179.3864667028
 40
0.6
100
AcDbArc
 50
0.0
 51
90.0000000024
  0
ARC
  5
2D8
100
AcDbEntity
  8
0
100
AcDbCircle
 62
2
  6
CONTINUOUS
 10
215.3604853718
 20
199.9114667028
 40
0.5
100
AcDbArc
 50
270.0000000022
 51
359.9999999978
  0
ARC
  5
2D9
100
AcDbEntity
  8
0
100
AcDbCircle
 62
2
  6
CONTINUOUS
 10
212.6104853718
 20
199.9114667028
 40
0.5
100
AcDbArc
 50
180.0000000022
 51
269.9999999978
  0
ARC
  5
2DA
100
AcDbEntity
  8
0
100
AcDbCircle
 62
2
  6
CONTINUOUS
 10
283.6818332099
 20
158.1367650731
 40
2.0000000003
100
AcDbArc
 50
93.0000000052
 51
134.9999999991
  0
ARC
  5
2DB
100
AcDbEntity
  8
0
100
AcDbCircle
 62
2
  6
CONTINUOUS
 10
257.5600394836
 20
149.3472505211
 40
1.4995625361
100
AcDbArc
 50
76.6853147561
 51
122.8943806521
  0
ARC
  5
2DC
100
AcDbEntity
  8
0
100
AcDbCircle
 62
2
  6
CONTINUOUS
 10
267.5223655871
 20
152.4864667029
 40
0.7999999999
100
AcDbArc
 50
89.9999999998
 51
150.0000000021
  0
ARC
  5
2DD
100
AcDbEntity
  8
0
100
AcDbCircle
 62
2
  6
CONTINUOUS
 10
362.0604853717
 20
166.467985327
 40
0.7500000001
100
AcDbArc
 50
0.0000000021
 51
85.0000000006
  0
ARC
  5
2DE
100
AcDbEntity
  8
0
100
AcDbCircle
 62
2
  6
CONTINUOUS
 10
283.6818332099
 20
184.436168333
 40
2.0000000007
100
AcDbArc
 50
225.0000000092
 51
266.9999999938
  0
ARC
  5
2DF
100
AcDbEntity
  8
0
100
AcDbCircle
 62
2
  6
CONTINUOUS
 10
257.5600394835
 20
193.2256828849
 40
1.4995625365
100
AcDbArc
 50
237.1056193572
 51
283.3146852429
  0
ARC
  5
2E0
100
AcDbEntity
  8
0
100
AcDbCircle
 62
2
  6
CONTINUOUS
 10
267.5223655872
 20
190.086466703
 40
0.8000000002
100
AcDbArc
 50
210.0000000063
 51
269.9999999917
  0
ARC
  5
2E1
100
AcDbEntity
  8
0
100
AcDbCircle
 62
2
  6
CONTINUOUS
 10
362.0604853718
 20
176.1049480787
 40
0.75
100
AcDbArc
 50
274.9999999975
 51
359.9999999922
  0
HATCH
  5
2E2
100
AcDbEntity
  8
0
100
AcDbHatch
 62
2
  6
CONTINUOUS
 10
0.0
 20
0.0
 30
0.0
210
0.0
220
0.0
230
1.0
  2
D
 70
0
 71
1
 91
2
 92
1
 93
58
 72
1
 10
283.5771612972
 20
182.4389092628
 11
362.5261861587
 21
178.3013661933
 72
2
 10
283.6818332099
 20
184.436168333
 40
2.0000000007
 50
225.0000000092
 51
266.9999999938
 73
1
 72
1
 10
276.2960009332
 20
188.993573484
 11
282.2676196473
 21
183.0219547699
 72
4
 94
3
 73
1
 74
0
 95
8
 96
4
 40
0.0
 40
0.0
 40
0.0
 40
0.0
 40
1.0
 40
1.0
 40
1.0
 40
1.0
 10
276.2960009332
 20
188.993573484
 42
1.0
 10
276.1059581354
 20
189.1836162818
 42
0.9492530217
 10
275.8576552541
 20
189.2864667028
 42
0.9492530217
 10
275.5888941521
 20
189.2864667028
 42
1.0
 72
1
 10
275.5888941521
 20
189.2864667028
 11
273.8104853718
 21
189.2864667028
 72
1
 10
273.8104853718
 20
181.2864667028
 11
273.8104853718
 21
189.2864667028
 72
1
 10
271.3104853718
 20
179.7843151553
 11
273.8104853718
 21
181.2864667028
 72
1
 10
271.3104853718
 20
179.7843151553
 11
268.8104853718
 21
181.2864667028
 72
1
 10
268.8104853718
 20
181.2864667028
 11
268.8104853718
 21
189.2864667028
 72
1
 10
267.5223655871
 20
189.2864667028
 11
268.8104853718
 21
189.2864667028
 72
2
 10
267.5223655872
 20
190.086466703
 40
0.8000000002
 50
210.0000000063
 51
269.9999999917
 73
1
 72
1
 10
266.6705540371
 20
189.961847586
 11
266.8295452641
 21
189.6864667028
 72
4
 94
3
 73
1
 74
0
 95
8
 96
4
 40
0.0
 40
0.0
 40
0.0
 40
0.0
 40
1.0
 40
1.0
 40
1.0
 40
1.0
 10
266.6705540371
 20
189.961847586
 42
1.0
 10
266.5498071081
 20
190.1709874019
 42
0.9370196339
 10
266.3517326531
 20
190.3091387455
 42
0.9370196339
 10
266.1137550771
 20
190.3501991502
 42
1.0
 72
1
 10
266.1137550771
 20
190.3501991502
 11
257.9053791802
 21
191.7664638332
 72
2
 10
257.5600394835
 20
193.2256828849
 40
1.4995625365
 50
237.1056193572
 51
283.3146852429
 73
1
 72
1
 10
246.1978621706
 20
193.7864667028
 11
256.7456527095
 21
191.9665618384
 72
1
 10
222.9104853718
 20
193.7864667028
 11
246.1978621706
 21
193.7864667028
 72
2
 10
222.9104853718
 20
194.7864667028
 40
1.0
 50
180.0000000022
 51
269.9999999978
 73
1
 72
1
 10
221.9104853718
 20
202.0614667028
 11
221.9104853718
 21
194.7864667028
 72
4
 94
3
 73
1
 74
0
 95
8
 96
4
 40
0.0
 40
0.0
 40
0.0
 40
0.0
 40
1.0
 40
1.0
 40
1.0
 40
1.0
 10
221.9104853718
 20
202.0614667028
 42
1.0
 10
221.9104853718
 20
202.6472531405
 42
0.8047378541
 10
221.4962718094
 20
203.0614667028
 42
0.8047378541
 10
220.9104853718
 20
203.0614667028
 42
1.0
 72
1
 10
217.5217557706
 20
203.0614667028
 11
220.9104853718
 21
203.0614667028
 72
1
 10
215.8604853718
 20
200.184061967
 11
217.5217557706
 21
203.0614667028
 72
1
 10
215.8604853718
 20
200.184061967
 11
215.8604853718
 21
199.9114667028
 72
2
 10
215.3604853718
 20
199.9114667028
 40
0.5
 50
270.0000000022
 51
360.0
 73
1
 72
1
 10
212.6104853718
 20
199.4114667028
 11
215.3604853718
 21
199.4114667028
 72
2
 10
212.6104853718
 20
199.9114667028
 40
0.5
 50
180.0000000022
 51
269.9999999978
 73
1
 72
1
 10
212.1104853718
 20
200.184061967
 11
212.1104853718
 21
199.9114667028
 72
1
 10
210.449214973
 20
203.0614667028
 11
212.1104853718
 21
200.184061967
 72
1
 10
207.0604853718
 20
203.0614667028
 11
210.449214973
 21
203.0614667028
 72
4
 94
3
 73
1
 74
0
 95
8
 96
4
 40
0.0
 40
0.0
 40
0.0
 40
0.0
 40
1.0
 40
1.0
 40
1.0
 40
1.0
 10
207.0604853718
 20
203.0614667028
 42
1.0
 10
206.4746989342
 20
203.0614667028
 42
0.8047378541
 10
206.0604853718
 20
202.6472531405
 42
0.8047378541
 10
206.0604853718
 20
202.0614667028
 42
1.0
 72
1
 10
206.0604853718
 20
202.0614667028
 11
206.0604853718
 21
194.1614667028
 72
2
 10
205.0604853718
 20
194.1614667028
 40
1.0
 50
270.0000000022
 51
360.0
 73
1
 72
1
 10
203.4104853718
 20
193.1614667028
 11
205.0604853718
 21
193.1614667028
 72
1
 10
202.1042675891
 20
193.5114667028
 11
203.4104853718
 21
193.1614667028
 72
1
 10
136.1218480334
 20
183.8882285811
 11
202.1042675891
 21
193.5114667028
 72
4
 94
3
 73
1
 74
0
 95
8
 96
4
 40
0.0
 40
0.0
 40
0.0
 40
0.0
 40
1.0
 40
1.0
 40
1.0
 40
1.0
 10
136.1218480334
 20
183.8882285811
 42
1.0
 10
135.0915368353
 20
183.7379623426
 42
0.8376080973
 10
134.4104853718
 20
182.9503774192
 42
0.8376080973
 10
134.4104853718
 20
181.9091660538
 42
1.0
 72
1
 10
134.4104853718
 20
181.9091660538
 11
134.4104853718
 21
180.7102271335
 72
4
 94
3
 73
1
 74
0
 95
8
 96
4
 40
0.0
 40
0.0
 40
0.0
 40
0.0
 40
1.0
 40
1.0
 40
1.0
 40
1.0
 10
134.4104853718
 20
180.7102271335
 42
1.0
 10
134.4104853718
 20
180.563816972
 42
0.9106836025
 10
134.4836904525
 20
180.4370220528
 42
0.9106836025
 10
134.6104853718
 20
180.363816972
 42
1.0
 72
1
 10
134.6104853718
 20
180.363816972
 11
135.5176650488
 21
179.8400565413
 72
4
 94
3
 73
1
 74
0
 95
8
 96
4
 40
0.0
 40
0.0
 40
0.0
 40
0.0
 40
1.0
 40
1.0
 40
1.0
 40
1.0
 10
135.5176650488
 20
179.8400565413
 42
1.0
 10
135.5788260882
 20
179.8047451988
 42
0.9772838842
 10
135.6470423636
 20
179.7864667028
 42
0.9772838842
 10
135.7176650488
 20
179.7864667028
 42
1.0
 72
1
 10
135.7176650488
 20
179.7864667028
 11
138.6104853718
 21
179.7864667028
 72
1
 10
138.6104853718
 20
179.7864667028
 11
139.2805956048
 21
179.9660221986
 72
2
 10
139.4358870319
 20
179.3864667019
 40
0.6000000009
 50
90.0000000072
 51
104.9999999794
 73
1
 72
1
 10
139.4358870318
 20
179.9864667028
 11
142.0104853718
 21
179.9864667028
 72
2
 10
142.0104853718
 20
179.3864667028
 40
0.6
 50
0.0
 51
90.0000000024
 73
1
 72
1
 10
142.6104853718
 20
179.3864667028
 11
142.6104853718
 21
179.2064667028
 72
1
 10
142.6104853718
 20
179.2064667028
 11
143.6104853718
 21
178.2064667028
 72
1
 10
143.6104853718
 20
178.2064667028
 11
177.4104853718
 21
178.2064667028
 72
1
 10
177.4104853718
 20
178.2064667028
 11
179.0448262555
 21
175.4864667028
 72
1
 10
179.0448262555
 20
175.4864667028
 11
212.5938992306
 21
175.4864667028
 72
4
 94
3
 73
0
 74
0
 95
26
 96
22
 40
0.0
 40
0.0
 40
0.0
 40
0.0
 40
0.0526315789
 40
0.1052631579
 40
0.1578947368
 40
0.2105263158
 40
0.2631578947
 40
0.3157894737
 40
0.3684210526
 40
0.4210526316
 40
0.4736842105
 40
0.5263157895
 40
0.5789473684
 40
0.6315789474
 40
0.6842105263
 40
0.7368421053
 40
0.7894736842
 40
0.8421052632
 40
0.8947368421
 40
0.9473684211
 40
1.0
 40
1.0
 40
1.0
 40
1.0
 10
212.5938992306
 20
175.4864667028
 10
212.6369320064
 20
175.6083535367
 10
212.7256629415
 20
175.8377279081
 10
212.8648476246
 20
176.1385238944
 10
213.0095338027
 20
176.3984903786
 10
213.1587265379
 20
176.6184408716
 10
213.3121165667
 20
176.7996672403
 10
213.4679402421
 20
176.941500218
 10
213.6236336315
 20
177.0436051528
 10
213.7736433778
 20
177.1064432059
 10
213.9159706136
 20
177.1353024115
 10
214.0551777595
 20
177.1352822503
 10
214.1971588612
 20
177.106429901
 10
214.3458323019
 20
177.0443051094
 10
214.5005682057
 20
176.9433692908
 10
214.6561454147
 20
176.8024798424
 10
214.8097125298
 20
176.6218218166
 10
214.9594919399
 20
176.4017177858
 10
215.1047811591
 20
176.1412379241
 10
215.2446410872
 20
175.8393948353
 10
215.3338209122
 20
175.6089705081
 10
215.377071513
 20
175.4864667028
 72
1
 10
336.6904853718
 20
175.4864667028
 11
215.377071513
 21
175.4864667028
 72
1
 10
336.6904853718
 20
175.4864667028
 11
336.8106574956
 21
175.2864667028
 72
1
 10
361.3104853718
 20
175.2864667028
 11
336.8106574956
 21
175.2864667028
 72
1
 10
362.1258521788
 20
175.3578020551
 11
361.3104853718
 21
175.2864667028
 72
2
 10
362.0604853718
 20
176.1049480787
 40
0.75
 50
274.9999999975
 51
360.0
 73
1
 72
1
 10
362.8104853718
 20
178.0017773328
 11
362.8104853718
 21
176.1049480786
 72
4
 94
3
 73
1
 74
0
 95
8
 96
4
 40
0.0
 40
0.0
 40
0.0
 40
0.0
 40
1.0
 40
1.0
 40
1.0
 40
1.0
 10
362.8104853718
 20
178.0017773328
 42
1.0
 10
362.8104853718
 20
178.1703024608
 42
0.8169162473
 10
362.6944803288
 20
178.2925462695
 42
0.8169162473
 10
362.5261861587
 20
178.3013661933
 42
1.0
 97
116
330
26E
330
26F
330
270
330
271
330
272
330
273
330
274
330
275
330
276
330
277
330
278
330
279
330
27A
330
27B
330
27C
330
27D
330
27E
330
27F
330
280
330
281
330
282
330
283
330
284
330
285
330
286
330
287
330
288
330
289
330
28A
330
28B
330
28C
330
28D
330
28E
330
28F
330
290
330
291
330
292
330
293
330
294
330
295
330
296
330
297
330
298
330
299
330
29A
330
29B
330
29C
330
29D
330
29E
330
29F
330
2A0
330
2A1
330
2A2
330
2A3
330
2A4
330
2A5
330
2A6
330
2A7
330
2A8
330
2A9
330
2AA
330
2AB
330
2AC
330
2AD
330
2AE
330
2AF
330
2B0
330
2B1
330
2B2
330
2B3
330
2B4
330
2B5
330
2B6
330
2B7
330
2B8
330
2B9
330
2BA
330
2BB
330
2BC
330
2BD
330
2BE
330
2BF
330
2C0
330
2C1
330
2C2
330
2C3
330
2C4
330
2C5
330
2C6
330
2C7
330
2C8
330
2C9
330
2CA
330
2CB
330
2CC
330
2CD
330
2CE
330
2CF
330
2D0
330
2D1
330
2D2
330
2D3
330
2D4
330
2D5
330
2D6
330
2D7
330
2D8
330
2D9
330
2DA
330
2DB
330
2DC
330
2DD
330
2DE
330
2DF
330
2E0
330
2E1
 92
1
 93
58
 72
1
 10
283.5771612972
 20
160.1340241429
 11
362.5261861587
 21
164.2715672124
 72
2
 10
283.6818332099
 20
158.1367650731
 40
2.0000000003
 50
93.0000000052
 51
134.9999999991
 73
1
 72
1
 10
276.2960009332
 20
153.5793599217
 11
282.2676196473
 21
159.5509786357
 72
4
 94
3
 73
1
 74
0
 95
8
 96
4
 40
0.0
 40
0.0
 40
0.0
 40
0.0
 40
1.0
 40
1.0
 40
1.0
 40
1.0
 10
276.2960009332
 20
153.5793599217
 42
1.0
 10
276.1059581354
 20
153.3893171239
 42
0.9492530217
 10
275.8576552541
 20
153.2864667028
 42
0.9492530217
 10
275.5888941521
 20
153.2864667028
 42
1.0
 72
1
 10
273.8104853718
 20
153.2864667028
 11
275.5888941521
 21
153.2864667028
 72
1
 10
273.8104853718
 20
161.2864667028
 11
273.8104853718
 21
153.2864667028
 72
1
 10
271.3104853718
 20
162.7886182504
 11
273.8104853718
 21
161.2864667028
 72
1
 10
271.3104853718
 20
162.7886182504
 11
268.8104853718
 21
161.2864667028
 72
1
 10
268.8104853718
 20
161.2864667028
 11
268.8104853718
 21
153.2864667028
 72
1
 10
267.5223655871
 20
153.2864667028
 11
268.8104853718
 21
153.2864667028
 72
2
 10
267.5223655871
 20
152.4864667029
 40
0.7999999999
 50
89.9999999998
 51
150.0000000021
 73
1
 72
1
 10
266.6705540371
 20
152.6110858197
 11
266.8295452641
 21
152.8864667028
 72
4
 94
3
 73
1
 74
0
 95
8
 96
4
 40
0.0
 40
0.0
 40
0.0
 40
0.0
 40
1.0
 40
1.0
 40
1.0
 40
1.0
 10
266.6705540371
 20
152.6110858197
 42
1.0
 10
266.5498071081
 20
152.4019460038
 42
0.9370196339
 10
266.3517326531
 20
152.2637946602
 42
0.9370196339
 10
266.1137550771
 20
152.2227342555
 42
1.0
 72
1
 10
257.9053791802
 20
150.8064695725
 11
266.1137550771
 21
152.2227342555
 72
2
 10
257.5600394836
 20
149.3472505211
 40
1.4995625361
 50
76.6853147561
 51
122.8943806521
 73
1
 72
1
 10
246.1978621706
 20
148.7864667028
 11
256.7456527095
 21
150.6063715673
 72
1
 10
222.9104853718
 20
148.7864667028
 11
246.1978621706
 21
148.7864667028
 72
2
 10
222.9104853718
 20
147.7864667028
 40
1.0
 50
89.9999999988
 51
180.0000000012
 73
1
 72
1
 10
221.9104853718
 20
147.7864667028
 11
221.9104853718
 21
140.5114667028
 72
4
 94
3
 73
1
 74
0
 95
8
 96
4
 40
0.0
 40
0.0
 40
0.0
 40
0.0
 40
1.0
 40
1.0
 40
1.0
 40
1.0
 10
221.9104853718
 20
140.5114667028
 42
1.0
 10
221.9104853718
 20
139.9256802652
 42
0.8047378541
 10
221.4962718094
 20
139.5114667028
 42
0.8047378541
 10
220.9104853718
 20
139.5114667028
 42
1.0
 72
1
 10
217.5217557706
 20
139.5114667028
 11
220.9104853718
 21
139.5114667028
 72
1
 10
215.8604853718
 20
142.3888714387
 11
217.5217557706
 21
139.5114667028
 72
1
 10
215.8604853718
 20
142.6614667028
 11
215.8604853718
 21
142.3888714387
 72
2
 10
215.3604853718
 20
142.6614667028
 40
0.5
 50
0.0
 51
90.0000000047
 73
1
 72
1
 10
212.6104853718
 20
143.1614667028
 11
215.3604853718
 21
143.1614667028
 72
2
 10
212.6104853718
 20
142.6614667028
 40
0.5
 50
89.9999999953
 51
180.0000000047
 73
1
 72
1
 10
212.1104853718
 20
142.6614667028
 11
212.1104853718
 21
142.3888714387
 72
1
 10
210.449214973
 20
139.5114667028
 11
212.1104853718
 21
142.3888714387
 72
1
 10
207.0604853718
 20
139.5114667028
 11
210.449214973
 21
139.5114667028
 72
4
 94
3
 73
1
 74
0
 95
8
 96
4
 40
0.0
 40
0.0
 40
0.0
 40
0.0
 40
1.0
 40
1.0
 40
1.0
 40
1.0
 10
207.0604853718
 20
139.5114667028
 42
1.0
 10
206.4746989342
 20
139.5114667028
 42
0.8047378541
 10
206.0604853718
 20
139.9256802652
 42
0.8047378541
 10
206.0604853718
 20
140.5114667028
 42
1.0
 72
1
 10
206.0604853718
 20
148.4114667028
 11
206.0604853718
 21
140.5114667028
 72
2
 10
205.0604853718
 20
148.4114667028
 40
1.0
 50
0.0
 51
90.0000000012
 73
1
 72
1
 10
203.4104853718
 20
149.4114667028
 11
205.0604853718
 21
149.4114667028
 72
1
 10
202.1042675891
 20
149.0614667028
 11
203.4104853718
 21
149.4114667028
 72
1
 10
136.1218480334
 20
158.6847048246
 11
202.1042675891
 21
149.0614667028
 72
4
 94
3
 73
1
 74
0
 95
8
 96
4
 40
0.0
 40
0.0
 40
0.0
 40
0.0
 40
1.0
 40
1.0
 40
1.0
 40
1.0
 10
136.1218480334
 20
158.6847048246
 42
1.0
 10
135.0915368353
 20
158.8349710631
 42
0.8376080973
 10
134.4104853718
 20
159.6225559865
 42
0.8376080973
 10
134.4104853718
 20
160.6637673518
 42
1.0
 72
1
 10
134.4104853718
 20
161.8627062721
 11
134.4104853718
 21
160.6637673518
 72
4
 94
3
 73
1
 74
0
 95
8
 96
4
 40
0.0
 40
0.0
 40
0.0
 40
0.0
 40
1.0
 40
1.0
 40
1.0
 40
1.0
 10
134.4104853718
 20
161.8627062721
 42
1.0
 10
134.4104853718
 20
162.0091164337
 42
0.9106836025
 10
134.4836904525
 20
162.1359113529
 42
0.9106836025
 10
134.6104853718
 20
162.2091164337
 42
1.0
 72
1
 10
134.6104853718
 20
162.2091164337
 11
135.5176650488
 21
162.7328768644
 72
4
 94
3
 73
1
 74
0
 95
8
 96
4
 40
0.0
 40
0.0
 40
0.0
 40
0.0
 40
1.0
 40
1.0
 40
1.0
 40
1.0
 10
135.5176650488
 20
162.7328768644
 42
1.0
 10
135.5788260882
 20
162.7681882069
 42
0.9772838842
 10
135.6470423636
 20
162.7864667028
 42
0.9772838842
 10
135.7176650488
 20
162.7864667028
 42
1.0
 72
1
 10
135.7176650488
 20
162.7864667028
 11
138.6104853718
 21
162.7864667028
 72
1
 10
138.6104853718
 20
162.7864667028
 11
139.2805956048
 21
162.6069112071
 72
2
 10
139.4358870317
 20
163.1864666995
 40
0.5999999967
 50
254.9999999309
 51
270.00000001
 73
1
 72
1
 10
139.4358870318
 20
162.5864667028
 11
142.0104853718
 21
162.5864667028
 72
2
 10
142.0104853718
 20
163.1864667028
 40
0.6
 50
270.0000000034
 51
360.0
 73
1
 72
1
 10
142.6104853718
 20
163.3664667028
 11
142.6104853718
 21
163.1864667028
 72
1
 10
142.6104853718
 20
163.3664667028
 11
143.6104853718
 21
164.3664667028
 72
1
 10
143.6104853718
 20
164.3664667028
 11
177.4104853718
 21
164.3664667028
 72
1
 10
177.4104853718
 20
164.3664667028
 11
179.0448262555
 21
167.0864667028
 72
1
 10
179.0448262555
 20
167.0864667028
 11
212.5938992306
 21
167.0864667028
 72
4
 94
3
 73
0
 74
0
 95
26
 96
22
 40
0.0
 40
0.0
 40
0.0
 40
0.0
 40
0.0526315789
 40
0.1052631579
 40
0.1578947368
 40
0.2105263158
 40
0.2631578947
 40
0.3157894737
 40
0.3684210526
 40
0.4210526316
 40
0.4736842105
 40
0.5263157895
 40
0.5789473684
 40
0.6315789474
 40
0.6842105263
 40
0.7368421053
 40
0.7894736842
 40
0.8421052632
 40
0.8947368421
 40
0.9473684211
 40
1.0
 40
1.0
 40
1.0
 40
1.0
 10
212.5938992306
 20
167.0864667028
 10
212.6371498313
 20
166.9639628976
 10
212.7263296564
 20
166.7335385704
 10
212.8661895844
 20
166.4316954816
 10
213.0114788036
 20
166.1712156199
 10
213.1612582138
 20
165.9511115891
 10
213.3148253289
 20
165.7704535633
 10
213.4704025378
 20
165.6295641149
 10
213.6251384417
 20
165.5286282963
 10
213.7738118824
 20
165.4665035047
 10
213.915792984
 20
165.4376511553
 10
214.05500013
 20
165.4376309942
 10
214.1973273657
 20
165.4664901998
 10
214.347337112
 20
165.5293282529
 10
214.5030305014
 20
165.6314331877
 10
214.6588541769
 20
165.7732661653
 10
214.8122442056
 20
165.9544925341
 10
214.9614369408
 20
166.1744430271
 10
215.1061231189
 20
166.4344095113
 10
215.2453078021
 20
166.7352054976
 10
215.3340387372
 20
166.964579869
 10
215.377071513
 20
167.0864667028
 72
1
 10
215.377071513
 20
167.0864667028
 11
336.6904853718
 21
167.0864667028
 72
1
 10
336.6904853718
 20
167.0864667028
 11
336.8106574956
 21
167.2864667028
 72
1
 10
361.3104853718
 20
167.2864667028
 11
336.8106574956
 21
167.2864667028
 72
1
 10
362.1258521788
 20
167.2151313506
 11
361.3104853718
 21
167.2864667028
 72
2
 10
362.0604853717
 20
166.467985327
 40
0.7500000001
 50
0.0000000021
 51
85.0000000006
 73
1
 72
1
 10
362.8104853718
 20
166.467985327
 11
362.8104853718
 21
164.5711560729
 72
4
 94
3
 73
1
 74
0
 95
8
 96
4
 40
0.0
 40
0.0
 40
0.0
 40
0.0
 40
1.0
 40
1.0
 40
1.0
 40
1.0
 10
362.8104853718
 20
164.5711560729
 42
1.0
 10
362.8104853718
 20
164.4026309449
 42
0.8169162473
 10
362.6944803288
 20
164.2803871362
 42
0.8169162473
 10
362.5261861587
 20
164.2715672124
 42
1.0
 97
116
330
26E
330
26F
330
270
330
271
330
272
330
273
330
274
330
275
330
276
330
277
330
278
330
279
330
27A
330
27B
330
27C
330
27D
330
27E
330
27F
330
280
330
281
330
282
330
283
330
284
330
285
330
286
330
287
330
288
330
289
330
28A
330
28B
330
28C
330
28D
330
28E
330
28F
330
290
330
291
330
292
330
293
330
294
330
295
330
296
330
297
330
298
330
299
330
29A
330
29B
330
29C
330
29D
330
29E
330
29F
330
2A0
330
2A1
330
2A2
330
2A3
330
2A4
330
2A5
330
2A6
330
2A7
330
2A8
330
2A9
330
2AA
330
2AB
330
2AC
330
2AD
330
2AE
330
2AF
330
2B0
330
2B1
330
2B2
330
2B3
330
2B4
330
2B5
330
2B6
330
2B7
330
2B8
330
2B9
330
2BA
330
2BB
330
2BC
330
2BD
330
2BE
330
2BF
330
2C0
330
2C1
330
2C2
330
2C3
330
2C4
330
2C5
330
2C6
330
2C7
330
2C8
330
2C9
330
2CA
330
2CB
330
2CC
330
2CD
330
2CE
330
2CF
330
2D0
330
2D1
330
2D2
330
2D3
330
2D4
330
2D5
330
2D6
330
2D7
330
2D8
330
2D9
330
2DA
330
2DB
330
2DC
330
2DD
330
2DE
330
2DF
330
2E0
330
2E1
 75
0
 76
0
 52
45.0
 41
11.5167016053
 77
0
 78
1
 53
45.0
 43
0.0
 44
0.0
 45
-8.143537802
 46
8.143537802
 79
0
 98
1
 10
0.0
 20
0.0
  0
DIMENSION
  5
2E3
100
AcDbEntity
  8
0
100
AcDbDimension
 62
2
  6
CONTINUOUS
  2
*D0
 10
202.8104853718
 20
238.447302541
 11
290.8842711693
 21
241.072302541
 70
160
 71
2
 42
160.0
  1
160
  3
DIMSTYLE_1
100
AcDbAlignedDimension
 13
362.8104853718
 23
166.975153128
 14
202.8104853718
 24
198.248713277
 50
180.0
100
AcDbRotatedDimension
  0
DIMENSION
  5
2E4
100
AcDbEntity
  8
0
100
AcDbDimension
 62
2
  6
CONTINUOUS
  2
*D1
 10
362.8104853718
 20
245.1268839127
 11
264.1800550764
 21
247.7518839127
 70
160
 71
2
 42
228.4
  1
228.4
  3
DIMSTYLE_1
100
AcDbAlignedDimension
 13
134.4104853718
 23
182.1672216424
 14
362.8104853718
 24
164.5941314586
100
AcDbRotatedDimension
  0
DIMENSION
  5
2E5
100
AcDbEntity
  8
0
100
AcDbDimension
 62
2
  6
CONTINUOUS
  2
*D2
 10
221.9104853718
 20
231.0225053704
 11
295.8264149393
 21
233.6475053704
 70
160
 71
2
 42
140.9
  1
140.9
  3
DIMSTYLE_1
100
AcDbAlignedDimension
 13
362.8104853718
 23
167.522028128
 14
221.9104853718
 24
201.9057832249
 50
180.0
100
AcDbRotatedDimension
  0
DIMENSION
  5
2E6
100
AcDbEntity
  8
0
100
AcDbDimension
 62
2
  6
CONTINUOUS
  2
*D3
 10
362.5104853718
 20
178.0017773328
 11
380.492017758
 21
192.9808987943
 70
164
 71
1
 42
0.3
  1
R0.3
  3
DIMSTYLE_2
100
AcDbRadialDimension
 15
362.7610688899
 25
178.1667255079
  0
DIMENSION
  5
2E7
100
AcDbEntity
  8
0
100
AcDbDimension
 62
2
  6
CONTINUOUS
  2
*D4
 10
403.2831298941
 20
178.2864667028
 11
400.6581298941
 21
187.1971821434
 70
160
 71
1
 42
5.9999999999
  1
%%c14
  3
DIMSTYLE_3
100
AcDbAlignedDimension
 13
364.3104853718
 23
164.2864667028
 14
364.3104853718
 24
178.2864667028
 50
90.0
100
AcDbRotatedDimension
  0
DIMENSION
  5
2E8
100
AcDbEntity
  8
0
100
AcDbDimension
 62
2
  6
CONTINUOUS
  2
*D5
 10
347.1963528999
 20
171.2864667028
 11
344.3603853672
 21
195.8394163325
 70
162
 71
2
 42
0.0523598776
  1
3%%d
  3
DIMSTYLE_4
100
AcDb2LineAngularDimension
 13
347.4008017685
 23
179.094054
 14
351.9006269315
 24
178.858228156
 15
351.6454876133
 25
171.2864667028
 16
348.7469598635
 26
175.1523331201
  0
DIMENSION
  5
2E9
100
AcDbEntity
  8
0
100
AcDbDimension
 62
2
  6
CONTINUOUS
  2
*D6
 10
391.3939809565
 20
175.2864667028
 11
388.7689809565
 21
183.5333540599
 70
160
 71
1
 42
8.0713353522
  1
%%c8
  3
DIMSTYLE_5
100
AcDbAlignedDimension
 13
364.3104853718
 23
167.2864667028
 14
364.3104853718
 24
175.2864667028
 50
90.0
100
AcDbRotatedDimension
  0
DIMENSION
  5
2EA
100
AcDbEntity
  8
0
100
AcDbDimension
 62
2
  6
CONTINUOUS
  2
*D7
 10
222.9104853718
 20
194.7864667028
 11
232.0786950834
 21
200.7763381454
 70
164
 71
1
 42
1.0
  1
R1
  3
DIMSTYLE_2
100
AcDbRadialDimension
 15
221.9666229217
 25
194.4561279747
  0
MTEXT
  5
2EB
100
AcDbEntity
  8
0
100
AcDbMText
 62
5
  6
CONTINUOUS
  7
TEXTSTYLE_2
 71
1
 72
1
 10
153.4620788294
 20
81.0110888189
 30
0.0
 11
1.0
 21
0.0
 31
0.0
 44
0.9
  1
Für diese Unterlage behalten wir das Ur-\Pheberrecht. Sie darf nur für den von uns \Pbestimmten Zweck benutzt und ohne unsere\PZustimmung weder vervielfältigt noch\P{\W0.7;Dritten zugänglich gemacht werden.}
 40
3.5
 41
100.45
  0
LINE
  5
2EC
100
AcDbEntity
  8
0
100
AcDbLine
 62
7
  6
CONTINUOUS
 10
0.0
 20
-0.0
 11
0.0
 21
297.0
  0
LINE
  5
2ED
100
AcDbEntity
  8
0
100
AcDbLine
 62
7
  6
CONTINUOUS
 10
0.0
 20
0.0
 11
0.0
 21
297.0
  0
LINE
  5
2EE
100
AcDbEntity
  8
0
100
AcDbLine
 62
7
  6
CONTINUOUS
 10
0.0
 20
-0.0
 11
420.0
 21
-0.0
  0
LINE
  5
2EF
100
AcDbEntity
  8
0
100
AcDbLine
 62
7
  6
CONTINUOUS
 10
0.0
 20
0.0
 11
420.0
 21
0.0
  0
LINE
  5
2F0
100
AcDbEntity
  8
0
100
AcDbLine
 62
7
  6
CONTINUOUS
 10
134.4104853718
 20
160.6637673518
 11
134.4104853718
 21
181.9091660538
  0
LINE
  5
2F1
100
AcDbEntity
  8
0
100
AcDbLine
 62
9
  6
CONTINUOUS
 10
134.6104853718
 20
180.363816972
 11
134.6104853718
 21
162.2091164337
  0
LINE
  5
2F2
100
AcDbEntity
  8
0
100
AcDbLine
 62
9
  6
CONTINUOUS
 10
135.5176650488
 20
179.8400565413
 11
135.5176650488
 21
162.7328768644
  0
LINE
  5
2F3
100
AcDbEntity
  8
0
100
AcDbLine
 62
9
  6
CONTINUOUS
 10
135.7176650488
 20
179.7864667028
 11
135.7176650488
 21
162.7864667028
  0
LINE
  5
2F4
100
AcDbEntity
  8
0
100
AcDbLine
 62
7
  6
CONTINUOUS
 10
138.6104853718
 20
179.7864667028
 11
138.6104853718
 21
162.7864667028
  0
LINE
  5
2F5
100
AcDbEntity
  8
0
100
AcDbLine
 62
9
  6
CONTINUOUS
 10
139.2805956048
 20
179.9660221986
 11
139.2805956048
 21
162.6069112071
  0
LINE
  5
2F6
100
AcDbEntity
  8
0
100
AcDbLine
 62
9
  6
CONTINUOUS
 10
139.4358870318
 20
179.9864667028
 11
139.4358870318
 21
162.5864667028
  0
LINE
  5
2F7
100
AcDbEntity
  8
0
100
AcDbLine
 62
9
  6
CONTINUOUS
 10
142.0104853718
 20
179.9864667028
 11
142.0104853718
 21
162.5864667028
  0
LINE
  5
2F8
100
AcDbEntity
  8
0
100
AcDbLine
 62
7
  6
CONTINUOUS
 10
142.6104853718
 20
179.3864667028
 11
142.6104853718
 21
163.1864667028
  0
LINE
  5
2F9
100
AcDbEntity
  8
0
100
AcDbLine
 62
7
  6
CONTINUOUS
 10
143.6104853718
 20
178.2064667028
 11
143.6104853718
 21
164.3664667028
  0
LINE
  5
2FA
100
AcDbEntity
  8
0
100
AcDbLine
 62
7
  6
CONTINUOUS
 10
142.6104853718
 20
163.3664667028
 11
143.6104853718
 21
164.3664667028
  0
LINE
  5
2FB
100
AcDbEntity
  8
0
100
AcDbLine
 62
7
  6
CONTINUOUS
 10
134.6104853718
 20
162.2091164337
 11
135.5176650488
 21
162.7328768644
  0
LINE
  5
2FC
100
AcDbEntity
  8
0
100
AcDbLine
 62
7
  6
CONTINUOUS
 10
169.4104853718
 20
163.2864667028
 11
169.4104853718
 21
179.2864667028
  0
LINE
  5
2FD
100
AcDbEntity
  8
0
100
AcDbLine
 62
7
  6
CONTINUOUS
 10
177.4104853718
 20
178.2064667028
 11
177.4104853718
 21
164.3664667028
  0
LINE
  5
2FE
100
AcDbEntity
  8
0
100
AcDbLine
 62
7
  6
CONTINUOUS
 10
179.0448262555
 20
167.0864667028
 11
179.0448262555
 21
175.4864667028
  0
LINE
  5
2FF
100
AcDbEntity
  8
0
100
AcDbLine
 62
7
  6
CONTINUOUS
 10
177.4104853718
 20
164.3664667028
 11
179.0448262555
 21
167.0864667028
  0
LINE
  5
300
100
AcDbEntity
  8
0
100
AcDbLine
 62
7
  6
CONTINUOUS
 10
215.8604853718
 20
200.184061967
 11
217.5217557706
 21
203.0614667028
  0
LINE
  5
301
100
AcDbEntity
  8
0
100
AcDbLine
 62
7
  6
CONTINUOUS
 10
142.6104853718
 20
179.2064667028
 11
143.6104853718
 21
178.2064667028
  0
LINE
  5
302
100
AcDbEntity
  8
BEZUGSACHSEN
100
AcDbLine
 62
7
  6
CENTER
 10
202.8104853718
 20
141.9186175194
 11
202.8104853718
 21
197.3804171694
  0
LINE
  5
303
100
AcDbEntity
  8
0
100
AcDbLine
 62
7
  6
CONTINUOUS
 10
206.0604853718
 20
202.0614667028
 11
206.0604853718
 21
194.1614667028
  0
LINE
  5
304
100
AcDbEntity
  8
0
100
AcDbLine
 62
7
  6
CONTINUOUS
 10
206.0604853718
 20
148.4114667028
 11
206.0604853718
 21
140.5114667028
  0
LINE
  5
305
100
AcDbEntity
  8
0
100
AcDbLine
 62
7
  6
CONTINUOUS
 10
257.8492047091
 20
150.8181695266
 11
257.824728582
 21
150.8129447355
  0
LINE
  5
306
100
AcDbEntity
  8
0
100
AcDbLine
 62
7
  6
CONTINUOUS
 10
246.1978621706
 20
148.7864667028
 11
256.7456527095
 21
150.6063715673
  0
LINE
  5
307
100
AcDbEntity
  8
0
100
AcDbLine
 62
7
  6
CONTINUOUS
 10
257.9053791802
 20
150.8064695725
 11
266.1137550771
 21
152.2227342555
  0
LINE
  5
308
100
AcDbEntity
  8
0
100
AcDbLine
 62
7
  6
CONTINUOUS
 10
207.0604853718
 20
139.5114667028
 11
210.449214973
 21
139.5114667028
  0
LINE
  5
309
100
AcDbEntity
  8
0
100
AcDbLine
 62
7
  6
CONTINUOUS
 10
217.5217557706
 20
139.5114667028
 11
220.9104853718
 21
139.5114667028
  0
LINE
  5
30A
100
AcDbEntity
  8
0
100
AcDbLine
 62
7
  6
CONTINUOUS
 10
212.6104853718
 20
143.1614667028
 11
215.3604853718
 21
143.1614667028
  0
LINE
  5
30B
100
AcDbEntity
  8
0
100
AcDbLine
 62
7
  6
CONTINUOUS
 10
222.9104853718
 20
148.7864667028
 11
246.1978621706
 21
148.7864667028
  0
LINE
  5
30C
100
AcDbEntity
  8
0
100
AcDbLine
 62
7
  6
CONTINUOUS
 10
203.4104853718
 20
149.4114667028
 11
205.0604853718
 21
149.4114667028
  0
LINE
  5
30D
100
AcDbEntity
  8
0
100
AcDbLine
 62
7
  6
CONTINUOUS
 10
136.1218480334
 20
158.6847048246
 11
202.1042675891
 21
149.0614667028
  0
LINE
  5
30E
100
AcDbEntity
  8
0
100
AcDbLine
 62
7
  6
CONTINUOUS
 10
138.6104853718
 20
162.7864667028
 11
139.2805956048
 21
162.6069112071
  0
LINE
  5
30F
100
AcDbEntity
  8
0
100
AcDbLine
 62
7
  6
CONTINUOUS
 10
134.6104853718
 20
180.363816972
 11
135.5176650488
 21
179.8400565413
  0
LINE
  5
310
100
AcDbEntity
  8
0
100
AcDbLine
 62
7
  6
CONTINUOUS
 10
177.4104853718
 20
178.2064667028
 11
179.0448262555
 21
175.4864667028
  0
LINE
  5
311
100
AcDbEntity
  8
0
100
AcDbLine
 62
7
  6
CONTINUOUS
 10
212.1104853718
 20
200.184061967
 11
212.1104853718
 21
199.9114667028
  0
LINE
  5
312
100
AcDbEntity
  8
0
100
AcDbLine
 62
7
  6
CONTINUOUS
 10
212.1104853718
 20
142.6614667028
 11
212.1104853718
 21
142.3888714387
  0
LINE
  5
313
100
AcDbEntity
  8
0
100
AcDbLine
 62
7
  6
CONTINUOUS
 10
215.8604853718
 20
200.184061967
 11
215.8604853718
 21
199.9114667028
  0
LINE
  5
314
100
AcDbEntity
  8
0
100
AcDbLine
 62
7
  6
CONTINUOUS
 10
215.8604853718
 20
142.6614667028
 11
215.8604853718
 21
142.3888714387
  0
LINE
  5
315
100
AcDbEntity
  8
0
100
AcDbLine
 62
7
  6
CONTINUOUS
 10
221.9104853718
 20
202.0614667028
 11
221.9104853718
 21
194.7864667028
  0
LINE
  5
316
100
AcDbEntity
  8
0
100
AcDbLine
 62
7
  6
CONTINUOUS
 10
221.9104853718
 20
147.7864667028
 11
221.9104853718
 21
140.5114667028
  0
LINE
  5
317
100
AcDbEntity
  8
0
100
AcDbLine
 62
7
  6
CONTINUOUS
 10
210.449214973
 20
139.5114667028
 11
212.1104853718
 21
142.3888714387
  0
LINE
  5
318
100
AcDbEntity
  8
0
100
AcDbLine
 62
7
  6
CONTINUOUS
 10
271.3104853718
 20
179.7843151553
 11
273.8104853718
 21
181.2864667028
  0
LINE
  5
319
100
AcDbEntity
  8
0
100
AcDbLine
 62
7
  6
CONTINUOUS
 10
202.1042675891
 20
149.0614667028
 11
203.4104853718
 21
149.4114667028
  0
LINE
  5
31A
100
AcDbEntity
  8
0
100
AcDbLine
 62
7
  6
CONTINUOUS
 10
362.1258521788
 20
175.3578020551
 11
361.3104853718
 21
175.2864667028
  0
LINE
  5
31B
100
AcDbEntity
  8
0
100
AcDbLine
 62
7
  6
CONTINUOUS
 10
283.5771612972
 20
160.1340241429
 11
362.5261861587
 21
164.2715672124
  0
LINE
  5
31C
100
AcDbEntity
  8
0
100
AcDbLine
 62
7
  6
CONTINUOUS
 10
267.5223655871
 20
153.2864667028
 11
268.8104853718
 21
153.2864667028
  0
LINE
  5
31D
100
AcDbEntity
  8
0
100
AcDbLine
 62
7
  6
CONTINUOUS
 10
273.8104853718
 20
153.2864667028
 11
275.5888941521
 21
153.2864667028
  0
LINE
  5
31E
100
AcDbEntity
  8
0
100
AcDbLine
 62
7
  6
CONTINUOUS
 10
268.3104853718
 20
159.2864667028
 11
274.3104853718
 21
159.2864667028
  0
LINE
  5
31F
100
AcDbEntity
  8
0
100
AcDbLine
 62
7
  6
CONTINUOUS
 10
273.8104853718
 20
161.2864667028
 11
268.8104853718
 21
161.2864667028
  0
LINE
  5
320
100
AcDbEntity
  8
0
100
AcDbLine
 62
7
  6
CONTINUOUS
 10
139.4358870318
 20
162.5864667028
 11
142.0104853718
 21
162.5864667028
  0
LINE
  5
321
100
AcDbEntity
  8
0
100
AcDbLine
 62
7
  6
CONTINUOUS
 10
135.7176650488
 20
162.7864667028
 11
138.6104853718
 21
162.7864667028
  0
LINE
  5
322
100
AcDbEntity
  8
0
100
AcDbLine
 62
2
  6
CONTINUOUS
 10
142.6104853718
 20
163.2864667028
 11
169.4104853718
 21
163.2864667028
  0
LINE
  5
323
100
AcDbEntity
  8
0
100
AcDbLine
 62
7
  6
CONTINUOUS
 10
143.6104853718
 20
164.3664667028
 11
177.4104853718
 21
164.3664667028
  0
LINE
  5
324
100
AcDbEntity
  8
0
100
AcDbLine
 62
7
  6
CONTINUOUS
 10
215.8604853718
 20
142.3888714387
 11
217.5217557706
 21
139.5114667028
  0
LINE
  5
325
100
AcDbEntity
  8
0
100
AcDbLine
 62
7
  6
CONTINUOUS
 10
271.3104853718
 20
162.7886182504
 11
268.8104853718
 21
161.2864667028
  0
LINE
  5
326
100
AcDbEntity
  8
0
100
AcDbLine
 62
7
  6
CONTINUOUS
 10
179.0448262555
 20
167.0864667028
 11
212.5938992306
 21
167.0864667028
  0
LINE
  5
327
100
AcDbEntity
  8
0
100
AcDbLine
 62
7
  6
CONTINUOUS
 10
215.377071513
 20
167.0864667028
 11
336.6904853718
 21
167.0864667028
  0
LINE
  5
328
100
AcDbEntity
  8
0
100
AcDbLine
 62
7
  6
CONTINUOUS
 10
361.3104853718
 20
167.2864667028
 11
336.8106574956
 21
167.2864667028
  0
LINE
  5
329
100
AcDbEntity
  8
BEZUGSACHSEN
100
AcDbLine
 62
7
  6
CENTER
 10
367.8104853718
 20
171.2864667028
 11
131.4104853718
 21
171.2864667028
  0
LINE
  5
32A
100
AcDbEntity
  8
DEFAULT_1
100
AcDbLine
 62
7
  6
CENTER
 10
265.8104853718
 20
171.2864667028
 11
276.8104853718
 21
171.2864667028
  0
LINE
  5
32B
100
AcDbEntity
  8
0
100
AcDbLine
 62
7
  6
CONTINUOUS
 10
361.3104853718
 20
175.2864667028
 11
336.8106574956
 21
175.2864667028
  0
LINE
  5
32C
100
AcDbEntity
  8
0
100
AcDbLine
 62
7
  6
CONTINUOUS
 10
336.6904853718
 20
175.4864667028
 11
215.377071513
 21
175.4864667028
  0
LINE
  5
32D
100
AcDbEntity
  8
0
100
AcDbLine
 62
7
  6
CONTINUOUS
 10
179.0448262555
 20
175.4864667028
 11
212.5938992306
 21
175.4864667028
  0
LINE
  5
32E
100
AcDbEntity
  8
0
100
AcDbLine
 62
7
  6
CONTINUOUS
 10
143.6104853718
 20
178.2064667028
 11
177.4104853718
 21
178.2064667028
  0
LINE
  5
32F
100
AcDbEntity
  8
0
100
AcDbLine
 62
2
  6
CONTINUOUS
 10
142.6104853718
 20
179.2864667028
 11
169.4104853718
 21
179.2864667028
  0
LINE
  5
330
100
AcDbEntity
  8
0
100
AcDbLine
 62
7
  6
CONTINUOUS
 10
210.449214973
 20
203.0614667028
 11
212.1104853718
 21
200.184061967
  0
LINE
  5
331
100
AcDbEntity
  8
0
100
AcDbLine
 62
7
  6
CONTINUOUS
 10
276.2960009332
 20
153.5793599217
 11
282.2676196473
 21
159.5509786357
  0
LINE
  5
332
100
AcDbEntity
  8
0
100
AcDbLine
 62
7
  6
CONTINUOUS
 10
136.1218480334
 20
183.8882285811
 11
202.1042675891
 21
193.5114667028
  0
LINE
  5
333
100
AcDbEntity
  8
0
100
AcDbLine
 62
7
  6
CONTINUOUS
 10
135.7176650488
 20
179.7864667028
 11
138.6104853718
 21
179.7864667028
  0
LINE
  5
334
100
AcDbEntity
  8
0
100
AcDbLine
 62
7
  6
CONTINUOUS
 10
139.4358870318
 20
179.9864667028
 11
142.0104853718
 21
179.9864667028
  0
LINE
  5
335
100
AcDbEntity
  8
0
100
AcDbLine
 62
7
  6
CONTINUOUS
 10
273.8104853718
 20
181.2864667028
 11
268.8104853718
 21
181.2864667028
  0
LINE
  5
336
100
AcDbEntity
  8
0
100
AcDbLine
 62
7
  6
CONTINUOUS
 10
268.3104853718
 20
183.2864667028
 11
274.3104853718
 21
183.2864667028
  0
LINE
  5
337
100
AcDbEntity
  8
0
100
AcDbLine
 62
7
  6
CONTINUOUS
 10
275.5888941521
 20
189.2864667028
 11
273.8104853718
 21
189.2864667028
  0
LINE
  5
338
100
AcDbEntity
  8
0
100
AcDbLine
 62
7
  6
CONTINUOUS
 10
267.5223655871
 20
189.2864667028
 11
268.8104853718
 21
189.2864667028
  0
LINE
  5
339
100
AcDbEntity
  8
0
100
AcDbLine
 62
7
  6
CONTINUOUS
 10
203.4104853718
 20
193.1614667028
 11
205.0604853718
 21
193.1614667028
  0
LINE
  5
33A
100
AcDbEntity
  8
0
100
AcDbLine
 62
7
  6
CONTINUOUS
 10
222.9104853718
 20
193.7864667028
 11
246.1978621706
 21
193.7864667028
  0
LINE
  5
33B
100
AcDbEntity
  8
0
100
AcDbLine
 62
7
  6
CONTINUOUS
 10
283.5771612972
 20
182.4389092628
 11
362.5261861587
 21
178.3013661933
  0
LINE
  5
33C
100
AcDbEntity
  8
0
100
AcDbLine
 62
7
  6
CONTINUOUS
 10
362.1258521788
 20
167.2151313506
 11
361.3104853718
 21
167.2864667028
  0
LINE
  5
33D
100
AcDbEntity
  8
0
100
AcDbLine
 62
7
  6
CONTINUOUS
 10
202.1042675891
 20
193.5114667028
 11
203.4104853718
 21
193.1614667028
  0
LINE
  5
33E
100
AcDbEntity
  8
0
100
AcDbLine
 62
7
  6
CONTINUOUS
 10
271.3104853718
 20
162.7886182504
 11
273.8104853718
 21
161.2864667028
  0
LINE
  5
33F
100
AcDbEntity
  8
0
100
AcDbLine
 62
2
  6
CONTINUOUS
 10
268.3104853718
 20
159.2864667028
 11
268.3104853718
 21
153.2864667028
  0
LINE
  5
340
100
AcDbEntity
  8
0
100
AcDbLine
 62
2
  6
CONTINUOUS
 10
268.3104853718
 20
183.2864667028
 11
268.3104853718
 21
189.2864667028
  0
LINE
  5
341
100
AcDbEntity
  8
0
100
AcDbLine
 62
7
  6
CONTINUOUS
 10
268.8104853718
 20
161.2864667028
 11
268.8104853718
 21
153.2864667028
  0
LINE
  5
342
100
AcDbEntity
  8
0
100
AcDbLine
 62
7
  6
CONTINUOUS
 10
268.8104853718
 20
181.2864667028
 11
268.8104853718
 21
189.2864667028
  0
LINE
  5
343
100
AcDbEntity
  8
0
100
AcDbLine
 62
7
  6
CONTINUOUS
 10
266.6705540371
 20
152.6110858197
 11
266.8295452641
 21
152.8864667028
  0
LINE
  5
344
100
AcDbEntity
  8
0
100
AcDbLine
 62
7
  6
CONTINUOUS
 10
138.6104853718
 20
179.7864667028
 11
139.2805956048
 21
179.9660221986
  0
LINE
  5
345
100
AcDbEntity
  8
0
100
AcDbLine
 62
7
  6
CONTINUOUS
 10
212.6104853718
 20
199.4114667028
 11
215.3604853718
 21
199.4114667028
  0
LINE
  5
346
100
AcDbEntity
  8
0
100
AcDbLine
 62
7
  6
CONTINUOUS
 10
207.0604853718
 20
203.0614667028
 11
210.449214973
 21
203.0614667028
  0
LINE
  5
347
100
AcDbEntity
  8
0
100
AcDbLine
 62
7
  6
CONTINUOUS
 10
217.5217557706
 20
203.0614667028
 11
220.9104853718
 21
203.0614667028
  0
LINE
  5
348
100
AcDbEntity
  8
0
100
AcDbLine
 62
7
  6
CONTINUOUS
 10
266.1137550771
 20
190.3501991502
 11
257.9053791802
 21
191.7664638332
  0
LINE
  5
349
100
AcDbEntity
  8
0
100
AcDbLine
 62
7
  6
CONTINUOUS
 10
246.1978621706
 20
193.7864667028
 11
256.7456527095
 21
191.9665618384
  0
LINE
  5
34A
100
AcDbEntity
  8
0
100
AcDbLine
 62
7
  6
CONTINUOUS
 10
271.3104853718
 20
179.7843151553
 11
268.8104853718
 21
181.2864667028
  0
LINE
  5
34B
100
AcDbEntity
  8
DEFAULT_1
100
AcDbLine
 62
7
  6
CENTER
 10
271.3104853718
 20
150.6707355111
 11
271.3104853718
 21
190.8304069605
  0
LINE
  5
34C
100
AcDbEntity
  8
0
100
AcDbLine
 62
7
  6
CONTINUOUS
 10
273.8104853718
 20
161.2864667028
 11
273.8104853718
 21
153.2864667028
  0
LINE
  5
34D
100
AcDbEntity
  8
0
100
AcDbLine
 62
7
  6
CONTINUOUS
 10
273.8104853718
 20
181.2864667028
 11
273.8104853718
 21
189.2864667028
  0
LINE
  5
34E
100
AcDbEntity
  8
0
100
AcDbLine
 62
2
  6
CONTINUOUS
 10
274.3104853718
 20
159.2864667028
 11
274.3104853718
 21
153.2864667028
  0
LINE
  5
34F
100
AcDbEntity
  8
0
100
AcDbLine
 62
2
  6
CONTINUOUS
 10
274.3104853718
 20
183.2864667028
 11
274.3104853718
 21
189.2864667028
  0
LINE
  5
350
100
AcDbEntity
  8
0
100
AcDbLine
 62
7
  6
CONTINUOUS
 10
266.6705540371
 20
189.961847586
 11
266.8295452641
 21
189.6864667028
  0
LINE
  5
351
100
AcDbEntity
  8
0
100
AcDbLine
 62
7
  6
CONTINUOUS
 10
276.2960009332
 20
188.993573484
 11
282.2676196473
 21
183.0219547699
  0
LINE
  5
352
100
AcDbEntity
  8
0
100
AcDbLine
 62
7
  6
CONTINUOUS
 10
336.6904853718
 20
167.0864667028
 11
336.8106574956
 21
167.2864667028
  0
LINE
  5
353
100
AcDbEntity
  8
0
100
AcDbLine
 62
7
  6
CONTINUOUS
 10
336.6904853718
 20
175.4864667028
 11
336.6904853718
 21
167.0864667028
  0
LINE
  5
354
100
AcDbEntity
  8
0
100
AcDbLine
 62
7
  6
CONTINUOUS
 10
336.8106574956
 20
175.2864667028
 11
336.8106574956
 21
167.2864667028
  0
LINE
  5
355
100
AcDbEntity
  8
0
100
AcDbLine
 62
7
  6
CONTINUOUS
 10
336.6904853718
 20
175.4864667028
 11
336.8106574956
 21
175.2864667028
  0
LINE
  5
356
100
AcDbEntity
  8
0
100
AcDbLine
 62
7
  6
CONTINUOUS
 10
0.0
 20
297.0
 11
420.0
 21
297.0
  0
LINE
  5
357
100
AcDbEntity
  8
0
100
AcDbLine
 62
7
  6
CONTINUOUS
 10
0.0
 20
297.0
 11
420.0
 21
297.0
  0
LINE
  5
358
100
AcDbEntity
  8
0
100
AcDbLine
 62
7
  6
CONTINUOUS
 10
361.3104853718
 20
175.2864667028
 11
361.3104853718
 21
167.2864667028
  0
LINE
  5
359
100
AcDbEntity
  8
0
100
AcDbLine
 62
9
  6
CONTINUOUS
 10
362.1258521788
 20
175.3578020551
 11
362.1258521788
 21
167.2151313506
  0
LINE
  5
35A
100
AcDbEntity
  8
0
100
AcDbLine
 62
7
  6
CONTINUOUS
 10
362.8104853718
 20
178.0017773328
 11
362.8104853718
 21
164.5711560729
  0
LINE
  5
35B
100
AcDbEntity
  8
0
100
AcDbLine
 62
7
  6
CONTINUOUS
 10
420.0
 20
-0.0
 11
420.0
 21
297.0
  0
LINE
  5
35C
100
AcDbEntity
  8
0
100
AcDbLine
 62
7
  6
CONTINUOUS
 10
420.0
 20
0.0
 11
420.0
 21
297.0
  0
ARC
  5
35D
100
AcDbEntity
  8
0
100
AcDbCircle
 62
7
  6
CONTINUOUS
 10
136.4104853718
 20
160.6637673518
 40
2.0
100
AcDbArc
 50
180.0
 51
261.7021731718
  0
ARC
  5
35E
100
AcDbEntity
  8
0
100
AcDbCircle
 62
7
  6
CONTINUOUS
 10
222.9104853718
 20
147.7864667028
 40
1.0
100
AcDbArc
 50
90.0
 51
180.0
  0
ARC
  5
35F
100
AcDbEntity
  8
0
100
AcDbCircle
 62
7
  6
CONTINUOUS
 10
207.0604853718
 20
140.5114667028
 40
1.0
100
AcDbArc
 50
180.0
 51
270.0
  0
ARC
  5
360
100
AcDbEntity
  8
0
100
AcDbCircle
 62
7
  6
CONTINUOUS
 10
220.9104853718
 20
140.5114667028
 40
1.0
100
AcDbArc
 50
270.0
 51
360.0
  0
ARC
  5
361
100
AcDbEntity
  8
0
100
AcDbCircle
 62
7
  6
CONTINUOUS
 10
205.0604853718
 20
148.4114667028
 40
1.0
100
AcDbArc
 50
0.0
 51
90.0
  0
ARC
  5
362
100
AcDbEntity
  8
0
100
AcDbCircle
 62
7
  6
CONTINUOUS
 10
142.0104853718
 20
163.1864667028
 40
0.6
100
AcDbArc
 50
270.0
 51
360.0
  0
ARC
  5
363
100
AcDbEntity
  8
0
100
AcDbCircle
 62
7
  6
CONTINUOUS
 10
139.4358870317
 20
163.1864666998
 40
0.599999997
100
AcDbArc
 50
254.9999999353
 51
270.0000000056
  0
ARC
  5
364
100
AcDbEntity
  8
0
100
AcDbCircle
 62
7
  6
CONTINUOUS
 10
215.3604853718
 20
142.6614667028
 40
0.5
100
AcDbArc
 50
0.0
 51
90.0
  0
ARC
  5
365
100
AcDbEntity
  8
0
100
AcDbCircle
 62
7
  6
CONTINUOUS
 10
212.6104853718
 20
142.6614667028
 40
0.5
100
AcDbArc
 50
90.0
 51
180.0
  0
ARC
  5
366
100
AcDbEntity
  8
0
100
AcDbCircle
 62
7
  6
CONTINUOUS
 10
134.8104853718
 20
161.8627062721
 40
0.4
100
AcDbArc
 50
120.0
 51
180.0
  0
ARC
  5
367
100
AcDbEntity
  8
0
100
AcDbCircle
 62
7
  6
CONTINUOUS
 10
135.7176650488
 20
162.3864667028
 40
0.4
100
AcDbArc
 50
90.0
 51
120.0
  0
ARC
  5
368
100
AcDbEntity
  8
0
100
AcDbCircle
 62
7
  6
CONTINUOUS
 10
136.4104853718
 20
181.9091660538
 40
2.0
100
AcDbArc
 50
98.2978268282
 51
180.0
  0
ARC
  5
369
100
AcDbEntity
  8
0
100
AcDbCircle
 62
7
  6
CONTINUOUS
 10
220.9104853718
 20
202.0614667028
 40
1.0
100
AcDbArc
 50
0.0
 51
90.0
  0
ARC
  5
36A
100
AcDbEntity
  8
0
100
AcDbCircle
 62
7
  6
CONTINUOUS
 10
207.0604853718
 20
202.0614667028
 40
1.0
100
AcDbArc
 50
90.0
 51
180.0
  0
ARC
  5
36B
100
AcDbEntity
  8
0
100
AcDbCircle
 62
7
  6
CONTINUOUS
 10
222.9104853718
 20
194.7864667028
 40
1.0
100
AcDbArc
 50
180.0
 51
270.0
  0
ARC
  5
36C
100
AcDbEntity
  8
0
100
AcDbCircle
 62
7
  6
CONTINUOUS
 10
205.0604853718
 20
194.1614667028
 40
1.0
100
AcDbArc
 50
270.0
 51
360.0
  0
ARC
  5
36D
100
AcDbEntity
  8
0
100
AcDbCircle
 62
7
  6
CONTINUOUS
 10
142.0104853718
 20
179.3864667028
 40
0.6
100
AcDbArc
 50
0.0
 51
90.0
  0
ARC
  5
36E
100
AcDbEntity
  8
0
100
AcDbCircle
 62
7
  6
CONTINUOUS
 10
139.4358870318
 20
179.3864667028
 40
0.6
100
AcDbArc
 50
90.0
 51
105.0
  0
ARC
  5
36F
100
AcDbEntity
  8
0
100
AcDbCircle
 62
7
  6
CONTINUOUS
 10
215.3604853718
 20
199.9114667028
 40
0.5
100
AcDbArc
 50
270.0
 51
360.0
  0
ARC
  5
370
100
AcDbEntity
  8
0
100
AcDbCircle
 62
7
  6
CONTINUOUS
 10
212.6104853718
 20
199.9114667028
 40
0.5
100
AcDbArc
 50
180.0
 51
270.0
  0
ARC
  5
371
100
AcDbEntity
  8
0
100
AcDbCircle
 62
7
  6
CONTINUOUS
 10
134.8104853718
 20
180.7102271335
 40
0.4
100
AcDbArc
 50
180.0
 51
240.0
  0
ARC
  5
372
100
AcDbEntity
  8
0
100
AcDbCircle
 62
7
  6
CONTINUOUS
 10
135.7176650488
 20
180.1864667028
 40
0.4
100
AcDbArc
 50
240.0
 51
270.0
  0
ARC
  5
373
100
AcDbEntity
  8
0
100
AcDbCircle
 62
7
  6
CONTINUOUS
 10
271.3104853715
 20
135.4607203556
 40
18.0000000011
100
AcDbArc
 50
82.0165335439
 51
97.9834664541
  0
ARC
  5
374
100
AcDbEntity
  8
0
100
AcDbCircle
 62
7
  6
CONTINUOUS
 10
283.6818332097
 20
158.1367650734
 40
2.0
100
AcDbArc
 50
93.0
 51
135.0
  0
ARC
  5
375
100
AcDbEntity
  8
0
100
AcDbCircle
 62
7
  6
CONTINUOUS
 10
257.5600394836
 20
149.3472505211
 40
1.4995625361
100
AcDbArc
 50
76.6853147561
 51
122.8943806521
  0
ARC
  5
376
100
AcDbEntity
  8
0
100
AcDbCircle
 62
7
  6
CONTINUOUS
 10
257.5586132086
 20
149.3502529442
 40
1.4962633412
100
AcDbArc
 50
99.7266441327
 51
122.9109611009
  0
ARC
  5
377
100
AcDbEntity
  8
0
100
AcDbCircle
 62
7
  6
CONTINUOUS
 10
257.5602784121
 20
149.3540968021
 40
1.4927850221
100
AcDbArc
 50
76.6337233023
 51
99.8145644275
  0
ARC
  5
378
100
AcDbEntity
  8
0
100
AcDbCircle
 62
7
  6
CONTINUOUS
 10
275.5888941521
 20
154.2864667028
 40
1.0
100
AcDbArc
 50
270.0
 51
315.0
  0
ARC
  5
379
100
AcDbEntity
  8
0
100
AcDbCircle
 62
7
  6
CONTINUOUS
 10
265.9777337141
 20
153.0110858197
 40
0.8
100
AcDbArc
 50
279.7893716783
 51
330.0
  0
ARC
  5
37A
100
AcDbEntity
  8
0
100
AcDbCircle
 62
7
  6
CONTINUOUS
 10
267.5223655871
 20
152.4864667028
 40
0.8
100
AcDbArc
 50
90.0
 51
150.0
  0
ARC
  5
37B
100
AcDbEntity
  8
0
100
AcDbCircle
 62
7
  6
CONTINUOUS
 10
362.0604853718
 20
166.467985327
 40
0.75
100
AcDbArc
 50
0.0
 51
85.0
  0
ARC
  5
37C
100
AcDbEntity
  8
0
100
AcDbCircle
 62
7
  6
CONTINUOUS
 10
362.5104853718
 20
164.5711560729
 40
0.3
100
AcDbArc
 50
273.0
 51
360.0
  0
ARC
  5
37D
100
AcDbEntity
  8
0
100
AcDbCircle
 62
7
  6
CONTINUOUS
 10
251.5230433757
 20
180.9036194986
 40
30.7440869187
100
AcDbArc
 50
279.7804711316
 51
280.8823794831
  0
ARC
  5
37E
100
AcDbEntity
  8
0
100
AcDbCircle
 62
7
  6
CONTINUOUS
 10
251.9377422115
 20
178.7308949425
 40
28.5321425901
100
AcDbArc
 50
280.8883133078
 51
281.0312090694
  0
ARC
  5
37F
100
AcDbEntity
  8
0
100
AcDbCircle
 62
7
  6
CONTINUOUS
 10
252.5023628638
 20
175.8724663095
 40
25.6184932882
100
AcDbArc
 50
281.0150033452
 51
281.9908119093
  0
ARC
  5
380
100
AcDbEntity
  8
0
100
AcDbCircle
 62
7
  6
CONTINUOUS
 10
271.3104853721
 20
207.11221305
 40
18.0000000014
100
AcDbArc
 50
262.0165335437
 51
277.983466454
  0
ARC
  5
381
100
AcDbEntity
  8
0
100
AcDbCircle
 62
7
  6
CONTINUOUS
 10
283.6818332097
 20
184.4361683323
 40
2.0
100
AcDbArc
 50
225.0
 51
267.0
  0
ARC
  5
382
100
AcDbEntity
  8
0
100
AcDbCircle
 62
7
  6
CONTINUOUS
 10
257.5600394835
 20
193.2256828849
 40
1.4995625365
100
AcDbArc
 50
237.1056193572
 51
283.3146852429
  0
ARC
  5
383
100
AcDbEntity
  8
0
100
AcDbCircle
 62
7
  6
CONTINUOUS
 10
257.5586130993
 20
193.2226802486
 40
1.4962631065
100
AcDbArc
 50
237.0890379822
 51
260.2729848478
  0
ARC
  5
384
100
AcDbEntity
  8
0
100
AcDbCircle
 62
7
  6
CONTINUOUS
 10
257.560278399
 20
193.21883671
 40
1.4927851395
100
AcDbArc
 50
260.1850621218
 51
283.3662762445
  0
ARC
  5
385
100
AcDbEntity
  8
0
100
AcDbCircle
 62
7
  6
CONTINUOUS
 10
275.5888941521
 20
188.2864667028
 40
1.0
100
AcDbArc
 50
45.0
 51
90.0
  0
ARC
  5
386
100
AcDbEntity
  8
0
100
AcDbCircle
 62
7
  6
CONTINUOUS
 10
267.5223655871
 20
190.0864667028
 40
0.8
100
AcDbArc
 50
210.0
 51
270.0
  0
ARC
  5
387
100
AcDbEntity
  8
0
100
AcDbCircle
 62
7
  6
CONTINUOUS
 10
265.9777337141
 20
189.561847586
 40
0.8
100
AcDbArc
 50
30.0
 51
80.2106283217
  0
ARC
  5
388
100
AcDbEntity
  8
0
100
AcDbCircle
 62
7
  6
CONTINUOUS
 10
362.0604853718
 20
176.1049480786
 40
0.75
100
AcDbArc
 50
275.0
 51
360.0
  0
ARC
  5
389
100
AcDbEntity
  8
0
100
AcDbCircle
 62
7
  6
CONTINUOUS
 10
362.5104853718
 20
178.0017773328
 40
0.3
100
AcDbArc
 50
0.0
 51
87.0
  0
SPLINE
  5
38A
100
AcDbEntity
  8
0
100
AcDbSpline
 62
7
  6
CONTINUOUS
 70
0
 71
3
 72
26
 73
22
 74
20
 42
0.0000001
 43
0.0000001
 44
0.0000000001
 12
2.4528682228
 22
6.9475495386
 32
0.0
 13
2.4652842478
 23
-6.9827169084
 33
0.0
 40
0.0
 40
0.0
 40
0.0
 40
0.0
 40
0.0526315789
 40
0.1052631579
 40
0.1578947368
 40
0.2105263158
 40
0.2631578947
 40
0.3157894737
 40
0.3684210526
 40
0.4210526316
 40
0.4736842105
 40
0.5263157895
 40
0.5789473684
 40
0.6315789474
 40
0.6842105263
 40
0.7368421053
 40
0.7894736842
 40
0.8421052632
 40
0.8947368421
 40
0.9473684211
 40
1.0
 40
1.0
 40
1.0
 40
1.0
 10
212.5938992306
 20
175.4864667028
 30
0.0
 10
212.6369320064
 20
175.6083535367
 30
0.0
 10
212.7256629415
 20
175.8377279081
 30
0.0
 10
212.8648476246
 20
176.1385238944
 30
0.0
 10
213.0095338027
 20
176.3984903786
 30
0.0
 10
213.1587265379
 20
176.6184408716
 30
0.0
 10
213.3121165667
 20
176.7996672403
 30
0.0
 10
213.4679402421
 20
176.941500218
 30
0.0
 10
213.6236336315
 20
177.0436051528
 30
0.0
 10
213.7736433778
 20
177.1064432059
 30
0.0
 10
213.9159706136
 20
177.1353024115
 30
0.0
 10
214.0551777595
 20
177.1352822503
 30
0.0
 10
214.1971588612
 20
177.106429901
 30
0.0
 10
214.3458323019
 20
177.0443051094
 30
0.0
 10
214.5005682057
 20
176.9433692908
 30
0.0
 10
214.6561454147
 20
176.8024798424
 30
0.0
 10
214.8097125298
 20
176.6218218166
 30
0.0
 10
214.9594919399
 20
176.4017177858
 30
0.0
 10
215.1047811591
 20
176.1412379241
 30
0.0
 10
215.2446410872
 20
175.8393948353
 30
0.0
 10
215.3338209122
 20
175.6089705081
 30
0.0
 10
215.377071513
 20
175.4864667028
 30
0.0
 11
212.5938992306
 21
175.4864667028
 31
0.0
 11
212.7266776548
 21
175.8305169794
 31
0.0
 11
212.8657645405
 21
176.1317189775
 31
0.0
 11
213.0102848955
 21
176.3918210466
 31
0.0
 11
213.1594260869
 21
176.611986851
 31
0.0
 11
213.3125221744
 21
176.793101675
 31
0.0
 11
213.4679185278
 21
176.9348788776
 31
0.0
 11
213.6226863576
 21
177.0370606725
 31
0.0
 11
213.7723629595
 21
177.1007800647
 31
0.0
 11
213.9154505985
 21
177.1304891837
 31
0.0
 11
214.0556400855
 21
177.1304768856
 31
0.0
 11
214.198274251
 21
177.100884494
 31
0.0
 11
214.3468427125
 21
177.0378366049
 31
0.0
 11
214.5007084232
 21
176.9367103526
 31
0.0
 11
214.6558103991
 21
176.7958517461
 31
0.0
 11
214.8090812456
 21
176.6152474825
 31
0.0
 11
214.9587435748
 21
176.3949884805
 31
0.0
 11
215.1038762772
 21
176.1343440531
 31
0.0
 11
215.2436260555
 21
175.8320959348
 31
0.0
 11
215.377071513
 21
175.4864667028
 31
0.0
  0
SPLINE
  5
38B
100
AcDbEntity
  8
0
100
AcDbSpline
 62
7
  6
CONTINUOUS
 70
0
 71
3
 72
26
 73
22
 74
20
 42
0.0000001
 43
0.0000001
 44
0.0000000001
 12
-2.4528682228
 22
-6.9475495329
 32
0.0
 13
-2.4652842421
 23
6.9827169027
 33
0.0
 40
0.0
 40
0.0
 40
0.0
 40
0.0
 40
0.0526315789
 40
0.1052631579
 40
0.1578947368
 40
0.2105263158
 40
0.2631578947
 40
0.3157894737
 40
0.3684210526
 40
0.4210526316
 40
0.4736842105
 40
0.5263157895
 40
0.5789473684
 40
0.6315789474
 40
0.6842105263
 40
0.7368421053
 40
0.7894736842
 40
0.8421052632
 40
0.8947368421
 40
0.9473684211
 40
1.0
 40
1.0
 40
1.0
 40
1.0
 10
215.377071513
 20
167.0864667028
 30
0.0
 10
215.3340387372
 20
166.964579869
 30
0.0
 10
215.2453078021
 20
166.7352054976
 30
0.0
 10
215.1061231189
 20
166.4344095113
 30
0.0
 10
214.9614369408
 20
166.1744430271
 30
0.0
 10
214.8122442056
 20
165.9544925341
 30
0.0
 10
214.6588541769
 20
165.7732661653
 30
0.0
 10
214.5030305014
 20
165.6314331877
 30
0.0
 10
214.347337112
 20
165.5293282529
 30
0.0
 10
214.1973273657
 20
165.4664901998
 30
0.0
 10
214.05500013
 20
165.4376309942
 30
0.0
 10
213.915792984
 20
165.4376511553
 30
0.0
 10
213.7738118824
 20
165.4665035047
 30
0.0
 10
213.6251384417
 20
165.5286282963
 30
0.0
 10
213.4704025378
 20
165.6295641149
 30
0.0
 10
213.3148253289
 20
165.7704535633
 30
0.0
 10
213.1612582138
 20
165.9511115891
 30
0.0
 10
213.0114788036
 20
166.1712156199
 30
0.0
 10
212.8661895844
 20
166.4316954816
 30
0.0
 10
212.7263296564
 20
166.7335385704
 30
0.0
 10
212.6371498313
 20
166.9639628976
 30
0.0
 10
212.5938992306
 20
167.0864667028
 30
0.0
 11
215.377071513
 21
167.0864667028
 31
0.0
 11
215.2442930888
 21
166.7424164263
 31
0.0
 11
215.105206203
 21
166.4412144282
 31
0.0
 11
214.960685848
 21
166.1811123591
 31
0.0
 11
214.8115446566
 21
165.9609465547
 31
0.0
 11
214.6584485692
 21
165.7798317306
 31
0.0
 11
214.5030522157
 21
165.6380545281
 31
0.0
 11
214.3482843859
 21
165.5358727332
 31
0.0
 11
214.1986077841
 21
165.472153341
 31
0.0
 11
214.055520145
 21
165.442444222
 31
0.0
 11
213.915330658
 21
165.44245652
 31
0.0
 11
213.7726964926
 21
165.4720489117
 31
0.0
 11
213.6241280311
 21
165.5350968008
 31
0.0
 11
213.4702623204
 21
165.6362230531
 31
0.0
 11
213.3151603445
 21
165.7770816596
 31
0.0
 11
213.161889498
 21
165.9576859232
 31
0.0
 11
213.0122271687
 21
166.1779449252
 31
0.0
 11
212.8670944663
 21
166.4385893526
 31
0.0
 11
212.727344688
 21
166.7408374709
 31
0.0
 11
212.5938992306
 21
167.0864667028
 31
0.0
  0
SPLINE
  5
38C
100
AcDbEntity
  8
0
100
AcDbSpline
 62
7
  6
CONTINUOUS
 70
0
 71
3
 72
10
 73
6
 74
4
 42
0.0000001
 43
0.0000001
 44
0.0000000001
 12
1.1143306456
 22
-0.1447286215
 32
0.0
 13
1.1072930442
 23
-0.1910511958
 33
0.0
 40
0.0
 40
0.0
 40
0.0
 40
0.0
 40
0.176942643
 40
0.5660188111
 40
1.0
 40
1.0
 40
1.0
 40
1.0
 10
256.7946782145
 20
191.9362012187
 30
0.0
 10
256.8604024177
 20
191.9276649971
 30
0.0
 10
257.0705168845
 20
191.8992933894
 30
0.0
 10
257.4410044879
 20
191.8442232795
 30
0.0
 10
257.7451977296
 20
191.7941013749
 30
0.0
 10
257.9053791802
 20
191.7664638332
 30
0.0
 11
256.7946782145
 21
191.9362012187
 31
0.0
 11
256.9917296003
 21
191.9096530088
 31
0.0
 11
257.4242025255
 21
191.8456244567
 31
0.0
 11
257.9053791802
 21
191.7664638332
 31
0.0
  0
SPLINE
  5
38D
100
AcDbEntity
  8
0
100
AcDbSpline
 62
7
  6
CONTINUOUS
 70
0
 71
3
 72
13
 73
9
 74
7
 42
0.0000001
 43
0.0000001
 44
0.0000000001
 12
0.7255072937
 22
0.0
 32
0.0
 13
0.0
 23
0.7255072943
 33
0.0
 40
0.0
 40
0.0
 40
0.0
 40
0.0
 40
0.2552226558
 40
0.4667622161
 40
0.6375247893
 40
0.7726686078
 40
0.8868009741
 40
1.0
 40
1.0
 40
1.0
 40
1.0
 10
215.377071513
 20
167.0864667028
 30
0.0
 10
215.4387934791
 20
167.0864667028
 30
0.0
 10
215.551724661
 20
167.0889621816
 30
0.0
 10
215.7053250006
 20
167.1055684089
 30
0.0
 10
215.8271141774
 20
167.1368400516
 30
0.0
 10
215.9182298766
 20
167.1854878803
 30
0.0
 10
215.9751989744
 20
167.2561180407
 30
0.0
 10
215.9854853718
 20
167.3123821225
 30
0.0
 10
215.9854853718
 20
167.3397576955
 30
0.0
 11
215.377071513
 21
167.0864667028
 31
0.0
 11
215.5621521651
 21
167.0920847229
 31
0.0
 11
215.7144979462
 21
167.1106555692
 31
0.0
 11
215.8337394999
 21
167.1442719076
 31
0.0
 11
215.918409606
 21
167.193712269
 31
0.0
 11
215.9689326864
 21
167.2593163717
 31
0.0
 11
215.9854853718
 21
167.3397576955
 31
0.0
  0
SPLINE
  5
38E
100
AcDbEntity
  8
0
100
AcDbSpline
 62
7
  6
CONTINUOUS
 70
0
 71
3
 72
13
 73
9
 74
7
 42
0.0000001
 43
0.0000001
 44
0.0000000001
 12
0.0
 22
-0.7255076138
 32
0.0
 13
0.7255076155
 23
-0.0
 33
0.0
 40
0.0
 40
0.0
 40
0.0
 40
0.0
 40
0.113160734
 40
0.2272900695
 40
0.3624299352
 40
0.5332084067
 40
0.7447789518
 40
1.0
 40
1.0
 40
1.0
 40
1.0
 10
211.9854853718
 20
167.3397576955
 30
0.0
 10
211.9854853718
 20
167.3123913708
 30
0.0
 10
211.9957653773
 20
167.2561384997
 30
0.0
 10
212.0527156699
 20
167.1855070692
 30
0.0
 10
212.1438294013
 20
167.1368490005
 30
0.0
 10
212.2656279569
 20
167.1055704501
 30
0.0
 10
212.4192393063
 20
167.0889623493
 30
0.0
 10
212.5321776259
 20
167.0864667028
 30
0.0
 10
212.5938992306
 20
167.0864667028
 30
0.0
 11
211.9854853718
 21
167.3397576955
 31
0.0
 11
212.0020262718
 21
167.2593422729
 31
0.0
 11
212.0525378847
 21
167.1937320693
 31
0.0
 11
212.1372004671
 21
167.1442844253
 31
0.0
 11
212.2564516637
 21
167.1106595817
 31
0.0
 11
212.4088196611
 21
167.0920846479
 31
0.0
 11
212.5938992306
 21
167.0864667028
 31
0.0
  0
SPLINE
  5
38F
100
AcDbEntity
  8
0
100
AcDbSpline
 62
7
  6
CONTINUOUS
 70
0
 71
3
 72
28
 73
24
 74
22
 42
0.0000001
 43
0.0000001
 44
0.0000000001
 12
0.0
 22
4.906503759
 32
0.0
 13
-0.0
 23
-4.9065037434
 33
0.0
 40
0.0
 40
0.0
 40
0.0
 40
0.0
 40
0.0225214434
 40
0.0515076862
 40
0.0875332709
 40
0.1308739525
 40
0.180979983
 40
0.236332213
 40
0.294443906
 40
0.3537490044
 40
0.4125766042
 40
0.4710067104
 40
0.5289440661
 40
0.5873733143
 40
0.6462032638
 40
0.7055098987
 40
0.7636259321
 40
0.8189750445
 40
0.8690886706
 40
0.9124322644
 40
0.948464963
 40
0.9774605821
 40
1.0
 40
1.0
 40
1.0
 40
1.0
 10
215.9854853718
 20
167.3397576955
 30
0.0
 10
215.9854853718
 20
167.3765915444
 30
0.0
 10
215.9658635261
 20
167.4605725264
 30
0.0
 10
215.8975912234
 20
167.587259085
 30
0.0
 10
215.7880026675
 20
167.7273889823
 30
0.0
 10
215.6368248106
 20
167.8763110873
 30
0.0
 10
215.4455654324
 20
168.0275201907
 30
0.0
 10
215.2193840618
 20
168.1712615211
 30
0.0
 10
214.966040361
 20
168.2975849985
 30
0.0
 10
214.6951253432
 20
168.3977781889
 30
0.0
 10
214.4140120333
 20
168.4666287756
 30
0.0
 10
214.1288986161
 20
168.5014190695
 30
0.0
 10
213.8423161978
 20
168.5014339106
 30
0.0
 10
213.5571967675
 20
168.4666726554
 30
0.0
 10
213.2760718318
 20
168.397848175
 30
0.0
 10
213.0051352297
 20
168.2976743062
 30
0.0
 10
212.7517772182
 20
168.1713691246
 30
0.0
 10
212.5255721816
 20
168.0276383861
 30
0.0
 10
212.3342901588
 20
167.8764382725
 30
0.0
 10
212.1830776234
 20
167.7275106794
 30
0.0
 10
212.0734519906
 20
167.5873692699
 30
0.0
 10
212.0051322993
 20
167.4606455033
 30
0.0
 10
211.9854853718
 20
167.3766209416
 30
0.0
 10
211.9854853718
 20
167.3397576955
 30
0.0
 11
215.9854853718
 21
167.3397576955
 31
0.0
 11
215.9643971053
 21
167.448228322
 31
0.0
 11
215.9000904033
 21
167.5750805665
 31
0.0
 11
215.7928463071
 21
167.7155892266
 31
0.0
 11
215.6423582427
 21
167.8658352999
 31
0.0
 11
215.4499892595
 21
168.0189174611
 31
0.0
 11
215.220942568
 21
168.1648507584
 31
0.0
 11
214.9657545772
 21
168.2920336647
 31
0.0
 11
214.6927542275
 21
168.3927340606
 31
0.0
 11
214.4123384574
 21
168.4611358007
 31
0.0
 11
214.1277413361
 21
168.4956933098
 31
0.0
 11
213.8434714833
 21
168.4957079568
 31
0.0
 11
213.5588750024
 21
168.4611801094
 31
0.0
 11
213.27844139
 21
168.3928028716
 31
0.0
 11
213.0054250065
 21
168.2921241631
 31
0.0
 11
212.7502076371
 21
168.1649524631
 31
0.0
 11
212.5211618334
 21
168.0190462411
 31
0.0
 11
212.3287501593
 21
167.8659578774
 31
0.0
 11
212.1782368894
 21
167.7157168281
 31
0.0
 11
212.0709531581
 21
167.5751945122
 31
0.0
 11
212.0066038483
 21
167.448312291
 31
0.0
 11
211.9854853718
 21
167.3397576955
 31
0.0
  0
SPLINE
  5
390
100
AcDbEntity
  8
0
100
AcDbSpline
 62
7
  6
CONTINUOUS
 70
0
 71
3
 72
18
 73
14
 74
12
 42
0.0000001
 43
0.0000001
 44
0.0000000001
 12
2.7849306719
 22
0.0
 32
0.0
 13
2.7849306762
 23
0.0
 33
0.0
 40
0.0
 40
0.0
 40
0.0
 40
0.0
 40
0.0810127374
 40
0.1684773721
 40
0.260084463
 40
0.3545462739
 40
0.4514515449
 40
0.5485977887
 40
0.6454858688
 40
0.7399097624
 40
0.8315102518
 40
0.9189786168
 40
1.0
 40
1.0
 40
1.0
 40
1.0
 10
212.5938992306
 20
175.4864667028
 30
0.0
 10
212.669104183
 20
175.4864667028
 30
0.0
 10
212.8254913725
 20
175.4822031626
 30
0.0
 10
213.0666376007
 20
175.4704461354
 30
0.0
 10
213.3202321155
 20
175.457469477
 30
0.0
 10
213.5827102821
 20
175.4467597489
 30
0.0
 10
213.8504930963
 20
175.4407635364
 30
0.0
 10
214.1205990848
 20
175.440765117
 30
0.0
 10
214.3883306869
 20
175.44676253
 30
0.0
 10
214.6507515897
 20
175.4574702707
 30
0.0
 10
214.9043083015
 20
175.470444802
 30
0.0
 10
215.1454598621
 20
175.4822024322
 30
0.0
 10
215.3018585345
 20
175.4864667028
 30
0.0
 10
215.377071513
 20
175.4864667028
 30
0.0
 11
212.5938992306
 21
175.4864667028
 31
0.0
 11
212.8194614044
 21
175.4815912931
 31
0.0
 11
213.0627934251
 21
175.4705378625
 31
0.0
 11
213.3176063964
 21
175.4580375962
 31
0.0
 11
213.5804707444
 21
175.4476478783
 31
0.0
 11
213.8502812875
 21
175.4417745548
 31
0.0
 11
214.1208268417
 21
175.4417760948
 31
0.0
 11
214.3905894698
 21
175.4476507156
 31
0.0
 11
214.6533482797
 21
175.4580368562
 31
0.0
 11
214.9081428921
 21
175.470536144
 31
0.0
 11
215.1514852751
 21
175.481590391
 31
0.0
 11
215.377071513
 21
175.4864667028
 31
0.0
  0
ELLIPSE
  5
391
100
AcDbEntity
  8
0
100
AcDbEllipse
 62
7
  6
CONTINUOUS
 10
213.9854853718
 20
171.2864667028
 30
0.0
 11
0.0
 21
5.8476088003
 31
0.0
 40
0.3420201433
 41
-3.9111161472
 42
-2.37206916
  0
ELLIPSE
  5
392
100
AcDbEntity
  8
0
100
AcDbEllipse
 62
7
  6
CONTINUOUS
 10
213.9854853718
 20
171.2864667028
 30
0.0
 11
0.0
 21
5.8476088003
 31
0.0
 40
0.3420201433
 41
-0.7695234936
 42
0.7695234936
  0
ENDSEC
  0
SECTION
  2
OBJECTS
  0
DICTIONARY
  5
C
100
AcDbDictionary
280
0
281
1
  3
ACAD_GROUP
350
D
  3
ACAD_MLINESTYLE
350
17
  3
ACAD_LAYOUT
350
1A
  3
ACAD_PLOTSETTINGS
350
19
  3
ACAD_PLOTSTYLENAME
350
E
  0
DICTIONARY
  5
D
102
{ACAD_REACTORS
330
C
102
}
100
AcDbDictionary
280
0
281
1
  0
ACDBDICTIONARYWDFLT
  5
E
102
{ACAD_REACTORS
330
C
102
}
100
AcDbDictionary
281
1
  3
Normal
350
F
100
AcDbDictionaryWithDefault
340
F
  0
DICTIONARY
  5
17
102
{ACAD_REACTORS
330
C
102
}
100
AcDbDictionary
280
0
281
1
  3
Standard
350
18
  0
DICTIONARY
  5
19
102
{ACAD_REACTORS
330
C
102
}
100
AcDbDictionary
281
1
  0
DICTIONARY
  5
1A
102
{ACAD_REACTORS
330
C
102
}
100
AcDbDictionary
281
1
  3
Model
350
393
  3
Layout1
350
394
  0
ACDBPLACEHOLDER
  5
F
102
{ACAD_REACTORS
330
E
102
}
  0
MLINESTYLE
  5
18
102
{ACAD_REACTORS
330
17
102
}
100
AcDbMlineStyle
  2
STANDARD
 70
0
  3

 62
256
 51
90.0
 52
90.0
 71
2
 49
0.5
 62
256
  6
BYLAYER
 49
-0.5
 62
256
  6
BYLAYER
  0
LAYOUT
  5
393
102
{ACAD_REACTORS
330
1A
102
}
100
AcDbPlotSettings
  1

  2
none_device
  4
ISO_A3_(420.00_x_297.00_MM)
  6

 40
0.0
 41
0.0
 42
0.0
 43
0.0
 44
420.0
 45
297.0
 46
0.0
 47
0.0
 48
0.0
 49
0.0
140
0.0
141
0.0
142
1.0
143
1.0
 70
1024
 72
1
 73
0
 74
0
  7

 75
0
147
1.0
148
0.0
149
0.0
100
AcDbLayout
  1
Model
 70
0
 71
0
 10
0.0
 20
0.0
 11
420.0
 21
297.0
 12
0.0
 22
0.0
 32
0.0
 14
0.0
 24
0.0
 34
0.0
 15
0.0
 25
0.0
 35
0.0
146
0.0
 13
0.0
 23
0.0
 33
0.0
 16
1.0
 26
0.0
 36
0.0
 17
0.0
 27
1.0
 37
0.0
 76
0
330
218
345
0
346
0
  0
LAYOUT
  5
394
102
{ACAD_REACTORS
330
1A
102
}
100
AcDbPlotSettings
  1

  2
none_device
  4
ISO_A3_(420.00_x_297.00_MM)
  6

 40
0.0
 41
0.0
 42
0.0
 43
0.0
 44
420.0
 45
297.0
 46
0.0
 47
0.0
 48
0.0
 49
0.0
140
0.0
141
0.0
142
1.0
143
1.0
 70
0
 72
1
 73
0
 74
0
  7

 75
0
147
1.0
148
0.0
149
0.0
100
AcDbLayout
  1
Layout1
 70
0
 71
1
 10
0.0
 20
0.0
 11
420.0
 21
297.0
 12
0.0
 22
0.0
 32
0.0
 14
0.0
 24
0.0
 34
0.0
 15
0.0
 25
0.0
 35
0.0
146
0.0
 13
0.0
 23
0.0
 33
0.0
 16
1.0
 26
0.0
 36
0.0
 17
0.0
 27
1.0
 37
0.0
 76
0
330
219
345
0
346
0
  0
ENDSEC
  0
EOF
