999
DXF file: 40-482-06-8.dxf
999
Pro/ENGINEER 2009220 by Parametric Technology Corporation
  0
SECTION
  2
HEADER
  9
$ACADVER
  1
AC1021
  9
$DWGCODEPAGE
  3
ANSI_1252
  9
$EXTMAX
 10
297.0
 20
210.0
 30
0.0
  9
$EXTMIN
 10
0.0
 20
0.0
 30
0.0
  9
$LIMMIN
 10
0.0
 20
0.0
  9
$LIMMAX
 10
297.0
 20
210.0
  9
$VIEWCTR
 10
148.5
 20
105.0
  9
$VIEWSIZE
 40
210.0
  9
$CLAYER
  8
0
  9
$LTSCALE
 40
16.335
  9
$CELTYPE
  6
BYLAYER
  9
$DIMSCALE
 40
1.0
  9
$DIMASZ
 40
3.5
  9
$DIMEXO
 40
1.85625
  9
$DIMDLI
 40
11.286
  9
$DIMEXE
 40
5.346
  9
$DIMCEN
 40
2.673
  9
$DIMLFAC
 40
1.0
  9
$DIMBLK
  1
_FILLED
  9
$DIMTXT
 40
3.5
  9
$DIMTOL
 70
1
  9
$DIMLIM
 70
0
  9
$DIMTFAC
 40
1.0
  9
$DIMTP
 40
0.005
  9
$DIMTM
 40
0.005
  9
$PDMODE
 70
3
  9
$PDSIZE
 40
0.3125
  9
$HANDSEED
  5
329
  9
$TILEMODE
 70
1
  9
$MEASUREMENT
 70
1
  9
$INSUNITS
 70
4
  0
ENDSEC
  0
SECTION
  2
CLASSES
  0
CLASS
  1
ACDBDICTIONARYWDFLT
  2
AcDbDictionaryWithDefault
  3
AutoCAD 2000
 90
0
 91
1
280
0
281
0
  0
CLASS
  1
ACDBPLACEHOLDER
  2
AcDbPlaceHolder
  3
AutoCAD 2000
 90
0
 91
1
280
0
281
0
  0
CLASS
  1
LAYOUT
  2
AcDbLayout
  3
AutoCAD 2000
 90
0
 91
0
280
0
281
0
  0
ENDSEC
  0
SECTION
  2
TABLES
  0
TABLE
  2
VPORT
  5
8
100
AcDbSymbolTable
 70
2
  0
VPORT
  5
1F4
100
AcDbSymbolTableRecord
100
AcDbViewportTableRecord
  2
*ACTIVE
 70
0
 10
0.0
 20
0.0
 11
1.0
 21
1.0
 12
148.5
 22
105.0
 13
0.0
 23
0.0
 14
1.0
 24
1.0
 15
0.0
 25
0.0
 16
0.0
 26
0.0
 36
1.0
 17
0.0
 27
0.0
 37
0.0
 40
210.0
 41
1.4142857143
 42
50.0
 43
0.0
 44
0.0
 50
0.0
 51
0.0
 71
0
 72
100
 73
1
 74
1
 75
0
 76
0
 77
0
 78
0
  0
ENDTAB
  0
TABLE
  2
LTYPE
  5
5
100
AcDbSymbolTable
 70
6
  0
LTYPE
  5
14
100
AcDbSymbolTableRecord
100
AcDbLinetypeTableRecord
  2
BYBLOCK
 70
0
  3

 72
65
 73
0
 40
0.0
  0
LTYPE
  5
15
100
AcDbSymbolTableRecord
100
AcDbLinetypeTableRecord
  2
BYLAYER
 70
0
  3

 72
65
 73
0
 40
0.0
  0
LTYPE
  5
16
100
AcDbSymbolTableRecord
100
AcDbLinetypeTableRecord
  2
CONTINUOUS
 70
64
  3
Solid line
 72
65
 73
0
 40
0.0
  0
LTYPE
  5
1F5
100
AcDbSymbolTableRecord
100
AcDbLinetypeTableRecord
  2
CENTER
 70
64
  3
____ _ ____ _ ____ _ ____ _ ____ _ ____ _ ____
 72
65
 73
4
 40
0.6
 49
0.375
 74
0
 49
-0.075
 74
0
 49
0.075
 74
0
 49
-0.075
 74
0
  0
LTYPE
  5
1F6
100
AcDbSymbolTableRecord
100
AcDbLinetypeTableRecord
  2
HIDDEN
 70
64
  3
- - - - - - - - - - - - - - - - - - - -
 72
65
 73
2
 40
0.2
 49
0.1
 74
0
 49
-0.1
 74
0
  0
LTYPE
  5
1F7
100
AcDbSymbolTableRecord
100
AcDbLinetypeTableRecord
  2
PHANTOM
 70
64
  3
_____ _ _ _____ _ _ _____ _ _ _____
 72
65
 73
6
 40
0.8
 49
0.45
 74
0
 49
-0.05
 74
0
 49
0.1
 74
0
 49
-0.05
 74
0
 49
0.1
 74
0
 49
-0.05
 74
0
  0
LTYPE
  5
1F8
100
AcDbSymbolTableRecord
100
AcDbLinetypeTableRecord
  2
DOT
 70
64
  3
. . . . . . . . . . . . . . . . . . . .
 72
65
 73
2
 40
0.2
 49
0.1
 74
0
 49
-0.1
 74
0
  0
LTYPE
  5
1F9
100
AcDbSymbolTableRecord
100
AcDbLinetypeTableRecord
  2
DASHED
 70
64
  3
- - - - - - - - - - - - - - - - - - - -
 72
65
 73
2
 40
0.2
 49
0.1
 74
0
 49
-0.1
 74
0
  0
ENDTAB
  0
TABLE
  2
LAYER
  5
2
100
AcDbSymbolTable
 70
36
  0
LAYER
  5
10
100
AcDbSymbolTableRecord
100
AcDbLayerTableRecord
  2
0
 70
0
 62
7
  6
CONTINUOUS
370
-3
390
F
  0
LAYER
  5
1FA
100
AcDbSymbolTableRecord
100
AcDbLayerTableRecord
  2
DEFAULT_1
 70
0
 62
7
  6
CENTER
370
-3
390
F
  0
LAYER
  5
1FB
100
AcDbSymbolTableRecord
100
AcDbLayerTableRecord
  2
DEFAULT_2
 70
0
 62
8
  6
HIDDEN
370
-3
390
F
  0
LAYER
  5
1FC
100
AcDbSymbolTableRecord
100
AcDbLayerTableRecord
  2
DEFAULT_3
 70
0
 62
7
  6
PHANTOM
370
-3
390
F
  0
LAYER
  5
1FD
100
AcDbSymbolTableRecord
100
AcDbLayerTableRecord
  2
ANALYSEN
 70
0
 62
7
  6
CONTINUOUS
370
-3
390
F
  0
LAYER
  5
1FE
100
AcDbSymbolTableRecord
100
AcDbLayerTableRecord
  2
AUSSENKONTUR
 70
0
 62
7
  6
CONTINUOUS
370
-3
390
F
  0
LAYER
  5
1FF
100
AcDbSymbolTableRecord
100
AcDbLayerTableRecord
  2
BEZUGSACHSEN
 70
0
 62
7
  6
CONTINUOUS
370
-3
390
F
  0
LAYER
  5
200
100
AcDbSymbolTableRecord
100
AcDbLayerTableRecord
  2
BEZUGSACHSENKENNZEICHEN
 70
0
 62
7
  6
CONTINUOUS
370
-3
390
F
  0
LAYER
  5
201
100
AcDbSymbolTableRecord
100
AcDbLayerTableRecord
  2
BEZUGSEBENEN
 70
0
 62
7
  6
CONTINUOUS
370
-3
390
F
  0
LAYER
  5
202
100
AcDbSymbolTableRecord
100
AcDbLayerTableRecord
  2
BEZUGSPUNKTE
 70
0
 62
7
  6
CONTINUOUS
370
-3
390
F
  0
LAYER
  5
203
100
AcDbSymbolTableRecord
100
AcDbLayerTableRecord
  2
BOHRUNGEN
 70
0
 62
7
  6
CONTINUOUS
370
-3
390
F
  0
LAYER
  5
204
100
AcDbSymbolTableRecord
100
AcDbLayerTableRecord
  2
FASEN
 70
0
 62
7
  6
CONTINUOUS
370
-3
390
F
  0
LAYER
  5
205
100
AcDbSymbolTableRecord
100
AcDbLayerTableRecord
  2
FLAECHEN
 70
0
 62
7
  6
CONTINUOUS
370
-3
390
F
  0
LAYER
  5
206
100
AcDbSymbolTableRecord
100
AcDbLayerTableRecord
  2
GEWINDE
 70
0
 62
7
  6
CONTINUOUS
370
-3
390
F
  0
LAYER
  5
207
100
AcDbSymbolTableRecord
100
AcDbLayerTableRecord
  2
HILFEN
 70
0
 62
7
  6
CONTINUOUS
370
-3
390
F
  0
LAYER
  5
208
100
AcDbSymbolTableRecord
100
AcDbLayerTableRecord
  2
INNENKONTUR
 70
0
 62
7
  6
CONTINUOUS
370
-3
390
F
  0
LAYER
  5
209
100
AcDbSymbolTableRecord
100
AcDbLayerTableRecord
  2
KURVEN
 70
0
 62
7
  6
CONTINUOUS
370
-3
390
F
  0
LAYER
  5
20A
100
AcDbSymbolTableRecord
100
AcDbLayerTableRecord
  2
MAKINO
 70
0
 62
7
  6
CONTINUOUS
370
-3
390
F
  0
LAYER
  5
20B
100
AcDbSymbolTableRecord
100
AcDbLayerTableRecord
  2
OELVERDR_RILLE
 70
0
 62
7
  6
CONTINUOUS
370
-3
390
F
  0
LAYER
  5
20C
100
AcDbSymbolTableRecord
100
AcDbLayerTableRecord
  2
PLATZIERUNG
 70
0
 62
7
  6
CONTINUOUS
370
-3
390
F
  0
LAYER
  5
20D
100
AcDbSymbolTableRecord
100
AcDbLayerTableRecord
  2
PUNKTE
 70
0
 62
7
  6
CONTINUOUS
370
-3
390
F
  0
LAYER
  5
20E
100
AcDbSymbolTableRecord
100
AcDbLayerTableRecord
  2
RUNDUNGEN
 70
0
 62
7
  6
CONTINUOUS
370
-3
390
F
  0
LAYER
  5
20F
100
AcDbSymbolTableRecord
100
AcDbLayerTableRecord
  2
TEIL_STARTBEZUEGE
 70
0
 62
7
  6
CONTINUOUS
370
-3
390
F
  0
LAYER
  5
210
100
AcDbSymbolTableRecord
100
AcDbLayerTableRecord
  2
VERERBUNG
 70
0
 62
7
  6
CONTINUOUS
370
-3
390
F
  0
LAYER
  5
211
100
AcDbSymbolTableRecord
100
AcDbLayerTableRecord
  2
VOLUMEN
 70
0
 62
7
  6
CONTINUOUS
370
-3
390
F
  0
LAYER
  5
212
100
AcDbSymbolTableRecord
100
AcDbLayerTableRecord
  2
ZEICHNUNG
 70
0
 62
7
  6
CONTINUOUS
370
-3
390
F
  0
LAYER
  5
213
100
AcDbSymbolTableRecord
100
AcDbLayerTableRecord
  2
ZEICHNUNGSBEMASSUNGEN
 70
0
 62
7
  6
CONTINUOUS
370
-3
390
F
  0
ENDTAB
  0
TABLE
  2
STYLE
  5
3
100
AcDbSymbolTable
 70
1
  0
STYLE
  5
11
100
AcDbSymbolTableRecord
100
AcDbTextStyleTableRecord
  2
STANDARD
 70
0
 40
0.0
 41
0.7
 50
0.0
 71
0
 42
0.2
  3
txt
  4

  0
STYLE
  5
214
100
AcDbSymbolTableRecord
100
AcDbTextStyleTableRecord
  2
TEXTSTYLE_1
 70
0
 40
0.0
 41
0.8
 50
0.0
 71
0
 42
0.2
  3
gdt
  4

  0
STYLE
  5
215
100
AcDbSymbolTableRecord
100
AcDbTextStyleTableRecord
  2
TEXTSTYLE_2
 70
0
 40
0.0
 41
0.7
 50
0.0
 71
0
 42
0.2
  3
gdt
  4

  0
ENDTAB
  0
TABLE
  2
VIEW
  5
6
100
AcDbSymbolTable
 70
0
  0
ENDTAB
  0
TABLE
  2
UCS
  5
7
100
AcDbSymbolTable
 70
0
  0
ENDTAB
  0
TABLE
  2
APPID
  5
9
100
AcDbSymbolTable
 70
1
  0
APPID
  5
216
100
AcDbSymbolTableRecord
100
AcDbRegAppTableRecord
  2
ACAD
 70
0
  0
ENDTAB
  0
TABLE
  2
BLOCK_RECORD
  5
1
100
AcDbSymbolTable
 70
0
  0
BLOCK_RECORD
  5
217
100
AcDbSymbolTableRecord
100
AcDbBlockTableRecord
  2
*Model_Space
  0
BLOCK_RECORD
  5
218
100
AcDbSymbolTableRecord
100
AcDbBlockTableRecord
  2
*Paper_Space
  0
BLOCK_RECORD
  5
219
100
AcDbSymbolTableRecord
100
AcDbBlockTableRecord
  2
_FILLED
  0
BLOCK_RECORD
  5
21A
100
AcDbSymbolTableRecord
100
AcDbBlockTableRecord
  2
*D0
  0
BLOCK_RECORD
  5
21B
100
AcDbSymbolTableRecord
100
AcDbBlockTableRecord
  2
*D1
  0
BLOCK_RECORD
  5
21C
100
AcDbSymbolTableRecord
100
AcDbBlockTableRecord
  2
*D2
  0
BLOCK_RECORD
  5
21D
100
AcDbSymbolTableRecord
100
AcDbBlockTableRecord
  2
*D3
  0
BLOCK_RECORD
  5
21E
100
AcDbSymbolTableRecord
100
AcDbBlockTableRecord
  2
*D4
  0
BLOCK_RECORD
  5
21F
100
AcDbSymbolTableRecord
100
AcDbBlockTableRecord
  2
*D5
  0
ENDTAB
  0
TABLE
  2
DIMSTYLE
  5
A
100
AcDbSymbolTable
 70
1
100
AcDbDimStyleTable
 71
0
  0
DIMSTYLE
105
220
100
AcDbSymbolTableRecord
100
AcDbDimStyleTableRecord
  2
STANDARD
 70
0
  3

  4

 40
1.0
 41
3.5
 42
0.0625
 43
0.38
 44
0.18
 45
0.0
 46
0.0
 47
0.005
 48
0.005
140
3.5
141
0.09
142
0.0
143
25.4
144
1.0
145
0.0
146
1.0
147
0.09
 71
1.0
 72
0.0
 73
0
 74
0
 75
0
 76
0
 77
1
 78
8
170
0
171
2
172
0
173
0
174
0
175
0
176
0
177
0
178
5
270
2
271
3
272
3
273
2
274
2
275
0
280
0
281
0
282
0
283
1
284
8
285
0
286
0
287
3
288
0
340
11
341
219
342
219
343
219
344
219
  0
DIMSTYLE
105
221
100
AcDbSymbolTableRecord
100
AcDbDimStyleTableRecord
  2
DIMSTYLE_1
 70
0
  3

  4

 40
1.0
 41
3.5
 42
0.0625
 43
0.38
 44
0.18
 45
0.0
 46
0.0
 47
0.5
 48
0.5
140
3.5
141
0.09
142
0.0
143
25.4
144
1.0
145
0.0
146
1.0
147
0.09
 71
0.0
 72
0.0
 73
0
 74
0
 75
0
 76
0
 77
1
 78
8
170
0
171
2
172
0
173
0
174
0
175
0
176
0
177
0
178
5
270
2
271
3
272
3
273
2
274
2
275
0
280
0
281
0
282
0
283
1
284
8
285
0
286
0
287
3
288
0
340
11
341
219
342
219
343
219
344
219
  0
DIMSTYLE
105
222
100
AcDbSymbolTableRecord
100
AcDbDimStyleTableRecord
  2
DIMSTYLE_2
 70
0
  3

  4

 40
1.0
 41
3.5
 42
0.0625
 43
0.38
 44
0.18
 45
0.0
 46
0.0
 47
0.5
 48
0.5
140
3.5
141
0.09
142
0.0
143
25.4
144
1.0
145
0.0
146
1.0
147
0.09
 71
0.0
 72
0.0
 73
0
 74
0
 75
0
 76
0
 77
1
 78
8
170
0
171
2
172
0
173
0
174
0
175
0
176
0
177
0
178
5
270
2
271
2
272
2
273
2
274
2
275
0
280
0
281
0
282
0
283
1
284
8
285
0
286
0
287
3
288
0
340
11
341
219
342
219
343
219
344
219
  0
DIMSTYLE
105
223
100
AcDbSymbolTableRecord
100
AcDbDimStyleTableRecord
  2
DIMSTYLE_3
 70
0
  3

  4

 40
1.0
 41
3.5
 42
0.0625
 43
0.38
 44
0.18
 45
0.0
 46
0.0
 47
0.1
 48
0.0
140
3.5
141
0.09
142
0.0
143
25.4
144
1.0
145
0.0
146
1.0
147
0.09
 71
0.0
 72
0.0
 73
0
 74
0
 75
0
 76
0
 77
1
 78
8
170
0
171
2
172
0
173
0
174
0
175
0
176
0
177
0
178
5
270
2
271
2
272
2
273
2
274
2
275
0
280
0
281
0
282
0
283
1
284
8
285
0
286
0
287
3
288
0
340
11
341
219
342
219
343
219
344
219
  0
DIMSTYLE
105
224
100
AcDbSymbolTableRecord
100
AcDbDimStyleTableRecord
  2
DIMSTYLE_4
 70
0
  3

  4

 40
1.0
 41
3.5
 42
0.0625
 43
0.38
 44
0.18
 45
0.0
 46
0.0
 47
0.0
 48
0.0
140
3.5
141
0.09
142
0.0
143
25.4
144
1.0
145
0.0
146
1.0
147
0.09
 71
0.0
 72
0.0
 73
0
 74
0
 75
0
 76
0
 77
1
 78
8
170
0
171
2
172
0
173
0
174
0
175
0
176
0
177
0
178
5
270
2
271
0
272
0
273
2
274
2
275
0
280
0
281
0
282
0
283
1
284
8
285
0
286
0
287
3
288
0
340
11
341
219
342
219
343
219
344
219
  0
DIMSTYLE
105
225
100
AcDbSymbolTableRecord
100
AcDbDimStyleTableRecord
  2
DIMSTYLE_5
 70
0
  3

  4

 40
1.0
 41
3.5
 42
0.0625
 43
0.38
 44
0.18
 45
0.0
 46
0.0
 47
0.1
 48
0.1
140
3.5
141
0.09
142
0.0
143
25.4
144
1.0
145
0.0
146
1.0
147
0.09
 71
0.0
 72
0.0
 73
0
 74
0
 75
0
 76
0
 77
1
 78
8
170
0
171
2
172
0
173
0
174
0
175
0
176
0
177
0
178
5
270
2
271
2
272
2
273
2
274
2
275
0
280
0
281
0
282
0
283
1
284
8
285
0
286
0
287
3
288
0
340
11
341
219
342
219
343
219
344
219
  0
ENDTAB
  0
ENDSEC
  0
SECTION
  2
BLOCKS
  0
BLOCK
  5
20
100
AcDbEntity
  8
0
100
AcDbBlockBegin
  2
*Model_Space
 70
0
 10
0.0
 20
0.0
 30
0.0
  3
*Model_Space
  1

  0
ENDBLK
  5
21
100
AcDbEntity
  8
0
100
AcDbBlockEnd
  0
BLOCK
  5
1C
100
AcDbEntity
  8
0
100
AcDbBlockBegin
  2
*Paper_Space
 70
0
 10
0.0
 20
0.0
 30
0.0
  3
*Paper_Space
  1

  0
ENDBLK
  5
1D
100
AcDbEntity
  8
0
100
AcDbBlockEnd
  0
BLOCK
  5
226
100
AcDbEntity
  8
0
100
AcDbBlockBegin
  2
_FILLED
 70
64
 10
0.0
 20
0.0
  3
_FILLED
  1

  0
SOLID
  5
227
100
AcDbEntity
  8
0
  6
BYBLOCK
 62
0
100
AcDbTrace
 10
0.0
 20
0.0
 11
-1.0
 21
0.125
 12
-1.0
 22
-0.125
 13
-1.0
 23
-0.125
  0
ENDBLK
  5
228
100
AcDbEntity
  8
0
  6
BYBLOCK
 62
0
100
AcDbBlockEnd
  0
BLOCK
  5
229
100
AcDbEntity
  8
0
100
AcDbBlockBegin
 62
2
  6
CONTINUOUS
  2
*D0
 70
65
 10
0.0
 20
0.0
  3
*D0
  1

  0
MTEXT
  5
22A
100
AcDbEntity
  8
0
100
AcDbMText
 62
5
  6
CONTINUOUS
  7
STANDARD
 71
2
 72
1
 10
193.2798013149
 20
166.1715582765
 30
0.0
 11
1.0
 21
0.0
 31
0.0
 44
0.9
  1
160
 40
3.5
 41
8.490234375
  0
LINE
  5
22B
100
AcDbEntity
  8
0
100
AcDbLine
 62
2
  6
CONTINUOUS
 10
261.5310155173
 20
112.683287927
 11
261.5310155173
 21
163.2965582765
  0
LINE
  5
22C
100
AcDbEntity
  8
0
100
AcDbLine
 62
2
  6
CONTINUOUS
 10
101.5310155173
 20
141.1206568519
 11
101.5310155173
 21
163.2965582765
  0
LINE
  5
22D
100
AcDbEntity
  8
0
100
AcDbLine
 62
2
  6
CONTINUOUS
 10
261.5310155173
 20
161.7965582765
 11
181.5310155173
 21
161.7965582765
  0
LINE
  5
22E
100
AcDbEntity
  8
0
100
AcDbLine
 62
2
  6
CONTINUOUS
 10
101.5310155173
 20
161.7965582765
 11
181.5310155173
 21
161.7965582765
  0
INSERT
  5
22F
100
AcDbEntity
  8
0
100
AcDbBlockReference
 62
2
  6
CONTINUOUS
  2
_FILLED
 10
261.5310155173
 20
161.7965582765
 41
3.5
 42
3.5
 43
3.5
  0
INSERT
  5
230
100
AcDbEntity
  8
0
100
AcDbBlockReference
 62
2
  6
CONTINUOUS
  2
_FILLED
 10
101.5310155173
 20
161.7965582765
 41
3.5
 42
3.5
 43
3.5
 50
180.0
  0
ENDBLK
  5
231
100
AcDbEntity
  8
0
  6
BYBLOCK
 62
0
100
AcDbBlockEnd
  0
BLOCK
  5
232
100
AcDbEntity
  8
0
100
AcDbBlockBegin
 62
2
  6
CONTINUOUS
  2
*D1
 70
65
 10
0.0
 20
0.0
  3
*D1
  1

  0
MTEXT
  5
233
100
AcDbEntity
  8
0
100
AcDbMText
 62
5
  6
CONTINUOUS
  7
STANDARD
 71
2
 72
1
 10
169.025585222
 20
172.8511396483
 30
0.0
 11
1.0
 21
0.0
 31
0.0
 44
0.9
  1
228.4
 40
3.5
 41
12.7421875
  0
LINE
  5
234
100
AcDbEntity
  8
0
100
AcDbLine
 62
2
  6
CONTINUOUS
 10
33.1310155173
 20
125.9050686948
 11
33.1310155173
 21
169.9761396483
  0
LINE
  5
235
100
AcDbEntity
  8
0
100
AcDbLine
 62
2
  6
CONTINUOUS
 10
261.5310155173
 20
115.183287927
 11
261.5310155173
 21
169.9761396483
  0
LINE
  5
236
100
AcDbEntity
  8
0
100
AcDbLine
 62
2
  6
CONTINUOUS
 10
33.1310155173
 20
168.4761396483
 11
147.3310155173
 21
168.4761396483
  0
LINE
  5
237
100
AcDbEntity
  8
0
100
AcDbLine
 62
2
  6
CONTINUOUS
 10
261.5310155173
 20
168.4761396483
 11
147.3310155173
 21
168.4761396483
  0
INSERT
  5
238
100
AcDbEntity
  8
0
100
AcDbBlockReference
 62
2
  6
CONTINUOUS
  2
_FILLED
 10
33.1310155173
 20
168.4761396483
 41
3.5
 42
3.5
 43
3.5
 50
180.0
  0
INSERT
  5
239
100
AcDbEntity
  8
0
100
AcDbBlockReference
 62
2
  6
CONTINUOUS
  2
_FILLED
 10
261.5310155173
 20
168.4761396483
 41
3.5
 42
3.5
 43
3.5
  0
ENDBLK
  5
23A
100
AcDbEntity
  8
0
  6
BYBLOCK
 62
0
100
AcDbBlockEnd
  0
BLOCK
  5
23B
100
AcDbEntity
  8
0
100
AcDbBlockBegin
 62
2
  6
CONTINUOUS
  2
*D2
 70
65
 10
0.0
 20
0.0
  3
*D2
  1

  0
MTEXT
  5
23C
100
AcDbEntity
  8
0
100
AcDbMText
 62
5
  6
CONTINUOUS
  7
STANDARD
 71
2
 72
1
 10
200.6719450848
 20
158.746761106
 30
0.0
 11
1.0
 21
0.0
 31
0.0
 44
0.9
  1
140.9
 40
3.5
 41
12.7421875
  0
LINE
  5
23D
100
AcDbEntity
  8
0
100
AcDbLine
 62
2
  6
CONTINUOUS
 10
261.5310155173
 20
115.183287927
 11
261.5310155173
 21
155.871761106
  0
LINE
  5
23E
100
AcDbEntity
  8
0
100
AcDbLine
 62
2
  6
CONTINUOUS
 10
120.6310155173
 20
145.2465920281
 11
120.6310155173
 21
155.871761106
  0
LINE
  5
23F
100
AcDbEntity
  8
0
100
AcDbLine
 62
2
  6
CONTINUOUS
 10
261.5310155173
 20
154.371761106
 11
191.0810155173
 21
154.371761106
  0
LINE
  5
240
100
AcDbEntity
  8
0
100
AcDbLine
 62
2
  6
CONTINUOUS
 10
120.6310155173
 20
154.371761106
 11
191.0810155173
 21
154.371761106
  0
INSERT
  5
241
100
AcDbEntity
  8
0
100
AcDbBlockReference
 62
2
  6
CONTINUOUS
  2
_FILLED
 10
261.5310155173
 20
154.371761106
 41
3.5
 42
3.5
 43
3.5
  0
INSERT
  5
242
100
AcDbEntity
  8
0
100
AcDbBlockReference
 62
2
  6
CONTINUOUS
  2
_FILLED
 10
120.6310155173
 20
154.371761106
 41
3.5
 42
3.5
 43
3.5
 50
180.0
  0
ENDBLK
  5
243
100
AcDbEntity
  8
0
  6
BYBLOCK
 62
0
100
AcDbBlockEnd
  0
BLOCK
  5
244
100
AcDbEntity
  8
0
100
AcDbBlockBegin
 62
2
  6
CONTINUOUS
  2
*D3
 70
65
 10
0.0
 20
0.0
  3
*D3
  1

  0
MTEXT
  5
245
100
AcDbEntity
  8
0
100
AcDbMText
 62
5
  6
CONTINUOUS
  7
TEXTSTYLE_2
 71
1
 72
1
 10
275.0248193623
 20
123.7808418771
 30
0.0
 11
0.0
 21
1.0
 31
0.0
 44
0.9
  1
{\Fgdt;n}\Ftxt;12
 40
3.5
 41
10.3268229167
  0
LINE
  5
246
100
AcDbEntity
  8
0
100
AcDbLine
 62
2
  6
CONTINUOUS
 10
261.5310155173
 20
109.183287927
 11
280.8998193623
 21
109.183287927
  0
LINE
  5
247
100
AcDbEntity
  8
0
100
AcDbLine
 62
2
  6
CONTINUOUS
 10
261.5310155173
 20
121.183287927
 11
280.8998193623
 21
121.183287927
  0
LINE
  5
248
100
AcDbEntity
  8
0
100
AcDbLine
 62
2
  6
CONTINUOUS
 10
279.3998193623
 20
109.183287927
 11
279.3998193623
 21
115.183287927
  0
LINE
  5
249
100
AcDbEntity
  8
0
100
AcDbLine
 62
2
  6
CONTINUOUS
 10
279.3998193623
 20
121.183287927
 11
279.3998193623
 21
115.183287927
  0
LINE
  5
24A
100
AcDbEntity
  8
0
100
AcDbLine
 62
2
  6
CONTINUOUS
 10
279.3998193623
 20
115.183287927
 11
279.3998193623
 21
134.1076647937
  0
INSERT
  5
24B
100
AcDbEntity
  8
0
100
AcDbBlockReference
 62
2
  6
CONTINUOUS
  2
_FILLED
 10
279.3998193623
 20
109.183287927
 41
3.5
 42
3.5
 43
3.5
 50
270.0
  0
INSERT
  5
24C
100
AcDbEntity
  8
0
100
AcDbBlockReference
 62
2
  6
CONTINUOUS
  2
_FILLED
 10
279.3998193623
 20
121.183287927
 41
3.5
 42
3.5
 43
3.5
 50
90.0
  0
ENDBLK
  5
24D
100
AcDbEntity
  8
0
  6
BYBLOCK
 62
0
100
AcDbBlockEnd
  0
BLOCK
  5
24E
100
AcDbEntity
  8
0
100
AcDbBlockBegin
 62
2
  6
CONTINUOUS
  2
*D4
 70
65
 10
0.0
 20
0.0
  3
*D4
  1

  0
MTEXT
  5
24F
100
AcDbEntity
  8
0
100
AcDbMText
 62
5
  6
CONTINUOUS
  7
STANDARD
 71
2
 72
1
 10
187.6891328061
 20
139.4695400127
 30
0.0
 11
0.127897648
 21
0.9917873722
 31
0.0
 44
0.9
  1
3\Fgdt;{\Fgdt;~}
 40
3.5
 41
5.1634114583
  0
LINE
  5
250
100
AcDbEntity
  8
0
100
AcDbLine
 62
2
  6
CONTINUOUS
 10
244.9394969401
 20
122.0528125705
 11
191.8823494254
 21
124.8334198469
  0
LINE
  5
251
100
AcDbEntity
  8
0
100
AcDbLine
 62
2
  6
CONTINUOUS
 10
241.8793929637
 20
115.183287927
 11
191.6296518279
 21
115.183287927
  0
ARC
  5
252
100
AcDbEntity
  8
0
100
AcDbCircle
 62
2
  6
CONTINUOUS
 10
376.0178356437
 20
115.183287927
 40
182.8881838158
100
AcDbArc
 50
172.6518777292
 51
177.0
  0
ARC
  5
253
100
AcDbEntity
  8
0
100
AcDbCircle
 62
2
  6
CONTINUOUS
 10
376.0178356437
 20
115.183287927
 40
182.8881838158
100
AcDbArc
 50
180.0
 51
181.8796986766
  0
ARC
  5
254
100
AcDbEntity
  8
0
100
AcDbCircle
 62
2
  6
CONTINUOUS
 10
376.0178356437
 20
115.183287927
 40
182.8881838158
100
AcDbArc
 50
177.0
 51
180.0
  0
SOLID
  5
255
100
AcDbEntity
  8
0
100
AcDbTrace
 62
2
  6
CONTINUOUS
 10
193.1602438599
 20
128.2752829822
 11
193.3802937276
 21
124.7549159125
 12
194.0335665191
 22
128.2211301168
 13
194.0335665191
 23
128.2211301168
  0
SOLID
  5
256
100
AcDbEntity
  8
0
100
AcDbTrace
 62
2
  6
CONTINUOUS
 10
193.6006216968
 20
111.6876343926
 11
193.1296518279
 21
115.183287927
 12
192.7256617539
 22
111.6792619182
 13
192.7256617539
 23
111.6792619182
  0
ENDBLK
  5
257
100
AcDbEntity
  8
0
  6
BYBLOCK
 62
0
100
AcDbBlockEnd
  0
BLOCK
  5
258
100
AcDbEntity
  8
0
100
AcDbBlockBegin
 62
2
  6
CONTINUOUS
  2
*D5
 70
65
 10
0.0
 20
0.0
  3
*D5
  1

  0
MTEXT
  5
259
100
AcDbEntity
  8
0
100
AcDbMText
 62
5
  6
CONTINUOUS
  7
TEXTSTYLE_2
 71
1
 72
1
 10
266.373207887
 20
123.7814695036
 30
0.0
 11
0.0
 21
1.0
 31
0.0
 44
0.9
  1
{\Fgdt;n}\Ftxt;6
 40
3.5
 41
7.4967447917
  0
LINE
  5
25A
100
AcDbEntity
  8
0
100
AcDbLine
 62
2
  6
CONTINUOUS
 10
261.5310155173
 20
112.183287927
 11
272.248207887
 21
112.183287927
  0
LINE
  5
25B
100
AcDbEntity
  8
0
100
AcDbLine
 62
2
  6
CONTINUOUS
 10
261.5310155173
 20
118.183287927
 11
272.248207887
 21
118.183287927
  0
LINE
  5
25C
100
AcDbEntity
  8
0
100
AcDbLine
 62
2
  6
CONTINUOUS
 10
270.748207887
 20
112.183287927
 11
270.748207887
 21
106.183287927
  0
LINE
  5
25D
100
AcDbEntity
  8
0
100
AcDbLine
 62
2
  6
CONTINUOUS
 10
270.748207887
 20
106.183287927
 11
270.748207887
 21
115.183287927
  0
LINE
  5
25E
100
AcDbEntity
  8
0
100
AcDbLine
 62
2
  6
CONTINUOUS
 10
270.748207887
 20
118.183287927
 11
270.748207887
 21
131.2782142952
  0
LINE
  5
25F
100
AcDbEntity
  8
0
100
AcDbLine
 62
2
  6
CONTINUOUS
 10
270.748207887
 20
131.2782142952
 11
270.748207887
 21
115.183287927
  0
INSERT
  5
260
100
AcDbEntity
  8
0
100
AcDbBlockReference
 62
2
  6
CONTINUOUS
  2
_FILLED
 10
270.748207887
 20
112.183287927
 41
3.5
 42
3.5
 43
3.5
 50
90.0
  0
INSERT
  5
261
100
AcDbEntity
  8
0
100
AcDbBlockReference
 62
2
  6
CONTINUOUS
  2
_FILLED
 10
270.748207887
 20
118.183287927
 41
3.5
 42
3.5
 43
3.5
 50
270.0
  0
ENDBLK
  5
262
100
AcDbEntity
  8
0
  6
BYBLOCK
 62
0
100
AcDbBlockEnd
  0
ENDSEC
  0
SECTION
  2
ENTITIES
  0
DIMENSION
  5
263
100
AcDbEntity
  8
0
100
AcDbDimension
 62
2
  6
CONTINUOUS
  2
*D0
 10
101.5310155173
 20
161.7965582765
 11
189.0346841274
 21
164.4215582765
 70
160
 71
2
 42
160.0
  3
DIMSTYLE_1
100
AcDbAlignedDimension
 13
261.5310155173
 23
112.683287927
 14
101.5310155173
 24
141.1206568519
 50
180.0
100
AcDbRotatedDimension
  0
DIMENSION
  5
264
100
AcDbEntity
  8
0
100
AcDbDimension
 62
2
  6
CONTINUOUS
  2
*D1
 10
261.5310155173
 20
168.4761396483
 11
162.654491472
 21
171.1011396483
 70
160
 71
2
 42
228.4
  3
DIMSTYLE_2
100
AcDbAlignedDimension
 13
33.1310155173
 23
125.9050686948
 14
261.5310155173
 24
115.183287927
100
AcDbRotatedDimension
  0
DIMENSION
  5
265
100
AcDbEntity
  8
0
100
AcDbDimension
 62
2
  6
CONTINUOUS
  2
*D2
 10
120.6310155173
 20
154.371761106
 11
194.3008513348
 21
156.996761106
 70
160
 71
2
 42
140.9
  3
DIMSTYLE_2
100
AcDbAlignedDimension
 13
261.5310155173
 23
115.183287927
 14
120.6310155173
 24
145.2465920281
 50
180.0
100
AcDbRotatedDimension
  0
DIMENSION
  5
266
100
AcDbEntity
  8
0
100
AcDbDimension
 62
2
  6
CONTINUOUS
  2
*D3
 10
279.3998193623
 20
121.183287927
 11
276.7748193623
 21
128.9442533354
 70
160
 71
1
 42
12.0
  1
%%c<>
  3
DIMSTYLE_3
100
AcDbAlignedDimension
 13
261.5310155173
 23
109.183287927
 14
261.5310155173
 24
121.183287927
 50
90.0
100
AcDbRotatedDimension
  0
DIMENSION
  5
267
100
AcDbEntity
  8
0
100
AcDbDimension
 62
2
  6
CONTINUOUS
  2
*D4
 10
191.6296518279
 20
115.183287927
 11
188.6955413812
 21
138.1805711145
 70
162
 71
2
 42
0.0523598776
  3
DIMSTYLE_4
100
AcDb2LineAngularDimension
 13
191.8823494254
 23
124.8334198469
 14
244.9394969401
 24
122.0528125705
 15
241.8793929637
 25
115.183287927
 16
193.1923230407
 26
119.9707424608
  0
DIMENSION
  5
268
100
AcDbEntity
  8
0
100
AcDbDimension
 62
2
  6
CONTINUOUS
  2
*D5
 10
270.748207887
 20
118.183287927
 11
268.123207887
 21
127.5298418994
 70
160
 71
1
 42
6.0
  1
%%c<>
  3
DIMSTYLE_5
100
AcDbAlignedDimension
 13
261.5310155173
 23
112.183287927
 14
261.5310155173
 24
118.183287927
 50
90.0
100
AcDbRotatedDimension
  0
MTEXT
  5
269
100
AcDbEntity
  8
0
100
AcDbMText
 62
5
  6
CONTINUOUS
  7
STANDARD
 71
1
 72
1
 10
14.0443334719
 20
82.4315381497
 30
0.0
 11
1.0
 21
0.0
 31
0.0
 44
0.9
  3
Für diese Unterlage behalten wir das Ur-\Pheberrecht. Sie darf nur für den von uns \Pbestimmten Zweck benutzt und ohne unsere \PZustimmung weder vervielfältigt noch\PDritten zugänglich gemacht werden\P \PWe own the copyright of this document. It \Pde
  1
termined and may neither be copied or \Pmade accessible to outsiders without our\Ppermission.\P \PCe plan reste notre propriété. Il ne peut\Pêtre utilisé, copié ou reproduit sans notre\Paccord.\P 
 40
3.5
 41
99.162109375
  0
LINE
  5
26A
100
AcDbEntity
  8
0
100
AcDbLine
 62
7
  6
CONTINUOUS
 10
0.0
 20
0.0
 11
0.0
 21
210.0
  0
LINE
  5
26B
100
AcDbEntity
  8
0
100
AcDbLine
 62
7
  6
CONTINUOUS
 10
0.0
 20
0.0
 11
297.0
 21
0.0
  0
LINE
  5
26C
100
AcDbEntity
  8
0
100
AcDbLine
 62
7
  6
CONTINUOUS
 10
0.0
 20
210.0
 11
297.0
 21
210.0
  0
LINE
  5
26D
100
AcDbEntity
  8
0
100
AcDbLine
 62
7
  6
CONTINUOUS
 10
297.0
 20
0.0
 11
297.0
 21
210.0
  0
LINE
  5
26E
100
AcDbEntity
  8
BEZUGSACHSEN
100
AcDbLine
 62
7
  6
CONTINUOUS
 10
33.1310155173
 20
125.7029886014
 11
33.1310155173
 21
104.6635872525
  0
LINE
  5
26F
100
AcDbEntity
  8
BEZUGSACHSEN
100
AcDbLine
 62
9
  6
CONTINUOUS
 10
34.842378179
 20
127.6820511287
 11
34.842378179
 21
102.6845247252
  0
LINE
  5
270
100
AcDbEntity
  8
BEZUGSACHSEN
100
AcDbLine
 62
7
  6
CONTINUOUS
 10
101.0737102548
 20
137.3415920182
 11
101.0737102548
 21
93.0249838357
  0
LINE
  5
271
100
AcDbEntity
  8
BEZUGSACHSEN
100
AcDbLine
 62
7
  6
CENTER
 10
101.5310155173
 20
85.8154387435
 11
101.5310155173
 21
141.2772383936
  0
LINE
  5
272
100
AcDbEntity
  8
BEZUGSACHSEN
100
AcDbLine
 62
7
  6
CONTINUOUS
 10
102.1310155173
 20
137.058287927
 11
102.1310155173
 21
93.308287927
  0
LINE
  5
273
100
AcDbEntity
  8
BEZUGSACHSEN
100
AcDbLine
 62
9
  6
CONTINUOUS
 10
103.7810155173
 20
137.058287927
 11
103.7810155173
 21
93.308287927
  0
LINE
  5
274
100
AcDbEntity
  8
BEZUGSACHSEN
100
AcDbLine
 62
7
  6
CONTINUOUS
 10
104.7810155173
 20
145.9448772715
 11
104.7810155173
 21
123.383287927
  0
LINE
  5
275
100
AcDbEntity
  8
BEZUGSACHSEN
100
AcDbLine
 62
7
  6
CONTINUOUS
 10
104.7810155173
 20
106.983287927
 11
104.7810155173
 21
96.683287927
  0
LINE
  5
276
100
AcDbEntity
  8
BEZUGSACHSEN
100
AcDbLine
 62
7
  6
CONTINUOUS
 10
104.7810155173
 20
90.5895768406
 11
104.7810155173
 21
84.4423601741
  0
LINE
  5
277
100
AcDbEntity
  8
0
100
AcDbLine
 62
7
  6
CONTINUOUS
 10
104.7810155173
 20
84.4083033003
 11
104.7810155173
 21
90.5895768406
  0
LINE
  5
278
100
AcDbEntity
  8
FASEN
100
AcDbLine
 62
7
  6
CONTINUOUS
 10
104.7810155173
 20
90.5895768406
 11
104.7810155173
 21
96.683287927
  0
LINE
  5
279
100
AcDbEntity
  8
0
100
AcDbLine
 62
7
  6
CONTINUOUS
 10
104.7810155173
 20
96.683287927
 11
104.7810155173
 21
106.983287927
  0
LINE
  5
27A
100
AcDbEntity
  8
FASEN
100
AcDbLine
 62
7
  6
CONTINUOUS
 10
104.7810155173
 20
106.983287927
 11
104.7810155173
 21
123.383287927
  0
LINE
  5
27B
100
AcDbEntity
  8
0
100
AcDbLine
 62
7
  6
CONTINUOUS
 10
104.7810155173
 20
123.383287927
 11
104.7810155173
 21
145.9582600555
  0
LINE
  5
27C
100
AcDbEntity
  8
0
100
AcDbLine
 62
9
  6
CONTINUOUS
 10
105.7810155173
 20
146.958287927
 11
105.7810155173
 21
123.383287927
  0
LINE
  5
27D
100
AcDbEntity
  8
0
100
AcDbLine
 62
9
  6
CONTINUOUS
 10
105.7810155173
 20
106.983287927
 11
105.7810155173
 21
96.683287927
  0
LINE
  5
27E
100
AcDbEntity
  8
0
100
AcDbLine
 62
9
  6
CONTINUOUS
 10
105.7810155173
 20
89.34918982
 11
105.7810155173
 21
83.408287927
  0
LINE
  5
27F
100
AcDbEntity
  8
0
100
AcDbLine
 62
7
  6
CONTINUOUS
 10
109.1697451185
 20
83.408287927
 11
109.1697451185
 21
89.34918982
  0
LINE
  5
280
100
AcDbEntity
  8
0
100
AcDbLine
 62
7
  6
CONTINUOUS
 10
109.1697451185
 20
96.683287927
 11
109.1697451185
 21
106.983287927
  0
LINE
  5
281
100
AcDbEntity
  8
0
100
AcDbLine
 62
7
  6
CONTINUOUS
 10
109.1697451185
 20
123.383287927
 11
109.1697451185
 21
146.958287927
  0
LINE
  5
282
100
AcDbEntity
  8
BEZUGSACHSEN
100
AcDbLine
 62
7
  6
CONTINUOUS
 10
114.5810155173
 20
144.0808831912
 11
116.2422859161
 21
146.958287927
  0
LINE
  5
283
100
AcDbEntity
  8
BEZUGSACHSEN
100
AcDbLine
 62
7
  6
CONTINUOUS
 10
114.5810155173
 20
86.2856926628
 11
116.2422859161
 21
83.408287927
  0
LINE
  5
284
100
AcDbEntity
  8
0
100
AcDbLine
 62
7
  6
CONTINUOUS
 10
110.8310155173
 20
144.0808827604
 11
110.8310155173
 21
142.5683043002
  0
LINE
  5
285
100
AcDbEntity
  8
BEZUGSACHSEN
100
AcDbLine
 62
7
  6
CONTINUOUS
 10
110.8310155173
 20
142.5683043002
 11
110.8310155173
 21
142.3120735112
  0
LINE
  5
286
100
AcDbEntity
  8
0
100
AcDbLine
 62
7
  6
CONTINUOUS
 10
110.8310155173
 20
142.0922324089
 11
110.8310155173
 21
123.383287927
  0
LINE
  5
287
100
AcDbEntity
  8
0
100
AcDbLine
 62
7
  6
CONTINUOUS
 10
110.8310155173
 20
106.983287927
 11
110.8310155173
 21
96.683287927
  0
LINE
  5
288
100
AcDbEntity
  8
0
100
AcDbLine
 62
7
  6
CONTINUOUS
 10
110.8310155173
 20
86.2856987034
 11
110.8310155173
 21
93.3397391082
  0
LINE
  5
289
100
AcDbEntity
  8
0
100
AcDbLine
 62
9
  6
CONTINUOUS
 10
111.3310155173
 20
87.058287927
 11
111.3310155173
 21
93.9991989685
  0
LINE
  5
28A
100
AcDbEntity
  8
0
100
AcDbLine
 62
9
  6
CONTINUOUS
 10
111.3310155173
 20
96.683287927
 11
111.3310155173
 21
106.983287927
  0
LINE
  5
28B
100
AcDbEntity
  8
0
100
AcDbLine
 62
9
  6
CONTINUOUS
 10
111.3310155173
 20
123.383287927
 11
111.3310155173
 21
141.0801415199
  0
LINE
  5
28C
100
AcDbEntity
  8
0
100
AcDbLine
 62
9
  6
CONTINUOUS
 10
111.3310155173
 20
142.0736202593
 11
111.3310155173
 21
143.308287927
  0
LINE
  5
28D
100
AcDbEntity
  8
0
100
AcDbLine
 62
9
  6
CONTINUOUS
 10
114.0810155173
 20
87.058287927
 11
114.0810155173
 21
93.9991989685
  0
LINE
  5
28E
100
AcDbEntity
  8
0
100
AcDbLine
 62
9
  6
CONTINUOUS
 10
114.0810155173
 20
96.683287927
 11
114.0810155173
 21
106.983287927
  0
LINE
  5
28F
100
AcDbEntity
  8
0
100
AcDbLine
 62
9
  6
CONTINUOUS
 10
114.0810155173
 20
123.383287927
 11
114.0810155173
 21
141.0801415199
  0
LINE
  5
290
100
AcDbEntity
  8
0
100
AcDbLine
 62
9
  6
CONTINUOUS
 10
114.0810155173
 20
142.0736202593
 11
114.0810155173
 21
143.308287927
  0
LINE
  5
291
100
AcDbEntity
  8
BEZUGSACHSEN
100
AcDbLine
 62
7
  6
CONTINUOUS
 10
114.5810155173
 20
142.5683043002
 11
114.5810155173
 21
142.3120735112
  0
LINE
  5
292
100
AcDbEntity
  8
0
100
AcDbLine
 62
7
  6
CONTINUOUS
 10
114.5810155173
 20
142.0922324089
 11
114.5810155173
 21
123.383287927
  0
LINE
  5
293
100
AcDbEntity
  8
0
100
AcDbLine
 62
7
  6
CONTINUOUS
 10
114.5810155173
 20
86.2856987034
 11
114.5810155173
 21
93.3397391082
  0
LINE
  5
294
100
AcDbEntity
  8
0
100
AcDbLine
 62
7
  6
CONTINUOUS
 10
114.5810155173
 20
96.683287927
 11
114.5810155173
 21
106.983287927
  0
LINE
  5
295
100
AcDbEntity
  8
0
100
AcDbLine
 62
7
  6
CONTINUOUS
 10
114.5810155173
 20
142.5683043002
 11
114.5810155173
 21
144.0808827604
  0
LINE
  5
296
100
AcDbEntity
  8
0
100
AcDbLine
 62
7
  6
CONTINUOUS
 10
116.2422859161
 20
146.958287927
 11
116.2422859161
 21
123.383287927
  0
LINE
  5
297
100
AcDbEntity
  8
0
100
AcDbLine
 62
7
  6
CONTINUOUS
 10
116.2422859161
 20
106.983287927
 11
116.2422859161
 21
96.683287927
  0
LINE
  5
298
100
AcDbEntity
  8
0
100
AcDbLine
 62
7
  6
CONTINUOUS
 10
116.2422859161
 20
89.34918982
 11
116.2422859161
 21
83.408287927
  0
LINE
  5
299
100
AcDbEntity
  8
0
100
AcDbLine
 62
9
  6
CONTINUOUS
 10
119.6310155173
 20
83.408287927
 11
119.6310155173
 21
89.34918982
  0
LINE
  5
29A
100
AcDbEntity
  8
0
100
AcDbLine
 62
9
  6
CONTINUOUS
 10
119.6310155173
 20
96.683287927
 11
119.6310155173
 21
106.983287927
  0
LINE
  5
29B
100
AcDbEntity
  8
0
100
AcDbLine
 62
9
  6
CONTINUOUS
 10
119.6310155173
 20
123.383287927
 11
119.6310155173
 21
146.958287927
  0
LINE
  5
29C
100
AcDbEntity
  8
BEZUGSACHSEN
100
AcDbLine
 62
7
  6
CONTINUOUS
 10
120.6310155173
 20
145.9448772715
 11
120.6310155173
 21
123.383287927
  0
LINE
  5
29D
100
AcDbEntity
  8
0
100
AcDbLine
 62
7
  6
CONTINUOUS
 10
120.6310155173
 20
145.9582600555
 11
120.6310155173
 21
123.383287927
  0
LINE
  5
29E
100
AcDbEntity
  8
0
100
AcDbLine
 62
7
  6
CONTINUOUS
 10
120.6310155173
 20
106.983287927
 11
120.6310155173
 21
96.683287927
  0
LINE
  5
29F
100
AcDbEntity
  8
BEZUGSACHSEN
100
AcDbLine
 62
7
  6
CONTINUOUS
 10
120.6310155173
 20
90.5895768406
 11
120.6310155173
 21
84.4423601741
  0
LINE
  5
2A0
100
AcDbEntity
  8
0
100
AcDbLine
 62
7
  6
CONTINUOUS
 10
120.6310155173
 20
90.5895768406
 11
120.6310155173
 21
84.4083033003
  0
LINE
  5
2A1
100
AcDbEntity
  8
FASEN
100
AcDbLine
 62
7
  6
CONTINUOUS
 10
120.6310155173
 20
90.5895768406
 11
120.6310155173
 21
96.683287927
  0
LINE
  5
2A2
100
AcDbEntity
  8
FASEN
100
AcDbLine
 62
7
  6
CONTINUOUS
 10
120.6310155173
 20
106.983287927
 11
120.6310155173
 21
123.383287927
  0
LINE
  5
2A3
100
AcDbEntity
  8
RUNDUNGEN
100
AcDbLine
 62
9
  6
CONTINUOUS
 10
121.6310155173
 20
137.683287927
 11
121.6310155173
 21
92.683287927
  0
LINE
  5
2A4
100
AcDbEntity
  8
BEZUGSACHSEN
100
AcDbLine
 62
7
  6
CONTINUOUS
 10
105.7810155173
 20
83.408287927
 11
109.1697451185
 21
83.408287927
  0
LINE
  5
2A5
100
AcDbEntity
  8
BEZUGSACHSEN
100
AcDbLine
 62
7
  6
CONTINUOUS
 10
116.2422859161
 20
83.408287927
 11
119.6310155173
 21
83.408287927
  0
LINE
  5
2A6
100
AcDbEntity
  8
BEZUGSACHSEN
100
AcDbLine
 62
7
  6
CONTINUOUS
 10
111.3310155173
 20
87.058287927
 11
114.0810155173
 21
87.058287927
  0
LINE
  5
2A7
100
AcDbEntity
  8
0
100
AcDbLine
 62
7
  6
CONTINUOUS
 10
105.7810155173
 20
89.34918982
 11
109.1697451185
 21
89.34918982
  0
LINE
  5
2A8
100
AcDbEntity
  8
0
100
AcDbLine
 62
7
  6
CONTINUOUS
 10
116.2422859161
 20
89.34918982
 11
119.6310155173
 21
89.34918982
  0
LINE
  5
2A9
100
AcDbEntity
  8
BEZUGSACHSEN
100
AcDbLine
 62
7
  6
CONTINUOUS
 10
34.842378179
 20
102.6845247252
 11
101.0737102548
 21
93.0249838357
  0
LINE
  5
2AA
100
AcDbEntity
  8
BEZUGSACHSEN
100
AcDbLine
 62
7
  6
CONTINUOUS
 10
109.1697451185
 20
83.408287927
 11
110.8310155173
 21
86.2856926628
  0
LINE
  5
2AB
100
AcDbEntity
  8
BEZUGSACHSEN
100
AcDbLine
 62
7
  6
CONTINUOUS
 10
144.4568538546
 20
92.683287927
 11
154.4584399033
 21
94.4560071004
  0
LINE
  5
2AC
100
AcDbEntity
  8
BEZUGSACHSEN
100
AcDbLine
 62
7
  6
CONTINUOUS
 10
155.6222941751
 20
94.6622930607
 11
163.8367704759
 21
96.1182581013
  0
LINE
  5
2AD
100
AcDbEntity
  8
BEZUGSACHSEN
100
AcDbLine
 62
7
  6
CONTINUOUS
 10
121.6310155173
 20
92.683287927
 11
144.4568538546
 21
92.683287927
  0
LINE
  5
2AE
100
AcDbEntity
  8
BEZUGSACHSEN
100
AcDbLine
 62
7
  6
CONTINUOUS
 10
102.1310155173
 20
93.308287927
 11
103.7810155173
 21
93.308287927
  0
LINE
  5
2AF
100
AcDbEntity
  8
0
100
AcDbLine
 62
7
  6
CONTINUOUS
 10
111.3310155173
 20
93.9991989685
 11
114.0810155173
 21
93.9991989685
  0
LINE
  5
2B0
100
AcDbEntity
  8
FASEN
100
AcDbLine
 62
7
  6
CONTINUOUS
 10
104.7810155173
 20
96.283287927
 11
120.6310155173
 21
96.283287927
  0
LINE
  5
2B1
100
AcDbEntity
  8
0
100
AcDbLine
 62
7
  6
CONTINUOUS
 10
104.7810155173
 20
96.683287927
 11
120.6310155173
 21
96.683287927
  0
LINE
  5
2B2
100
AcDbEntity
  8
BEZUGSACHSEN
100
AcDbLine
 62
7
  6
CONTINUOUS
 10
165.2428957327
 20
97.183287927
 11
166.5310155173
 21
97.183287927
  0
LINE
  5
2B3
100
AcDbEntity
  8
BEZUGSACHSEN
100
AcDbLine
 62
7
  6
CONTINUOUS
 10
171.5310155173
 20
97.183287927
 11
173.3094242976
 21
97.183287927
  0
LWPOLYLINE
  5
2B4
100
AcDbEntity
  8
0
100
AcDbPolyline
 62
7
  6
CONTINUOUS
 90
10
 70
0
 10
153.1016821559
 20
94.4324334044
 10
153.0927229113
 20
94.4325667241
 10
153.0864230845
 20
94.4327524543
 10
153.0865069273
 20
94.4327361602
 10
153.093381944
 20
94.4322204239
 10
153.1076893939
 20
94.4308008928
 10
153.1288420262
 20
94.4281178712
 10
153.1566397054
 20
94.4237426715
 10
153.1899968381
 20
94.4173841483
 10
153.2145822745
 20
94.4119830885
  0
LINE
  5
2B5
100
AcDbEntity
  8
BEZUGSACHSEN
100
AcDbLine
 62
7
  6
CONTINUOUS
 10
109.1697451185
 20
146.958287927
 11
110.8310155173
 21
144.0808831912
  0
LINE
  5
2B6
100
AcDbEntity
  8
BEZUGSACHSEN
100
AcDbLine
 62
7
  6
CONTINUOUS
 10
101.0737102548
 20
93.0249838357
 11
102.1310155173
 21
93.308287927
  0
LINE
  5
2B7
100
AcDbEntity
  8
BEZUGSACHSEN
100
AcDbLine
 62
7
  6
CONTINUOUS
 10
182.2976914427
 20
105.030845367
 11
261.2467163042
 21
109.1683884366
  0
LINE
  5
2B8
100
AcDbEntity
  8
BEZUGSACHSEN
100
AcDbLine
 62
7
  6
CONTINUOUS
 10
144.4568538546
 20
137.683287927
 11
144.4568538546
 21
92.683287927
  0
LINE
  5
2B9
100
AcDbEntity
  8
0
100
AcDbLine
 62
7
  6
CONTINUOUS
 10
104.7810155173
 20
106.983287927
 11
120.6310155173
 21
106.983287927
  0
LINE
  5
2BA
100
AcDbEntity
  8
FASEN
100
AcDbLine
 62
7
  6
CONTINUOUS
 10
120.6310155173
 20
107.383287927
 11
104.7810155173
 21
107.383287927
  0
LINE
  5
2BB
100
AcDbEntity
  8
DEFAULT_2
100
AcDbLine
 62
8
  6
HIDDEN
 10
259.5310155173
 20
112.183287927
 11
237.5412306721
 21
112.183287927
  0
LINE
  5
2BC
100
AcDbEntity
  8
DEFAULT_1
100
AcDbLine
 62
7
  6
CENTER
 10
169.0310155173
 20
115.183287927
 11
155.6222941751
 21
115.183287927
  0
LINE
  5
2BD
100
AcDbEntity
  8
DEFAULT_1
100
AcDbLine
 62
7
  6
CENTER
 10
154.4584399033
 20
115.183287927
 11
149.4357182335
 21
115.183287927
  0
LINE
  5
2BE
100
AcDbEntity
  8
BEZUGSACHSEN
100
AcDbLine
 62
7
  6
CENTER
 10
266.5310155173
 20
115.183287927
 11
30.1310155173
 21
115.183287927
  0
LINE
  5
2BF
100
AcDbEntity
  8
0
100
AcDbLine
 62
9
  6
CONTINUOUS
 10
154.4584399033
 20
115.183287927
 11
155.6222941751
 21
115.183287927
  0
LINE
  5
2C0
100
AcDbEntity
  8
DEFAULT_1
100
AcDbLine
 62
7
  6
CENTER
 10
169.0310155173
 20
115.183287927
 11
188.6263128011
 21
115.183287927
  0
LINE
  5
2C1
100
AcDbEntity
  8
DEFAULT_2
100
AcDbLine
 62
8
  6
HIDDEN
 10
259.5310155173
 20
118.183287927
 11
237.5412306721
 21
118.183287927
  0
LINE
  5
2C2
100
AcDbEntity
  8
BEZUGSACHSEN
100
AcDbLine
 62
9
  6
CONTINUOUS
 10
163.8367704759
 20
134.2483177527
 11
163.8367704759
 21
96.1182581013
  0
LINE
  5
2C3
100
AcDbEntity
  8
BEZUGSACHSEN
100
AcDbLine
 62
9
  6
CONTINUOUS
 10
164.3899718852
 20
133.8605953657
 11
164.3899718852
 21
96.5059804883
  0
LINE
  5
2C4
100
AcDbEntity
  8
BEZUGSACHSEN
100
AcDbLine
 62
9
  6
CONTINUOUS
 10
164.5500754096
 20
133.583287927
 11
164.5500754096
 21
96.783287927
  0
LINE
  5
2C5
100
AcDbEntity
  8
BEZUGSACHSEN
100
AcDbLine
 62
9
  6
CONTINUOUS
 10
165.2428957327
 20
133.183287927
 11
165.2428957327
 21
97.183287927
  0
LINE
  5
2C6
100
AcDbEntity
  8
FASEN
100
AcDbLine
 62
7
  6
CONTINUOUS
 10
104.7810155173
 20
122.983287927
 11
120.6310155173
 21
122.983287927
  0
LINE
  5
2C7
100
AcDbEntity
  8
0
100
AcDbLine
 62
7
  6
CONTINUOUS
 10
104.7810155173
 20
123.383287927
 11
120.6310155173
 21
123.383287927
  0
LINE
  5
2C8
100
AcDbEntity
  8
BEZUGSACHSEN
100
AcDbLine
 62
7
  6
CONTINUOUS
 10
182.2976914427
 20
125.3357304869
 11
261.2467163042
 21
121.1981874174
  0
LINE
  5
2C9
100
AcDbEntity
  8
BEZUGSACHSEN
100
AcDbLine
 62
7
  6
CONTINUOUS
 10
101.0737102548
 20
137.3415920182
 11
102.1310155173
 21
137.058287927
  0
LINE
  5
2CA
100
AcDbEntity
  8
DEFAULT_1
100
AcDbLine
 62
7
  6
CENTER
 10
169.0310155173
 20
115.183287927
 11
169.0310155173
 21
95.5879906432
  0
LINE
  5
2CB
100
AcDbEntity
  8
DEFAULT_1
100
AcDbLine
 62
7
  6
CENTER
 10
169.0310155173
 20
115.183287927
 11
169.0310155173
 21
134.7785852107
  0
LINE
  5
2CC
100
AcDbEntity
  8
BEZUGSACHSEN
100
AcDbLine
 62
9
  6
CONTINUOUS
 10
173.3094242976
 20
133.183287927
 11
173.3094242976
 21
97.183287927
  0
LINE
  5
2CD
100
AcDbEntity
  8
BEZUGSACHSEN
100
AcDbLine
 62
7
  6
CONTINUOUS
 10
164.3899718852
 20
96.5059804883
 11
164.5500754096
 21
96.783287927
  0
LINE
  5
2CE
100
AcDbEntity
  8
BEZUGSACHSEN
100
AcDbLine
 62
7
  6
CONTINUOUS
 10
165.2428957327
 20
133.183287927
 11
166.5310155173
 21
133.183287927
  0
LINE
  5
2CF
100
AcDbEntity
  8
BEZUGSACHSEN
100
AcDbLine
 62
7
  6
CONTINUOUS
 10
171.5310155173
 20
133.183287927
 11
173.3094242976
 21
133.183287927
  0
LINE
  5
2D0
100
AcDbEntity
  8
BEZUGSACHSEN
100
AcDbLine
 62
7
  6
CONTINUOUS
 10
102.1310155173
 20
137.058287927
 11
103.7810155173
 21
137.058287927
  0
LINE
  5
2D1
100
AcDbEntity
  8
BEZUGSACHSEN
100
AcDbLine
 62
7
  6
CONTINUOUS
 10
121.6310155173
 20
137.683287927
 11
144.4568538546
 21
137.683287927
  0
LINE
  5
2D2
100
AcDbEntity
  8
BEZUGSACHSEN
100
AcDbLine
 62
7
  6
CONTINUOUS
 10
144.4568538546
 20
137.683287927
 11
154.4584399033
 21
135.9105687536
  0
LINE
  5
2D3
100
AcDbEntity
  8
BEZUGSACHSEN
100
AcDbLine
 62
7
  6
CONTINUOUS
 10
155.6222941751
 20
135.7042827933
 11
163.8367704759
 21
134.2483177527
  0
LWPOLYLINE
  5
2D4
100
AcDbEntity
  8
0
100
AcDbPolyline
 62
7
  6
CONTINUOUS
 90
10
 70
0
 10
156.9848396237
 20
135.2424761349
 10
156.9941569578
 20
135.2389385634
 10
157.0006546806
 20
135.2363577363
 10
157.0006845617
 20
135.2363602426
 10
156.9942030103
 20
135.2392986299
 10
156.980997484
 20
135.2456910498
 10
156.9617404005
 20
135.255698849
 10
156.9367391395
 20
135.2696884353
 10
156.9074644149
 20
135.2873576212
 10
156.8915351786
 20
135.2975305964
  0
LINE
  5
2D5
100
AcDbEntity
  8
BEZUGSACHSEN
100
AcDbLine
 62
7
  6
CONTINUOUS
 10
164.3899718852
 20
133.8605953657
 11
164.5500754096
 21
133.583287927
  0
LINE
  5
2D6
100
AcDbEntity
  8
BEZUGSACHSEN
100
AcDbLine
 62
9
  6
CONTINUOUS
 10
174.0165310788
 20
132.8903947082
 11
174.0165310788
 21
97.4761811458
  0
LINE
  5
2D7
100
AcDbEntity
  8
BEZUGSACHSEN
100
AcDbLine
 62
9
  6
CONTINUOUS
 10
180.9881497929
 20
125.9187759941
 11
180.9881497929
 21
104.4477998599
  0
LINE
  5
2D8
100
AcDbEntity
  8
BEZUGSACHSEN
100
AcDbLine
 62
7
  6
CONTINUOUS
 10
174.0165310788
 20
97.4761811458
 11
180.9881497929
 21
104.4477998599
  0
LINE
  5
2D9
100
AcDbEntity
  8
BEZUGSACHSEN
100
AcDbLine
 62
7
  6
CONTINUOUS
 10
34.842378179
 20
127.6820511287
 11
101.0737102548
 21
137.3415920182
  0
LINE
  5
2DA
100
AcDbEntity
  8
BEZUGSACHSEN
100
AcDbLine
 62
7
  6
CONTINUOUS
 10
111.3310155173
 20
143.308287927
 11
114.0810155173
 21
143.308287927
  0
LINE
  5
2DB
100
AcDbEntity
  8
BEZUGSACHSEN
100
AcDbLine
 62
7
  6
CONTINUOUS
 10
174.0165310788
 20
132.8903947082
 11
180.9881497929
 21
125.9187759941
  0
LINE
  5
2DC
100
AcDbEntity
  8
BEZUGSACHSEN
100
AcDbLine
 62
9
  6
CONTINUOUS
 10
182.2976914427
 20
125.3357304869
 11
182.2976914427
 21
105.030845367
  0
LINE
  5
2DD
100
AcDbEntity
  8
BEZUGSACHSEN
100
AcDbLine
 62
7
  6
CONTINUOUS
 10
105.7810155173
 20
146.958287927
 11
109.1697451185
 21
146.958287927
  0
LINE
  5
2DE
100
AcDbEntity
  8
BEZUGSACHSEN
100
AcDbLine
 62
7
  6
CONTINUOUS
 10
116.2422859161
 20
146.958287927
 11
119.6310155173
 21
146.958287927
  0
LINE
  5
2DF
100
AcDbEntity
  8
DEFAULT_2
100
AcDbLine
 62
8
  6
HIDDEN
 10
237.3910155173
 20
118.433287927
 11
237.3910155173
 21
111.933287927
  0
LINE
  5
2E0
100
AcDbEntity
  8
BEZUGSACHSEN
100
AcDbLine
 62
9
  6
CONTINUOUS
 10
261.2467163042
 20
121.1981874174
 11
261.2467163042
 21
109.1683884366
  0
LINE
  5
2E1
100
AcDbEntity
  8
BEZUGSACHSEN
100
AcDbLine
 62
7
  6
CONTINUOUS
 10
261.5310155173
 20
120.898598557
 11
261.5310155173
 21
109.467977297
  0
CIRCLE
  5
2E2
100
AcDbEntity
  8
BEZUGSACHSEN
100
AcDbCircle
 62
7
  6
CONTINUOUS
 10
112.6310155173
 20
115.183287927
 40
5.0
  0
CIRCLE
  5
2E3
100
AcDbEntity
  8
BEZUGSACHSEN
100
AcDbCircle
 62
7
  6
CONTINUOUS
 10
112.6310155173
 20
115.183287927
 40
4.7
  0
CIRCLE
  5
2E4
100
AcDbEntity
  8
BEZUGSACHSEN
100
AcDbCircle
 62
7
  6
CONTINUOUS
 10
112.6310155173
 20
115.183287927
 40
2.0
  0
ARC
  5
2E5
100
AcDbEntity
  8
BEZUGSACHSEN
100
AcDbCircle
 62
7
  6
CONTINUOUS
 10
35.1310155173
 20
104.6635872525
 40
2.0
100
AcDbArc
 50
180.0
 51
261.7021731718
  0
ARC
  5
2E6
100
AcDbEntity
  8
BEZUGSACHSEN
100
AcDbCircle
 62
7
  6
CONTINUOUS
 10
105.7810155173
 20
84.408287927
 40
1.0
100
AcDbArc
 50
180.0
 51
270.0
  0
ARC
  5
2E7
100
AcDbEntity
  8
BEZUGSACHSEN
100
AcDbCircle
 62
7
  6
CONTINUOUS
 10
103.7810155173
 20
92.308287927
 40
1.0
100
AcDbArc
 50
0.0
 51
90.0
  0
ARC
  5
2E8
100
AcDbEntity
  8
BEZUGSACHSEN
100
AcDbCircle
 62
7
  6
CONTINUOUS
 10
111.3310155173
 20
86.558287927
 40
0.5
100
AcDbArc
 50
90.0
 51
180.0
  0
ARC
  5
2E9
100
AcDbEntity
  8
0
100
AcDbCircle
 62
7
  6
CONTINUOUS
 10
-62.7896910848
 20
170.1507153791
 40
189.9972240794
100
AcDbArc
 50
334.8317727047
 51
336.0368933894
  0
ARC
  5
2EA
100
AcDbEntity
  8
BEZUGSACHSEN
100
AcDbCircle
 62
7
  6
CONTINUOUS
 10
35.1310155173
 20
125.7029886014
 40
2.0
100
AcDbArc
 50
98.2978268282
 51
180.0
  0
ARC
  5
2EB
100
AcDbEntity
  8
BEZUGSACHSEN
100
AcDbCircle
 62
7
  6
CONTINUOUS
 10
103.7810155173
 20
138.058287927
 40
1.0
100
AcDbArc
 50
270.0
 51
360.0
  0
ARC
  5
2EC
100
AcDbEntity
  8
BEZUGSACHSEN
100
AcDbCircle
 62
7
  6
CONTINUOUS
 10
105.7810155173
 20
145.958287927
 40
1.0
100
AcDbArc
 50
90.0
 51
180.0
  0
ARC
  5
2ED
100
AcDbEntity
  8
BEZUGSACHSEN
100
AcDbCircle
 62
7
  6
CONTINUOUS
 10
111.3310155173
 20
143.808287927
 40
0.5
100
AcDbArc
 50
180.0
 51
270.0
  0
ARC
  5
2EE
100
AcDbEntity
  8
0
100
AcDbCircle
 62
7
  6
CONTINUOUS
 10
149.0960572553
 20
124.7375257223
 40
30.7526505803
100
AcDbArc
 50
280.0420793919
 51
281.1474354351
  0
ARC
  5
2EF
100
AcDbEntity
  8
0
100
AcDbCircle
 62
7
  6
CONTINUOUS
 10
150.3436625337
 20
105.9685489862
 40
30.2006261036
100
AcDbArc
 50
79.9338240137
 51
81.0508609434
  0
ARC
  5
2F0
100
AcDbEntity
  8
0
100
AcDbCircle
 62
7
  6
CONTINUOUS
 10
151.0265465881
 20
114.9737782698
 40
21.2103372605
100
AcDbArc
 50
77.5002983094
 51
77.7366403954
  0
ARC
  5
2F1
100
AcDbEntity
  8
0
100
AcDbCircle
 62
7
  6
CONTINUOUS
 10
151.9086415024
 20
113.8425049654
 40
19.5293576071
100
AcDbArc
 50
277.4929668584
 51
277.6644935097
  0
ARC
  5
2F2
100
AcDbEntity
  8
GEWINDE
100
AcDbCircle
 62
7
  6
CONTINUOUS
 10
169.0310155177
 20
79.3575415798
 40
18.0000000014
100
AcDbArc
 50
82.016533546
 51
97.9834664563
  0
CIRCLE
  5
2F3
100
AcDbEntity
  8
0
100
AcDbCircle
 62
2
  6
CONTINUOUS
 10
169.0310155173
 20
115.183287927
 40
3.0
  0
CIRCLE
  5
2F4
100
AcDbEntity
  8
GEWINDE
100
AcDbCircle
 62
7
  6
CONTINUOUS
 10
169.0310155173
 20
115.183287927
 40
2.5
  0
ARC
  5
2F5
100
AcDbEntity
  8
BEZUGSACHSEN
100
AcDbCircle
 62
7
  6
CONTINUOUS
 10
182.4023633552
 20
103.0335862975
 40
2.0
100
AcDbArc
 50
93.0
 51
135.0
  0
ARC
  5
2F6
100
AcDbEntity
  8
RUNDUNGEN
100
AcDbCircle
 62
7
  6
CONTINUOUS
 10
121.6310155173
 20
91.683287927
 40
1.0
100
AcDbArc
 50
90.0
 51
180.0
  0
ARC
  5
2F7
100
AcDbEntity
  8
BEZUGSACHSEN
100
AcDbCircle
 62
7
  6
CONTINUOUS
 10
173.3094242976
 20
98.183287927
 40
1.0
100
AcDbArc
 50
270.0
 51
315.0
  0
ARC
  5
2F8
100
AcDbEntity
  8
BEZUGSACHSEN
100
AcDbCircle
 62
7
  6
CONTINUOUS
 10
119.6310155173
 20
84.408287927
 40
1.0
100
AcDbArc
 50
270.0
 51
360.0
  0
ARC
  5
2F9
100
AcDbEntity
  8
BEZUGSACHSEN
100
AcDbCircle
 62
7
  6
CONTINUOUS
 10
163.6971515622
 20
96.9059804883
 40
0.8
100
AcDbArc
 50
280.0509382182
 51
330.0
  0
ARC
  5
2FA
100
AcDbEntity
  8
BEZUGSACHSEN
100
AcDbCircle
 62
7
  6
CONTINUOUS
 10
165.2428957327
 20
96.383287927
 40
0.8
100
AcDbArc
 50
90.0
 51
150.0
  0
ARC
  5
2FB
100
AcDbEntity
  8
BEZUGSACHSEN
100
AcDbCircle
 62
7
  6
CONTINUOUS
 10
114.0810155173
 20
86.558287927
 40
0.5
100
AcDbArc
 50
0.0
 51
90.0
  0
ARC
  5
2FC
100
AcDbEntity
  8
BEZUGSACHSEN
100
AcDbCircle
 62
7
  6
CONTINUOUS
 10
261.2310155173
 20
120.898598557
 40
0.3
100
AcDbArc
 50
0.0
 51
87.0
  0
ARC
  5
2FD
100
AcDbEntity
  8
BEZUGSACHSEN
100
AcDbCircle
 62
7
  6
CONTINUOUS
 10
261.2310155173
 20
109.467977297
 40
0.3
100
AcDbArc
 50
273.0
 51
360.0
  0
ARC
  5
2FE
100
AcDbEntity
  8
0
100
AcDbCircle
 62
7
  6
CONTINUOUS
 10
288.2017221191
 20
170.1507153779
 40
189.9972240794
100
AcDbArc
 50
203.9631066104
 51
205.168227295
  0
ARC
  5
2FF
100
AcDbEntity
  8
GEWINDE
100
AcDbCircle
 62
7
  6
CONTINUOUS
 10
169.031015517
 20
151.0090342742
 40
18.0000000011
100
AcDbArc
 50
262.0165335459
 51
277.9834664561
  0
ARC
  5
300
100
AcDbEntity
  8
BEZUGSACHSEN
100
AcDbCircle
 62
7
  6
CONTINUOUS
 10
182.4023633552
 20
127.3329895564
 40
2.0
100
AcDbArc
 50
225.0
 51
267.0
  0
ARC
  5
301
100
AcDbEntity
  8
RUNDUNGEN
100
AcDbCircle
 62
7
  6
CONTINUOUS
 10
121.6310155173
 20
138.683287927
 40
1.0
100
AcDbArc
 50
180.0
 51
270.0
  0
ARC
  5
302
100
AcDbEntity
  8
BEZUGSACHSEN
100
AcDbCircle
 62
7
  6
CONTINUOUS
 10
173.3094242976
 20
132.183287927
 40
1.0
100
AcDbArc
 50
45.0
 51
90.0
  0
ARC
  5
303
100
AcDbEntity
  8
BEZUGSACHSEN
100
AcDbCircle
 62
7
  6
CONTINUOUS
 10
119.6310155173
 20
145.958287927
 40
1.0
100
AcDbArc
 50
0.0
 51
90.0
  0
ARC
  5
304
100
AcDbEntity
  8
0
100
AcDbCircle
 62
7
  6
CONTINUOUS
 10
156.3877219872
 20
134.4657136631
 40
0.9722474461
100
AcDbArc
 50
58.4096422294
 51
58.799603653
  0
ARC
  5
305
100
AcDbEntity
  8
BEZUGSACHSEN
100
AcDbCircle
 62
7
  6
CONTINUOUS
 10
163.6971515622
 20
133.4605953657
 40
0.8
100
AcDbArc
 50
30.0
 51
79.9490617818
  0
ARC
  5
306
100
AcDbEntity
  8
BEZUGSACHSEN
100
AcDbCircle
 62
7
  6
CONTINUOUS
 10
165.2428957327
 20
133.983287927
 40
0.8
100
AcDbArc
 50
210.0
 51
270.0
  0
ARC
  5
307
100
AcDbEntity
  8
BEZUGSACHSEN
100
AcDbCircle
 62
7
  6
CONTINUOUS
 10
114.0810155173
 20
143.808287927
 40
0.5
100
AcDbArc
 50
270.0
 51
360.0
  0
SPLINE
  5
308
100
AcDbEntity
  8
0
100
AcDbSpline
 62
2
  6
CONTINUOUS
 70
0
 71
3
 72
30
 73
26
 74
24
 42
0.0000001
 43
0.0000001
 44
0.0000000001
 12
-0.0232799672
 22
0.0038799825
 32
0.0
 13
-0.0236892072
 23
-0.0039481885
 33
0.0
 40
0.0
 40
0.0
 40
0.0
 40
0.0
 40
0.0434782609
 40
0.0869565217
 40
0.1304347826
 40
0.1739130435
 40
0.2173913043
 40
0.2608695652
 40
0.3043478261
 40
0.347826087
 40
0.3913043478
 40
0.4347826087
 40
0.4782608696
 40
0.5217391304
 40
0.5652173913
 40
0.6086956522
 40
0.652173913
 40
0.6956521739
 40
0.7391304348
 40
0.7826086957
 40
0.8260869565
 40
0.8695652174
 40
0.9130434783
 40
0.9565217391
 40
1.0
 40
1.0
 40
1.0
 40
1.0
 10
172.0310059157
 20
97.1832894731
 30
0.0
 10
172.0306685248
 20
97.1833457047
 30
0.0
 10
172.0121913372
 20
97.1864381004
 30
0.0
 10
171.9313177992
 20
97.1997352437
 30
0.0
 10
171.7987603605
 20
97.2207573712
 30
0.0
 10
171.6180271836
 20
97.2478713567
 30
0.0
 10
171.3910328833
 20
97.2793964975
 30
0.0
 10
171.118557632
 20
97.3134966684
 30
0.0
 10
170.8057418271
 20
97.3475352619
 30
0.0
 10
170.4611177617
 20
97.3787495437
 30
0.0
 10
170.0791991724
 20
97.4056056387
 30
0.0
 10
169.6681687792
 20
97.4252810392
 30
0.0
 10
169.2425810163
 20
97.4354845508
 30
0.0
 10
168.8191367273
 20
97.4354811076
 30
0.0
 10
168.3935193922
 20
97.4252685551
 30
0.0
 10
167.9825878163
 20
97.4055900659
 30
0.0
 10
167.6008415429
 20
97.3787426937
 30
0.0
 10
167.256326368
 20
97.3475387438
 30
0.0
 10
166.9435070825
 20
97.3135005617
 30
0.0
 10
166.6710751995
 20
97.2794064282
 30
0.0
 10
166.4441024221
 20
97.2478856123
 30
0.0
 10
166.2633406901
 20
97.2207682715
 30
0.0
 10
166.1307486706
 20
97.1997410062
 30
0.0
 10
166.0498578315
 20
97.1864411182
 30
0.0
 10
166.0313687817
 20
97.1833467481
 30
0.0
 10
166.0310254598
 20
97.183289528
 30
0.0
 11
172.0310059157
 21
97.1832894731
 31
0.0
 11
172.0033317111
 21
97.187881192
 31
0.0
 11
171.9227038158
 21
97.2010227411
 31
0.0
 11
171.7907310708
 21
97.2217726809
 31
0.0
 11
171.6103169964
 21
97.2486065493
 31
0.0
 11
171.3834527248
 21
97.2798256692
 31
0.0
 11
171.1118342064
 21
97.3134864055
 31
0.0
 11
170.8004404503
 21
97.3470645433
 31
0.0
 11
170.4549020077
 21
97.3780231792
 31
0.0
 11
170.0743472051
 21
97.4044088563
 31
0.0
 11
169.6657425509
 21
97.4237023911
 31
0.0
 11
169.242938262
 21
97.4337833916
 31
0.0
 11
168.818774553
 21
97.4337795894
 31
0.0
 11
168.3959670187
 21
97.423690899
 31
0.0
 11
167.9874520333
 21
97.4043952521
 31
0.0
 11
167.6070467259
 21
97.3780165974
 31
0.0
 11
167.2616090162
 21
97.3470663718
 31
0.0
 11
166.9502383162
 21
97.3134912365
 31
0.0
 11
166.6786517171
 21
97.2798353145
 31
0.0
 11
166.451804263
 21
97.2486195248
 31
0.0
 11
166.2713689755
 21
97.2217832841
 31
0.0
 11
166.139365534
 21
97.2010289024
 31
0.0
 11
166.0587173756
 21
97.1878841737
 31
0.0
 11
166.0310254598
 21
97.183289528
 31
0.0
  0
SPLINE
  5
309
100
AcDbEntity
  8
0
100
AcDbSpline
 62
2
  6
CONTINUOUS
 70
0
 71
3
 72
30
 73
26
 74
24
 42
0.0000001
 43
0.0000001
 44
0.0000000001
 12
0.023599864
 22
-0.003933298
 32
0.0
 13
0.0237062949
 23
0.0039510364
 33
0.0
 40
0.0
 40
0.0
 40
0.0
 40
0.0
 40
0.0434782609
 40
0.0869565217
 40
0.1304347826
 40
0.1739130435
 40
0.2173913043
 40
0.2608695652
 40
0.3043478261
 40
0.347826087
 40
0.3913043478
 40
0.4347826087
 40
0.4782608696
 40
0.5217391304
 40
0.5652173913
 40
0.6086956522
 40
0.652173913
 40
0.6956521739
 40
0.7391304348
 40
0.7826086957
 40
0.8260869565
 40
0.8695652174
 40
0.9130434783
 40
0.9565217391
 40
1.0
 40
1.0
 40
1.0
 40
1.0
 10
166.031025416
 20
133.183286333
 30
0.0
 10
166.031367443
 20
133.1832293287
 30
0.0
 10
166.0497974266
 20
133.1801448843
 30
0.0
 10
166.1304580965
 20
133.16688224
 30
0.0
 10
166.2626919276
 20
133.1459088227
 30
0.0
 10
166.4429096874
 20
133.1188645719
 30
0.0
 10
166.6692057072
 20
133.0874193758
 30
0.0
 10
166.9408316175
 20
133.0533925422
 30
0.0
 10
167.2528796473
 20
133.0193845011
 30
0.0
 10
167.5969178651
 20
132.9881506235
 30
0.0
 10
167.9786094836
 20
132.9612200228
 30
0.0
 10
168.389783121
 20
132.9414391673
 30
0.0
 10
168.8157904341
 20
132.9311316829
 30
0.0
 10
169.2396536786
 20
132.9310533101
 30
0.0
 10
169.6656367336
 20
132.9412013118
 30
0.0
 10
170.0769754924
 20
132.960837236
 30
0.0
 10
170.4591480319
 20
132.9876664118
 30
0.0
 10
170.8040749924
 20
133.0188726082
 30
0.0
 10
171.1172760351
 20
133.0529275032
 30
0.0
 10
171.3900773867
 20
133.0870520593
 30
0.0
 10
171.617364588
 20
133.1186078694
 30
0.0
 10
171.7983708771
 20
133.1457577653
 30
0.0
 10
171.9311435792
 20
133.16681219
 30
0.0
 10
172.0121469887
 20
133.1801303303
 30
0.0
 10
172.0306620052
 20
133.1832290645
 30
0.0
 10
172.0310055747
 20
133.1832863259
 30
0.0
 11
166.031025416
 21
133.183286333
 31
0.0
 11
166.0586333757
 21
133.1787055547
 31
0.0
 11
166.1390536233
 21
133.1655971112
 31
0.0
 11
166.270689249
 21
133.1448970171
 31
0.0
 11
166.4505893974
 21
133.118131081
 31
0.0
 11
166.6767606889
 21
133.0869891029
 31
0.0
 11
166.9475686374
 21
133.0533956743
 31
0.0
 11
167.2582113453
 21
133.0198468617
 31
0.0
 11
167.6031934319
 21
132.9888678363
 31
0.0
 11
167.9835231534
 21
132.962411647
 31
0.0
 11
168.3922554002
 21
132.9430180625
 31
0.0
 11
168.8154330893
 21
132.9328365348
 31
0.0
 11
169.2400069804
 21
132.9327577059
 31
0.0
 11
169.6631960176
 21
132.9427826322
 31
0.0
 11
170.0721144558
 21
132.9620361112
 31
0.0
 11
170.4529404354
 21
132.9883959152
 31
0.0
 11
170.7987873394
 21
133.0193473913
 31
0.0
 11
171.1105427532
 21
133.0529391134
 31
0.0
 11
171.382491695
 21
133.0866239349
 31
0.0
 11
171.6096511027
 21
133.1178735503
 31
0.0
 11
171.7903319459
 21
133.1447418535
 31
0.0
 11
171.9225153638
 21
133.1655228093
 31
0.0
 11
172.0032751746
 21
133.1786853238
 31
0.0
 11
172.0310055747
 21
133.1832863259
 31
0.0
  0
SPLINE
  5
30A
100
AcDbEntity
  8
BEZUGSACHSEN
100
AcDbSpline
 62
7
  6
CONTINUOUS
 70
0
 71
3
 72
19
 73
15
 74
13
 42
0.0000001
 43
0.0000001
 44
0.0000000001
 12
-0.8939002816
 22
0.3305664543
 32
0.0
 13
0.0
 23
0.9530644753
 33
0.0
 40
0.0
 40
0.0
 40
0.0
 40
0.0
 40
0.1217181457
 40
0.2412117709
 40
0.3499481467
 40
0.4477039725
 40
0.5373829645
 40
0.6199208207
 40
0.6964779373
 40
0.7678297527
 40
0.8343908613
 40
0.8961956983
 40
0.9521075556
 40
1.0
 40
1.0
 40
1.0
 40
1.0
 10
111.3310155173
 20
141.0801415199
 30
0.0
 10
111.2947475557
 20
141.0935534985
 30
0.0
 10
111.2257397531
 20
141.1283308462
 30
0.0
 10
111.1368047947
 20
141.1957885755
 30
0.0
 10
111.0639094415
 20
141.2697528099
 30
0.0
 10
111.0058197752
 20
141.3439741825
 30
0.0
 10
110.9594843915
 20
141.4162763636
 30
0.0
 10
110.9223575511
 20
141.486132543
 30
0.0
 10
110.8927874475
 20
141.5531708552
 30
0.0
 10
110.8695993552
 20
141.6172928963
 30
0.0
 10
110.8520568159
 20
141.6783173447
 30
0.0
 10
110.8398068471
 20
141.7356170236
 30
0.0
 10
110.8327028943
 20
141.7877997471
 30
0.0
 10
110.8310155173
 20
141.8207867574
 30
0.0
 10
110.8310155173
 20
141.8360016199
 30
0.0
 11
111.3310155173
 21
141.0801415199
 31
0.0
 11
111.2270657551
 21
141.1316358188
 31
0.0
 11
111.1359805452
 21
141.1999974102
 31
0.0
 11
111.0630274911
 21
141.2736017875
 31
0.0
 11
111.0054850153
 21
141.3468756986
 31
0.0
 11
110.9593043758
 21
141.4187954161
 31
0.0
 11
110.922360913
 21
141.4882446025
 31
0.0
 11
110.8929198937
 21
141.5550050133
 31
0.0
 11
110.8698300864
 21
141.6189679132
 31
0.0
 11
110.852376291
 21
141.6799566134
 31
0.0
 11
110.840180254
 21
141.7375841871
 31
0.0
 11
110.8331611918
 21
141.7904074926
 31
0.0
 11
110.8310155173
 21
141.8360016199
 31
0.0
  0
SPLINE
  5
30B
100
AcDbEntity
  8
0
100
AcDbSpline
 62
7
  6
CONTINUOUS
 70
0
 71
3
 72
13
 73
9
 74
7
 42
0.0000001
 43
0.0000001
 44
0.0000000001
 12
1.2063817181
 22
-0.2786277213
 32
0.0
 13
1.2364976833
 23
0.1626198279
 33
0.0
 40
0.0
 40
0.0
 40
0.0
 40
0.0
 40
0.0407820768
 40
0.1662837949
 40
0.3446433642
 40
0.5818752091
 40
0.8794501381
 40
1.0
 40
1.0
 40
1.0
 40
1.0
 10
153.2143265955
 20
94.411198941
 30
0.0
 10
153.2307261794
 20
94.4074112687
 30
0.0
 10
153.2975526455
 20
94.398161907
 30
0.0
 10
153.4424278614
 20
94.3901114344
 30
0.0
 10
153.6666153278
 20
94.398075117
 30
0.0
 10
153.962549069
 20
94.4210315325
 30
0.0
 10
154.2332509462
 20
94.451389931
 30
0.0
 10
154.4056708778
 20
94.4733763617
 30
0.0
 10
154.4553574195
 20
94.479910961
 30
0.0
 11
153.2143265955
 21
94.411198941
 31
0.0
 11
153.2636901903
 21
94.4031970651
 31
0.0
 11
153.4198953367
 21
94.3933198384
 31
0.0
 11
153.6422717266
 21
94.3985460458
 31
0.0
 11
153.9373096137
 21
94.420576482
 31
0.0
 11
154.3062256691
 21
94.4609160835
 31
0.0
 11
154.4553574195
 21
94.479910961
 31
0.0
  0
SPLINE
  5
30C
100
AcDbEntity
  8
0
100
AcDbSpline
 62
7
  6
CONTINUOUS
 70
0
 71
3
 72
10
 73
6
 74
4
 42
0.0000001
 43
0.0000001
 44
0.0000000001
 12
1.1127219738
 22
0.1497314085
 32
0.0
 13
1.1054814503
 23
0.1959397393
 33
0.0
 40
0.0
 40
0.0
 40
0.0
 40
0.0
 40
0.1952976344
 40
0.6003943442
 40
1.0
 40
1.0
 40
1.0
 40
1.0
 10
154.5133118117
 20
94.4876218316
 30
0.0
 10
154.5857491348
 20
94.4973692282
 30
0.0
 10
154.8082835462
 20
94.528559044
 30
0.0
 10
155.1781405124
 20
94.5857054123
 30
0.0
 10
155.4750419618
 20
94.636193518
 30
0.0
 10
155.6222941751
 20
94.6622930607
 30
0.0
 11
154.5133118117
 21
94.4876218316
 31
0.0
 11
154.7304719376
 21
94.5179903962
 31
0.0
 11
155.1799881091
 21
94.5871601916
 31
0.0
 11
155.6222941751
 21
94.6622930607
 31
0.0
  0
SPLINE
  5
30D
100
AcDbEntity
  8
BEZUGSACHSEN
100
AcDbSpline
 62
7
  6
CONTINUOUS
 70
0
 71
3
 72
18
 73
14
 74
12
 42
0.0000001
 43
0.0000001
 44
0.0000000001
 12
-2.6242089124
 22
-0.9704387092
 32
0.0
 13
-2.6242089124
 23
0.9704387092
 33
0.0
 40
0.0
 40
0.0
 40
0.0
 40
0.0
 40
0.0799679098
 40
0.1663286595
 40
0.257944786
 40
0.3532485422
 40
0.4508026001
 40
0.549197501
 40
0.6467509057
 40
0.7420528253
 40
0.8336699519
 40
0.920031171
 40
1.0
 40
1.0
 40
1.0
 40
1.0
 10
114.0810155173
 20
141.0801415199
 30
0.0
 10
114.0110646834
 20
141.0542735348
 30
0.0
 10
113.8631764227
 20
141.0068286149
 30
0.0
 10
113.62925249
 20
140.9499624759
 30
0.0
 10
113.3780515158
 20
140.9058808039
 30
0.0
 10
113.1143011661
 20
140.8758004096
 30
0.0
 10
112.8429522204
 20
140.8605470612
 30
0.0
 10
112.5690791413
 20
140.860547069
 30
0.0
 10
112.2977325147
 20
140.8758002522
 30
0.0
 10
112.0339835273
 20
140.9058802559
 30
0.0
 10
111.7827828291
 20
140.9499615426
 30
0.0
 10
111.5488566777
 20
141.0068279929
 30
0.0
 10
111.4009671552
 20
141.0542732375
 30
0.0
 10
111.3310155173
 20
141.0801415199
 30
0.0
 11
114.0810155173
 21
141.0801415199
 31
0.0
 11
113.8681783293
 21
141.0111431307
 31
0.0
 11
113.6335018061
 21
140.9535998971
 31
0.0
 11
113.3810843945
 21
140.9089707528
 31
0.0
 11
113.1161751178
 21
140.878551812
 31
0.0
 11
112.8436647407
 21
140.8631346642
 31
0.0
 11
112.5683660116
 21
140.8631346722
 31
0.0
 11
112.295857457
 21
140.8785516804
 31
0.0
 11
112.0309532576
 21
140.9089697916
 31
0.0
 11
111.778533033
 21
140.9535990978
 31
0.0
 11
111.5438551815
 21
141.0111424297
 31
0.0
 11
111.3310155173
 21
141.0801415199
 31
0.0
  0
SPLINE
  5
30E
100
AcDbEntity
  8
0
100
AcDbSpline
 62
7
  6
CONTINUOUS
 70
0
 71
3
 72
20
 73
16
 74
14
 42
0.0000001
 43
0.0000001
 44
0.0000000001
 12
3.8073215887
 22
2.493227788
 32
0.0
 13
3.8808182574
 23
2.3548649076
 33
0.0
 40
0.0
 40
0.0
 40
0.0
 40
0.0
 40
0.0109587419
 40
0.054988049
 40
0.1136940649
 40
0.1860909945
 40
0.2684802579
 40
0.35803911
 40
0.4532170327
 40
0.5536869152
 40
0.6597176129
 40
0.7676081288
 40
0.8691893126
 40
0.9596679474
 40
1.0
 40
1.0
 40
1.0
 40
1.0
 10
152.1095655796
 20
94.4278336144
 30
0.0
 10
152.1234733978
 20
94.436941161
 30
0.0
 10
152.1940748876
 20
94.481532197
 30
0.0
 10
152.3459152731
 20
94.562150092
 30
0.0
 10
152.5846639304
 20
94.6773273553
 30
0.0
 10
152.8797338307
 20
94.8087033889
 30
0.0
 10
153.2198573191
 20
94.9535474794
 30
0.0
 10
153.5929273606
 20
95.1089201708
 30
0.0
 10
153.9915311946
 20
95.2741331668
 30
0.0
 10
154.4125726481
 20
95.4502934386
 30
0.0
 10
154.8497133338
 20
95.6377791799
 30
0.0
 10
155.2853068841
 20
95.8330334089
 30
0.0
 10
155.6944987398
 20
96.0293967262
 30
0.0
 10
156.0054493996
 20
96.1937281741
 30
0.0
 10
156.1764594591
 20
96.2934628221
 30
0.0
 10
156.2286332479
 20
96.3251216673
 30
0.0
 11
152.1095655796
 21
94.4278336144
 31
0.0
 11
152.1517268249
 21
94.4544921082
 31
0.0
 11
152.326837541
 21
94.5507729171
 31
0.0
 11
152.5664956893
 21
94.6672116485
 31
0.0
 11
152.8662575129
 21
94.8017897799
 31
0.0
 11
153.2100600332
 21
94.9488577035
 31
0.0
 11
153.5851226996
 21
95.1055489228
 31
0.0
 11
153.9840456335
 21
95.2712833934
 31
0.0
 11
154.4045561277
 21
95.447653006
 31
0.0
 11
154.8466122748
 21
95.6378537204
 31
0.0
 11
155.2931044178
 21
95.8389266329
 31
0.0
 11
155.7082396432
 21
96.0394845107
 31
0.0
 11
156.0706243056
 21
96.2326494104
 31
0.0
 11
156.2286332479
 21
96.3251216673
 31
0.0
  0
SPLINE
  5
30F
100
AcDbEntity
  8
0
100
AcDbSpline
 62
7
  6
CONTINUOUS
 70
0
 71
3
 72
13
 73
9
 74
7
 42
0.0000001
 43
0.0000001
 44
0.0000000001
 12
-1.1702563423
 22
0.7087382389
 32
0.0
 13
-1.3030236727
 23
0.2888967291
 33
0.0
 40
0.0
 40
0.0
 40
0.0
 40
0.0
 40
0.0855966262
 40
0.2188530726
 40
0.3996010873
 40
0.6310962757
 40
0.9112610927
 40
1.0
 40
1.0
 40
1.0
 40
1.0
 10
156.8913781769
 20
135.2973358965
 30
0.0
 10
156.8579881787
 20
135.3175577638
 30
0.0
 10
156.7731574929
 20
135.361886076
 30
0.0
 10
156.6048072601
 20
135.4234423653
 30
0.0
 10
156.3735641927
 20
135.4954079732
 30
0.0
 10
156.0756545058
 20
135.5748939116
 30
0.0
 10
155.8158622512
 20
135.6368383832
 30
0.0
 10
155.6557389483
 20
135.6728242883
 30
0.0
 10
155.6171959827
 20
135.6813697483
 30
0.0
 11
156.8913781769
 21
135.2973358965
 31
0.0
 11
156.7905035698
 21
135.350608843
 31
0.0
 11
156.6246673833
 21
135.4148757441
 31
0.0
 11
156.3945739328
 21
135.4873555924
 31
0.0
 11
156.0963383201
 21
135.5680893243
 31
0.0
 11
155.7327446356
 21
135.655391593
 31
0.0
 11
155.6171959827
 21
135.6813697483
 31
0.0
  0
SPLINE
  5
310
100
AcDbEntity
  8
0
100
AcDbSpline
 62
7
  6
CONTINUOUS
 70
0
 71
3
 72
10
 73
6
 74
4
 42
0.0000001
 43
0.0000001
 44
0.0000000001
 12
-1.068851452
 22
0.2323563113
 32
0.0
 13
-1.0769972109
 23
0.1908910843
 33
0.0
 40
0.0
 40
0.0
 40
0.0
 40
0.0
 40
0.1959899496
 40
0.5997294008
 40
1.0
 40
1.0
 40
1.0
 40
1.0
 10
155.5317394406
 20
135.700129711
 30
0.0
 10
155.4619113931
 20
135.715309545
 30
0.0
 10
155.2480035248
 20
135.7607164899
 30
0.0
 10
154.8904299033
 20
135.8319557377
 30
0.0
 10
154.6021366763
 20
135.8850993907
 30
0.0
 10
154.4584399033
 20
135.9105687536
 30
0.0
 11
155.5317394406
 21
135.700129711
 31
0.0
 11
155.3220447434
 21
135.744700779
 31
0.0
 11
154.8889876925
 21
135.8311605656
 31
0.0
 11
154.4584399033
 21
135.9105687536
 31
0.0
  0
SPLINE
  5
311
100
AcDbEntity
  8
0
100
AcDbSpline
 62
7
  6
CONTINUOUS
 70
0
 71
3
 72
19
 73
15
 74
13
 42
0.0000001
 43
0.0000001
 44
0.0000000001
 12
-3.6939144262
 22
-0.8532905022
 32
0.0
 13
-3.7250405736
 23
-0.8072657092
 33
0.0
 40
0.0
 40
0.0
 40
0.0
 40
0.0
 40
0.031805462
 40
0.0890036329
 40
0.1613469046
 40
0.2460909994
 40
0.3399806186
 40
0.4413404652
 40
0.5491116347
 40
0.6629522663
 40
0.7809280201
 40
0.8953004505
 40
0.9982441978
 40
1.0
 40
1.0
 40
1.0
 40
1.0
 10
157.9242351149
 20
134.9068452573
 30
0.0
 10
157.8850728966
 20
134.8977988244
 30
0.0
 10
157.7725747074
 20
134.8770959271
 30
0.0
 10
157.5701941445
 20
134.8500377933
 30
0.0
 10
157.2989504888
 20
134.8233294973
 30
0.0
 10
156.9812292051
 20
134.7984539342
 30
0.0
 10
156.6263882045
 20
134.7738635878
 30
0.0
 10
156.2423817678
 20
134.7477356452
 30
0.0
 10
155.8332140433
 20
134.7178949722
 30
0.0
 10
155.4033656848
 20
134.6817209274
 30
0.0
 10
154.9659257592
 20
134.6364148486
 30
0.0
 10
154.543702478
 20
134.5798699255
 30
0.0
 10
154.2697042598
 20
134.530543507
 30
0.0
 10
154.1396849036
 20
134.5024468751
 30
0.0
 10
154.1375047588
 20
134.5019744088
 30
0.0
 11
157.9242351149
 21
134.9068452573
 31
0.0
 11
157.8047801251
 21
134.8837401555
 31
0.0
 11
157.5889008722
 21
134.8536652219
 31
0.0
 11
157.3146430737
 21
134.8257254797
 31
0.0
 11
156.992751371
 21
134.7998142901
 31
0.0
 11
156.6358579242
 21
134.7745918836
 31
0.0
 11
156.2505251281
 21
134.747985395
 31
0.0
 11
155.8409604222
 21
134.7177152373
 31
0.0
 11
155.4087233244
 21
134.6808002666
 31
0.0
 11
154.9616312475
 21
134.6336805834
 31
0.0
 11
154.5298252262
 21
134.5745405883
 31
0.0
 11
154.1440459915
 21
134.5033879594
 31
0.0
 11
154.1375047588
 21
134.5019744088
 31
0.0
  0
SPLINE
  5
312
100
AcDbEntity
  8
BEZUGSACHSEN
100
AcDbSpline
 62
7
  6
CONTINUOUS
 70
0
 71
3
 72
11
 73
7
 74
5
 42
0.0000001
 43
0.0000001
 44
0.0000000001
 12
0.0
 22
-0.4680658555
 32
0.0
 13
-0.1674374283
 23
-0.437093071
 33
0.0
 40
0.0
 40
0.0
 40
0.0
 40
0.0
 40
0.1445461367
 40
0.3576974325
 40
0.6432572252
 40
1.0
 40
1.0
 40
1.0
 40
1.0
 10
114.7060155173
 20
142.5415943755
 30
0.0
 10
114.7060155173
 20
142.5190420051
 30
0.0
 10
114.698916902
 20
142.4633635166
 30
0.0
 10
114.67546715
 20
142.3657472233
 30
0.0
 10
114.6353718991
 20
142.2383352268
 30
0.0
 10
114.6009262149
 20
142.1442090072
 30
0.0
 10
114.5810155173
 20
142.0922324089
 30
0.0
 11
114.7060155173
 21
142.5415943755
 31
0.0
 11
114.6993082153
 21
142.4742705552
 31
0.0
 11
114.6771579146
 21
142.3769916451
 31
0.0
 11
114.6378502484
 21
142.2492414444
 31
0.0
 11
114.5810155173
 21
142.0922324089
 31
0.0
  0
SPLINE
  5
313
100
AcDbEntity
  8
BEZUGSACHSEN
100
AcDbSpline
 62
7
  6
CONTINUOUS
 70
0
 71
3
 72
12
 73
8
 74
6
 42
0.0000001
 43
0.0000001
 44
0.0000000001
 12
-0.1674556245
 22
0.4371405719
 32
0.0
 13
0.0
 23
0.4681167224
 33
0.0
 40
0.0
 40
0.0
 40
0.0
 40
0.0
 40
0.2995620764
 40
0.5419687552
 40
0.7353081792
 40
0.886011903
 40
1.0
 40
1.0
 40
1.0
 40
1.0
 10
110.8310155173
 20
142.0922324089
 30
0.0
 10
110.8142943991
 20
142.1358826547
 30
0.0
 10
110.7850441983
 20
142.2152506025
 30
0.0
 10
110.7492335263
 20
142.3242810445
 30
0.0
 10
110.7247829455
 20
142.4125260575
 30
0.0
 10
110.7103136723
 20
142.4825522314
 30
0.0
 10
110.7060155173
 20
142.5238077974
 30
0.0
 10
110.7060155173
 20
142.5415943755
 30
0.0
 11
110.8310155173
 21
142.0922324089
 31
0.0
 11
110.7828318785
 21
142.2239244539
 31
0.0
 11
110.7477890535
 21
142.3318526235
 31
0.0
 11
110.7241029753
 21
142.4192036412
 31
0.0
 11
110.7104710666
 21
142.4884209862
 31
0.0
 11
110.7060155173
 21
142.5415943755
 31
0.0
  0
SPLINE
  5
314
100
AcDbEntity
  8
BEZUGSACHSEN
100
AcDbSpline
 62
7
  6
CONTINUOUS
 70
0
 71
3
 72
19
 73
15
 74
13
 42
0.0000001
 43
0.0000001
 44
0.0000000001
 12
0.0
 22
-0.9530644332
 32
0.0
 13
-0.8939002421
 23
-0.3305664397
 33
0.0
 40
0.0
 40
0.0
 40
0.0
 40
0.0
 40
0.0479048512
 40
0.1038186277
 40
0.1656371908
 40
0.2321998811
 40
0.3035488221
 40
0.3800991219
 40
0.4626240486
 40
0.5522943159
 40
0.6500533187
 40
0.7587572076
 40
0.8782694549
 40
1.0
 40
1.0
 40
1.0
 40
1.0
 10
114.5810155173
 20
141.8360016199
 30
0.0
 10
114.5810155173
 20
141.8207828166
 30
0.0
 10
114.5793274803
 20
141.7877912512
 30
0.0
 10
114.5722213297
 20
141.7355998372
 30
0.0
 10
114.5599687653
 20
141.6782950911
 30
0.0
 10
114.5424233529
 20
141.6172673646
 30
0.0
 10
114.5192344418
 20
141.55314837
 30
0.0
 10
114.489665814
 20
141.4861172833
 30
0.0
 10
114.4525423564
 20
141.4162695885
 30
0.0
 10
114.4062099685
 20
141.3439725071
 30
0.0
 10
114.3481277576
 20
141.2697606255
 30
0.0
 10
114.2752361521
 20
141.195797808
 30
0.0
 10
114.1863035487
 20
141.1283375157
 30
0.0
 10
114.1172871719
 20
141.0935548642
 30
0.0
 10
114.0810155173
 20
141.0801415199
 30
0.0
 11
114.5810155173
 21
141.8360016199
 31
0.0
 11
114.5788687798
 21
141.7903957071
 31
0.0
 11
114.5718484554
 21
141.7375707265
 31
0.0
 11
114.5596482825
 21
141.6799306591
 31
0.0
 11
114.5421922683
 21
141.6189410289
 31
0.0
 11
114.5191016799
 21
141.5549813267
 31
0.0
 11
114.4896618462
 21
141.4882274973
 31
0.0
 11
114.4527233027
 21
141.4187896555
 31
0.0
 11
114.406546977
 21
141.3468770544
 31
0.0
 11
114.3490026436
 21
141.2736007574
 31
0.0
 11
114.2760727117
 21
141.2000170626
 31
0.0
 11
114.1849753447
 21
141.1316421107
 31
0.0
 11
114.0810155173
 21
141.0801415199
 31
0.0
  0
SPLINE
  5
315
100
AcDbEntity
  8
0
100
AcDbSpline
 62
7
  6
CONTINUOUS
 70
0
 71
3
 72
82
 73
78
 74
76
 42
0.0000001
 43
0.0000001
 44
0.0000000001
 12
23.4133271203
 22
14.207112714
 32
0.0
 13
21.0795151014
 23
17.4767836718
 33
0.0
 40
0.0
 40
0.0
 40
0.0
 40
0.0
 40
0.0063322973
 40
0.0172364569
 40
0.0258964993
 40
0.0326303985
 40
0.0380087226
 40
0.0428139829
 40
0.0479387352
 40
0.0541632542
 40
0.0620122117
 40
0.0715173826
 40
0.0824987717
 40
0.0947817515
 40
0.1081379166
 40
0.1225141147
 40
0.1378694901
 40
0.1538555769
 40
0.1698744607
 40
0.1853050884
 40
0.1995391949
 40
0.2123669694
 40
0.2239473514
 40
0.2344675671
 40
0.2439642308
 40
0.252598357
 40
0.2605008188
 40
0.2678319705
 40
0.2759493327
 40
0.2854654144
 40
0.2963510255
 40
0.3086983898
 40
0.322388722
 40
0.3373970704
 40
0.3537502623
 40
0.3714446105
 40
0.3903356929
 40
0.4100778869
 40
0.4297340084
 40
0.4483596897
 40
0.4657486919
 40
0.481908894
 40
0.496873731
 40
0.5106817999
 40
0.5233181262
 40
0.5345865234
 40
0.5447252794
 40
0.5542482073
 40
0.5637709222
 40
0.5740594735
 40
0.5856391279
 40
0.5990225827
 40
0.6144951387
 40
0.6318983681
 40
0.650353078
 40
0.6690894655
 40
0.6878833834
 40
0.7066096986
 40
0.7251599036
 40
0.7434152274
 40
0.7611398654
 40
0.77805956
 40
0.7936680393
 40
0.8074588017
 40
0.8196311634
 40
0.8307641332
 40
0.8415912495
 40
0.8524681048
 40
0.8636959952
 40
0.8757260532
 40
0.8889148409
 40
0.9034693906
 40
0.9193738471
 40
0.9367434015
 40
0.9559215243
 40
0.9769830271
 40
1.0
 40
1.0
 40
1.0
 40
1.0
 10
156.2286332479
 20
96.3251216673
 30
0.0
 10
156.2780532975
 20
96.3551095546
 30
0.0
 10
156.4112244343
 20
96.4389545445
 30
0.0
 10
156.6041711503
 20
96.5760836052
 30
0.0
 10
156.7825954868
 20
96.7379030703
 30
0.0
 10
156.898887482
 20
96.8894342834
 30
0.0
 10
156.9587908273
 20
97.0345222633
 30
0.0
 10
156.9614561001
 20
97.1781202534
 30
0.0
 10
156.9018088798
 20
97.3169519481
 30
0.0
 10
156.7841076667
 20
97.4492326054
 30
0.0
 10
156.6111158998
 20
97.5787093127
 30
0.0
 10
156.3853619443
 20
97.7058490098
 30
0.0
 10
156.1130728668
 20
97.8301393594
 30
0.0
 10
155.8020220862
 20
97.9527304107
 30
0.0
 10
155.4582358096
 20
98.0761378397
 30
0.0
 10
155.0859312683
 20
98.2028758346
 30
0.0
 10
154.6901988519
 20
98.3352381821
 30
0.0
 10
154.2810805414
 20
98.474854415
 30
0.0
 10
153.8738504262
 20
98.6220119017
 30
0.0
 10
153.4861747447
 20
98.7758236524
 30
0.0
 10
153.1324684527
 20
98.9353805686
 30
0.0
 10
152.8202277638
 20
99.1000245678
 30
0.0
 10
152.5509184913
 20
99.2715123837
 30
0.0
 10
152.3260146115
 20
99.4534020665
 30
0.0
 10
152.1497292387
 20
99.6483844807
 30
0.0
 10
152.0273530464
 20
99.8543268971
 30
0.0
 10
151.9629011034
 20
100.0648093824
 30
0.0
 10
151.952451533
 20
100.2796968323
 30
0.0
 10
151.9950872189
 20
100.5054020272
 30
0.0
 10
152.0935971388
 20
100.747829494
 30
0.0
 10
152.248441237
 20
101.004583752
 30
0.0
 10
152.4559718506
 20
101.2708734068
 30
0.0
 10
152.7117281286
 20
101.545094214
 30
0.0
 10
153.0102417637
 20
101.8281566384
 30
0.0
 10
153.3484188608
 20
102.1217689555
 30
0.0
 10
153.7228847171
 20
102.4272139855
 30
0.0
 10
154.1275714501
 20
102.7443370352
 30
0.0
 10
154.5486894747
 20
103.069472386
 30
0.0
 10
154.9663586152
 20
103.3951208693
 30
0.0
 10
155.3616077201
 20
103.7145229036
 30
0.0
 10
155.7232506026
 20
104.0245114377
 30
0.0
 10
156.0471326183
 20
104.3267262939
 30
0.0
 10
156.3301604399
 20
104.624001991
 30
0.0
 10
156.5672636817
 20
104.9190848995
 30
0.0
 10
156.752436893
 20
105.2103258262
 30
0.0
 10
156.8811000332
 20
105.4945570875
 30
0.0
 10
156.9517110298
 20
105.7696531133
 30
0.0
 10
156.9649467427
 20
106.0375495036
 30
0.0
 10
156.9241879543
 20
106.3038860035
 30
0.0
 10
156.8276069063
 20
106.5752893126
 30
0.0
 10
156.669238898
 20
106.8569211511
 30
0.0
 10
156.4428821049
 20
107.1497052651
 30
0.0
 10
156.1493768543
 20
107.4540435652
 30
0.0
 10
155.798704432
 20
107.7652310082
 30
0.0
 10
155.4089734893
 20
108.0759568473
 30
0.0
 10
154.9998703974
 20
108.3821996393
 30
0.0
 10
154.5851453136
 20
108.6849526285
 30
0.0
 10
154.172521804
 20
108.9877109297
 30
0.0
 10
153.7687140641
 20
109.2941246676
 30
0.0
 10
153.3813062858
 20
109.6067751671
 30
0.0
 10
153.0197211073
 20
109.9271221403
 30
0.0
 10
152.6973202229
 20
110.254059648
 30
0.0
 10
152.4289206309
 20
110.5816746985
 30
0.0
 10
152.2223799483
 20
110.9010960634
 30
0.0
 10
152.0771045107
 20
111.2081879122
 30
0.0
 10
151.9877977593
 20
111.5080585907
 30
0.0
 10
151.9516023239
 20
111.807057869
 30
0.0
 10
151.9666095965
 20
112.1086750483
 30
0.0
 10
152.033017434
 20
112.4144132962
 30
0.0
 10
152.1526767885
 20
112.7260560039
 30
0.0
 10
152.3275856565
 20
113.0451868101
 30
0.0
 10
152.5559723681
 20
113.3723577022
 30
0.0
 10
152.8361241584
 20
113.7077176646
 30
0.0
 10
153.1677736254
 20
114.0533945637
 30
0.0
 10
153.5517813775
 20
114.4128571432
 30
0.0
 10
153.9875270904
 20
114.791757378
 30
0.0
 10
154.2967110271
 20
115.0492003747
 30
0.0
 10
154.4584399033
 20
115.1832879269
 30
0.0
 11
156.2286332479
 21
96.3251216673
 31
0.0
 11
156.3752608446
 21
96.417717553
 31
0.0
 11
156.6168437628
 21
96.5931812924
 31
0.0
 11
156.7898845355
 21
96.7553168448
 31
0.0
 11
156.8987737113
 21
96.9041200642
 31
0.0
 11
156.9512566135
 21
97.0417211994
 31
0.0
 11
156.952409839
 21
97.1732946602
 31
0.0
 11
156.9002265528
 21
97.3035580263
 31
0.0
 11
156.7907467945
 21
97.4341883752
 31
0.0
 11
156.6210294097
 21
97.5660492789
 31
0.0
 11
156.3956147883
 21
97.6961643532
 31
0.0
 11
156.1229307878
 21
97.8228946085
 31
0.0
 11
155.8105640391
 21
97.9475866691
 31
0.0
 11
155.4666824636
 21
98.0720747276
 31
0.0
 11
155.0942849588
 21
98.1996746687
 31
0.0
 11
154.6957906499
 21
98.333808939
 31
0.0
 11
154.2817911208
 21
98.4759898107
 31
0.0
 11
153.8696064921
 21
98.6259960271
 31
0.0
 11
153.4773222884
 21
98.7829669075
 31
0.0
 11
153.1225865866
 21
98.9444480014
 31
0.0
 11
152.8126426198
 21
99.1097145469
 31
0.0
 11
152.5463395283
 21
99.28185583
 31
0.0
 11
152.3240645796
 21
99.465093756
 31
0.0
 11
152.1516451779
 21
99.659752504
 31
0.0
 11
152.0329315483
 21
99.864208043
 31
0.0
 11
151.9705938336
 21
100.071420961
 31
0.0
 11
151.9603018692
 21
100.2718998889
 31
0.0
 11
151.9992240111
 21
100.4907366015
 31
0.0
 11
152.0945214628
 21
100.7332560565
 31
0.0
 11
152.2460812624
 21
100.9899200796
 31
0.0
 11
152.4519974853
 21
101.2580779074
 31
0.0
 11
152.7060955342
 21
101.5336910051
 31
0.0
 11
153.0032536433
 21
101.8175682289
 31
0.0
 11
153.3405861457
 21
102.1120494054
 31
0.0
 11
153.715368838
 21
102.4191125094
 31
0.0
 11
154.1218269673
 21
102.7390647331
 31
0.0
 11
154.5490502111
 21
103.0702923755
 31
0.0
 11
154.9727822429
 21
103.4021658703
 31
0.0
 11
155.368765742
 21
103.7235832163
 31
0.0
 11
155.7294667386
 21
104.0344087345
 31
0.0
 11
156.0519482622
 21
104.3374158908
 31
0.0
 11
156.3329868541
 21
104.6356250117
 31
0.0
 11
156.5680912895
 21
104.9317361115
 31
0.0
 11
156.7516007053
 21
105.2250743935
 31
0.0
 11
156.8764931403
 21
105.5072215636
 31
0.0
 11
156.9435525119
 21
105.7766220255
 31
0.0
 11
156.9561714415
 21
106.0370750632
 31
0.0
 11
156.9175289808
 21
106.2949485583
 31
0.0
 11
156.8247261115
 21
106.5609475632
 31
0.0
 11
156.6714045779
 21
106.8384900495
 31
0.0
 11
156.449940937
 21
107.1304708701
 31
0.0
 11
156.1580812325
 21
107.4375802601
 31
0.0
 11
155.8032946222
 21
107.7557237998
 31
0.0
 11
155.4094394586
 21
108.0723256935
 31
0.0
 11
154.9996860219
 21
108.381057661
 31
0.0
 11
154.5847693448
 21
108.6854855584
 31
0.0
 11
154.1720478012
 21
108.9897737706
 31
0.0
 11
153.7681327894
 21
109.2977687166
 31
0.0
 11
153.3800291224
 21
109.6128023198
 31
0.0
 11
153.0180252293
 21
109.9360783508
 31
0.0
 11
152.6943731921
 21
110.2675818216
 31
0.0
 11
152.4252349294
 21
110.5995914979
 31
0.0
 11
152.2220462164
 21
110.9178871107
 31
0.0
 11
152.0812971477
 21
111.2200170117
 31
0.0
 11
151.9955436582
 21
111.512552173
 31
0.0
 11
151.960072062
 21
111.8068925743
 31
0.0
 11
151.9744228707
 21
112.1043786683
 31
0.0
 11
152.0387074564
 21
112.405026959
 31
0.0
 11
152.1552682917
 21
112.7131243812
 31
0.0
 11
152.326813887
 21
113.0309177346
 31
0.0
 11
152.5532551907
 21
113.3588731457
 31
0.0
 11
152.8310810966
 21
113.694241469
 31
0.0
 11
153.1591683914
 21
114.0385808381
 31
0.0
 11
153.5412637318
 21
114.3988223863
 31
0.0
 11
153.9753233092
 21
114.778541505
 31
0.0
 11
154.4584399033
 21
115.1832879269
 31
0.0
  0
SPLINE
  5
316
100
AcDbEntity
  8
0
100
AcDbSpline
 62
7
  6
CONTINUOUS
 70
0
 71
3
 72
18
 73
14
 74
12
 42
0.0000001
 43
0.0000001
 44
0.0000000001
 12
0.0
 22
-1.7642310143
 32
0.0
 13
-1.7642310143
 23
0.0
 33
0.0
 40
0.0
 40
0.0
 40
0.0
 40
0.0
 40
0.0962938316
 40
0.1935830579
 40
0.2901642927
 40
0.3844575256
 40
0.4765796276
 40
0.5665887284
 40
0.6541294548
 40
0.7396658227
 40
0.8259929911
 40
0.9131223294
 40
1.0
 40
1.0
 40
1.0
 40
1.0
 10
120.6310155173
 20
90.5895768406
 30
0.0
 10
120.6310155173
 20
90.5329486525
 30
0.0
 10
120.6248380967
 20
90.4190082823
 30
0.0
 10
120.5967488502
 20
90.2503438499
 30
0.0
 10
120.5497829155
 20
90.0871077794
 30
0.0
 10
120.4848282656
 20
89.9334342682
 30
0.0
 10
120.403089855
 20
89.7923997192
 30
0.0
 10
120.3057955896
 20
89.6665352904
 30
0.0
 10
120.1944699096
 20
89.5583044438
 30
0.0
 10
120.0698649453
 20
89.4692437989
 30
0.0
 10
119.9325631244
 20
89.401615836
 30
0.0
 10
119.784692371
 20
89.3589217992
 30
0.0
 10
119.6821062776
 20
89.34918982
 30
0.0
 10
119.6310155173
 20
89.34918982
 30
0.0
 11
120.6310155173
 21
90.5895768406
 31
0.0
 11
120.6217614962
 21
90.419944508
 31
0.0
 11
120.5934493102
 21
90.2506549932
 31
0.0
 11
120.5461581858
 21
90.086957558
 31
0.0
 11
120.4811737012
 21
89.9338203057
 31
0.0
 11
120.3994322123
 21
89.7933475426
 31
0.0
 11
120.3020592857
 21
89.6679085063
 31
0.0
 11
120.1910892062
 21
89.5604934573
 31
0.0
 11
120.0681253066
 21
89.4730150371
 31
0.0
 11
119.9313615037
 21
89.4059980427
 31
0.0
 11
119.7836093385
 21
89.3635952991
 31
0.0
 11
119.6310155173
 21
89.34918982
 31
0.0
  0
SPLINE
  5
317
100
AcDbEntity
  8
0
100
AcDbSpline
 62
7
  6
CONTINUOUS
 70
0
 71
3
 72
96
 73
92
 74
90
 42
0.0000001
 43
0.0000001
 44
0.0000000001
 12
-24.7854037612
 22
-20.3447788025
 32
0.0
 13
31.3749671418
 23
-14.5046670803
 33
0.0
 40
0.0
 40
0.0
 40
0.0
 40
0.0
 40
0.0195676494
 40
0.0374636858
 40
0.0537527886
 40
0.0685007933
 40
0.0820025283
 40
0.0943565195
 40
0.1055455821
 40
0.1157449868
 40
0.1252593901
 40
0.1344778038
 40
0.1436654303
 40
0.1531311166
 40
0.1634751415
 40
0.1751425578
 40
0.1882810886
 40
0.2024806537
 40
0.2173624463
 40
0.2328294707
 40
0.2487784222
 40
0.2650451801
 40
0.2814459006
 40
0.2977822452
 40
0.3137615056
 40
0.3286362106
 40
0.3416553516
 40
0.3528122725
 40
0.3624855895
 40
0.3711238809
 40
0.379172349
 40
0.3872773438
 40
0.395942461
 40
0.4056050323
 40
0.416450764
 40
0.4283377706
 40
0.4412211265
 40
0.4549782233
 40
0.4695292376
 40
0.4848235149
 40
0.5008097327
 40
0.5174063119
 40
0.534436781
 40
0.551367981
 40
0.5675206542
 40
0.5819541939
 40
0.5940845862
 40
0.604142503
 40
0.6126525855
 40
0.6198379875
 40
0.6260776317
 40
0.6326022229
 40
0.6397584636
 40
0.6476222121
 40
0.6563492837
 40
0.6659057502
 40
0.6763800894
 40
0.6878759948
 40
0.7004481111
 40
0.7139953526
 40
0.7281754081
 40
0.7421418652
 40
0.7551656827
 40
0.7670787961
 40
0.7778308895
 40
0.7873730074
 40
0.7956747308
 40
0.8026095884
 40
0.8081184207
 40
0.8125804547
 40
0.8166432491
 40
0.8210717604
 40
0.8265743289
 40
0.833668204
 40
0.8426599702
 40
0.8534121386
 40
0.8658645841
 40
0.8802911122
 40
0.8962109519
 40
0.912055156
 40
0.9269317287
 40
0.9407689894
 40
0.9535730647
 40
0.9652831341
 40
0.9755342958
 40
0.9837620335
 40
0.9898529801
 40
0.9940595721
 40
0.9967220097
 40
0.9982747173
 40
1.0
 40
1.0
 40
1.0
 40
1.0
 10
155.6222941752
 20
115.183287927
 30
0.0
 10
155.4606301452
 20
115.0505880944
 30
0.0
 10
155.1516443863
 20
114.7958607915
 30
0.0
 10
154.7161822061
 20
114.4209479445
 30
0.0
 10
154.3324401577
 20
114.0652990273
 30
0.0
 10
154.0009237827
 20
113.7232351045
 30
0.0
 10
153.7207251284
 20
113.3912480026
 30
0.0
 10
153.4921321625
 20
113.0671932558
 30
0.0
 10
153.316931602
 20
112.7509208339
 30
0.0
 10
153.1969938014
 20
112.4418973135
 30
0.0
 10
153.1304166125
 20
112.138547544
 30
0.0
 10
153.1154370067
 20
111.8390571534
 30
0.0
 10
153.1520001911
 20
111.5418901648
 30
0.0
 10
153.2420994414
 20
111.2438983634
 30
0.0
 10
153.3881604763
 20
110.9395454897
 30
0.0
 10
153.5945315178
 20
110.6244837225
 30
0.0
 10
153.8609448
 20
110.3028462002
 30
0.0
 10
154.1796122093
 20
109.9826545082
 30
0.0
 10
154.5374987677
 20
109.6682111181
 30
0.0
 10
154.923985803
 20
109.3589741825
 30
0.0
 10
155.3314652311
 20
109.0527667962
 30
0.0
 10
155.7520067477
 20
108.7475118509
 30
0.0
 10
156.176642502
 20
108.4408634751
 30
0.0
 10
156.5949053905
 20
108.1306467293
 30
0.0
 10
156.990239457
 20
107.8171427524
 30
0.0
 10
157.3412718795
 20
107.5056674676
 30
0.0
 10
157.6305018186
 20
107.2038548906
 30
0.0
 10
157.8504111338
 20
106.9152457296
 30
0.0
 10
158.002682834
 20
106.6379538293
 30
0.0
 10
158.0941131263
 20
106.369765334
 30
0.0
 10
158.129957799
 20
106.1054501583
 30
0.0
 10
158.1112545495
 20
105.8389427543
 30
0.0
 10
158.0346861931
 20
105.5652337547
 30
0.0
 10
157.9000649561
 20
105.2826020906
 30
0.0
 10
157.7088640763
 20
104.9928660905
 30
0.0
 10
157.4657055799
 20
104.6992307857
 30
0.0
 10
157.1779119848
 20
104.4042395015
 30
0.0
 10
156.8529690402
 20
104.1069194011
 30
0.0
 10
156.4967881859
 20
103.8062258464
 30
0.0
 10
156.1140251103
 20
103.5004364862
 30
0.0
 10
155.7091010107
 20
103.1875084094
 30
0.0
 10
155.2880144171
 20
102.865172373
 30
0.0
 10
154.8612589981
 20
102.5336179051
 30
0.0
 10
154.4454916082
 20
102.1957671036
 30
0.0
 10
154.0635795734
 20
101.8606731169
 30
0.0
 10
153.7381420574
 20
101.5398908792
 30
0.0
 10
153.4834064554
 20
101.2418095155
 30
0.0
 10
153.3002939508
 20
100.96840303
 30
0.0
 10
153.1822346209
 20
100.7183186863
 30
0.0
 10
153.1233781442
 20
100.4895674248
 30
0.0
 10
153.1181715695
 20
100.2744557499
 30
0.0
 10
153.1662741503
 20
100.0646808191
 30
0.0
 10
153.2723625354
 20
99.857888276
 30
0.0
 10
153.4345413052
 20
99.6606414272
 30
0.0
 10
153.6464831544
 20
99.4769550266
 30
0.0
 10
153.9024346736
 20
99.3057576681
 30
0.0
 10
154.198192787
 20
99.1436173882
 30
0.0
 10
154.5330346031
 20
98.9875937987
 30
0.0
 10
154.9055179589
 20
98.835935535
 30
0.0
 10
155.3100233421
 20
98.6877201963
 30
0.0
 10
155.7318055485
 20
98.5437772612
 30
0.0
 10
156.149681195
 20
98.4058348343
 30
0.0
 10
156.5442133269
 20
98.2744676639
 30
0.0
 10
156.9043949483
 20
98.1487439414
 30
0.0
 10
157.2261477646
 20
98.0261259409
 30
0.0
 10
157.5063668486
 20
97.9035869005
 30
0.0
 10
157.7403245204
 20
97.7786109354
 30
0.0
 10
157.9226769423
 20
97.6510565358
 30
0.0
 10
158.0500082345
 20
97.5206428329
 30
0.0
 10
158.1199723041
 20
97.3840250538
 30
0.0
 10
158.1270781323
 20
97.241678444
 30
0.0
 10
158.0757748724
 20
97.0981719173
 30
0.0
 10
157.968529195
 20
96.9492614241
 30
0.0
 10
157.799982298
 20
96.7903289877
 30
0.0
 10
157.5676598037
 20
96.6212456936
 30
0.0
 10
157.2735987231
 20
96.4420052966
 30
0.0
 10
156.9187373612
 20
96.2523190295
 30
0.0
 10
156.5067159816
 20
96.0533425013
 30
0.0
 10
156.0561670009
 20
95.8513480238
 30
0.0
 10
155.5977184044
 20
95.6554758664
 30
0.0
 10
155.1579819962
 20
95.4725453198
 30
0.0
 10
154.7476734993
 20
95.3034951598
 30
0.0
 10
154.3689463236
 20
95.1466245849
 30
0.0
 10
154.0268413329
 20
95.001561202
 30
0.0
 10
153.7318607307
 20
94.8706057982
 30
0.0
 10
153.4953837103
 20
94.7564355582
 30
0.0
 10
153.3203091026
 20
94.6633888067
 30
0.0
 10
153.2057335258
 20
94.5850956914
 30
0.0
 10
153.1357282286
 20
94.5283904594
 30
0.0
 10
153.115438286
 20
94.4568774758
 30
0.0
 10
153.1501520988
 20
94.4351017092
 30
0.0
 10
153.1681956612
 20
94.4267601589
 30
0.0
 11
155.6222941752
 21
115.183287927
 31
0.0
 11
155.1393538977
 21
114.7827018238
 31
0.0
 11
154.7055908833
 21
114.4069921751
 31
0.0
 11
154.3237644496
 21
114.0505754833
 31
0.0
 11
153.9958242803
 21
113.7098436213
 31
0.0
 11
153.7179523082
 21
113.3778352245
 31
0.0
 11
153.4912865282
 21
113.0529480996
 31
0.0
 11
153.3194677858
 21
112.737976303
 31
0.0
 11
153.2026726202
 21
112.432488065
 31
0.0
 11
153.1382628546
 21
112.1342760556
 31
0.0
 11
153.123954158
 21
111.8390252193
 31
0.0
 11
153.1597598371
 21
111.5465990167
 31
0.0
 11
153.2463043808
 21
111.2556723771
 31
0.0
 11
153.3880032617
 21
110.9557716315
 31
0.0
 11
153.59115704
 21
110.6416067924
 31
0.0
 11
153.8582292967
 21
110.3157757812
 31
0.0
 11
154.1778314468
 21
109.9914714331
 31
0.0
 11
154.5350900193
 21
109.6751088739
 31
0.0
 11
154.9214688503
 21
109.3641542477
 31
0.0
 11
155.3295749128
 21
109.0559361698
 31
0.0
 11
155.7509707945
 21
108.7485247124
 31
0.0
 11
156.1765456725
 21
108.4395553651
 31
0.0
 11
156.596251462
 21
108.126097038
 31
0.0
 11
156.9963782018
 21
107.8060305497
 31
0.0
 11
157.3514021886
 21
107.4875025716
 31
0.0
 11
157.6379157104
 21
107.1838706742
 31
0.0
 11
157.852105247
 21
106.8973165879
 31
0.0
 11
157.999350399
 21
106.6243089952
 31
0.0
 11
158.0871138728
 21
106.3615850032
 31
0.0
 11
158.1210560263
 21
106.1057448069
 31
0.0
 11
158.103281702
 21
105.8464588185
 31
0.0
 11
158.030538179
 21
105.578294718
 31
0.0
 11
157.8996627959
 21
105.2974526433
 31
0.0
 11
157.7102229393
 21
105.0057975589
 31
0.0
 11
157.468842067
 21
104.7107982396
 31
0.0
 11
157.1818295876
 21
104.4136623868
 31
0.0
 11
156.8573583556
 21
104.1148009273
 31
0.0
 11
156.5015637304
 21
103.8129423433
 31
0.0
 11
156.1190108184
 21
103.5060698409
 31
0.0
 11
155.7140294518
 21
103.1918044592
 31
0.0
 11
155.2920779996
 21
102.8674925128
 31
0.0
 11
154.8616550539
 21
102.5313978511
 31
0.0
 11
154.4412774346
 21
102.1878288041
 31
0.0
 11
154.0533346979
 21
101.8446469794
 31
0.0
 11
153.725792589
 21
101.5176553436
 31
0.0
 11
153.47556233
 21
101.2198556968
 31
0.0
 11
153.2985834014
 21
100.9502345449
 31
0.0
 11
153.1849335875
 21
100.7021430039
 31
0.0
 11
153.130155849
 21
100.478342373
 31
0.0
 11
153.1264073418
 21
100.2782972605
 31
0.0
 11
153.1725573307
 21
100.0742333767
 31
0.0
 11
153.2753749073
 21
99.8690850315
 31
0.0
 11
153.4334023028
 21
99.6725873099
 31
0.0
 11
153.6430700268
 21
99.4872471209
 31
0.0
 11
153.8964582729
 21
99.314915338
 31
0.0
 11
154.1901696264
 21
99.1519976405
 31
0.0
 11
154.5237486609
 21
98.9951182819
 31
0.0
 11
154.8966790553
 21
98.842009104
 31
0.0
 11
155.3041923614
 21
98.691539969
 31
0.0
 11
155.7342072834
 21
98.5437674794
 31
0.0
 11
156.1591868246
 21
98.402486968
 31
0.0
 11
156.5551433194
 21
98.2697239914
 31
0.0
 11
156.9154724479
 21
98.1428731895
 31
0.0
 11
157.2371486442
 21
98.0187961697
 31
0.0
 11
157.5166982124
 21
97.8944011926
 31
0.0
 11
157.7502817279
 21
97.7667192934
 31
0.0
 11
157.9303491716
 21
97.6362377603
 31
0.0
 11
158.0501423641
 21
97.5064170626
 31
0.0
 11
158.1116003633
 21
97.3772093246
 31
0.0
 11
158.118684543
 21
97.2471246462
 31
0.0
 11
158.0745125041
 21
97.1121649891
 31
0.0
 11
157.9749284583
 21
96.9665081313
 31
0.0
 11
157.8121432051
 21
96.8076230861
 31
0.0
 11
157.5809461962
 21
96.6353385897
 31
0.0
 11
157.2876500887
 21
96.4540936409
 31
0.0
 11
156.9362167917
 21
96.2645286197
 31
0.0
 11
156.5202196287
 21
96.0621782834
 31
0.0
 11
156.0548288114
 21
95.8524012992
 31
0.0
 11
155.587884726
 21
95.6521816409
 31
0.0
 11
155.1476185055
 21
95.4685382538
 31
0.0
 11
154.7375167776
 21
95.2991545713
 31
0.0
 11
154.3583753484
 21
95.1415993163
 31
0.0
 11
154.0129176287
 21
94.994442135
 31
0.0
 11
153.7129224339
 21
94.8600717789
 31
0.0
 11
153.475640898
 21
94.7447290845
 31
0.0
 11
153.3046980276
 21
94.6502550198
 31
0.0
 11
153.1934429694
 21
94.5739844209
 31
0.0
 11
153.1347386983
 21
94.5119967895
 31
0.0
 11
153.1263285404
 21
94.4629231623
 31
0.0
 11
153.1681956612
 21
94.4267601589
 31
0.0
  0
SPLINE
  5
318
100
AcDbEntity
  8
0
100
AcDbSpline
 62
7
  6
CONTINUOUS
 70
0
 71
3
 72
8
 73
4
 74
2
 42
0.0000001
 43
0.0000001
 44
0.0000000001
 12
0.0464744983
 22
-0.0214851899
 32
0.0
 13
0.045946069
 23
-0.0106117726
 33
0.0
 40
0.0
 40
0.0
 40
0.0
 40
0.0
 40
1.0
 40
1.0
 40
1.0
 40
1.0
 10
153.1681956612
 20
94.4267601589
 30
0.0
 10
153.1836871606
 20
94.4195984289
 30
0.0
 10
153.1990112391
 20
94.4147361986
 30
0.0
 10
153.2143265955
 20
94.411198941
 30
0.0
 11
153.1681956612
 21
94.4267601589
 31
0.0
 11
153.2143265955
 21
94.411198941
 31
0.0
  0
SPLINE
  5
319
100
AcDbEntity
  8
0
100
AcDbSpline
 62
7
  6
CONTINUOUS
 70
0
 71
3
 72
98
 73
94
 74
92
 42
0.0000001
 43
0.0000001
 44
0.0000000001
 12
24.6793824069
 22
20.4613922758
 32
0.0
 13
-28.1328520405
 23
17.300785998
 33
0.0
 40
0.0
 40
0.0
 40
0.0
 40
0.0
 40
0.0175485432
 40
0.0334129458
 40
0.0480014978
 40
0.0616808387
 40
0.0747591361
 40
0.0871787193
 40
0.0986054032
 40
0.1090335449
 40
0.1185744954
 40
0.1275691885
 40
0.136439551
 40
0.1455177153
 40
0.1553282963
 40
0.1663721831
 40
0.1789028745
 40
0.1927544225
 40
0.207506243
 40
0.222982695
 40
0.2391303357
 40
0.2560267458
 40
0.2738074367
 40
0.2920453057
 40
0.3096696027
 40
0.3260499829
 40
0.3410387714
 40
0.3545051685
 40
0.3661666686
 40
0.3761869021
 40
0.38504179
 40
0.393381369
 40
0.4017657624
 40
0.4106044319
 40
0.4202931993
 40
0.4308885272
 40
0.442352298
 40
0.4546683425
 40
0.4677063726
 40
0.4814688569
 40
0.4959455871
 40
0.5108663862
 40
0.5257318364
 40
0.540032031
 40
0.553264174
 40
0.5652378974
 40
0.5760790062
 40
0.5859218035
 40
0.5947021449
 40
0.6024780913
 40
0.6093233673
 40
0.615345244
 40
0.6216368595
 40
0.6289265963
 40
0.6372100924
 40
0.6464947035
 40
0.6566063183
 40
0.6675091382
 40
0.6793688785
 40
0.6923617036
 40
0.7065795787
 40
0.7219905586
 40
0.737901081
 40
0.7532464985
 40
0.7675128309
 40
0.7805654773
 40
0.7923493502
 40
0.8028170595
 40
0.8118839147
 40
0.8192926202
 40
0.825109067
 40
0.8297697488
 40
0.8338970457
 40
0.8382699813
 40
0.8435866717
 40
0.8504251394
 40
0.8590385261
 40
0.8693225587
 40
0.8813621335
 40
0.8951813551
 40
0.9097625479
 40
0.9238431205
 40
0.9370494866
 40
0.9493252422
 40
0.9606247716
 40
0.9708208915
 40
0.9794750329
 40
0.9862166553
 40
0.9910995007
 40
0.9943611519
 40
0.9963040447
 40
0.9977232558
 40
1.0
 40
1.0
 40
1.0
 40
1.0
 10
154.4584399033
 20
115.1832879269
 30
0.0
 10
154.6028023064
 20
115.302977136
 30
0.0
 10
154.8780322917
 20
115.5304342896
 30
0.0
 10
155.2699735704
 20
115.8613760079
 30
0.0
 10
155.6232836061
 20
116.1738529396
 30
0.0
 10
155.9434575432
 20
116.4785336753
 30
0.0
 10
156.230928771
 20
116.7832580568
 30
0.0
 10
156.4803781576
 20
117.0895833832
 30
0.0
 10
156.6834354838
 20
117.3952958986
 30
0.0
 10
156.8326744381
 20
117.6970639762
 30
0.0
 10
156.9252393784
 20
117.9938795454
 30
0.0
 10
156.9640403242
 20
118.2856457056
 30
0.0
 10
156.951242755
 20
118.5747593392
 30
0.0
 10
156.8870997415
 20
118.865807549
 30
0.0
 10
156.7683208049
 20
119.1640895178
 30
0.0
 10
156.5920750255
 20
119.4752980523
 30
0.0
 10
156.3572453913
 20
119.7998487467
 30
0.0
 10
156.069024065
 20
120.1323016701
 30
0.0
 10
155.7374690911
 20
120.4672177499
 30
0.0
 10
155.3735478042
 20
120.803754703
 30
0.0
 10
154.9830496409
 20
121.1449135948
 30
0.0
 10
154.5685972396
 20
121.4959323856
 30
0.0
 10
154.1359248911
 20
121.8599842317
 30
0.0
 10
153.7012693507
 20
122.2337535198
 30
0.0
 10
153.2877781952
 20
122.6090176018
 30
0.0
 10
152.9162683211
 20
122.9782698133
 30
0.0
 10
152.5980272293
 20
123.3369813533
 30
0.0
 10
152.3413240973
 20
123.6811856119
 30
0.0
 10
152.152025133
 20
124.0068064555
 30
0.0
 10
152.0292463395
 20
124.3104967614
 30
0.0
 10
151.9643623658
 20
124.595373752
 30
0.0
 10
151.9517378618
 20
124.8700131035
 30
0.0
 10
151.9928644272
 20
125.1418976072
 30
0.0
 10
152.0911771628
 20
125.4139378954
 30
0.0
 10
152.2468600953
 20
125.6849667526
 30
0.0
 10
152.4579506281
 20
125.9518501485
 30
0.0
 10
152.7191938407
 20
126.2110695353
 30
0.0
 10
153.0233520653
 20
126.461278908
 30
0.0
 10
153.3633935058
 20
126.7047581975
 30
0.0
 10
153.7342321798
 20
126.9438231288
 30
0.0
 10
154.1303133084
 20
127.1802337225
 30
0.0
 10
154.5414488565
 20
127.4141334745
 30
0.0
 10
154.9525695224
 20
127.644187166
 30
0.0
 10
155.3464096191
 20
127.8681822464
 30
0.0
 10
155.7085815756
 20
128.0852262817
 30
0.0
 10
156.031341134
 20
128.2957320502
 30
0.0
 10
156.3125580578
 20
128.5028253381
 30
0.0
 10
156.5498886314
 20
128.7105788001
 30
0.0
 10
156.7379772624
 20
128.922139427
 30
0.0
 10
156.8714092742
 20
129.1354582144
 30
0.0
 10
156.9462012526
 20
129.3451788993
 30
0.0
 10
156.9663366738
 20
129.5509709443
 30
0.0
 10
156.9342866397
 20
129.7600066335
 30
0.0
 10
156.8476045159
 20
129.9787674393
 30
0.0
 10
156.7061547224
 20
130.2048981045
 30
0.0
 10
156.5160927876
 20
130.4324292921
 30
0.0
 10
156.2842741184
 20
130.6590037294
 30
0.0
 10
156.0163390853
 20
130.8865088299
 30
0.0
 10
155.7127968593
 20
131.1187671873
 30
0.0
 10
155.3718206082
 20
131.3598317379
 30
0.0
 10
154.9926248165
 20
131.6122047417
 30
0.0
 10
154.5826120282
 20
131.8743512239
 30
0.0
 10
154.1601966264
 20
132.1394083224
 30
0.0
 10
153.7485640697
 20
132.3986404892
 30
0.0
 10
153.3655798311
 20
132.6460282663
 30
0.0
 10
153.0193804137
 20
132.8801012348
 30
0.0
 10
152.7139318419
 20
133.1017050225
 30
0.0
 10
152.4533400517
 20
133.3120439194
 30
0.0
 10
152.2437331577
 20
133.5100453118
 30
0.0
 10
152.0898807695
 20
133.6928719553
 30
0.0
 10
151.9926875897
 20
133.8590257074
 30
0.0
 10
151.9513353783
 20
134.0123280597
 30
0.0
 10
151.9672809241
 20
134.1557621863
 30
0.0
 10
152.0415755482
 20
134.2872917109
 30
0.0
 10
152.1749383508
 20
134.406410698
 30
0.0
 10
152.3706418805
 20
134.5136473227
 30
0.0
 10
152.6293932645
 20
134.6086693438
 30
0.0
 10
152.9495375307
 20
134.6924461618
 30
0.0
 10
153.3290969902
 20
134.7650107408
 30
0.0
 10
153.7570959542
 20
134.8255681878
 30
0.0
 10
154.2084593239
 20
134.8744998983
 30
0.0
 10
154.654184991
 20
134.9134621516
 30
0.0
 10
155.0757656861
 20
134.9452803696
 30
0.0
 10
155.4678370668
 20
134.9728848421
 30
0.0
 10
155.8278330646
 20
134.9987485109
 30
0.0
 10
156.1488507142
 20
135.0248413255
 30
0.0
 10
156.4212702026
 20
135.0528880328
 30
0.0
 10
156.635080701
 20
135.0826111508
 30
0.0
 10
156.793226247
 20
135.1146760315
 30
0.0
 10
156.8917636538
 20
135.1472834417
 30
0.0
 10
156.9609443193
 20
135.1882019502
 30
0.0
 10
156.9532264139
 20
135.2574862428
 30
0.0
 10
156.9183770167
 20
135.2807589002
 30
0.0
 10
156.8970265809
 20
135.2938887215
 30
0.0
 11
154.4584399033
 21
115.1832879269
 31
0.0
 11
154.8912410039
 21
115.5427003631
 31
0.0
 11
155.2790730557
 21
115.8717098981
 31
0.0
 11
155.6285901531
 21
116.1824630812
 31
0.0
 11
155.9452724331
 21
116.4858236312
 31
0.0
 11
156.2318576887
 21
116.7918555551
 31
0.0
 11
156.4817094085
 21
117.1018539846
 31
0.0
 11
156.6823553837
 21
117.4083378311
 31
0.0
 11
156.8284094904
 21
117.7090553197
 31
0.0
 11
156.9182429546
 21
118.0014333191
 31
0.0
 11
156.9556537426
 21
118.2873516093
 31
0.0
 11
156.9432939747
 21
118.5714524387
 31
0.0
 11
156.8815603045
 21
118.8558609462
 31
0.0
 11
156.7671644953
 21
119.1488303163
 31
0.0
 11
156.5947746487
 21
119.4580755449
 31
0.0
 11
156.3611741245
 21
119.7848855597
 31
0.0
 11
156.0718788759
 21
120.1217773555
 31
0.0
 11
155.7405761747
 21
120.4592555128
 31
0.0
 11
155.3772931331
 21
120.797176239
 31
0.0
 11
154.9882359602
 21
121.1386642278
 31
0.0
 11
154.5756253149
 21
121.4896068531
 31
0.0
 11
154.1403124905
 21
121.8576095017
 31
0.0
 11
153.6980407712
 21
122.2400263297
 31
0.0
 11
153.2809653628
 21
122.6211832321
 31
0.0
 11
152.9098635669
 21
122.9927253601
 31
0.0
 11
152.5927405949
 21
123.3537365602
 31
0.0
 11
152.3370865572
 21
123.7016092822
 31
0.0
 11
152.1517473964
 21
124.0262820809
 31
0.0
 11
152.0332663825
 21
124.3248664311
 31
0.0
 11
151.9717551743
 21
124.6019954906
 31
0.0
 11
151.9605030812
 21
124.8691120935
 31
0.0
 11
152.000477575
 21
125.1349131382
 31
0.0
 11
152.095208608
 21
125.4019623002
 31
0.0
 11
152.2480449918
 21
125.6723644369
 31
0.0
 11
152.4570151127
 21
125.9401453839
 31
0.0
 11
152.7163719096
 21
126.200525288
 31
0.0
 11
153.019971343
 21
126.4529537922
 31
0.0
 11
153.3589419633
 21
126.697503907
 31
0.0
 11
153.7291094432
 21
126.9375793689
 31
0.0
 11
154.1270324963
 21
127.1764238669
 31
0.0
 11
154.542238437
 21
127.4139320636
 31
0.0
 11
154.9575667073
 21
127.6476288222
 31
0.0
 11
155.3554272834
 21
127.8753903984
 31
0.0
 11
155.7186340886
 21
128.0945421622
 31
0.0
 11
156.0393282514
 21
128.3054982309
 31
0.0
 11
156.3179941695
 21
128.5131885661
 31
0.0
 11
156.5536082965
 21
128.7230793906
 31
0.0
 11
156.738507308
 21
128.9353183783
 31
0.0
 11
156.8681192689
 21
129.1482583221
 31
0.0
 11
156.9398177158
 21
129.3556637113
 31
0.0
 11
156.9581432214
 21
129.5478436458
 31
0.0
 11
156.9291288638
 21
129.7474449599
 31
0.0
 11
156.8456549783
 21
129.9657257639
 31
0.0
 11
156.7072578064
 21
130.1923664077
 31
0.0
 11
156.5182845359
 21
130.4223325929
 31
0.0
 11
156.2878983371
 21
130.6503748559
 31
0.0
 11
156.0223674673
 21
130.8776684809
 31
0.0
 11
155.7210702219
 21
131.109563296
 31
0.0
 11
155.3814599233
 21
131.3507298719
 31
0.0
 11
155.0025116556
 21
131.6040160101
 31
0.0
 11
154.5867439298
 21
131.8708939177
 31
0.0
 11
154.1551565103
 21
132.1427383261
 31
0.0
 11
153.7393295457
 21
132.4056112148
 31
0.0
 11
153.3556021604
 21
132.6544635925
 31
0.0
 11
153.0095305946
 21
132.8896916542
 31
0.0
 11
152.7046112554
 21
133.1127071044
 31
0.0
 11
152.4447193581
 21
133.3250011161
 31
0.0
 11
152.235213822
 21
133.5264850603
 31
0.0
 11
152.0849825336
 21
133.7104473467
 31
0.0
 11
151.9948109645
 21
133.8736608027
 31
0.0
 11
151.9598186848
 21
134.0189194428
 31
0.0
 11
151.9753310121
 21
134.1503214771
 31
0.0
 11
152.0418131628
 21
134.27374416
 31
0.0
 11
152.1658086255
 21
134.3906905933
 31
0.0
 11
152.3558264975
 21
134.500030081
 31
0.0
 11
152.6137512638
 21
134.5986369923
 31
0.0
 11
152.9320974035
 21
134.6843745802
 31
0.0
 11
153.3108668728
 21
134.7585774943
 31
0.0
 11
153.7493107093
 21
134.8221031698
 31
0.0
 11
154.2139332858
 21
134.8734352808
 31
0.0
 11
154.6635649419
 21
134.9133576699
 31
0.0
 11
155.0857056442
 21
134.9456609129
 31
0.0
 11
155.4782453743
 21
134.9737156102
 31
0.0
 11
155.8395217477
 21
135.0001851186
 31
0.0
 11
156.1652541223
 21
135.0274469465
 31
0.0
 11
156.4411366308
 21
135.0567830073
 31
0.0
 11
156.6549919511
 21
135.0880266537
 31
0.0
 11
156.8079454628
 21
135.1213252441
 31
0.0
 11
156.9060274626
 21
135.1575661531
 31
0.0
 11
156.953150637
 21
135.1982964202
 31
0.0
 11
156.9500075204
 21
135.2436853474
 31
0.0
 11
156.8970265809
 21
135.2938887215
 31
0.0
  0
SPLINE
  5
31A
100
AcDbEntity
  8
0
100
AcDbSpline
 62
7
  6
CONTINUOUS
 70
0
 71
3
 72
19
 73
15
 74
13
 42
0.0000001
 43
0.0000001
 44
0.0000000001
 12
-2.7231965637
 22
-0.4826697224
 32
0.0
 13
2.3199953601
 23
1.5192509392
 33
0.0
 40
0.0
 40
0.0
 40
0.0
 40
0.0
 40
0.1645238588
 40
0.3338647621
 40
0.4919889468
 40
0.6263449497
 40
0.7309886339
 40
0.8087504572
 40
0.863345717
 40
0.8973783285
 40
0.9165949786
 40
0.9353575181
 40
0.9675454681
 40
1.0
 40
1.0
 40
1.0
 40
1.0
 10
154.4584399033
 20
94.4560071004
 30
0.0
 10
154.309096301
 20
94.4295368719
 30
0.0
 10
154.0056465021
 20
94.3779888583
 30
0.0
 10
153.5573466442
 20
94.3090306161
 30
0.0
 10
153.1353327722
 20
94.252433435
 30
0.0
 10
152.7713997438
 20
94.2126240821
 30
0.0
 10
152.4799310275
 20
94.1914441584
 30
0.0
 10
152.2618132275
 20
94.1849114218
 30
0.0
 10
152.1074404626
 20
94.1958498062
 30
0.0
 10
152.0113373841
 20
94.2118541549
 30
0.0
 10
151.9495844762
 20
94.2588507045
 30
0.0
 10
151.9766050133
 20
94.3295089939
 30
0.0
 10
152.0355319109
 20
94.3772294519
 30
0.0
 10
152.0844674585
 20
94.4113980884
 30
0.0
 10
152.1095655796
 20
94.4278336144
 30
0.0
 11
154.4584399033
 21
94.4560071004
 31
0.0
 11
154.0098383488
 21
94.3798867605
 31
0.0
 11
153.5468978799
 21
94.309000576
 31
0.0
 11
153.1133895011
 21
94.2514276376
 31
0.0
 11
152.7438889983
 21
94.2121667884
 31
0.0
 11
152.4551852242
 21
94.1920060021
 31
0.0
 11
152.2401519483
 21
94.1885355543
 31
0.0
 11
152.0895955313
 21
94.1999816067
 31
0.0
 11
151.9988650501
 21
94.2250201241
 31
0.0
 11
151.9612773814
 21
94.2625927478
 31
0.0
 11
151.9736558846
 21
94.3129851193
 31
0.0
 11
152.0361530154
 21
94.3763785292
 31
0.0
 11
152.1095655796
 21
94.4278336144
 31
0.0
  0
SPLINE
  5
31B
100
AcDbEntity
  8
0
100
AcDbSpline
 62
7
  6
CONTINUOUS
 70
0
 71
3
 72
15
 73
11
 74
9
 42
0.0000001
 43
0.0000001
 44
0.0000000001
 12
-0.9130905362
 22
0.0
 32
0.0
 13
0.0
 23
-0.9130905362
 33
0.0
 40
0.0
 40
0.0
 40
0.0
 40
0.0
 40
0.095246705
 40
0.1989926597
 40
0.3085683636
 40
0.4267140162
 40
0.5551384148
 40
0.6926402133
 40
0.8400968689
 40
1.0
 40
1.0
 40
1.0
 40
1.0
 10
111.3310155173
 20
93.9991989685
 30
0.0
 10
111.3020258957
 20
93.9991989685
 30
0.0
 10
111.2412445473
 20
93.9921044791
 30
0.0
 10
111.1522798107
 20
93.959498259
 30
0.0
 10
111.067091629
 20
93.9039739548
 30
0.0
 10
110.9899575576
 20
93.8268021942
 30
0.0
 10
110.9241247999
 20
93.7294121279
 30
0.0
 10
110.8727794036
 20
93.6138724108
 30
0.0
 10
110.8389663039
 20
93.4821632566
 30
0.0
 10
110.8310155173
 20
93.3884077867
 30
0.0
 10
110.8310155173
 20
93.3397391082
 30
0.0
 11
111.3310155173
 21
93.9991989685
 31
0.0
 11
111.2446215771
 21
93.9892154534
 31
0.0
 11
111.1555404324
 21
93.9569940595
 31
0.0
 11
111.0714254872
 21
93.9028166988
 31
0.0
 11
110.9947409656
 21
93.8269412918
 31
0.0
 11
110.9286080643
 21
93.7301059951
 31
0.0
 11
110.8772138842
 21
93.6155553939
 31
0.0
 11
110.8434593857
 21
93.4852138915
 31
0.0
 11
110.8310155173
 21
93.3397391082
 31
0.0
  0
SPLINE
  5
31C
100
AcDbEntity
  8
BEZUGSACHSEN
100
AcDbSpline
 62
7
  6
CONTINUOUS
 70
0
 71
3
 72
11
 73
7
 74
5
 42
0.0000001
 43
0.0000001
 44
0.0000000001
 12
0.0
 22
0.1830126193
 32
0.0
 13
0.1451726273
 23
-0.1114384454
 33
0.0
 40
0.0
 40
0.0
 40
0.0
 40
0.0
 40
0.2465776366
 40
0.4184562595
 40
0.6350985973
 40
1.0
 40
1.0
 40
1.0
 40
1.0
 10
110.7060155173
 20
142.5415943755
 30
0.0
 10
110.7060155173
 20
142.5566366486
 30
0.0
 10
110.7059880029
 20
142.5830499108
 30
0.0
 10
110.7354060452
 20
142.6163844429
 30
0.0
 10
110.7855688114
 20
142.6016297151
 30
0.0
 10
110.8133576189
 20
142.5818589819
 30
0.0
 10
110.8310155173
 20
142.5683043002
 30
0.0
 11
110.7060155173
 21
142.5415943755
 31
0.0
 11
110.7127228751
 21
142.5862199417
 31
0.0
 11
110.7348730529
 21
142.6085548214
 31
0.0
 11
110.7741808517
 21
142.6033699206
 31
0.0
 11
110.8310155173
 21
142.5683043002
 31
0.0
  0
SPLINE
  5
31D
100
AcDbEntity
  8
BEZUGSACHSEN
100
AcDbSpline
 62
7
  6
CONTINUOUS
 70
0
 71
3
 72
12
 73
8
 74
6
 42
0.0000001
 43
0.0000001
 44
0.0000000001
 12
0.1458774432
 22
0.1119794812
 32
0.0
 13
0.0
 23
-0.1839011491
 33
0.0
 40
0.0
 40
0.0
 40
0.0
 40
0.0
 40
0.3119503866
 40
0.5109744676
 40
0.6456308384
 40
0.7914381086
 40
1.0
 40
1.0
 40
1.0
 40
1.0
 10
114.5810155173
 20
142.5683043002
 30
0.0
 10
114.5961843589
 20
142.5799483144
 30
0.0
 10
114.6220395653
 20
142.5974047384
 30
0.0
 10
114.6596088782
 20
142.6132823248
 30
0.0
 10
114.69109513
 20
142.6054419387
 30
0.0
 10
114.7047898976
 20
142.5759304674
 30
0.0
 10
114.7060155173
 20
142.5543792994
 30
0.0
 10
114.7060155173
 20
142.5415943755
 30
0.0
 11
114.5810155173
 21
142.5683043002
 31
0.0
 11
114.629199153
 21
142.5994399493
 31
0.0
 11
114.664241945
 21
142.6100048988
 31
0.0
 11
114.6879279773
 21
142.6027798805
 31
0.0
 11
114.7015599342
 21
142.5796894707
 31
0.0
 11
114.7060155173
 21
142.5415943755
 31
0.0
  0
SPLINE
  5
31E
100
AcDbEntity
  8
0
100
AcDbSpline
 62
7
  6
CONTINUOUS
 70
0
 71
3
 72
15
 73
11
 74
9
 42
0.0000001
 43
0.0000001
 44
0.0000000001
 12
0.0
 22
0.9130903992
 32
0.0
 13
-0.9130903992
 23
0.0
 33
0.0
 40
0.0
 40
0.0
 40
0.0
 40
0.0
 40
0.1600918462
 40
0.3075422057
 40
0.4449036121
 40
0.5732119493
 40
0.6912879168
 40
0.8006702292
 40
0.9045439847
 40
1.0
 40
1.0
 40
1.0
 40
1.0
 10
114.5810155173
 20
93.3397391082
 30
0.0
 10
114.5810155173
 20
93.3884652174
 30
0.0
 10
114.5730506199
 20
93.4822769496
 30
0.0
 10
114.5392069254
 20
93.6139914955
 30
0.0
 10
114.4878779316
 20
93.7294493049
 30
0.0
 10
114.4221034846
 20
93.8267566596
 30
0.0
 10
114.345065622
 20
93.9038593788
 30
0.0
 10
114.2599412584
 20
93.9593982622
 30
0.0
 10
114.1709541007
 20
93.9920763606
 30
0.0
 10
114.110068841
 20
93.9991989685
 30
0.0
 10
114.0810155173
 20
93.9991989685
 30
0.0
 11
114.5810155173
 21
93.3397391082
 31
0.0
 11
114.5685421488
 21
93.4853842886
 31
0.0
 11
114.534761753
 21
93.6157131218
 31
0.0
 11
114.4834041863
 21
93.7301396264
 31
0.0
 11
114.4173335032
 21
93.8268890628
 31
0.0
 11
114.3407083215
 21
93.9027339512
 31
0.0
 11
114.2567678789
 21
93.9568560847
 31
0.0
 11
114.1675967863
 21
93.9891717838
 31
0.0
 11
114.0810155173
 21
93.9991989685
 31
0.0
  0
SPLINE
  5
31F
100
AcDbEntity
  8
0
100
AcDbSpline
 62
7
  6
CONTINUOUS
 70
0
 71
3
 72
18
 73
14
 74
12
 42
0.0000001
 43
0.0000001
 44
0.0000000001
 12
-1.7642311185
 22
0.0
 32
0.0
 13
0.0
 23
1.7642311185
 33
0.0
 40
0.0
 40
0.0
 40
0.0
 40
0.0
 40
0.086900447
 40
0.1740038441
 40
0.2602721501
 40
0.345790636
 40
0.4333324854
 40
0.523356292
 40
0.6154993271
 40
0.7098280223
 40
0.8064563316
 40
0.9037424561
 40
1.0
 40
1.0
 40
1.0
 40
1.0
 10
105.7810155173
 20
89.34918982
 30
0.0
 10
105.7299113597
 20
89.34918982
 30
0.0
 10
105.6273269327
 20
89.3589242469
 30
0.0
 10
105.4794928268
 20
89.4016109652
 30
0.0
 10
105.3422418753
 20
89.469202521
 30
0.0
 10
105.2176617238
 20
89.5582209207
 30
0.0
 10
105.1063225091
 20
89.6664362655
 30
0.0
 10
105.0090011736
 20
89.7923074999
 30
0.0
 10
104.927231108
 20
89.9333724561
 30
0.0
 10
104.862247626
 20
90.0871003703
 30
0.0
 10
104.8152719104
 20
90.2503827817
 30
0.0
 10
104.7871893526
 20
90.4190528854
 30
0.0
 10
104.7810155173
 20
90.5329699892
 30
0.0
 10
104.7810155173
 20
90.5895768406
 30
0.0
 11
105.7810155173
 21
89.34918982
 31
0.0
 11
105.6283820369
 21
89.3636028332
 31
0.0
 11
105.4806747348
 21
89.4059960257
 31
0.0
 11
105.3439999229
 21
89.4729586468
 31
0.0
 11
105.2210504315
 21
89.5604029109
 31
0.0
 11
105.1100646792
 21
89.667804628
 31
0.0
 11
105.0126621181
 21
89.7932535148
 31
0.0
 11
104.9308914435
 21
89.9337520336
 31
0.0
 11
104.8658774018
 21
90.0869447177
 31
0.0
 11
104.8185663518
 21
90.2507228534
 31
0.0
 11
104.7902625459
 21
90.4200082317
 31
0.0
 11
104.7810155173
 21
90.5895768406
 31
0.0
  0
SPLINE
  5
320
100
AcDbEntity
  8
BEZUGSACHSEN
100
AcDbSpline
 62
7
  6
CONTINUOUS
 70
0
 71
3
 72
11
 73
7
 74
5
 42
0.0000001
 43
0.0000001
 44
0.0000000001
 12
0.0
 22
-0.1395867963
 32
0.0
 13
0.0661959442
 23
-0.1231095805
 33
0.0
 40
0.0
 40
0.0
 40
0.0
 40
0.0
 40
0.2989089425
 40
0.5912641764
 40
0.8672480948
 40
1.0
 40
1.0
 40
1.0
 40
1.0
 10
110.8310155173
 20
142.3120735112
 30
0.0
 10
110.8310155173
 20
142.2981655973
 30
0.0
 10
110.8323054378
 20
142.270625878
 30
0.0
 10
110.839032886
 20
142.2307159163
 30
0.0
 10
110.8492416289
 20
142.1995807843
 30
0.0
 10
110.8575097872
 20
142.1824025771
 30
0.0
 10
110.8604389998
 20
142.1769549
 30
0.0
 11
110.8310155173
 21
142.3120735112
 31
0.0
 11
110.8331622711
 21
142.2704050331
 31
0.0
 11
110.8401831224
 21
142.2302045797
 31
0.0
 11
110.852383369
 21
142.1936637766
 31
0.0
 11
110.8604389998
 21
142.1769549
 31
0.0
  0
SPLINE
  5
321
100
AcDbEntity
  8
BEZUGSACHSEN
100
AcDbSpline
 62
7
  6
CONTINUOUS
 70
0
 71
3
 72
16
 73
12
 74
10
 42
0.0000001
 43
0.0000001
 44
0.0000000001
 12
0.244791693
 22
-0.4552575388
 32
0.0
 13
0.497355697
 23
0.1381647029
 33
0.0
 40
0.0
 40
0.0
 40
0.0
 40
0.0
 40
0.0354819688
 40
0.1069116572
 40
0.1821577292
 40
0.2654043123
 40
0.3615453499
 40
0.4759438992
 40
0.6177190239
 40
0.7944984177
 40
1.0
 40
1.0
 40
1.0
 40
1.0
 10
110.8604389998
 20
142.1769549
 30
0.0
 10
110.8633342302
 20
142.1715704221
 30
0.0
 10
110.872775656
 20
142.1557336128
 30
0.0
 10
110.8925388869
 20
142.1311702708
 30
0.0
 10
110.92279167
 20
142.1053418501
 30
0.0
 10
110.9607586683
 20
142.0830660138
 30
0.0
 10
111.0080918754
 20
142.0647613398
 30
0.0
 10
111.0674408124
 20
142.0514446534
 30
0.0
 10
111.1419413751
 20
142.0454828305
 30
0.0
 10
111.232237265
 20
142.0509174466
 30
0.0
 10
111.2969463897
 20
142.0641559043
 30
0.0
 10
111.3310155173
 20
142.0736202593
 30
0.0
 11
110.8604389998
 21
142.1769549
 31
0.0
 11
110.8698387836
 21
142.1612149652
 31
0.0
 11
110.892927787
 21
142.13246796
 31
0.0
 11
110.9223650772
 21
142.1071284548
 31
0.0
 11
110.9593000158
 21
142.0851666203
 31
0.0
 11
111.0054725592
 21
142.0669748614
 31
0.0
 11
111.0630140969
 21
142.0537069103
 31
0.0
 11
111.1359322988
 21
142.0474880595
 31
0.0
 11
111.2270406083
 21
142.0526028016
 31
0.0
 11
111.3310155173
 21
142.0736202593
 31
0.0
  0
SPLINE
  5
322
100
AcDbEntity
  8
0
100
AcDbSpline
 62
7
  6
CONTINUOUS
 70
0
 71
3
 72
83
 73
79
 74
77
 42
0.0000001
 43
0.0000001
 44
0.0000000001
 12
-27.1469797963
 22
-5.8831106577
 32
0.0
 13
-21.4656978493
 23
-17.6198410479
 33
0.0
 40
0.0
 40
0.0
 40
0.0
 40
0.0
 40
0.0119632721
 40
0.0221554961
 40
0.0302614649
 40
0.0365496245
 40
0.0416591189
 40
0.0463636538
 40
0.0515637371
 40
0.0580054815
 40
0.0662124532
 40
0.0763707003
 40
0.088238988
 40
0.1016137204
 40
0.1162471822
 40
0.1319876914
 40
0.1487623212
 40
0.1663282052
 40
0.1839734468
 40
0.2009691701
 40
0.2167852417
 40
0.2310819394
 40
0.2440201346
 40
0.2558708714
 40
0.266729614
 40
0.2764223618
 40
0.2849783978
 40
0.2923635132
 40
0.2991421112
 40
0.3067485783
 40
0.3154375857
 40
0.3252742139
 40
0.3363268975
 40
0.3484232084
 40
0.3616267798
 40
0.3760473635
 40
0.3917507559
 40
0.4086685647
 40
0.4264155384
 40
0.4439772023
 40
0.4605627481
 40
0.4760360254
 40
0.4903932287
 40
0.5036470648
 40
0.515901709
 40
0.5271587819
 40
0.5374045358
 40
0.5470383388
 40
0.5565317476
 40
0.5664765667
 40
0.5776561411
 40
0.5906546092
 40
0.6057237647
 40
0.6224767029
 40
0.6409226069
 40
0.6613250446
 40
0.6831417584
 40
0.7046537175
 40
0.7249232176
 40
0.7439903258
 40
0.7619937497
 40
0.7790602318
 40
0.7950779085
 40
0.8095090331
 40
0.8221320812
 40
0.8332890796
 40
0.8436283139
 40
0.8537588782
 40
0.8640376665
 40
0.8749357034
 40
0.8868513771
 40
0.8999246585
 40
0.9141555438
 40
0.9291611738
 40
0.9448736729
 40
0.9616365863
 40
0.9798594625
 40
1.0
 40
1.0
 40
1.0
 40
1.0
 10
154.1375047588
 20
134.5019744088
 30
0.0
 10
154.0292491906
 20
134.4785139911
 30
0.0
 10
153.8299894392
 20
134.4291836714
 30
0.0
 10
153.5646937118
 20
134.3374994459
 30
0.0
 10
153.3610362092
 20
134.2334220071
 30
0.0
 10
153.2199709958
 20
134.1175766429
 30
0.0
 10
153.1377753143
 20
133.9892964724
 30
0.0
 10
153.1139562178
 20
133.8485514595
 30
0.0
 10
153.1477118327
 20
133.6980455482
 30
0.0
 10
153.2371705609
 20
133.535834636
 30
0.0
 10
153.3827625007
 20
133.3572522317
 30
0.0
 10
153.5847484327
 20
133.1628634089
 30
0.0
 10
153.838855217
 20
132.9555513228
 30
0.0
 10
154.1372984407
 20
132.7381137434
 30
0.0
 10
154.4727402542
 20
132.5111125149
 30
0.0
 10
154.8395357903
 20
132.2745259747
 30
0.0
 10
155.2322715398
 20
132.0281741053
 30
0.0
 10
155.6408995693
 20
131.7739919862
 30
0.0
 10
156.0498025059
 20
131.5163765354
 30
0.0
 10
156.4411478823
 20
131.2613359544
 30
0.0
 10
156.8002056065
 20
131.013731311
 30
0.0
 10
157.1199806272
 20
130.7757024499
 30
0.0
 10
157.3995116877
 20
130.5456883681
 30
0.0
 10
157.640172723
 20
130.3194183218
 30
0.0
 10
157.8386629287
 20
130.0937199591
 30
0.0
 10
157.9894504884
 20
129.8692059967
 30
0.0
 10
158.0863770187
 20
129.6509137491
 30
0.0
 10
158.1281841867
 20
129.4427552996
 30
0.0
 10
158.1177615201
 20
129.2394847581
 30
0.0
 10
158.0539202988
 20
129.0334387958
 30
0.0
 10
157.931595702
 20
128.8228144047
 30
0.0
 10
157.753709361
 20
128.6132591886
 30
0.0
 10
157.526541749
 20
128.4082895882
 30
0.0
 10
157.2570574673
 20
128.2062585834
 30
0.0
 10
156.9499807163
 20
128.0037514605
 30
0.0
 10
156.606415571
 20
127.7966582597
 30
0.0
 10
156.2277649157
 20
127.5815409048
 30
0.0
 10
155.8198406163
 20
127.3557208943
 30
0.0
 10
155.3976126759
 20
127.1202109297
 30
0.0
 10
154.9822798509
 20
126.8787207313
 30
0.0
 10
154.5928743269
 20
126.6348648004
 30
0.0
 10
154.2397151209
 20
126.3897495044
 30
0.0
 10
153.9271306838
 20
126.1414371906
 30
0.0
 10
153.6591904363
 20
125.8867504035
 30
0.0
 10
153.4406499503
 20
125.6246157314
 30
0.0
 10
153.2761906685
 20
125.3573759486
 30
0.0
 10
153.1686735328
 20
125.0881825895
 30
0.0
 10
153.1184576783
 20
124.8190893865
 30
0.0
 10
153.1227026934
 20
124.548350645
 30
0.0
 10
153.1786811539
 20
124.2691001535
 30
0.0
 10
153.2909830337
 20
123.9725022721
 30
0.0
 10
153.4682951592
 20
123.6541461013
 30
0.0
 10
153.7125391818
 20
123.3178205392
 30
0.0
 10
154.0185850843
 20
122.9667143133
 30
0.0
 10
154.3818095343
 20
122.6016504794
 30
0.0
 10
154.7970143259
 20
122.2233107421
 30
0.0
 10
155.2451032513
 20
121.8394887077
 30
0.0
 10
155.6972170841
 20
121.4624006264
 30
0.0
 10
156.1289770967
 20
121.1006408557
 30
0.0
 10
156.5306002148
 20
120.7535261222
 30
0.0
 10
156.9003370237
 20
120.4150807668
 30
0.0
 10
157.2348110412
 20
120.0804152352
 30
0.0
 10
157.5246012342
 20
119.7489340434
 30
0.0
 10
157.7597109375
 20
119.4260783959
 30
0.0
 10
157.9350048418
 20
119.117807586
 30
0.0
 10
158.0524606693
 20
118.8233277818
 30
0.0
 10
158.115630646
 20
118.536023229
 30
0.0
 10
158.1277095212
 20
118.2501459733
 30
0.0
 10
158.0882237767
 20
117.9615383383
 30
0.0
 10
157.9951317074
 20
117.668214013
 30
0.0
 10
157.8456965758
 20
117.370230578
 30
0.0
 10
157.6427296613
 20
117.0683171741
 30
0.0
 10
157.3934570849
 20
116.7656232604
 30
0.0
 10
157.1061165307
 20
116.464304509
 30
0.0
 10
156.7860170556
 20
116.1628884968
 30
0.0
 10
156.4328293613
 20
115.853736647
 30
0.0
 10
156.0412619289
 20
115.5264605901
 30
0.0
 10
155.7664044062
 20
115.3015789503
 30
0.0
 10
155.6222941752
 20
115.183287927
 30
0.0
 11
154.1375047588
 21
134.5019744088
 31
0.0
 11
153.8155269666
 21
134.4200519359
 31
0.0
 11
153.5491484532
 21
134.324346753
 31
0.0
 11
153.3507743931
 21
134.2179368793
 31
0.0
 11
153.2188289716
 21
134.1035438296
 31
0.0
 11
153.1450670863
 21
133.9823259904
 31
0.0
 11
153.1229018765
 21
133.8535697227
 31
0.0
 11
153.1508198587
 21
133.7118818671
 31
0.0
 11
153.2330728211
 21
133.5530181792
 31
0.0
 11
153.374288001
 21
133.374120638
 31
0.0
 11
153.5756524064
 21
133.1765450772
 31
0.0
 11
153.829751211
 21
132.9666235013
 31
0.0
 11
154.1290484289
 21
132.7466635908
 31
0.0
 11
154.4650422776
 21
132.5180612996
 31
0.0
 11
154.831966602
 21
132.2804681185
 31
0.0
 11
155.2262171028
 21
132.0323089564
 31
0.0
 11
155.6400302215
 21
131.7739851573
 31
0.0
 11
156.0542035306
 21
131.5120920647
 31
0.0
 11
156.449116919
 21
131.2535999037
 31
0.0
 11
156.8101737135
 21
131.0034779906
 31
0.0
 11
157.1279995068
 21
130.7655204816
 31
0.0
 11
157.4045833181
 21
130.5361654375
 31
0.0
 11
157.6430029139
 21
130.30929916
 31
0.0
 11
157.8403811328
 21
130.0813081004
 31
0.0
 11
157.9881357477
 21
129.8563067528
 31
0.0
 11
158.0818906489
 21
129.6379747696
 31
0.0
 11
158.1203709763
 21
129.4365241134
 31
0.0
 11
158.1108493279
 21
129.2485158288
 31
0.0
 11
158.0501189013
 21
129.0461938262
 31
0.0
 11
157.9315349683
 21
128.8360386329
 31
0.0
 11
157.7569800578
 21
128.6259084221
 31
0.0
 11
157.5309521728
 21
128.4182383468
 31
0.0
 11
157.2634272813
 21
128.2150682143
 31
0.0
 11
156.9581363992
 21
128.011966794
 31
0.0
 11
156.615760881
 21
127.804217394
 31
0.0
 11
156.2371650291
 21
127.5877709706
 31
0.0
 11
155.8266738703
 21
127.3592235773
 31
0.0
 11
155.3968379948
 21
127.118089812
 31
0.0
 11
154.9758745112
 21
126.8718218717
 31
0.0
 11
154.5861973225
 21
126.6262546435
 31
0.0
 11
154.2340596865
 21
126.3799825466
 31
0.0
 11
153.923112894
 21
126.1304104934
 31
0.0
 11
153.6578249887
 21
125.8752621413
 31
0.0
 11
153.4415698
 21
125.6124791279
 31
0.0
 11
153.2796245797
 21
125.3450731705
 31
0.0
 11
153.1757670024
 21
125.0801687347
 31
0.0
 11
153.127221566
 21
124.8170684048
 31
0.0
 11
153.1304366278
 21
124.5534454355
 31
0.0
 11
153.183272166
 21
124.2823677651
 31
0.0
 11
153.2913381419
 21
123.991312929
 31
0.0
 11
153.4645478218
 21
123.6746010686
 31
0.0
 11
153.7079228262
 21
123.3341598519
 31
0.0
 11
154.0118211138
 21
122.9818796171
 31
0.0
 11
154.3717568832
 21
122.6173799534
 31
0.0
 11
154.7891756036
 21
122.2342409803
 31
0.0
 11
155.2481026103
 21
121.8386781591
 31
0.0
 11
155.7059027026
 21
121.4548563806
 31
0.0
 11
156.1365540904
 21
121.0923604406
 31
0.0
 11
156.5363383191
 21
120.745144931
 31
0.0
 11
156.9041243605
 21
120.4064583013
 31
0.0
 11
157.2377319162
 21
120.0697988155
 31
0.0
 11
157.5288818598
 21
119.7334888978
 31
0.0
 11
157.7628753031
 21
119.4081238321
 31
0.0
 11
157.9340581395
 21
119.1022054516
 31
0.0
 11
158.0469073726
 21
118.8136446919
 31
0.0
 11
158.1076680755
 21
118.5330150856
 31
0.0
 11
158.119333889
 21
118.2519199614
 31
0.0
 11
158.0812623959
 21
117.9690167475
 31
0.0
 11
157.9909613646
 21
117.6801514677
 31
0.0
 11
157.8447722218
 21
117.3832824621
 31
0.0
 11
157.6442354727
 21
117.0806319823
 31
0.0
 11
157.3945513112
 21
116.7742876327
 31
0.0
 11
157.1080767449
 21
116.4716484405
 31
0.0
 11
156.79138933
 21
116.1714591662
 31
0.0
 11
156.4419027563
 21
115.8639327252
 31
0.0
 11
156.0543510765
 21
115.538494287
 31
0.0
 11
155.6222941752
 21
115.183287927
 31
0.0
  0
SPLINE
  5
323
100
AcDbEntity
  8
BEZUGSACHSEN
100
AcDbSpline
 62
7
  6
CONTINUOUS
 70
0
 71
3
 72
16
 73
12
 74
10
 42
0.0000001
 43
0.0000001
 44
0.0000000001
 12
0.4973714463
 22
-0.1381690781
 32
0.0
 13
0.2447633051
 23
0.4552915049
 33
0.0
 40
0.0
 40
0.0
 40
0.0
 40
0.0
 40
0.2054084362
 40
0.3821123936
 40
0.5239763358
 40
0.6383788277
 40
0.7345406286
 40
0.8178119434
 40
0.8930732946
 40
0.9645140243
 40
1.0
 40
1.0
 40
1.0
 40
1.0
 10
114.0810155173
 20
142.0736202593
 30
0.0
 10
114.115070281
 20
142.0641598945
 30
0.0
 10
114.1797523339
 20
142.050925041
 30
0.0
 10
114.2700364263
 20
142.0454826211
 30
0.0
 10
114.3445432986
 20
142.0514365928
 30
0.0
 10
114.4039141719
 20
142.0647535882
 30
0.0
 10
114.4512582081
 20
142.0830585393
 30
0.0
 10
114.4892364582
 20
142.1053389546
 30
0.0
 10
114.5194967694
 20
142.1311742674
 30
0.0
 10
114.5392626858
 20
142.1557435624
 30
0.0
 10
114.5487045575
 20
142.1715838163
 30
0.0
 10
114.551599779
 20
142.1769693041
 30
0.0
 11
114.0810155173
 21
142.0736202593
 31
0.0
 11
114.1849459339
 21
142.0526084206
 31
0.0
 11
114.2760177401
 21
142.0474866426
 31
0.0
 11
114.3489846
 21
142.053701765
 31
0.0
 11
114.406530932
 21
142.0669663035
 31
0.0
 11
114.4527161774
 21
142.0851593493
 31
0.0
 11
114.4896640454
 21
142.1071270812
 31
0.0
 11
114.5191079741
 21
142.1324728495
 31
0.0
 11
114.5421998041
 21
142.1612263923
 31
0.0
 11
114.551599779
 21
142.1769693041
 31
0.0
  0
SPLINE
  5
324
100
AcDbEntity
  8
BEZUGSACHSEN
100
AcDbSpline
 62
7
  6
CONTINUOUS
 70
0
 71
3
 72
11
 73
7
 74
5
 42
0.0000001
 43
0.0000001
 44
0.0000000001
 12
0.0661784389
 22
0.1231004829
 32
0.0
 13
-0.0
 23
0.1395704877
 33
0.0
 40
0.0
 40
0.0
 40
0.0
 40
0.0
 40
0.1327767541
 40
0.408761515
 40
0.7011191023
 40
1.0
 40
1.0
 40
1.0
 40
1.0
 10
114.551599779
 20
142.1769693041
 30
0.0
 10
114.5545287651
 20
142.1824175983
 30
0.0
 10
114.5627950907
 20
142.1995955501
 30
0.0
 10
114.5730010251
 20
142.2307288847
 30
0.0
 10
114.5797260716
 20
142.2706332399
 30
0.0
 10
114.5810155173
 20
142.298168527
 30
0.0
 10
114.5810155173
 20
142.3120735112
 30
0.0
 11
114.551599779
 21
142.1769693041
 31
0.0
 11
114.5596546345
 21
142.1936800048
 31
0.0
 11
114.5718511149
 21
142.2302174441
 31
0.0
 11
114.5788697085
 21
142.2704137851
 31
0.0
 11
114.5810155173
 21
142.3120735112
 31
0.0
  0
SPLINE
  5
325
100
AcDbEntity
  8
BEZUGSACHSEN
100
AcDbSpline
 62
7
  6
CONTINUOUS
 70
0
 71
3
 72
18
 73
14
 74
12
 42
0.0000001
 43
0.0000001
 44
0.0000000001
 12
2.6737590161
 22
0.7427664394
 32
0.0
 13
2.6737590161
 23
-0.7427664394
 33
0.0
 40
0.0
 40
0.0
 40
0.0
 40
0.0
 40
0.0788628999
 40
0.1647195541
 40
0.2563676281
 40
0.3521236596
 40
0.4503969613
 40
0.5496032532
 40
0.6478758258
 40
0.7436299262
 40
0.8352788674
 40
0.9211360457
 40
1.0
 40
1.0
 40
1.0
 40
1.0
 10
111.3310155173
 20
142.0736202593
 30
0.0
 10
111.4013023139
 20
142.0931458311
 30
0.0
 10
111.549753188
 20
142.128093286
 30
0.0
 10
111.7835320713
 20
142.1684962585
 30
0.0
 10
112.034544885
 20
142.1990212289
 30
0.0
 10
112.2980797891
 20
142.2194644046
 30
0.0
 10
112.5691974177
 20
142.2297130469
 30
0.0
 10
112.8428335368
 20
142.2297130358
 30
0.0
 10
113.1139487058
 20
142.2194645016
 30
0.0
 10
113.3774819642
 20
142.1990216149
 30
0.0
 10
113.6284943155
 20
142.1684969652
 30
0.0
 10
113.8622754631
 20
142.1280938064
 30
0.0
 10
114.0107277811
 20
142.0931460921
 30
0.0
 10
114.0810155173
 20
142.0736202593
 30
0.0
 11
111.3310155173
 21
142.0736202593
 31
0.0
 11
111.5438524885
 21
142.1245492218
 31
0.0
 11
111.7785289331
 21
142.1656777782
 31
0.0
 11
112.0309465279
 21
142.1967630165
 31
0.0
 11
112.295855989
 21
142.2175541867
 31
0.0
 11
112.5683665101
 21
142.2279712148
 31
0.0
 11
112.8436651189
 21
142.2279712036
 31
0.0
 11
113.1161736189
 21
142.2175542693
 31
0.0
 11
113.3810777511
 21
142.1967636923
 31
0.0
 11
113.6334977665
 21
142.1656784197
 31
0.0
 11
113.8681756786
 21
142.1245498105
 31
0.0
 11
114.0810155173
 21
142.0736202593
 31
0.0
  0
SPLINE
  5
326
100
AcDbEntity
  8
0
100
AcDbSpline
 62
7
  6
CONTINUOUS
 70
0
 71
3
 72
20
 73
16
 74
14
 42
0.0000001
 43
0.0000001
 44
0.0000000001
 12
2.811515953
 22
-0.498323787
 32
0.0
 13
-2.7678422415
 23
-0.6393687628
 33
0.0
 40
0.0
 40
0.0
 40
0.0
 40
0.0
 40
0.1562673134
 40
0.3158904992
 40
0.4662262428
 40
0.597316004
 40
0.7032200486
 40
0.7848706951
 40
0.8450524396
 40
0.8857369096
 40
0.9100846811
 40
0.9256745752
 40
0.9483371835
 40
0.9862515986
 40
1.0
 40
1.0
 40
1.0
 40
1.0
 10
155.6222941751
 20
135.7042827933
 30
0.0
 10
155.7687435233
 20
135.6783255535
 30
0.0
 10
156.0644301043
 20
135.6238003791
 30
0.0
 10
156.4996020517
 20
135.5369667936
 30
0.0
 10
156.9098796834
 20
135.4478613002
 30
0.0
 10
157.2682897889
 20
135.3618769696
 30
0.0
 10
157.5614778604
 20
135.2829470262
 30
0.0
 10
157.7858029271
 20
135.2124567248
 30
0.0
 10
157.9503651107
 20
135.1512984836
 30
0.0
 10
158.0528729828
 20
135.0963825167
 30
0.0
 10
158.1209663326
 20
135.0487611902
 30
0.0
 10
158.1212623033
 20
134.9798612692
 30
0.0
 10
158.0491519095
 20
134.942352166
 30
0.0
 10
157.9841748229
 20
134.9214356558
 30
0.0
 10
157.9369195836
 20
134.9097753567
 30
0.0
 10
157.9242351149
 20
134.9068452573
 30
0.0
 11
155.6222941751
 21
135.7042827933
 31
0.0
 11
156.0610840786
 21
135.6233252148
 31
0.0
 11
156.5080111033
 21
135.5339395997
 31
0.0
 11
156.9273897453
 21
135.4423699211
 31
0.0
 11
157.291216112
 21
135.3544214868
 31
0.0
 11
157.5829199043
 21
135.2747367896
 31
0.0
 11
157.8050610098
 21
135.2039721411
 31
0.0
 11
157.9649653013
 21
135.1410490761
 31
0.0
 11
158.0669073721
 21
135.0853464065
 31
0.0
 11
158.1158966191
 21
135.036018569
 31
0.0
 11
158.1151835146
 21
134.9915098821
 31
0.0
 11
158.0642062593
 21
134.9516523434
 31
0.0
 11
157.9619224795
 21
134.9161852409
 31
0.0
 11
157.9242351149
 21
134.9068452573
 31
0.0
  0
ENDSEC
  0
SECTION
  2
OBJECTS
  0
DICTIONARY
  5
C
100
AcDbDictionary
280
0
281
1
  3
ACAD_GROUP
350
D
  3
ACAD_MLINESTYLE
350
17
  3
ACAD_LAYOUT
350
1A
  3
ACAD_PLOTSETTINGS
350
19
  3
ACAD_PLOTSTYLENAME
350
E
  0
DICTIONARY
  5
D
102
{ACAD_REACTORS
330
C
102
}
100
AcDbDictionary
280
0
281
1
  0
ACDBDICTIONARYWDFLT
  5
E
102
{ACAD_REACTORS
330
C
102
}
100
AcDbDictionary
281
1
  3
Normal
350
F
100
AcDbDictionaryWithDefault
340
F
  0
DICTIONARY
  5
17
102
{ACAD_REACTORS
330
C
102
}
100
AcDbDictionary
280
0
281
1
  3
Standard
350
18
  0
DICTIONARY
  5
19
102
{ACAD_REACTORS
330
C
102
}
100
AcDbDictionary
281
1
  0
DICTIONARY
  5
1A
102
{ACAD_REACTORS
330
C
102
}
100
AcDbDictionary
281
1
  3
Model
350
327
  3
Layout1
350
328
  0
ACDBPLACEHOLDER
  5
F
102
{ACAD_REACTORS
330
E
102
}
  0
MLINESTYLE
  5
18
102
{ACAD_REACTORS
330
17
102
}
100
AcDbMlineStyle
  2
STANDARD
 70
0
  3

 62
256
 51
90.0
 52
90.0
 71
2
 49
0.5
 62
256
  6
BYLAYER
 49
-0.5
 62
256
  6
BYLAYER
  0
LAYOUT
  5
327
102
{ACAD_REACTORS
330
1A
102
}
100
AcDbPlotSettings
  1

  2
none_device
  4
ISO_A4_(297.00_x_210.00_MM)
  6

 40
0.0
 41
0.0
 42
0.0
 43
0.0
 44
297.0
 45
210.0
 46
0.0
 47
0.0
 48
0.0
 49
0.0
140
0.0
141
0.0
142
1.0
143
1.0
 70
1024
 72
1
 73
0
 74
0
  7

 75
0
147
1.0
148
0.0
149
0.0
100
AcDbLayout
  1
Model
 70
0
 71
0
 10
0.0
 20
0.0
 11
297.0
 21
210.0
 12
0.0
 22
0.0
 32
0.0
 14
0.0
 24
0.0
 34
0.0
 15
0.0
 25
0.0
 35
0.0
146
0.0
 13
0.0
 23
0.0
 33
0.0
 16
1.0
 26
0.0
 36
0.0
 17
0.0
 27
1.0
 37
0.0
 76
0
330
217
345
0
346
0
  0
LAYOUT
  5
328
102
{ACAD_REACTORS
330
1A
102
}
100
AcDbPlotSettings
  1

  2
none_device
  4
ISO_A4_(297.00_x_210.00_MM)
  6

 40
0.0
 41
0.0
 42
0.0
 43
0.0
 44
297.0
 45
210.0
 46
0.0
 47
0.0
 48
0.0
 49
0.0
140
0.0
141
0.0
142
1.0
143
1.0
 70
0
 72
1
 73
0
 74
0
  7

 75
0
147
1.0
148
0.0
149
0.0
100
AcDbLayout
  1
Layout1
 70
0
 71
1
 10
0.0
 20
0.0
 11
297.0
 21
210.0
 12
0.0
 22
0.0
 32
0.0
 14
0.0
 24
0.0
 34
0.0
 15
0.0
 25
0.0
 35
0.0
146
0.0
 13
0.0
 23
0.0
 33
0.0
 16
1.0
 26
0.0
 36
0.0
 17
0.0
 27
1.0
 37
0.0
 76
0
330
218
345
0
346
0
  0
ENDSEC
  0
EOF
