999
DXF file: 40-482-05-8.dxf
999
Pro/ENGINEER 2009220 by Parametric Technology Corporation
  0
SECTION
  2
HEADER
  9
$ACADVER
  1
AC1021
  9
$DWGCODEPAGE
  3
ANSI_1252
  9
$EXTMAX
 10
297.0
 20
210.0
 30
0.0
  9
$EXTMIN
 10
0.0
 20
0.0
 30
0.0
  9
$LIMMIN
 10
0.0
 20
0.0
  9
$LIMMAX
 10
297.0
 20
210.0
  9
$VIEWCTR
 10
148.5
 20
105.0
  9
$VIEWSIZE
 40
210.0
  9
$CLAYER
  8
0
  9
$LTSCALE
 40
16.335
  9
$CELTYPE
  6
BYLAYER
  9
$DIMSCALE
 40
1.0
  9
$DIMASZ
 40
3.5
  9
$DIMEXO
 40
1.85625
  9
$DIMDLI
 40
11.286
  9
$DIMEXE
 40
5.346
  9
$DIMCEN
 40
2.673
  9
$DIMLFAC
 40
1.0
  9
$DIMBLK
  1
_FILLED
  9
$DIMTXT
 40
3.5
  9
$DIMTOL
 70
1
  9
$DIMLIM
 70
0
  9
$DIMTFAC
 40
1.0
  9
$DIMTP
 40
0.005
  9
$DIMTM
 40
0.005
  9
$PDMODE
 70
3
  9
$PDSIZE
 40
0.3125
  9
$HANDSEED
  5
329
  9
$TILEMODE
 70
1
  9
$MEASUREMENT
 70
1
  9
$INSUNITS
 70
4
  0
ENDSEC
  0
SECTION
  2
CLASSES
  0
CLASS
  1
ACDBDICTIONARYWDFLT
  2
AcDbDictionaryWithDefault
  3
AutoCAD 2000
 90
0
 91
1
280
0
281
0
  0
CLASS
  1
ACDBPLACEHOLDER
  2
AcDbPlaceHolder
  3
AutoCAD 2000
 90
0
 91
1
280
0
281
0
  0
CLASS
  1
LAYOUT
  2
AcDbLayout
  3
AutoCAD 2000
 90
0
 91
0
280
0
281
0
  0
ENDSEC
  0
SECTION
  2
TABLES
  0
TABLE
  2
VPORT
  5
8
100
AcDbSymbolTable
 70
2
  0
VPORT
  5
1F4
100
AcDbSymbolTableRecord
100
AcDbViewportTableRecord
  2
*ACTIVE
 70
0
 10
0.0
 20
0.0
 11
1.0
 21
1.0
 12
148.5
 22
105.0
 13
0.0
 23
0.0
 14
1.0
 24
1.0
 15
0.0
 25
0.0
 16
0.0
 26
0.0
 36
1.0
 17
0.0
 27
0.0
 37
0.0
 40
210.0
 41
1.4142857143
 42
50.0
 43
0.0
 44
0.0
 50
0.0
 51
0.0
 71
0
 72
100
 73
1
 74
1
 75
0
 76
0
 77
0
 78
0
  0
ENDTAB
  0
TABLE
  2
LTYPE
  5
5
100
AcDbSymbolTable
 70
6
  0
LTYPE
  5
14
100
AcDbSymbolTableRecord
100
AcDbLinetypeTableRecord
  2
BYBLOCK
 70
0
  3

 72
65
 73
0
 40
0.0
  0
LTYPE
  5
15
100
AcDbSymbolTableRecord
100
AcDbLinetypeTableRecord
  2
BYLAYER
 70
0
  3

 72
65
 73
0
 40
0.0
  0
LTYPE
  5
16
100
AcDbSymbolTableRecord
100
AcDbLinetypeTableRecord
  2
CONTINUOUS
 70
64
  3
Solid line
 72
65
 73
0
 40
0.0
  0
LTYPE
  5
1F5
100
AcDbSymbolTableRecord
100
AcDbLinetypeTableRecord
  2
CENTER
 70
64
  3
____ _ ____ _ ____ _ ____ _ ____ _ ____ _ ____
 72
65
 73
4
 40
0.6
 49
0.375
 74
0
 49
-0.075
 74
0
 49
0.075
 74
0
 49
-0.075
 74
0
  0
LTYPE
  5
1F6
100
AcDbSymbolTableRecord
100
AcDbLinetypeTableRecord
  2
HIDDEN
 70
64
  3
- - - - - - - - - - - - - - - - - - - -
 72
65
 73
2
 40
0.2
 49
0.1
 74
0
 49
-0.1
 74
0
  0
LTYPE
  5
1F7
100
AcDbSymbolTableRecord
100
AcDbLinetypeTableRecord
  2
PHANTOM
 70
64
  3
_____ _ _ _____ _ _ _____ _ _ _____
 72
65
 73
6
 40
0.8
 49
0.45
 74
0
 49
-0.05
 74
0
 49
0.1
 74
0
 49
-0.05
 74
0
 49
0.1
 74
0
 49
-0.05
 74
0
  0
LTYPE
  5
1F8
100
AcDbSymbolTableRecord
100
AcDbLinetypeTableRecord
  2
DOT
 70
64
  3
. . . . . . . . . . . . . . . . . . . .
 72
65
 73
2
 40
0.2
 49
0.1
 74
0
 49
-0.1
 74
0
  0
LTYPE
  5
1F9
100
AcDbSymbolTableRecord
100
AcDbLinetypeTableRecord
  2
DASHED
 70
64
  3
- - - - - - - - - - - - - - - - - - - -
 72
65
 73
2
 40
0.2
 49
0.1
 74
0
 49
-0.1
 74
0
  0
ENDTAB
  0
TABLE
  2
LAYER
  5
2
100
AcDbSymbolTable
 70
36
  0
LAYER
  5
10
100
AcDbSymbolTableRecord
100
AcDbLayerTableRecord
  2
0
 70
0
 62
7
  6
CONTINUOUS
370
-3
390
F
  0
LAYER
  5
1FA
100
AcDbSymbolTableRecord
100
AcDbLayerTableRecord
  2
DEFAULT_1
 70
0
 62
7
  6
CENTER
370
-3
390
F
  0
LAYER
  5
1FB
100
AcDbSymbolTableRecord
100
AcDbLayerTableRecord
  2
DEFAULT_2
 70
0
 62
8
  6
HIDDEN
370
-3
390
F
  0
LAYER
  5
1FC
100
AcDbSymbolTableRecord
100
AcDbLayerTableRecord
  2
DEFAULT_3
 70
0
 62
7
  6
PHANTOM
370
-3
390
F
  0
LAYER
  5
1FD
100
AcDbSymbolTableRecord
100
AcDbLayerTableRecord
  2
ANALYSEN
 70
0
 62
7
  6
CONTINUOUS
370
-3
390
F
  0
LAYER
  5
1FE
100
AcDbSymbolTableRecord
100
AcDbLayerTableRecord
  2
AUSSENKONTUR
 70
0
 62
7
  6
CONTINUOUS
370
-3
390
F
  0
LAYER
  5
1FF
100
AcDbSymbolTableRecord
100
AcDbLayerTableRecord
  2
BEZUGSACHSEN
 70
0
 62
7
  6
CONTINUOUS
370
-3
390
F
  0
LAYER
  5
200
100
AcDbSymbolTableRecord
100
AcDbLayerTableRecord
  2
BEZUGSACHSENKENNZEICHEN
 70
0
 62
7
  6
CONTINUOUS
370
-3
390
F
  0
LAYER
  5
201
100
AcDbSymbolTableRecord
100
AcDbLayerTableRecord
  2
BEZUGSEBENEN
 70
0
 62
7
  6
CONTINUOUS
370
-3
390
F
  0
LAYER
  5
202
100
AcDbSymbolTableRecord
100
AcDbLayerTableRecord
  2
BEZUGSPUNKTE
 70
0
 62
7
  6
CONTINUOUS
370
-3
390
F
  0
LAYER
  5
203
100
AcDbSymbolTableRecord
100
AcDbLayerTableRecord
  2
BOHRUNGEN
 70
0
 62
7
  6
CONTINUOUS
370
-3
390
F
  0
LAYER
  5
204
100
AcDbSymbolTableRecord
100
AcDbLayerTableRecord
  2
FASEN
 70
0
 62
7
  6
CONTINUOUS
370
-3
390
F
  0
LAYER
  5
205
100
AcDbSymbolTableRecord
100
AcDbLayerTableRecord
  2
FLAECHEN
 70
0
 62
7
  6
CONTINUOUS
370
-3
390
F
  0
LAYER
  5
206
100
AcDbSymbolTableRecord
100
AcDbLayerTableRecord
  2
GEWINDE
 70
0
 62
7
  6
CONTINUOUS
370
-3
390
F
  0
LAYER
  5
207
100
AcDbSymbolTableRecord
100
AcDbLayerTableRecord
  2
HILFEN
 70
0
 62
7
  6
CONTINUOUS
370
-3
390
F
  0
LAYER
  5
208
100
AcDbSymbolTableRecord
100
AcDbLayerTableRecord
  2
INNENKONTUR
 70
0
 62
7
  6
CONTINUOUS
370
-3
390
F
  0
LAYER
  5
209
100
AcDbSymbolTableRecord
100
AcDbLayerTableRecord
  2
KURVEN
 70
0
 62
7
  6
CONTINUOUS
370
-3
390
F
  0
LAYER
  5
20A
100
AcDbSymbolTableRecord
100
AcDbLayerTableRecord
  2
MAKINO
 70
0
 62
7
  6
CONTINUOUS
370
-3
390
F
  0
LAYER
  5
20B
100
AcDbSymbolTableRecord
100
AcDbLayerTableRecord
  2
OELVERDR_RILLE
 70
0
 62
7
  6
CONTINUOUS
370
-3
390
F
  0
LAYER
  5
20C
100
AcDbSymbolTableRecord
100
AcDbLayerTableRecord
  2
PLATZIERUNG
 70
0
 62
7
  6
CONTINUOUS
370
-3
390
F
  0
LAYER
  5
20D
100
AcDbSymbolTableRecord
100
AcDbLayerTableRecord
  2
PUNKTE
 70
0
 62
7
  6
CONTINUOUS
370
-3
390
F
  0
LAYER
  5
20E
100
AcDbSymbolTableRecord
100
AcDbLayerTableRecord
  2
RUNDUNGEN
 70
0
 62
7
  6
CONTINUOUS
370
-3
390
F
  0
LAYER
  5
20F
100
AcDbSymbolTableRecord
100
AcDbLayerTableRecord
  2
TEIL_STARTBEZUEGE
 70
0
 62
7
  6
CONTINUOUS
370
-3
390
F
  0
LAYER
  5
210
100
AcDbSymbolTableRecord
100
AcDbLayerTableRecord
  2
VERERBUNG
 70
0
 62
7
  6
CONTINUOUS
370
-3
390
F
  0
LAYER
  5
211
100
AcDbSymbolTableRecord
100
AcDbLayerTableRecord
  2
VOLUMEN
 70
0
 62
7
  6
CONTINUOUS
370
-3
390
F
  0
LAYER
  5
212
100
AcDbSymbolTableRecord
100
AcDbLayerTableRecord
  2
ZEICHNUNG
 70
0
 62
7
  6
CONTINUOUS
370
-3
390
F
  0
LAYER
  5
213
100
AcDbSymbolTableRecord
100
AcDbLayerTableRecord
  2
ZEICHNUNGSBEMASSUNGEN
 70
0
 62
7
  6
CONTINUOUS
370
-3
390
F
  0
ENDTAB
  0
TABLE
  2
STYLE
  5
3
100
AcDbSymbolTable
 70
1
  0
STYLE
  5
11
100
AcDbSymbolTableRecord
100
AcDbTextStyleTableRecord
  2
STANDARD
 70
0
 40
0.0
 41
0.7
 50
0.0
 71
0
 42
0.2
  3
txt
  4

  0
STYLE
  5
214
100
AcDbSymbolTableRecord
100
AcDbTextStyleTableRecord
  2
TEXTSTYLE_1
 70
0
 40
0.0
 41
0.8
 50
0.0
 71
0
 42
0.2
  3
gdt
  4

  0
STYLE
  5
215
100
AcDbSymbolTableRecord
100
AcDbTextStyleTableRecord
  2
TEXTSTYLE_2
 70
0
 40
0.0
 41
0.7
 50
0.0
 71
0
 42
0.2
  3
gdt
  4

  0
ENDTAB
  0
TABLE
  2
VIEW
  5
6
100
AcDbSymbolTable
 70
0
  0
ENDTAB
  0
TABLE
  2
UCS
  5
7
100
AcDbSymbolTable
 70
0
  0
ENDTAB
  0
TABLE
  2
APPID
  5
9
100
AcDbSymbolTable
 70
1
  0
APPID
  5
216
100
AcDbSymbolTableRecord
100
AcDbRegAppTableRecord
  2
ACAD
 70
0
  0
ENDTAB
  0
TABLE
  2
BLOCK_RECORD
  5
1
100
AcDbSymbolTable
 70
0
  0
BLOCK_RECORD
  5
217
100
AcDbSymbolTableRecord
100
AcDbBlockTableRecord
  2
*Model_Space
  0
BLOCK_RECORD
  5
218
100
AcDbSymbolTableRecord
100
AcDbBlockTableRecord
  2
*Paper_Space
  0
BLOCK_RECORD
  5
219
100
AcDbSymbolTableRecord
100
AcDbBlockTableRecord
  2
_FILLED
  0
BLOCK_RECORD
  5
21A
100
AcDbSymbolTableRecord
100
AcDbBlockTableRecord
  2
*D0
  0
BLOCK_RECORD
  5
21B
100
AcDbSymbolTableRecord
100
AcDbBlockTableRecord
  2
*D1
  0
BLOCK_RECORD
  5
21C
100
AcDbSymbolTableRecord
100
AcDbBlockTableRecord
  2
*D2
  0
BLOCK_RECORD
  5
21D
100
AcDbSymbolTableRecord
100
AcDbBlockTableRecord
  2
*D3
  0
BLOCK_RECORD
  5
21E
100
AcDbSymbolTableRecord
100
AcDbBlockTableRecord
  2
*D4
  0
BLOCK_RECORD
  5
21F
100
AcDbSymbolTableRecord
100
AcDbBlockTableRecord
  2
*D5
  0
ENDTAB
  0
TABLE
  2
DIMSTYLE
  5
A
100
AcDbSymbolTable
 70
1
100
AcDbDimStyleTable
 71
0
  0
DIMSTYLE
105
220
100
AcDbSymbolTableRecord
100
AcDbDimStyleTableRecord
  2
STANDARD
 70
0
  3

  4

 40
1.0
 41
3.5
 42
0.0625
 43
0.38
 44
0.18
 45
0.0
 46
0.0
 47
0.005
 48
0.005
140
3.5
141
0.09
142
0.0
143
25.4
144
1.0
145
0.0
146
1.0
147
0.09
 71
1.0
 72
0.0
 73
0
 74
0
 75
0
 76
0
 77
1
 78
8
170
0
171
2
172
0
173
0
174
0
175
0
176
0
177
0
178
5
270
2
271
3
272
3
273
2
274
2
275
0
280
0
281
0
282
0
283
1
284
8
285
0
286
0
287
3
288
0
340
11
341
219
342
219
343
219
344
219
  0
DIMSTYLE
105
221
100
AcDbSymbolTableRecord
100
AcDbDimStyleTableRecord
  2
DIMSTYLE_1
 70
0
  3

  4

 40
1.0
 41
3.5
 42
0.0625
 43
0.38
 44
0.18
 45
0.0
 46
0.0
 47
0.5
 48
0.5
140
3.5
141
0.09
142
0.0
143
25.4
144
1.0
145
0.0
146
1.0
147
0.09
 71
0.0
 72
0.0
 73
0
 74
0
 75
0
 76
0
 77
1
 78
8
170
0
171
2
172
0
173
0
174
0
175
0
176
0
177
0
178
5
270
2
271
3
272
3
273
2
274
2
275
0
280
0
281
0
282
0
283
1
284
8
285
0
286
0
287
3
288
0
340
11
341
219
342
219
343
219
344
219
  0
DIMSTYLE
105
222
100
AcDbSymbolTableRecord
100
AcDbDimStyleTableRecord
  2
DIMSTYLE_2
 70
0
  3

  4

 40
1.0
 41
3.5
 42
0.0625
 43
0.38
 44
0.18
 45
0.0
 46
0.0
 47
0.5
 48
0.5
140
3.5
141
0.09
142
0.0
143
25.4
144
1.0
145
0.0
146
1.0
147
0.09
 71
0.0
 72
0.0
 73
0
 74
0
 75
0
 76
0
 77
1
 78
8
170
0
171
2
172
0
173
0
174
0
175
0
176
0
177
0
178
5
270
2
271
2
272
2
273
2
274
2
275
0
280
0
281
0
282
0
283
1
284
8
285
0
286
0
287
3
288
0
340
11
341
219
342
219
343
219
344
219
  0
DIMSTYLE
105
223
100
AcDbSymbolTableRecord
100
AcDbDimStyleTableRecord
  2
DIMSTYLE_3
 70
0
  3

  4

 40
1.0
 41
3.5
 42
0.0625
 43
0.38
 44
0.18
 45
0.0
 46
0.0
 47
0.1
 48
0.0
140
3.5
141
0.09
142
0.0
143
25.4
144
1.0
145
0.0
146
1.0
147
0.09
 71
0.0
 72
0.0
 73
0
 74
0
 75
0
 76
0
 77
1
 78
8
170
0
171
2
172
0
173
0
174
0
175
0
176
0
177
0
178
5
270
2
271
2
272
2
273
2
274
2
275
0
280
0
281
0
282
0
283
1
284
8
285
0
286
0
287
3
288
0
340
11
341
219
342
219
343
219
344
219
  0
DIMSTYLE
105
224
100
AcDbSymbolTableRecord
100
AcDbDimStyleTableRecord
  2
DIMSTYLE_4
 70
0
  3

  4

 40
1.0
 41
3.5
 42
0.0625
 43
0.38
 44
0.18
 45
0.0
 46
0.0
 47
0.0
 48
0.0
140
3.5
141
0.09
142
0.0
143
25.4
144
1.0
145
0.0
146
1.0
147
0.09
 71
0.0
 72
0.0
 73
0
 74
0
 75
0
 76
0
 77
1
 78
8
170
0
171
2
172
0
173
0
174
0
175
0
176
0
177
0
178
5
270
2
271
0
272
0
273
2
274
2
275
0
280
0
281
0
282
0
283
1
284
8
285
0
286
0
287
3
288
0
340
11
341
219
342
219
343
219
344
219
  0
DIMSTYLE
105
225
100
AcDbSymbolTableRecord
100
AcDbDimStyleTableRecord
  2
DIMSTYLE_5
 70
0
  3

  4

 40
1.0
 41
3.5
 42
0.0625
 43
0.38
 44
0.18
 45
0.0
 46
0.0
 47
0.1
 48
0.1
140
3.5
141
0.09
142
0.0
143
25.4
144
1.0
145
0.0
146
1.0
147
0.09
 71
0.0
 72
0.0
 73
0
 74
0
 75
0
 76
0
 77
1
 78
8
170
0
171
2
172
0
173
0
174
0
175
0
176
0
177
0
178
5
270
2
271
2
272
2
273
2
274
2
275
0
280
0
281
0
282
0
283
1
284
8
285
0
286
0
287
3
288
0
340
11
341
219
342
219
343
219
344
219
  0
ENDTAB
  0
ENDSEC
  0
SECTION
  2
BLOCKS
  0
BLOCK
  5
20
100
AcDbEntity
  8
0
100
AcDbBlockBegin
  2
*Model_Space
 70
0
 10
0.0
 20
0.0
 30
0.0
  3
*Model_Space
  1

  0
ENDBLK
  5
21
100
AcDbEntity
  8
0
100
AcDbBlockEnd
  0
BLOCK
  5
1C
100
AcDbEntity
  8
0
100
AcDbBlockBegin
  2
*Paper_Space
 70
0
 10
0.0
 20
0.0
 30
0.0
  3
*Paper_Space
  1

  0
ENDBLK
  5
1D
100
AcDbEntity
  8
0
100
AcDbBlockEnd
  0
BLOCK
  5
226
100
AcDbEntity
  8
0
100
AcDbBlockBegin
  2
_FILLED
 70
64
 10
0.0
 20
0.0
  3
_FILLED
  1

  0
SOLID
  5
227
100
AcDbEntity
  8
0
  6
BYBLOCK
 62
0
100
AcDbTrace
 10
0.0
 20
0.0
 11
-1.0
 21
0.125
 12
-1.0
 22
-0.125
 13
-1.0
 23
-0.125
  0
ENDBLK
  5
228
100
AcDbEntity
  8
0
  6
BYBLOCK
 62
0
100
AcDbBlockEnd
  0
BLOCK
  5
229
100
AcDbEntity
  8
0
100
AcDbBlockBegin
 62
2
  6
CONTINUOUS
  2
*D0
 70
65
 10
0.0
 20
0.0
  3
*D0
  1

  0
MTEXT
  5
22A
100
AcDbEntity
  8
0
100
AcDbMText
 62
5
  6
CONTINUOUS
  7
STANDARD
 71
2
 72
1
 10
175.2791963905
 20
176.4533096662
 30
0.0
 11
1.0
 21
0.0
 31
0.0
 44
0.9
  1
160
 40
3.5
 41
8.490234375
  0
LINE
  5
22B
100
AcDbEntity
  8
0
100
AcDbLine
 62
2
  6
CONTINUOUS
 10
255.2791963905
 20
118.43038651
 11
255.2791963905
 21
173.5783096662
  0
LINE
  5
22C
100
AcDbEntity
  8
0
100
AcDbLine
 62
2
  6
CONTINUOUS
 10
95.2791963905
 20
150.9936906111
 11
95.2791963905
 21
173.5783096662
  0
LINE
  5
22D
100
AcDbEntity
  8
0
100
AcDbLine
 62
2
  6
CONTINUOUS
 10
255.2791963905
 20
172.0783096662
 11
175.2791963905
 21
172.0783096662
  0
LINE
  5
22E
100
AcDbEntity
  8
0
100
AcDbLine
 62
2
  6
CONTINUOUS
 10
95.2791963905
 20
172.0783096662
 11
175.2791963905
 21
172.0783096662
  0
INSERT
  5
22F
100
AcDbEntity
  8
0
100
AcDbBlockReference
 62
2
  6
CONTINUOUS
  2
_FILLED
 10
255.2791963905
 20
172.0783096662
 41
3.5
 42
3.5
 43
3.5
  0
INSERT
  5
230
100
AcDbEntity
  8
0
100
AcDbBlockReference
 62
2
  6
CONTINUOUS
  2
_FILLED
 10
95.2791963905
 20
172.0783096662
 41
3.5
 42
3.5
 43
3.5
 50
180.0
  0
ENDBLK
  5
231
100
AcDbEntity
  8
0
  6
BYBLOCK
 62
0
100
AcDbBlockEnd
  0
BLOCK
  5
232
100
AcDbEntity
  8
0
100
AcDbBlockBegin
 62
2
  6
CONTINUOUS
  2
*D1
 70
65
 10
0.0
 20
0.0
  3
*D1
  1

  0
MTEXT
  5
233
100
AcDbEntity
  8
0
100
AcDbMText
 62
5
  6
CONTINUOUS
  7
STANDARD
 71
2
 72
1
 10
141.0791963905
 20
183.132891038
 30
0.0
 11
1.0
 21
0.0
 31
0.0
 44
0.9
  1
228.4
 40
3.5
 41
12.7421875
  0
LINE
  5
234
100
AcDbEntity
  8
0
100
AcDbLine
 62
2
  6
CONTINUOUS
 10
26.8791963905
 20
133.1870022627
 11
26.8791963905
 21
180.257891038
  0
LINE
  5
235
100
AcDbEntity
  8
0
100
AcDbLine
 62
2
  6
CONTINUOUS
 10
255.2791963905
 20
120.93038651
 11
255.2791963905
 21
180.257891038
  0
LINE
  5
236
100
AcDbEntity
  8
0
100
AcDbLine
 62
2
  6
CONTINUOUS
 10
26.8791963905
 20
178.757891038
 11
141.0791963905
 21
178.757891038
  0
LINE
  5
237
100
AcDbEntity
  8
0
100
AcDbLine
 62
2
  6
CONTINUOUS
 10
255.2791963905
 20
178.757891038
 11
141.0791963905
 21
178.757891038
  0
INSERT
  5
238
100
AcDbEntity
  8
0
100
AcDbBlockReference
 62
2
  6
CONTINUOUS
  2
_FILLED
 10
26.8791963905
 20
178.757891038
 41
3.5
 42
3.5
 43
3.5
 50
180.0
  0
INSERT
  5
239
100
AcDbEntity
  8
0
100
AcDbBlockReference
 62
2
  6
CONTINUOUS
  2
_FILLED
 10
255.2791963905
 20
178.757891038
 41
3.5
 42
3.5
 43
3.5
  0
ENDBLK
  5
23A
100
AcDbEntity
  8
0
  6
BYBLOCK
 62
0
100
AcDbBlockEnd
  0
BLOCK
  5
23B
100
AcDbEntity
  8
0
100
AcDbBlockBegin
 62
2
  6
CONTINUOUS
  2
*D2
 70
65
 10
0.0
 20
0.0
  3
*D2
  1

  0
MTEXT
  5
23C
100
AcDbEntity
  8
0
100
AcDbMText
 62
5
  6
CONTINUOUS
  7
STANDARD
 71
2
 72
1
 10
179.4824461243
 20
169.0285124956
 30
0.0
 11
1.0
 21
0.0
 31
0.0
 44
0.9
  1
140.9
 40
3.5
 41
12.7421875
  0
LINE
  5
23D
100
AcDbEntity
  8
0
100
AcDbLine
 62
2
  6
CONTINUOUS
 10
255.2791963905
 20
120.93038651
 11
255.2791963905
 21
166.1535124956
  0
LINE
  5
23E
100
AcDbEntity
  8
0
100
AcDbLine
 62
2
  6
CONTINUOUS
 10
114.3791963905
 20
150.9936906111
 11
114.3791963905
 21
166.1535124956
  0
LINE
  5
23F
100
AcDbEntity
  8
0
100
AcDbLine
 62
2
  6
CONTINUOUS
 10
255.2791963905
 20
164.6535124956
 11
184.8291963905
 21
164.6535124956
  0
LINE
  5
240
100
AcDbEntity
  8
0
100
AcDbLine
 62
2
  6
CONTINUOUS
 10
114.3791963905
 20
164.6535124956
 11
184.8291963905
 21
164.6535124956
  0
INSERT
  5
241
100
AcDbEntity
  8
0
100
AcDbBlockReference
 62
2
  6
CONTINUOUS
  2
_FILLED
 10
255.2791963905
 20
164.6535124956
 41
3.5
 42
3.5
 43
3.5
  0
INSERT
  5
242
100
AcDbEntity
  8
0
100
AcDbBlockReference
 62
2
  6
CONTINUOUS
  2
_FILLED
 10
114.3791963905
 20
164.6535124956
 41
3.5
 42
3.5
 43
3.5
 50
180.0
  0
ENDBLK
  5
243
100
AcDbEntity
  8
0
  6
BYBLOCK
 62
0
100
AcDbBlockEnd
  0
BLOCK
  5
244
100
AcDbEntity
  8
0
100
AcDbBlockBegin
 62
2
  6
CONTINUOUS
  2
*D3
 70
65
 10
0.0
 20
0.0
  3
*D3
  1

  0
MTEXT
  5
245
100
AcDbEntity
  8
0
100
AcDbMText
 62
5
  6
CONTINUOUS
  7
TEXTSTYLE_2
 71
1
 72
1
 10
283.6036600065
 20
127.0432985266
 30
0.0
 11
0.0
 21
1.0
 31
0.0
 44
0.9
  1
{\Fgdt;n}\Ftxt;11
 40
3.5
 41
10.3268229167
  0
LINE
  5
246
100
AcDbEntity
  8
0
100
AcDbLine
 62
2
  6
CONTINUOUS
 10
255.2791963905
 20
115.43038651
 11
289.4786600065
 21
115.43038651
  0
LINE
  5
247
100
AcDbEntity
  8
0
100
AcDbLine
 62
2
  6
CONTINUOUS
 10
255.2791963905
 20
126.43038651
 11
289.4786600065
 21
126.43038651
  0
LINE
  5
248
100
AcDbEntity
  8
0
100
AcDbLine
 62
2
  6
CONTINUOUS
 10
287.9786600065
 20
115.43038651
 11
287.9786600065
 21
120.93038651
  0
LINE
  5
249
100
AcDbEntity
  8
0
100
AcDbLine
 62
2
  6
CONTINUOUS
 10
287.9786600065
 20
126.43038651
 11
287.9786600065
 21
120.93038651
  0
LINE
  5
24A
100
AcDbEntity
  8
0
100
AcDbLine
 62
2
  6
CONTINUOUS
 10
287.9786600065
 20
120.93038651
 11
287.9786600065
 21
137.3701214432
  0
INSERT
  5
24B
100
AcDbEntity
  8
0
100
AcDbBlockReference
 62
2
  6
CONTINUOUS
  2
_FILLED
 10
287.9786600065
 20
115.43038651
 41
3.5
 42
3.5
 43
3.5
 50
270.0
  0
INSERT
  5
24C
100
AcDbEntity
  8
0
100
AcDbBlockReference
 62
2
  6
CONTINUOUS
  2
_FILLED
 10
287.9786600065
 20
126.43038651
 41
3.5
 42
3.5
 43
3.5
 50
90.0
  0
ENDBLK
  5
24D
100
AcDbEntity
  8
0
  6
BYBLOCK
 62
0
100
AcDbBlockEnd
  0
BLOCK
  5
24E
100
AcDbEntity
  8
0
100
AcDbBlockBegin
 62
2
  6
CONTINUOUS
  2
*D4
 70
65
 10
0.0
 20
0.0
  3
*D4
  1

  0
MTEXT
  5
24F
100
AcDbEntity
  8
0
100
AcDbMText
 62
5
  6
CONTINUOUS
  7
STANDARD
 71
2
 72
1
 10
184.5101063093
 20
140.7699039928
 30
0.0
 11
0.1121942815
 21
0.9936862901
 31
0.0
 44
0.9
  1
3\Fgdt;{\Fgdt;~}
 40
3.5
 41
5.1634114583
  0
LINE
  5
250
100
AcDbEntity
  8
0
100
AcDbLine
 62
2
  6
CONTINUOUS
 10
249.9412005913
 20
126.7101390156
 11
189.1284458741
 21
129.8972004425
  0
LINE
  5
251
100
AcDbEntity
  8
0
100
AcDbLine
 62
2
  6
CONTINUOUS
 10
249.7068038893
 20
120.93038651
 11
188.8936415877
 21
120.93038651
  0
ARC
  5
252
100
AcDbEntity
  8
0
100
AcDbCircle
 62
2
  6
CONTINUOUS
 10
360.225448173
 20
120.93038651
 40
169.8318065853
100
AcDbArc
 50
173.558178206
 51
177.0
  0
ARC
  5
253
100
AcDbEntity
  8
0
100
AcDbCircle
 62
2
  6
CONTINUOUS
 10
360.225448173
 20
120.93038651
 40
169.8318065853
100
AcDbArc
 50
180.0
 51
182.0242066783
  0
ARC
  5
254
100
AcDbEntity
  8
0
100
AcDbCircle
 62
2
  6
CONTINUOUS
 10
360.225448173
 20
120.93038651
 40
169.8318065853
100
AcDbArc
 50
177.0
 51
180.0
  0
SOLID
  5
255
100
AcDbEntity
  8
0
100
AcDbTrace
 62
2
  6
CONTINUOUS
 10
190.4089300353
 20
133.3392244993
 11
190.6263901762
 21
129.8186965081
 12
191.2822126221
 22
133.2844292112
 13
191.2822126221
 23
133.2844292112
  0
SOLID
  5
256
100
AcDbEntity
  8
0
100
AcDbTrace
 62
2
  6
CONTINUOUS
 10
190.8671828167
 20
117.4350803783
 11
190.3936415877
 21
120.93038651
 12
189.9922292695
 22
117.4260642644
 13
189.9922292695
 23
117.4260642644
  0
ENDBLK
  5
257
100
AcDbEntity
  8
0
  6
BYBLOCK
 62
0
100
AcDbBlockEnd
  0
BLOCK
  5
258
100
AcDbEntity
  8
0
100
AcDbBlockBegin
 62
2
  6
CONTINUOUS
  2
*D5
 70
65
 10
0.0
 20
0.0
  3
*D5
  1

  0
MTEXT
  5
259
100
AcDbEntity
  8
0
100
AcDbMText
 62
5
  6
CONTINUOUS
  7
TEXTSTYLE_2
 71
1
 72
1
 10
274.8982075039
 20
128.3670207754
 30
0.0
 11
0.0
 21
1.0
 31
0.0
 44
0.9
  1
{\Fgdt;n}\Ftxt;5
 40
3.5
 41
7.4967447917
  0
LINE
  5
25A
100
AcDbEntity
  8
0
100
AcDbLine
 62
2
  6
CONTINUOUS
 10
255.2791963905
 20
118.43038651
 11
280.7732075039
 21
118.43038651
  0
LINE
  5
25B
100
AcDbEntity
  8
0
100
AcDbLine
 62
2
  6
CONTINUOUS
 10
255.2791963905
 20
123.43038651
 11
280.7732075039
 21
123.43038651
  0
LINE
  5
25C
100
AcDbEntity
  8
0
100
AcDbLine
 62
2
  6
CONTINUOUS
 10
279.2732075039
 20
118.43038651
 11
279.2732075039
 21
112.43038651
  0
LINE
  5
25D
100
AcDbEntity
  8
0
100
AcDbLine
 62
2
  6
CONTINUOUS
 10
279.2732075039
 20
112.43038651
 11
279.2732075039
 21
120.93038651
  0
LINE
  5
25E
100
AcDbEntity
  8
0
100
AcDbLine
 62
2
  6
CONTINUOUS
 10
279.2732075039
 20
123.43038651
 11
279.2732075039
 21
135.8637655671
  0
LINE
  5
25F
100
AcDbEntity
  8
0
100
AcDbLine
 62
2
  6
CONTINUOUS
 10
279.2732075039
 20
135.8637655671
 11
279.2732075039
 21
120.93038651
  0
INSERT
  5
260
100
AcDbEntity
  8
0
100
AcDbBlockReference
 62
2
  6
CONTINUOUS
  2
_FILLED
 10
279.2732075039
 20
118.43038651
 41
3.5
 42
3.5
 43
3.5
 50
90.0
  0
INSERT
  5
261
100
AcDbEntity
  8
0
100
AcDbBlockReference
 62
2
  6
CONTINUOUS
  2
_FILLED
 10
279.2732075039
 20
123.43038651
 41
3.5
 42
3.5
 43
3.5
 50
270.0
  0
ENDBLK
  5
262
100
AcDbEntity
  8
0
  6
BYBLOCK
 62
0
100
AcDbBlockEnd
  0
ENDSEC
  0
SECTION
  2
ENTITIES
  0
DIMENSION
  5
263
100
AcDbEntity
  8
0
100
AcDbDimension
 62
2
  6
CONTINUOUS
  2
*D0
 10
95.2791963905
 20
172.0783096662
 11
171.034079203
 21
174.7033096662
 70
160
 71
2
 42
160.0
  3
DIMSTYLE_1
100
AcDbAlignedDimension
 13
255.2791963905
 23
118.43038651
 14
95.2791963905
 24
150.9936906111
 50
180.0
100
AcDbRotatedDimension
  0
DIMENSION
  5
264
100
AcDbEntity
  8
0
100
AcDbDimension
 62
2
  6
CONTINUOUS
  2
*D1
 10
255.2791963905
 20
178.757891038
 11
134.7081026405
 21
181.382891038
 70
160
 71
2
 42
228.4
  3
DIMSTYLE_2
100
AcDbAlignedDimension
 13
26.8791963905
 23
133.1870022627
 14
255.2791963905
 24
120.93038651
100
AcDbRotatedDimension
  0
DIMENSION
  5
265
100
AcDbEntity
  8
0
100
AcDbDimension
 62
2
  6
CONTINUOUS
  2
*D2
 10
114.3791963905
 20
164.6535124956
 11
173.1113523743
 21
167.2785124956
 70
160
 71
2
 42
140.9
  3
DIMSTYLE_2
100
AcDbAlignedDimension
 13
255.2791963905
 23
120.93038651
 14
114.3791963905
 24
150.9936906111
 50
180.0
100
AcDbRotatedDimension
  0
DIMENSION
  5
266
100
AcDbEntity
  8
0
100
AcDbDimension
 62
2
  6
CONTINUOUS
  2
*D3
 10
287.9786600065
 20
126.43038651
 11
285.3536600065
 21
132.2067099849
 70
160
 71
1
 42
11.0
  1
%%c<>
  3
DIMSTYLE_3
100
AcDbAlignedDimension
 13
255.2791963905
 23
115.43038651
 14
255.2791963905
 24
126.43038651
 50
90.0
100
AcDbRotatedDimension
  0
DIMENSION
  5
267
100
AcDbEntity
  8
0
100
AcDbDimension
 62
2
  6
CONTINUOUS
  2
*D4
 10
188.8936415877
 20
120.93038651
 11
186.6378893299
 21
139.3426656357
 70
162
 71
2
 42
0.0523598776
  3
DIMSTYLE_4
100
AcDb2LineAngularDimension
 13
189.1284458741
 23
129.8972004425
 14
249.9412005913
 24
126.7101390156
 15
249.7068038893
 25
120.93038651
 16
190.4518387062
 26
125.376064932
  0
DIMENSION
  5
268
100
AcDbEntity
  8
0
100
AcDbDimension
 62
2
  6
CONTINUOUS
  2
*D5
 10
279.2732075039
 20
123.43038651
 11
276.6482075039
 21
132.1153931712
 70
160
 71
1
 42
5.0
  1
%%c<>
  3
DIMSTYLE_5
100
AcDbAlignedDimension
 13
255.2791963905
 23
118.43038651
 14
255.2791963905
 24
123.43038651
 50
90.0
100
AcDbRotatedDimension
  0
MTEXT
  5
269
100
AcDbEntity
  8
0
100
AcDbMText
 62
5
  6
CONTINUOUS
  7
STANDARD
 71
1
 72
1
 10
14.3719287942
 20
83.4835109148
 30
0.0
 11
1.0
 21
0.0
 31
0.0
 44
0.9
  3
Für diese Unterlage behalten wir das Ur-\Pheberrecht. Sie darf nur für den von uns \Pbestimmten Zweck benutzt und ohne unsere \PZustimmung weder vervielfältigt noch\PDritten zugänglich gemacht werden\P \PWe own the copyright of this document. It \Pde
  1
termined and may neither be copied or \Pmade accessible to outsiders without our\Ppermission.\P \PCe plan reste notre propriété. Il ne peut\Pêtre utilisé, copié ou reproduit sans notre\Paccord.\P 
 40
3.5
 41
99.162109375
  0
LINE
  5
26A
100
AcDbEntity
  8
0
100
AcDbLine
 62
7
  6
CONTINUOUS
 10
0.0
 20
0.0
 11
0.0
 21
210.0
  0
LINE
  5
26B
100
AcDbEntity
  8
0
100
AcDbLine
 62
7
  6
CONTINUOUS
 10
0.0
 20
0.0
 11
297.0
 21
0.0
  0
LINE
  5
26C
100
AcDbEntity
  8
0
100
AcDbLine
 62
7
  6
CONTINUOUS
 10
0.0
 20
210.0
 11
297.0
 21
210.0
  0
LINE
  5
26D
100
AcDbEntity
  8
0
100
AcDbLine
 62
7
  6
CONTINUOUS
 10
297.0
 20
0.0
 11
297.0
 21
210.0
  0
LINE
  5
26E
100
AcDbEntity
  8
BEZUGSACHSEN
100
AcDbLine
 62
7
  6
CONTINUOUS
 10
26.8791963905
 20
131.4500871845
 11
26.8791963905
 21
110.4106858355
  0
LINE
  5
26F
100
AcDbEntity
  8
BEZUGSACHSEN
100
AcDbLine
 62
9
  6
CONTINUOUS
 10
28.5905590522
 20
133.4291497117
 11
28.5905590522
 21
108.4316233082
  0
LINE
  5
270
100
AcDbEntity
  8
BEZUGSACHSEN
100
AcDbLine
 62
7
  6
CONTINUOUS
 10
94.821891128
 20
143.0886906012
 11
94.821891128
 21
98.7720824188
  0
LINE
  5
271
100
AcDbEntity
  8
BEZUGSACHSEN
100
AcDbLine
 62
7
  6
CENTER
 10
95.2791963905
 20
91.5625373265
 11
95.2791963905
 21
147.0243369766
  0
LINE
  5
272
100
AcDbEntity
  8
BEZUGSACHSEN
100
AcDbLine
 62
7
  6
CONTINUOUS
 10
95.8791963905
 20
142.80538651
 11
95.8791963905
 21
99.05538651
  0
LINE
  5
273
100
AcDbEntity
  8
BEZUGSACHSEN
100
AcDbLine
 62
9
  6
CONTINUOUS
 10
97.5291963905
 20
142.80538651
 11
97.5291963905
 21
99.05538651
  0
LINE
  5
274
100
AcDbEntity
  8
BEZUGSACHSEN
100
AcDbLine
 62
7
  6
CONTINUOUS
 10
98.5291963905
 20
151.6919758545
 11
98.5291963905
 21
129.13038651
  0
LINE
  5
275
100
AcDbEntity
  8
BEZUGSACHSEN
100
AcDbLine
 62
7
  6
CONTINUOUS
 10
98.5291963905
 20
112.73038651
 11
98.5291963905
 21
102.43038651
  0
LINE
  5
276
100
AcDbEntity
  8
BEZUGSACHSEN
100
AcDbLine
 62
7
  6
CONTINUOUS
 10
98.5291963905
 20
96.3366754236
 11
98.5291963905
 21
90.1894587572
  0
LINE
  5
277
100
AcDbEntity
  8
0
100
AcDbLine
 62
7
  6
CONTINUOUS
 10
98.5291963905
 20
90.1554018833
 11
98.5291963905
 21
96.3366754236
  0
LINE
  5
278
100
AcDbEntity
  8
FASEN
100
AcDbLine
 62
7
  6
CONTINUOUS
 10
98.5291963905
 20
96.3366754236
 11
98.5291963905
 21
102.43038651
  0
LINE
  5
279
100
AcDbEntity
  8
0
100
AcDbLine
 62
7
  6
CONTINUOUS
 10
98.5291963905
 20
102.43038651
 11
98.5291963905
 21
112.73038651
  0
LINE
  5
27A
100
AcDbEntity
  8
FASEN
100
AcDbLine
 62
7
  6
CONTINUOUS
 10
98.5291963905
 20
112.73038651
 11
98.5291963905
 21
129.13038651
  0
LINE
  5
27B
100
AcDbEntity
  8
0
100
AcDbLine
 62
7
  6
CONTINUOUS
 10
98.5291963905
 20
129.13038651
 11
98.5291963905
 21
151.7053586385
  0
LINE
  5
27C
100
AcDbEntity
  8
0
100
AcDbLine
 62
9
  6
CONTINUOUS
 10
99.5291963905
 20
152.70538651
 11
99.5291963905
 21
129.13038651
  0
LINE
  5
27D
100
AcDbEntity
  8
0
100
AcDbLine
 62
9
  6
CONTINUOUS
 10
99.5291963905
 20
112.73038651
 11
99.5291963905
 21
102.43038651
  0
LINE
  5
27E
100
AcDbEntity
  8
0
100
AcDbLine
 62
9
  6
CONTINUOUS
 10
99.5291963905
 20
95.096288403
 11
99.5291963905
 21
89.15538651
  0
LINE
  5
27F
100
AcDbEntity
  8
0
100
AcDbLine
 62
7
  6
CONTINUOUS
 10
102.9179259917
 20
89.15538651
 11
102.9179259917
 21
95.096288403
  0
LINE
  5
280
100
AcDbEntity
  8
0
100
AcDbLine
 62
7
  6
CONTINUOUS
 10
102.9179259917
 20
102.43038651
 11
102.9179259917
 21
112.73038651
  0
LINE
  5
281
100
AcDbEntity
  8
0
100
AcDbLine
 62
7
  6
CONTINUOUS
 10
102.9179259917
 20
129.13038651
 11
102.9179259917
 21
152.70538651
  0
LINE
  5
282
100
AcDbEntity
  8
BEZUGSACHSEN
100
AcDbLine
 62
7
  6
CONTINUOUS
 10
108.3291963905
 20
149.8279817742
 11
109.9904667893
 21
152.70538651
  0
LINE
  5
283
100
AcDbEntity
  8
BEZUGSACHSEN
100
AcDbLine
 62
7
  6
CONTINUOUS
 10
108.3291963905
 20
92.0327912458
 11
109.9904667893
 21
89.15538651
  0
LINE
  5
284
100
AcDbEntity
  8
0
100
AcDbLine
 62
7
  6
CONTINUOUS
 10
104.5791963905
 20
149.8279813434
 11
104.5791963905
 21
148.3154028832
  0
LINE
  5
285
100
AcDbEntity
  8
BEZUGSACHSEN
100
AcDbLine
 62
7
  6
CONTINUOUS
 10
104.5791963905
 20
148.3154028832
 11
104.5791963905
 21
148.0591720942
  0
LINE
  5
286
100
AcDbEntity
  8
0
100
AcDbLine
 62
7
  6
CONTINUOUS
 10
104.5791963905
 20
147.8393309919
 11
104.5791963905
 21
129.13038651
  0
LINE
  5
287
100
AcDbEntity
  8
0
100
AcDbLine
 62
7
  6
CONTINUOUS
 10
104.5791963905
 20
112.73038651
 11
104.5791963905
 21
102.43038651
  0
LINE
  5
288
100
AcDbEntity
  8
0
100
AcDbLine
 62
7
  6
CONTINUOUS
 10
104.5791963905
 20
92.0327972864
 11
104.5791963905
 21
99.0868376912
  0
LINE
  5
289
100
AcDbEntity
  8
0
100
AcDbLine
 62
9
  6
CONTINUOUS
 10
105.0791963905
 20
92.80538651
 11
105.0791963905
 21
99.7462975515
  0
LINE
  5
28A
100
AcDbEntity
  8
0
100
AcDbLine
 62
9
  6
CONTINUOUS
 10
105.0791963905
 20
102.43038651
 11
105.0791963905
 21
112.73038651
  0
LINE
  5
28B
100
AcDbEntity
  8
0
100
AcDbLine
 62
9
  6
CONTINUOUS
 10
105.0791963905
 20
129.13038651
 11
105.0791963905
 21
146.8272401029
  0
LINE
  5
28C
100
AcDbEntity
  8
0
100
AcDbLine
 62
9
  6
CONTINUOUS
 10
105.0791963905
 20
147.8207188423
 11
105.0791963905
 21
149.05538651
  0
LINE
  5
28D
100
AcDbEntity
  8
0
100
AcDbLine
 62
9
  6
CONTINUOUS
 10
107.8291963905
 20
92.80538651
 11
107.8291963905
 21
99.7462975515
  0
LINE
  5
28E
100
AcDbEntity
  8
0
100
AcDbLine
 62
9
  6
CONTINUOUS
 10
107.8291963905
 20
102.43038651
 11
107.8291963905
 21
112.73038651
  0
LINE
  5
28F
100
AcDbEntity
  8
0
100
AcDbLine
 62
9
  6
CONTINUOUS
 10
107.8291963905
 20
129.13038651
 11
107.8291963905
 21
146.8272401029
  0
LINE
  5
290
100
AcDbEntity
  8
0
100
AcDbLine
 62
9
  6
CONTINUOUS
 10
107.8291963905
 20
147.8207188423
 11
107.8291963905
 21
149.05538651
  0
LINE
  5
291
100
AcDbEntity
  8
BEZUGSACHSEN
100
AcDbLine
 62
7
  6
CONTINUOUS
 10
108.3291963905
 20
148.3154028832
 11
108.3291963905
 21
148.0591720942
  0
LINE
  5
292
100
AcDbEntity
  8
0
100
AcDbLine
 62
7
  6
CONTINUOUS
 10
108.3291963905
 20
147.8393309919
 11
108.3291963905
 21
129.13038651
  0
LINE
  5
293
100
AcDbEntity
  8
0
100
AcDbLine
 62
7
  6
CONTINUOUS
 10
108.3291963905
 20
92.0327972864
 11
108.3291963905
 21
99.0868376912
  0
LINE
  5
294
100
AcDbEntity
  8
0
100
AcDbLine
 62
7
  6
CONTINUOUS
 10
108.3291963905
 20
102.43038651
 11
108.3291963905
 21
112.73038651
  0
LINE
  5
295
100
AcDbEntity
  8
0
100
AcDbLine
 62
7
  6
CONTINUOUS
 10
108.3291963905
 20
148.3154028832
 11
108.3291963905
 21
149.8279813434
  0
LINE
  5
296
100
AcDbEntity
  8
0
100
AcDbLine
 62
7
  6
CONTINUOUS
 10
109.9904667893
 20
152.70538651
 11
109.9904667893
 21
129.13038651
  0
LINE
  5
297
100
AcDbEntity
  8
0
100
AcDbLine
 62
7
  6
CONTINUOUS
 10
109.9904667893
 20
112.73038651
 11
109.9904667893
 21
102.43038651
  0
LINE
  5
298
100
AcDbEntity
  8
0
100
AcDbLine
 62
7
  6
CONTINUOUS
 10
109.9904667893
 20
95.096288403
 11
109.9904667893
 21
89.15538651
  0
LINE
  5
299
100
AcDbEntity
  8
0
100
AcDbLine
 62
9
  6
CONTINUOUS
 10
113.3791963905
 20
89.15538651
 11
113.3791963905
 21
95.096288403
  0
LINE
  5
29A
100
AcDbEntity
  8
0
100
AcDbLine
 62
9
  6
CONTINUOUS
 10
113.3791963905
 20
102.43038651
 11
113.3791963905
 21
112.73038651
  0
LINE
  5
29B
100
AcDbEntity
  8
0
100
AcDbLine
 62
9
  6
CONTINUOUS
 10
113.3791963905
 20
129.13038651
 11
113.3791963905
 21
152.70538651
  0
LINE
  5
29C
100
AcDbEntity
  8
BEZUGSACHSEN
100
AcDbLine
 62
7
  6
CONTINUOUS
 10
114.3791963905
 20
151.6919758545
 11
114.3791963905
 21
129.13038651
  0
LINE
  5
29D
100
AcDbEntity
  8
0
100
AcDbLine
 62
7
  6
CONTINUOUS
 10
114.3791963905
 20
151.7053586385
 11
114.3791963905
 21
129.13038651
  0
LINE
  5
29E
100
AcDbEntity
  8
0
100
AcDbLine
 62
7
  6
CONTINUOUS
 10
114.3791963905
 20
112.73038651
 11
114.3791963905
 21
102.43038651
  0
LINE
  5
29F
100
AcDbEntity
  8
BEZUGSACHSEN
100
AcDbLine
 62
7
  6
CONTINUOUS
 10
114.3791963905
 20
96.3366754236
 11
114.3791963905
 21
90.1894587572
  0
LINE
  5
2A0
100
AcDbEntity
  8
0
100
AcDbLine
 62
7
  6
CONTINUOUS
 10
114.3791963905
 20
96.3366754236
 11
114.3791963905
 21
90.1554018833
  0
LINE
  5
2A1
100
AcDbEntity
  8
FASEN
100
AcDbLine
 62
7
  6
CONTINUOUS
 10
114.3791963905
 20
96.3366754236
 11
114.3791963905
 21
102.43038651
  0
LINE
  5
2A2
100
AcDbEntity
  8
FASEN
100
AcDbLine
 62
7
  6
CONTINUOUS
 10
114.3791963905
 20
112.73038651
 11
114.3791963905
 21
129.13038651
  0
LINE
  5
2A3
100
AcDbEntity
  8
RUNDUNGEN
100
AcDbLine
 62
9
  6
CONTINUOUS
 10
115.3791963905
 20
143.43038651
 11
115.3791963905
 21
98.43038651
  0
LINE
  5
2A4
100
AcDbEntity
  8
BEZUGSACHSEN
100
AcDbLine
 62
7
  6
CONTINUOUS
 10
99.5291963905
 20
89.15538651
 11
102.9179259917
 21
89.15538651
  0
LINE
  5
2A5
100
AcDbEntity
  8
BEZUGSACHSEN
100
AcDbLine
 62
7
  6
CONTINUOUS
 10
109.9904667893
 20
89.15538651
 11
113.3791963905
 21
89.15538651
  0
LINE
  5
2A6
100
AcDbEntity
  8
BEZUGSACHSEN
100
AcDbLine
 62
7
  6
CONTINUOUS
 10
105.0791963905
 20
92.80538651
 11
107.8291963905
 21
92.80538651
  0
LINE
  5
2A7
100
AcDbEntity
  8
0
100
AcDbLine
 62
7
  6
CONTINUOUS
 10
99.5291963905
 20
95.096288403
 11
102.9179259917
 21
95.096288403
  0
LINE
  5
2A8
100
AcDbEntity
  8
0
100
AcDbLine
 62
7
  6
CONTINUOUS
 10
109.9904667893
 20
95.096288403
 11
113.3791963905
 21
95.096288403
  0
LINE
  5
2A9
100
AcDbEntity
  8
BEZUGSACHSEN
100
AcDbLine
 62
7
  6
CONTINUOUS
 10
28.5905590522
 20
108.4316233082
 11
94.821891128
 21
98.7720824188
  0
LINE
  5
2AA
100
AcDbEntity
  8
BEZUGSACHSEN
100
AcDbLine
 62
7
  6
CONTINUOUS
 10
102.9179259917
 20
89.15538651
 11
104.5791963905
 21
92.0327912458
  0
LINE
  5
2AB
100
AcDbEntity
  8
BEZUGSACHSEN
100
AcDbLine
 62
7
  6
CONTINUOUS
 10
137.974265497
 20
98.43038651
 11
147.7024181463
 21
100.1784749882
  0
LINE
  5
2AC
100
AcDbEntity
  8
BEZUGSACHSEN
100
AcDbLine
 62
7
  6
CONTINUOUS
 10
148.8684485501
 20
100.3880033938
 11
157.0862437103
 21
101.8646900324
  0
LINE
  5
2AD
100
AcDbEntity
  8
BEZUGSACHSEN
100
AcDbLine
 62
7
  6
CONTINUOUS
 10
115.3791963905
 20
98.43038651
 11
137.974265497
 21
98.43038651
  0
LINE
  5
2AE
100
AcDbEntity
  8
BEZUGSACHSEN
100
AcDbLine
 62
7
  6
CONTINUOUS
 10
95.8791963905
 20
99.05538651
 11
97.5291963905
 21
99.05538651
  0
LINE
  5
2AF
100
AcDbEntity
  8
0
100
AcDbLine
 62
7
  6
CONTINUOUS
 10
105.0791963905
 20
99.7462975515
 11
107.8291963905
 21
99.7462975515
  0
LINE
  5
2B0
100
AcDbEntity
  8
FASEN
100
AcDbLine
 62
7
  6
CONTINUOUS
 10
98.5291963905
 20
102.03038651
 11
114.3791963905
 21
102.03038651
  0
LINE
  5
2B1
100
AcDbEntity
  8
0
100
AcDbLine
 62
7
  6
CONTINUOUS
 10
98.5291963905
 20
102.43038651
 11
114.3791963905
 21
102.43038651
  0
LINE
  5
2B2
100
AcDbEntity
  8
BEZUGSACHSEN
100
AcDbLine
 62
7
  6
CONTINUOUS
 10
158.4910766058
 20
102.93038651
 11
159.7791963905
 21
102.93038651
  0
LINE
  5
2B3
100
AcDbEntity
  8
BEZUGSACHSEN
100
AcDbLine
 62
7
  6
CONTINUOUS
 10
164.7791963905
 20
102.93038651
 11
166.5576051708
 21
102.93038651
  0
LWPOLYLINE
  5
2B4
100
AcDbEntity
  8
0
100
AcDbPolyline
 62
7
  6
CONTINUOUS
 90
10
 70
0
 10
146.3464585874
 20
100.1524821853
 10
146.3375684029
 20
100.1525965559
 10
146.3313616474
 20
100.1527670929
 10
146.3315481638
 20
100.1527459235
 10
146.338533561
 20
100.1522353382
 10
146.352959393
 20
100.1508308655
 10
146.3742411961
 20
100.1481698506
 10
146.4021805961
 20
100.1438211487
 10
146.4356965649
 20
100.1374887823
 10
146.4605668657
 20
100.1320635166
  0
LINE
  5
2B5
100
AcDbEntity
  8
BEZUGSACHSEN
100
AcDbLine
 62
7
  6
CONTINUOUS
 10
102.9179259917
 20
152.70538651
 11
104.5791963905
 21
149.8279817742
  0
LINE
  5
2B6
100
AcDbEntity
  8
BEZUGSACHSEN
100
AcDbLine
 62
7
  6
CONTINUOUS
 10
94.821891128
 20
98.7720824188
 11
95.8791963905
 21
99.05538651
  0
LINE
  5
2B7
100
AcDbEntity
  8
BEZUGSACHSEN
100
AcDbLine
 62
7
  6
CONTINUOUS
 10
176.0458723159
 20
111.27794395
 11
254.9948971774
 21
115.4154870196
  0
LINE
  5
2B8
100
AcDbEntity
  8
BEZUGSACHSEN
100
AcDbLine
 62
7
  6
CONTINUOUS
 10
137.974265497
 20
143.43038651
 11
137.974265497
 21
98.43038651
  0
LINE
  5
2B9
100
AcDbEntity
  8
0
100
AcDbLine
 62
7
  6
CONTINUOUS
 10
98.5291963905
 20
112.73038651
 11
114.3791963905
 21
112.73038651
  0
LINE
  5
2BA
100
AcDbEntity
  8
FASEN
100
AcDbLine
 62
7
  6
CONTINUOUS
 10
114.3791963905
 20
113.13038651
 11
98.5291963905
 21
113.13038651
  0
LINE
  5
2BB
100
AcDbEntity
  8
DEFAULT_2
100
AcDbLine
 62
8
  6
HIDDEN
 10
254.2791963905
 20
118.43038651
 11
240.2894115452
 21
118.43038651
  0
LINE
  5
2BC
100
AcDbEntity
  8
DEFAULT_1
100
AcDbLine
 62
7
  6
CENTER
 10
162.2791963905
 20
120.93038651
 11
148.8684485501
 21
120.93038651
  0
LINE
  5
2BD
100
AcDbEntity
  8
DEFAULT_1
100
AcDbLine
 62
7
  6
CENTER
 10
147.7024181463
 20
120.93038651
 11
142.8332627451
 21
120.93038651
  0
LINE
  5
2BE
100
AcDbEntity
  8
BEZUGSACHSEN
100
AcDbLine
 62
7
  6
CENTER
 10
260.2791963905
 20
120.93038651
 11
23.8791963905
 21
120.93038651
  0
LINE
  5
2BF
100
AcDbEntity
  8
0
100
AcDbLine
 62
9
  6
CONTINUOUS
 10
147.7024181463
 20
120.93038651
 11
148.8684485501
 21
120.93038651
  0
LINE
  5
2C0
100
AcDbEntity
  8
DEFAULT_1
100
AcDbLine
 62
7
  6
CENTER
 10
162.2791963905
 20
120.93038651
 11
181.7251300359
 21
120.93038651
  0
LINE
  5
2C1
100
AcDbEntity
  8
DEFAULT_2
100
AcDbLine
 62
8
  6
HIDDEN
 10
254.2791963905
 20
123.43038651
 11
240.2894115452
 21
123.43038651
  0
LINE
  5
2C2
100
AcDbEntity
  8
BEZUGSACHSEN
100
AcDbLine
 62
9
  6
CONTINUOUS
 10
157.0862437103
 20
139.9960829876
 11
157.0862437103
 21
101.8646900324
  0
LINE
  5
2C3
100
AcDbEntity
  8
BEZUGSACHSEN
100
AcDbLine
 62
9
  6
CONTINUOUS
 10
157.6375751915
 20
139.6086943239
 11
157.6375751915
 21
102.2520786961
  0
LINE
  5
2C4
100
AcDbEntity
  8
BEZUGSACHSEN
100
AcDbLine
 62
9
  6
CONTINUOUS
 10
157.7982562828
 20
139.33038651
 11
157.7982562828
 21
102.53038651
  0
LINE
  5
2C5
100
AcDbEntity
  8
BEZUGSACHSEN
100
AcDbLine
 62
9
  6
CONTINUOUS
 10
158.4910766058
 20
138.93038651
 11
158.4910766058
 21
102.93038651
  0
LINE
  5
2C6
100
AcDbEntity
  8
FASEN
100
AcDbLine
 62
7
  6
CONTINUOUS
 10
98.5291963905
 20
128.73038651
 11
114.3791963905
 21
128.73038651
  0
LINE
  5
2C7
100
AcDbEntity
  8
0
100
AcDbLine
 62
7
  6
CONTINUOUS
 10
98.5291963905
 20
129.13038651
 11
114.3791963905
 21
129.13038651
  0
LINE
  5
2C8
100
AcDbEntity
  8
BEZUGSACHSEN
100
AcDbLine
 62
7
  6
CONTINUOUS
 10
176.0458723159
 20
130.5828290699
 11
254.9948971774
 21
126.4452860004
  0
LINE
  5
2C9
100
AcDbEntity
  8
BEZUGSACHSEN
100
AcDbLine
 62
7
  6
CONTINUOUS
 10
94.821891128
 20
143.0886906012
 11
95.8791963905
 21
142.80538651
  0
LINE
  5
2CA
100
AcDbEntity
  8
DEFAULT_1
100
AcDbLine
 62
7
  6
CENTER
 10
162.2791963905
 20
120.93038651
 11
162.2791963905
 21
101.4844528646
  0
LINE
  5
2CB
100
AcDbEntity
  8
DEFAULT_1
100
AcDbLine
 62
7
  6
CENTER
 10
162.2791963905
 20
120.93038651
 11
162.2791963905
 21
140.3763201554
  0
LINE
  5
2CC
100
AcDbEntity
  8
BEZUGSACHSEN
100
AcDbLine
 62
9
  6
CONTINUOUS
 10
166.5576051708
 20
138.93038651
 11
166.5576051708
 21
102.93038651
  0
LINE
  5
2CD
100
AcDbEntity
  8
BEZUGSACHSEN
100
AcDbLine
 62
7
  6
CONTINUOUS
 10
157.6375751915
 20
102.2520786961
 11
157.7982562828
 21
102.53038651
  0
LINE
  5
2CE
100
AcDbEntity
  8
BEZUGSACHSEN
100
AcDbLine
 62
7
  6
CONTINUOUS
 10
158.4910766058
 20
138.93038651
 11
159.7791963905
 21
138.93038651
  0
LINE
  5
2CF
100
AcDbEntity
  8
BEZUGSACHSEN
100
AcDbLine
 62
7
  6
CONTINUOUS
 10
164.7791963905
 20
138.93038651
 11
166.5576051708
 21
138.93038651
  0
LINE
  5
2D0
100
AcDbEntity
  8
BEZUGSACHSEN
100
AcDbLine
 62
7
  6
CONTINUOUS
 10
95.8791963905
 20
142.80538651
 11
97.5291963905
 21
142.80538651
  0
LINE
  5
2D1
100
AcDbEntity
  8
BEZUGSACHSEN
100
AcDbLine
 62
7
  6
CONTINUOUS
 10
115.3791963905
 20
143.43038651
 11
137.974265497
 21
143.43038651
  0
LINE
  5
2D2
100
AcDbEntity
  8
BEZUGSACHSEN
100
AcDbLine
 62
7
  6
CONTINUOUS
 10
137.974265497
 20
143.43038651
 11
147.7024181463
 21
141.6822980318
  0
LINE
  5
2D3
100
AcDbEntity
  8
BEZUGSACHSEN
100
AcDbLine
 62
7
  6
CONTINUOUS
 10
148.8684485501
 20
141.4727696262
 11
157.0862437103
 21
139.9960829876
  0
LWPOLYLINE
  5
2D4
100
AcDbEntity
  8
0
100
AcDbPolyline
 62
7
  6
CONTINUOUS
 90
9
 70
0
 10
150.2300289462
 20
141.0069866189
 10
150.2393128322
 20
141.0034345272
 10
150.2457712176
 20
141.0008500908
 10
150.2392573562
 20
141.0038388128
 10
150.225998382
 20
141.0103011163
 10
150.2066723651
 20
141.0204119005
 10
150.1815890466
 20
141.0345399968
 10
150.1522130697
 20
141.0523871178
 10
150.1359615426
 20
141.0628381048
  0
LINE
  5
2D5
100
AcDbEntity
  8
BEZUGSACHSEN
100
AcDbLine
 62
7
  6
CONTINUOUS
 10
157.6375751915
 20
139.6086943239
 11
157.7982562828
 21
139.33038651
  0
LINE
  5
2D6
100
AcDbEntity
  8
BEZUGSACHSEN
100
AcDbLine
 62
9
  6
CONTINUOUS
 10
167.2647119519
 20
138.6374932912
 11
167.2647119519
 21
103.2232797288
  0
LINE
  5
2D7
100
AcDbEntity
  8
BEZUGSACHSEN
100
AcDbLine
 62
9
  6
CONTINUOUS
 10
174.736330666
 20
131.1658745771
 11
174.736330666
 21
110.6948984429
  0
LINE
  5
2D8
100
AcDbEntity
  8
BEZUGSACHSEN
100
AcDbLine
 62
7
  6
CONTINUOUS
 10
167.2647119519
 20
103.2232797288
 11
174.736330666
 21
110.6948984429
  0
LINE
  5
2D9
100
AcDbEntity
  8
BEZUGSACHSEN
100
AcDbLine
 62
7
  6
CONTINUOUS
 10
28.5905590522
 20
133.4291497117
 11
94.821891128
 21
143.0886906012
  0
LINE
  5
2DA
100
AcDbEntity
  8
BEZUGSACHSEN
100
AcDbLine
 62
7
  6
CONTINUOUS
 10
105.0791963905
 20
149.05538651
 11
107.8291963905
 21
149.05538651
  0
LINE
  5
2DB
100
AcDbEntity
  8
BEZUGSACHSEN
100
AcDbLine
 62
7
  6
CONTINUOUS
 10
167.2647119519
 20
138.6374932912
 11
174.736330666
 21
131.1658745771
  0
LINE
  5
2DC
100
AcDbEntity
  8
BEZUGSACHSEN
100
AcDbLine
 62
9
  6
CONTINUOUS
 10
176.0458723159
 20
130.5828290699
 11
176.0458723159
 21
111.27794395
  0
LINE
  5
2DD
100
AcDbEntity
  8
BEZUGSACHSEN
100
AcDbLine
 62
7
  6
CONTINUOUS
 10
99.5291963905
 20
152.70538651
 11
102.9179259917
 21
152.70538651
  0
LINE
  5
2DE
100
AcDbEntity
  8
BEZUGSACHSEN
100
AcDbLine
 62
7
  6
CONTINUOUS
 10
109.9904667893
 20
152.70538651
 11
113.3791963905
 21
152.70538651
  0
LINE
  5
2DF
100
AcDbEntity
  8
DEFAULT_2
100
AcDbLine
 62
8
  6
HIDDEN
 10
240.1391963905
 20
123.68038651
 11
240.1391963905
 21
118.18038651
  0
LINE
  5
2E0
100
AcDbEntity
  8
BEZUGSACHSEN
100
AcDbLine
 62
9
  6
CONTINUOUS
 10
254.9948971774
 20
126.4452860004
 11
254.9948971774
 21
115.4154870196
  0
LINE
  5
2E1
100
AcDbEntity
  8
BEZUGSACHSEN
100
AcDbLine
 62
7
  6
CONTINUOUS
 10
255.2791963905
 20
126.14569714
 11
255.2791963905
 21
115.71507588
  0
CIRCLE
  5
2E2
100
AcDbEntity
  8
BEZUGSACHSEN
100
AcDbCircle
 62
7
  6
CONTINUOUS
 10
106.3791963905
 20
120.93038651
 40
5.0
  0
CIRCLE
  5
2E3
100
AcDbEntity
  8
BEZUGSACHSEN
100
AcDbCircle
 62
7
  6
CONTINUOUS
 10
106.3791963905
 20
120.93038651
 40
4.7
  0
CIRCLE
  5
2E4
100
AcDbEntity
  8
BEZUGSACHSEN
100
AcDbCircle
 62
7
  6
CONTINUOUS
 10
106.3791963905
 20
120.93038651
 40
2.0
  0
ARC
  5
2E5
100
AcDbEntity
  8
BEZUGSACHSEN
100
AcDbCircle
 62
7
  6
CONTINUOUS
 10
28.8791963905
 20
110.4106858355
 40
2.0
100
AcDbArc
 50
180.0
 51
261.7021731718
  0
ARC
  5
2E6
100
AcDbEntity
  8
BEZUGSACHSEN
100
AcDbCircle
 62
7
  6
CONTINUOUS
 10
99.5291963905
 20
90.15538651
 40
1.0
100
AcDbArc
 50
180.0
 51
270.0
  0
ARC
  5
2E7
100
AcDbEntity
  8
BEZUGSACHSEN
100
AcDbCircle
 62
7
  6
CONTINUOUS
 10
97.5291963905
 20
98.05538651
 40
1.0
100
AcDbArc
 50
0.0
 51
90.0
  0
ARC
  5
2E8
100
AcDbEntity
  8
BEZUGSACHSEN
100
AcDbCircle
 62
7
  6
CONTINUOUS
 10
105.0791963905
 20
92.30538651
 40
0.5
100
AcDbArc
 50
90.0
 51
180.0
  0
ARC
  5
2E9
100
AcDbEntity
  8
0
100
AcDbCircle
 62
7
  6
CONTINUOUS
 10
-69.0415102109
 20
175.8978139618
 40
189.9972240794
100
AcDbArc
 50
334.8317727047
 51
336.0368933894
  0
ARC
  5
2EA
100
AcDbEntity
  8
BEZUGSACHSEN
100
AcDbCircle
 62
7
  6
CONTINUOUS
 10
28.8791963905
 20
131.4500871845
 40
2.0
100
AcDbArc
 50
98.2978268282
 51
180.0
  0
ARC
  5
2EB
100
AcDbEntity
  8
BEZUGSACHSEN
100
AcDbCircle
 62
7
  6
CONTINUOUS
 10
97.5291963905
 20
143.80538651
 40
1.0
100
AcDbArc
 50
270.0
 51
360.0
  0
ARC
  5
2EC
100
AcDbEntity
  8
BEZUGSACHSEN
100
AcDbCircle
 62
7
  6
CONTINUOUS
 10
99.5291963905
 20
151.70538651
 40
1.0
100
AcDbArc
 50
90.0
 51
180.0
  0
ARC
  5
2ED
100
AcDbEntity
  8
BEZUGSACHSEN
100
AcDbCircle
 62
7
  6
CONTINUOUS
 10
105.0791963905
 20
149.55538651
 40
0.5
100
AcDbArc
 50
180.0
 51
270.0
  0
ARC
  5
2EE
100
AcDbEntity
  8
0
100
AcDbCircle
 62
7
  6
CONTINUOUS
 10
142.2671087796
 20
130.452960897
 40
30.758528654
100
AcDbArc
 50
280.1781277073
 51
281.2858773294
  0
ARC
  5
2EF
100
AcDbEntity
  8
0
100
AcDbCircle
 62
7
  6
CONTINUOUS
 10
143.5195030665
 20
111.7514479159
 40
30.1988109368
100
AcDbArc
 50
79.7976926817
 51
80.9172898817
  0
ARC
  5
2F0
100
AcDbEntity
  8
0
100
AcDbCircle
 62
7
  6
CONTINUOUS
 10
144.2217710761
 20
120.7558014362
 40
21.2081030031
100
AcDbArc
 50
77.3582039543
 51
77.6005360728
  0
ARC
  5
2F1
100
AcDbEntity
  8
0
100
AcDbCircle
 62
7
  6
CONTINUOUS
 10
145.1124549155
 20
119.53570489
 40
19.505506185
100
AcDbArc
 50
277.6209859362
 51
277.7988934631
  0
ARC
  5
2F2
100
AcDbEntity
  8
GEWINDE
100
AcDbCircle
 62
7
  6
CONTINUOUS
 10
162.2791963909
 20
85.1046401628
 40
18.0000000014
100
AcDbArc
 50
82.016533546
 51
97.9834664563
  0
CIRCLE
  5
2F3
100
AcDbEntity
  8
0
100
AcDbCircle
 62
2
  6
CONTINUOUS
 10
162.2791963994
 20
120.93038651
 40
2.9999999911
  0
CIRCLE
  5
2F4
100
AcDbEntity
  8
GEWINDE
100
AcDbCircle
 62
7
  6
CONTINUOUS
 10
162.2791963905
 20
120.93038651
 40
2.5
  0
ARC
  5
2F5
100
AcDbEntity
  8
BEZUGSACHSEN
100
AcDbCircle
 62
7
  6
CONTINUOUS
 10
176.1505442284
 20
109.2806848805
 40
2.0
100
AcDbArc
 50
93.0
 51
135.0
  0
ARC
  5
2F6
100
AcDbEntity
  8
RUNDUNGEN
100
AcDbCircle
 62
7
  6
CONTINUOUS
 10
115.3791963905
 20
97.43038651
 40
1.0
100
AcDbArc
 50
90.0
 51
180.0
  0
ARC
  5
2F7
100
AcDbEntity
  8
BEZUGSACHSEN
100
AcDbCircle
 62
7
  6
CONTINUOUS
 10
166.5576051708
 20
103.93038651
 40
1.0
100
AcDbArc
 50
270.0
 51
315.0
  0
ARC
  5
2F8
100
AcDbEntity
  8
BEZUGSACHSEN
100
AcDbCircle
 62
7
  6
CONTINUOUS
 10
113.3791963905
 20
90.15538651
 40
1.0
100
AcDbArc
 50
270.0
 51
360.0
  0
ARC
  5
2F9
100
AcDbEntity
  8
BEZUGSACHSEN
100
AcDbCircle
 62
7
  6
CONTINUOUS
 10
156.9447548685
 20
102.6520786961
 40
0.8
100
AcDbArc
 50
280.1869780731
 51
330.0
  0
ARC
  5
2FA
100
AcDbEntity
  8
BEZUGSACHSEN
100
AcDbCircle
 62
7
  6
CONTINUOUS
 10
158.4910766058
 20
102.13038651
 40
0.8
100
AcDbArc
 50
90.0
 51
150.0
  0
ARC
  5
2FB
100
AcDbEntity
  8
BEZUGSACHSEN
100
AcDbCircle
 62
7
  6
CONTINUOUS
 10
107.8291963905
 20
92.30538651
 40
0.5
100
AcDbArc
 50
0.0
 51
90.0
  0
ARC
  5
2FC
100
AcDbEntity
  8
BEZUGSACHSEN
100
AcDbCircle
 62
7
  6
CONTINUOUS
 10
254.9791963905
 20
126.14569714
 40
0.3
100
AcDbArc
 50
0.0
 51
87.0
  0
ARC
  5
2FD
100
AcDbEntity
  8
BEZUGSACHSEN
100
AcDbCircle
 62
7
  6
CONTINUOUS
 10
254.9791963905
 20
115.71507588
 40
0.3
100
AcDbArc
 50
273.0
 51
360.0
  0
ARC
  5
2FE
100
AcDbEntity
  8
0
100
AcDbCircle
 62
7
  6
CONTINUOUS
 10
281.9499029933
 20
175.8978139614
 40
189.9972240797
100
AcDbArc
 50
203.9631066104
 51
205.168227295
  0
ARC
  5
2FF
100
AcDbEntity
  8
GEWINDE
100
AcDbCircle
 62
7
  6
CONTINUOUS
 10
162.2791963902
 20
156.7561328572
 40
18.0000000011
100
AcDbArc
 50
262.0165335459
 51
277.9834664561
  0
ARC
  5
300
100
AcDbEntity
  8
BEZUGSACHSEN
100
AcDbCircle
 62
7
  6
CONTINUOUS
 10
176.1505442284
 20
132.5800881395
 40
2.0
100
AcDbArc
 50
225.0
 51
267.0
  0
ARC
  5
301
100
AcDbEntity
  8
RUNDUNGEN
100
AcDbCircle
 62
7
  6
CONTINUOUS
 10
115.3791963905
 20
144.43038651
 40
1.0
100
AcDbArc
 50
180.0
 51
270.0
  0
ARC
  5
302
100
AcDbEntity
  8
BEZUGSACHSEN
100
AcDbCircle
 62
7
  6
CONTINUOUS
 10
166.5576051708
 20
137.93038651
 40
1.0
100
AcDbArc
 50
45.0
 51
90.0
  0
ARC
  5
303
100
AcDbEntity
  8
BEZUGSACHSEN
100
AcDbCircle
 62
7
  6
CONTINUOUS
 10
113.3791963905
 20
151.70538651
 40
1.0
100
AcDbArc
 50
0.0
 51
90.0
  0
ARC
  5
304
100
AcDbEntity
  8
0
100
AcDbCircle
 62
7
  6
CONTINUOUS
 10
149.6287482484
 20
140.2303797157
 40
0.9745775744
100
AcDbArc
 50
58.2882588638
 51
58.6480838098
  0
ARC
  5
305
100
AcDbEntity
  8
BEZUGSACHSEN
100
AcDbCircle
 62
7
  6
CONTINUOUS
 10
156.9447548685
 20
139.2086943239
 40
0.8
100
AcDbArc
 50
30.0
 51
79.8130219269
  0
ARC
  5
306
100
AcDbEntity
  8
BEZUGSACHSEN
100
AcDbCircle
 62
7
  6
CONTINUOUS
 10
158.4910766058
 20
139.73038651
 40
0.8
100
AcDbArc
 50
210.0
 51
270.0
  0
ARC
  5
307
100
AcDbEntity
  8
BEZUGSACHSEN
100
AcDbCircle
 62
7
  6
CONTINUOUS
 10
107.8291963905
 20
149.55538651
 40
0.5
100
AcDbArc
 50
270.0
 51
360.0
  0
SPLINE
  5
308
100
AcDbEntity
  8
0
100
AcDbSpline
 62
2
  6
CONTINUOUS
 70
0
 71
3
 72
30
 73
26
 74
24
 42
0.0000001
 43
0.0000001
 44
0.0000000001
 12
-0.0232799672
 22
0.0038799825
 32
0.0
 13
-0.0236892072
 23
-0.0039481885
 33
0.0
 40
0.0
 40
0.0
 40
0.0
 40
0.0
 40
0.0434782609
 40
0.0869565217
 40
0.1304347826
 40
0.1739130435
 40
0.2173913043
 40
0.2608695652
 40
0.3043478261
 40
0.347826087
 40
0.3913043478
 40
0.4347826087
 40
0.4782608696
 40
0.5217391304
 40
0.5652173913
 40
0.6086956522
 40
0.652173913
 40
0.6956521739
 40
0.7391304348
 40
0.7826086957
 40
0.8260869565
 40
0.8695652174
 40
0.9130434783
 40
0.9565217391
 40
1.0
 40
1.0
 40
1.0
 40
1.0
 10
165.2791867888
 20
102.9303880561
 30
0.0
 10
165.278849398
 20
102.9304442877
 30
0.0
 10
165.2603722104
 20
102.9335366834
 30
0.0
 10
165.1794986724
 20
102.9468338267
 30
0.0
 10
165.0469412337
 20
102.9678559542
 30
0.0
 10
164.8662080568
 20
102.9949699397
 30
0.0
 10
164.6392137565
 20
103.0264950805
 30
0.0
 10
164.3667385052
 20
103.0605952514
 30
0.0
 10
164.0539227002
 20
103.0946338449
 30
0.0
 10
163.7092986349
 20
103.1258481267
 30
0.0
 10
163.3273800456
 20
103.1527042217
 30
0.0
 10
162.9163496524
 20
103.1723796223
 30
0.0
 10
162.4907618895
 20
103.1825831338
 30
0.0
 10
162.0673176005
 20
103.1825796906
 30
0.0
 10
161.6417002653
 20
103.1723671382
 30
0.0
 10
161.2307686894
 20
103.1526886489
 30
0.0
 10
160.849022416
 20
103.1258412767
 30
0.0
 10
160.5045072412
 20
103.0946373268
 30
0.0
 10
160.1916879557
 20
103.0605991447
 30
0.0
 10
159.9192560727
 20
103.0265050112
 30
0.0
 10
159.6922832953
 20
102.9949841953
 30
0.0
 10
159.5115215633
 20
102.9678668545
 30
0.0
 10
159.3789295438
 20
102.9468395892
 30
0.0
 10
159.2980387047
 20
102.9335397012
 30
0.0
 10
159.2795496548
 20
102.9304453311
 30
0.0
 10
159.279206333
 20
102.930388111
 30
0.0
 11
165.2791867888
 21
102.9303880561
 31
0.0
 11
165.2515125843
 21
102.934979775
 31
0.0
 11
165.170884689
 21
102.9481213241
 31
0.0
 11
165.038911944
 21
102.9688712639
 31
0.0
 11
164.8584978696
 21
102.9957051323
 31
0.0
 11
164.631633598
 21
103.0269242522
 31
0.0
 11
164.3600150796
 21
103.0605849885
 31
0.0
 11
164.0486213235
 21
103.0941631263
 31
0.0
 11
163.7030828809
 21
103.1251217622
 31
0.0
 11
163.3225280783
 21
103.1515074393
 31
0.0
 11
162.9139234241
 21
103.1708009741
 31
0.0
 11
162.4911191351
 21
103.1808819747
 31
0.0
 11
162.0669554262
 21
103.1808781724
 31
0.0
 11
161.6441478919
 21
103.170789482
 31
0.0
 11
161.2356329065
 21
103.1514938351
 31
0.0
 11
160.8552275991
 21
103.1251151804
 31
0.0
 11
160.5097898894
 21
103.0941649548
 31
0.0
 11
160.1984191894
 21
103.0605898195
 31
0.0
 11
159.9268325903
 21
103.0269338975
 31
0.0
 11
159.6999851362
 21
102.9957181079
 31
0.0
 11
159.5195498487
 21
102.9688818671
 31
0.0
 11
159.3875464072
 21
102.9481274854
 31
0.0
 11
159.3068982487
 21
102.9349827567
 31
0.0
 11
159.279206333
 21
102.930388111
 31
0.0
  0
SPLINE
  5
309
100
AcDbEntity
  8
0
100
AcDbSpline
 62
2
  6
CONTINUOUS
 70
0
 71
3
 72
30
 73
26
 74
24
 42
0.0000001
 43
0.0000001
 44
0.0000000001
 12
0.023599864
 22
-0.003933298
 32
0.0
 13
0.0237062949
 23
0.0039510364
 33
0.0
 40
0.0
 40
0.0
 40
0.0
 40
0.0
 40
0.0434782609
 40
0.0869565217
 40
0.1304347826
 40
0.1739130435
 40
0.2173913043
 40
0.2608695652
 40
0.3043478261
 40
0.347826087
 40
0.3913043478
 40
0.4347826087
 40
0.4782608696
 40
0.5217391304
 40
0.5652173913
 40
0.6086956522
 40
0.652173913
 40
0.6956521739
 40
0.7391304348
 40
0.7826086957
 40
0.8260869565
 40
0.8695652174
 40
0.9130434783
 40
0.9565217391
 40
1.0
 40
1.0
 40
1.0
 40
1.0
 10
159.2792062892
 20
138.930384916
 30
0.0
 10
159.2795483162
 20
138.9303279117
 30
0.0
 10
159.2979782997
 20
138.9272434673
 30
0.0
 10
159.3786389697
 20
138.913980823
 30
0.0
 10
159.5108728008
 20
138.8930074057
 30
0.0
 10
159.6910905605
 20
138.8659631549
 30
0.0
 10
159.9173865804
 20
138.8345179588
 30
0.0
 10
160.1890124906
 20
138.8004911252
 30
0.0
 10
160.5010605205
 20
138.7664830841
 30
0.0
 10
160.8450987382
 20
138.7352492065
 30
0.0
 10
161.2267903567
 20
138.7083186058
 30
0.0
 10
161.6379639941
 20
138.6885377503
 30
0.0
 10
162.0639713072
 20
138.6782302659
 30
0.0
 10
162.4878345518
 20
138.6781518931
 30
0.0
 10
162.9138176067
 20
138.6882998948
 30
0.0
 10
163.3251563656
 20
138.707935819
 30
0.0
 10
163.707328905
 20
138.7347649948
 30
0.0
 10
164.0522558656
 20
138.7659711912
 30
0.0
 10
164.3654569082
 20
138.8000260863
 30
0.0
 10
164.6382582599
 20
138.8341506423
 30
0.0
 10
164.8655454612
 20
138.8657064524
 30
0.0
 10
165.0465517503
 20
138.8928563484
 30
0.0
 10
165.1793244524
 20
138.913910773
 30
0.0
 10
165.2603278619
 20
138.9272289133
 30
0.0
 10
165.2788428784
 20
138.9303276476
 30
0.0
 10
165.2791864478
 20
138.930384909
 30
0.0
 11
159.2792062892
 21
138.930384916
 31
0.0
 11
159.3068142489
 21
138.9258041377
 31
0.0
 11
159.3872344965
 21
138.9126956942
 31
0.0
 11
159.5188701222
 21
138.8919956001
 31
0.0
 11
159.6987702705
 21
138.865229664
 31
0.0
 11
159.9249415621
 21
138.8340876859
 31
0.0
 11
160.1957495106
 21
138.8004942573
 31
0.0
 11
160.5063922185
 21
138.7669454447
 31
0.0
 11
160.851374305
 21
138.7359664193
 31
0.0
 11
161.2317040266
 21
138.70951023
 31
0.0
 11
161.6404362734
 21
138.6901166455
 31
0.0
 11
162.0636139625
 21
138.6799351179
 31
0.0
 11
162.4881878536
 21
138.6798562889
 31
0.0
 11
162.9113768907
 21
138.6898812152
 31
0.0
 11
163.320295329
 21
138.7091346943
 31
0.0
 11
163.7011213086
 21
138.7354944982
 31
0.0
 11
164.0469682126
 21
138.7664459743
 31
0.0
 11
164.3587236264
 21
138.8000376964
 31
0.0
 11
164.6306725682
 21
138.8337225179
 31
0.0
 11
164.8578319758
 21
138.8649721334
 31
0.0
 11
165.0385128191
 21
138.8918404365
 31
0.0
 11
165.170696237
 21
138.9126213923
 31
0.0
 11
165.2514560477
 21
138.9257839068
 31
0.0
 11
165.2791864478
 21
138.930384909
 31
0.0
  0
SPLINE
  5
30A
100
AcDbEntity
  8
0
100
AcDbSpline
 62
7
  6
CONTINUOUS
 70
0
 71
3
 72
13
 73
9
 74
7
 42
0.0000001
 43
0.0000001
 44
0.0000000001
 12
1.2050232592
 22
-0.2764458245
 32
0.0
 13
1.2342130349
 23
0.1651245504
 33
0.0
 40
0.0
 40
0.0
 40
0.0
 40
0.0
 40
0.040808783
 40
0.1664233672
 40
0.3450231278
 40
0.5826619982
 40
0.8808439193
 40
1.0
 40
1.0
 40
1.0
 40
1.0
 10
146.460308615
 20
100.1312644449
 30
0.0
 10
146.4767004592
 20
100.1275039724
 30
0.0
 10
146.5435183798
 20
100.118400417
 30
0.0
 10
146.6883241565
 20
100.1106174721
 30
0.0
 10
146.9124713786
 20
100.119082179
 30
0.0
 10
147.2084089489
 20
100.1427082205
 30
0.0
 10
147.4784646599
 20
100.1736294022
 30
0.0
 10
147.6502428455
 20
100.1959316909
 30
0.0
 10
147.6992641748
 20
100.2024902223
 30
0.0
 11
146.460308615
 21
100.1312644449
 31
0.0
 11
146.5096515657
 21
100.1233610461
 31
0.0
 11
146.6657735293
 21
100.113792998
 31
0.0
 11
146.888092222
 21
100.119497021
 31
0.0
 11
147.1831274677
 21
100.1421962511
 31
0.0
 11
147.5521283785
 21
100.1834083773
 31
0.0
 11
147.6992641748
 21
100.2024902223
 31
0.0
  0
SPLINE
  5
30B
100
AcDbEntity
  8
0
100
AcDbSpline
 62
7
  6
CONTINUOUS
 70
0
 71
3
 72
10
 73
6
 74
4
 42
0.0000001
 43
0.0000001
 44
0.0000000001
 12
1.112969255
 22
0.1524226094
 32
0.0
 13
1.1056109046
 23
0.1986713977
 33
0.0
 40
0.0
 40
0.0
 40
0.0
 40
0.0
 40
0.1953203153
 40
0.6004404258
 40
1.0
 40
1.0
 40
1.0
 40
1.0
 10
147.7592826337
 20
100.2106156389
 30
0.0
 10
147.831744469
 20
100.220539383
 30
0.0
 10
148.0543421608
 20
100.2522718477
 30
0.0
 10
148.4242631139
 20
100.3103243302
 30
0.0
 10
148.721196076
 20
100.3615430408
 30
0.0
 10
148.8684485501
 20
100.3880033938
 30
0.0
 11
147.7592826337
 21
100.2106156389
 31
0.0
 11
147.9765133115
 21
100.2415148468
 31
0.0
 11
148.4261337964
 21
100.3117890168
 31
0.0
 11
148.8684485501
 21
100.3880033938
 31
0.0
  0
SPLINE
  5
30C
100
AcDbEntity
  8
BEZUGSACHSEN
100
AcDbSpline
 62
7
  6
CONTINUOUS
 70
0
 71
3
 72
19
 73
15
 74
13
 42
0.0000001
 43
0.0000001
 44
0.0000000001
 12
-0.8939002816
 22
0.3305664543
 32
0.0
 13
0.0
 23
0.9530644753
 33
0.0
 40
0.0
 40
0.0
 40
0.0
 40
0.0
 40
0.1217181457
 40
0.2412117709
 40
0.3499481467
 40
0.4477039725
 40
0.5373829645
 40
0.6199208207
 40
0.6964779373
 40
0.7678297527
 40
0.8343908613
 40
0.8961956983
 40
0.9521075556
 40
1.0
 40
1.0
 40
1.0
 40
1.0
 10
105.0791963905
 20
146.8272401029
 30
0.0
 10
105.0429284289
 20
146.8406520815
 30
0.0
 10
104.9739206263
 20
146.8754294292
 30
0.0
 10
104.8849856679
 20
146.9428871585
 30
0.0
 10
104.8120903147
 20
147.0168513929
 30
0.0
 10
104.7540006483
 20
147.0910727655
 30
0.0
 10
104.7076652647
 20
147.1633749466
 30
0.0
 10
104.6705384243
 20
147.233231126
 30
0.0
 10
104.6409683206
 20
147.3002694382
 30
0.0
 10
104.6177802284
 20
147.3643914793
 30
0.0
 10
104.6002376891
 20
147.4254159277
 30
0.0
 10
104.5879877203
 20
147.4827156066
 30
0.0
 10
104.5808837675
 20
147.5348983301
 30
0.0
 10
104.5791963905
 20
147.5678853404
 30
0.0
 10
104.5791963905
 20
147.5831002029
 30
0.0
 11
105.0791963905
 21
146.8272401029
 31
0.0
 11
104.9752466283
 21
146.8787344018
 31
0.0
 11
104.8841614184
 21
146.9470959932
 31
0.0
 11
104.8112083643
 21
147.0207003705
 31
0.0
 11
104.7536658884
 21
147.0939742816
 31
0.0
 11
104.707485249
 21
147.1658939991
 31
0.0
 11
104.6705417861
 21
147.2353431855
 31
0.0
 11
104.6411007669
 21
147.3021035963
 31
0.0
 11
104.6180109596
 21
147.3660664962
 31
0.0
 11
104.6005571642
 21
147.4270551964
 31
0.0
 11
104.5883611272
 21
147.4846827701
 31
0.0
 11
104.581342065
 21
147.5375060757
 31
0.0
 11
104.5791963905
 21
147.5831002029
 31
0.0
  0
SPLINE
  5
30D
100
AcDbEntity
  8
0
100
AcDbSpline
 62
7
  6
CONTINUOUS
 70
0
 71
3
 72
20
 73
16
 74
14
 42
0.0000001
 43
0.0000001
 44
0.0000000001
 12
3.8100215311
 22
2.5120622642
 32
0.0
 13
3.8839887516
 23
2.373750145
 33
0.0
 40
0.0
 40
0.0
 40
0.0
 40
0.0
 40
0.0112848406
 40
0.0552521052
 40
0.1138787013
 40
0.1861767429
 40
0.2684431863
 40
0.3578544939
 40
0.4528612742
 40
0.5531399
 40
0.6589631866
 40
0.7666409139
 40
0.868029054
 40
0.9583494411
 40
1.0
 40
1.0
 40
1.0
 40
1.0
 10
145.3522502871
 20
100.1442562163
 30
0.0
 10
145.3665821157
 20
100.1537056238
 30
0.0
 10
145.4376128413
 20
100.198823392
 30
0.0
 10
145.589925752
 20
100.2801410618
 30
0.0
 10
145.8287469579
 20
100.3960218227
 30
0.0
 10
146.1239112453
 20
100.5282502159
 30
0.0
 10
146.4641272884
 20
100.6740523836
 30
0.0
 10
146.8372540327
 20
100.8304472386
 30
0.0
 10
147.2358683691
 20
100.9967245201
 30
0.0
 10
147.6568774513
 20
101.173985818
 30
0.0
 10
148.0939538888
 20
101.3625981377
 30
0.0
 10
148.5294714356
 20
101.5589678456
 30
0.0
 10
148.9385982442
 20
101.7563831951
 30
0.0
 10
149.2513595306
 20
101.9225067314
 30
0.0
 10
149.4241159553
 20
102.0238295294
 30
0.0
 10
149.4780393894
 20
102.0567855361
 30
0.0
 11
145.3522502871
 21
100.1442562163
 31
0.0
 11
145.395716816
 21
100.171899312
 31
0.0
 11
145.5708471216
 21
100.2687030802
 31
0.0
 11
145.8105761045
 21
100.3858515175
 31
0.0
 11
146.110446779
 21
100.5213023478
 31
0.0
 11
146.4543479227
 21
100.6693423001
 31
0.0
 11
146.8294688052
 21
100.8270621807
 31
0.0
 11
147.2283973772
 21
100.9938601831
 31
0.0
 11
147.6488685012
 21
101.1713268318
 31
0.0
 11
148.090853657
 21
101.3626645172
 31
0.0
 11
148.5372537022
 21
101.5648747043
 31
0.0
 11
148.952312989
 21
101.7664952509
 31
0.0
 11
149.3146604762
 21
101.9606084006
 31
0.0
 11
149.4780393894
 21
102.0567855361
 31
0.0
  0
SPLINE
  5
30E
100
AcDbEntity
  8
BEZUGSACHSEN
100
AcDbSpline
 62
7
  6
CONTINUOUS
 70
0
 71
3
 72
18
 73
14
 74
12
 42
0.0000001
 43
0.0000001
 44
0.0000000001
 12
-2.6242089124
 22
-0.9704387092
 32
0.0
 13
-2.6242089124
 23
0.9704387092
 33
0.0
 40
0.0
 40
0.0
 40
0.0
 40
0.0
 40
0.0799679098
 40
0.1663286595
 40
0.257944786
 40
0.3532485422
 40
0.4508026001
 40
0.549197501
 40
0.6467509057
 40
0.7420528253
 40
0.8336699519
 40
0.920031171
 40
1.0
 40
1.0
 40
1.0
 40
1.0
 10
107.8291963905
 20
146.8272401029
 30
0.0
 10
107.7592455566
 20
146.8013721179
 30
0.0
 10
107.6113572959
 20
146.7539271979
 30
0.0
 10
107.3774333632
 20
146.6970610589
 30
0.0
 10
107.126232389
 20
146.6529793869
 30
0.0
 10
106.8624820393
 20
146.6228989927
 30
0.0
 10
106.5911330936
 20
146.6076456442
 30
0.0
 10
106.3172600144
 20
146.6076456521
 30
0.0
 10
106.0459133878
 20
146.6228988352
 30
0.0
 10
105.7821644004
 20
146.6529788389
 30
0.0
 10
105.5309637023
 20
146.6970601256
 30
0.0
 10
105.2970375509
 20
146.7539265759
 30
0.0
 10
105.1491480284
 20
146.8013718205
 30
0.0
 10
105.0791963905
 20
146.8272401029
 30
0.0
 11
107.8291963905
 21
146.8272401029
 31
0.0
 11
107.6163592024
 21
146.7582417137
 31
0.0
 11
107.3816826792
 21
146.7006984801
 31
0.0
 11
107.1292652677
 21
146.6560693358
 31
0.0
 11
106.864355991
 21
146.625650395
 31
0.0
 11
106.5918456139
 21
146.6102332472
 31
0.0
 11
106.3165468848
 21
146.6102332552
 31
0.0
 11
106.0440383302
 21
146.6256502635
 31
0.0
 11
105.7791341307
 21
146.6560683747
 31
0.0
 11
105.5267139062
 21
146.7006976809
 31
0.0
 11
105.2920360547
 21
146.7582410127
 31
0.0
 11
105.0791963905
 21
146.8272401029
 31
0.0
  0
SPLINE
  5
30F
100
AcDbEntity
  8
0
100
AcDbSpline
 62
7
  6
CONTINUOUS
 70
0
 71
3
 72
13
 73
9
 74
7
 42
0.0000001
 43
0.0000001
 44
0.0000000001
 12
-1.167948191
 22
0.7115694727
 32
0.0
 13
-1.3016340102
 23
0.2919787456
 33
0.0
 40
0.0
 40
0.0
 40
0.0
 40
0.0
 40
0.086092929
 40
0.2195267953
 40
0.4004999318
 40
0.6322755401
 40
0.912773194
 40
1.0
 40
1.0
 40
1.0
 40
1.0
 10
150.1358142659
 20
141.0626570147
 30
0.0
 10
150.1022969056
 20
141.0830773814
 30
0.0
 10
150.0173461252
 20
141.1277357572
 30
0.0
 10
149.8488575238
 20
141.18978657
 30
0.0
 10
149.6176098316
 20
141.2623520408
 30
0.0
 10
149.3196832424
 20
141.3425985951
 30
0.0
 10
149.0605600617
 20
141.4050343445
 30
0.0
 10
148.9011182384
 20
141.4412748184
 30
0.0
 10
148.8632724459
 20
141.4497642762
 30
0.0
 11
150.1358142659
 21
141.0626570147
 31
0.0
 11
150.0345271333
 21
141.1164677605
 31
0.0
 11
149.8687045735
 21
141.1811711162
 31
0.0
 11
149.638613843
 21
141.2542452194
 31
0.0
 11
149.3403621278
 21
141.335741466
 31
0.0
 11
148.9767315573
 21
141.4239661081
 31
0.0
 11
148.8632724459
 21
141.4497642762
 31
0.0
  0
SPLINE
  5
310
100
AcDbEntity
  8
0
100
AcDbSpline
 62
7
  6
CONTINUOUS
 70
0
 71
3
 72
10
 73
6
 74
4
 42
0.0000001
 43
0.0000001
 44
0.0000000001
 12
-1.0687859423
 22
0.2350035271
 32
0.0
 13
-1.0770345517
 23
0.1935364049
 33
0.0
 40
0.0
 40
0.0
 40
0.0
 40
0.0
 40
0.1960152754
 40
0.5997699192
 40
1.0
 40
1.0
 40
1.0
 40
1.0
 10
148.7757062137
 20
141.469210324
 30
0.0
 10
148.7058734234
 20
141.4845650843
 30
0.0
 10
148.4919616808
 20
141.5305044997
 30
0.0
 10
148.1343945261
 20
141.6026267974
 30
0.0
 10
147.8461053549
 20
141.6564783348
 30
0.0
 10
147.7024181463
 20
141.6822980318
 30
0.0
 11
148.7757062137
 21
141.469210324
 31
0.0
 11
148.565994895
 21
141.5143061586
 31
0.0
 11
148.1329298172
 21
141.6018384943
 31
0.0
 11
147.7024181463
 21
141.6822980318
 31
0.0
  0
SPLINE
  5
311
100
AcDbEntity
  8
0
100
AcDbSpline
 62
7
  6
CONTINUOUS
 70
0
 71
3
 72
19
 73
15
 74
13
 42
0.0000001
 43
0.0000001
 44
0.0000000001
 12
-3.6965549509
 22
-0.8487462253
 32
0.0
 13
-3.7285525393
 23
-0.8028965256
 33
0.0
 40
0.0
 40
0.0
 40
0.0
 40
0.0
 40
0.0319987909
 40
0.0891386418
 40
0.1614162927
 40
0.2460881142
 40
0.3398982112
 40
0.4411712151
 40
0.5488477336
 40
0.6625828506
 40
0.7804436785
 40
0.8947063542
 40
0.9975556538
 40
1.0
 40
1.0
 40
1.0
 40
1.0
 10
151.171275247
 20
140.6695933375
 30
0.0
 10
151.1318468173
 20
140.6605403865
 30
0.0
 10
151.0190590252
 20
140.6399986744
 30
0.0
 10
150.8164031291
 20
140.6133414338
 30
0.0
 10
150.545174021
 20
140.5872159571
 30
0.0
 10
150.2274679545
 20
140.5630264503
 30
0.0
 10
149.8726458201
 20
140.5391982451
 30
0.0
 10
149.4886647698
 20
140.5138891818
 30
0.0
 10
149.0795317146
 20
140.4849118685
 30
0.0
 10
148.6497277139
 20
140.4496326212
 30
0.0
 10
148.212328768
 20
140.4052202483
 30
0.0
 10
147.7901217507
 20
140.3495148006
 30
0.0
 10
147.5152462543
 20
140.3005571544
 30
0.0
 10
147.3843594522
 20
140.2724857226
 30
0.0
 10
147.3813214945
 20
140.2718315369
 30
0.0
 11
151.171275247
 21
140.6695933375
 31
0.0
 11
151.050983015
 21
140.6465424519
 31
0.0
 11
150.8351205485
 21
140.6169290953
 31
0.0
 11
150.5608735646
 21
140.5895793835
 31
0.0
 11
150.2389914031
 21
140.5643614599
 31
0.0
 11
149.8821140471
 21
140.539905207
 31
0.0
 11
149.4968041537
 21
140.5141198544
 31
0.0
 11
149.0872691249
 21
140.4847131744
 31
0.0
 11
148.6550752358
 21
140.4486972792
 31
0.0
 11
148.2080328358
 21
140.4024909275
 31
0.0
 11
147.7762449939
 21
140.3442079777
 31
0.0
 11
147.3904369172
 21
140.2737865797
 31
0.0
 11
147.3813214945
 21
140.2718315369
 31
0.0
  0
SPLINE
  5
312
100
AcDbEntity
  8
BEZUGSACHSEN
100
AcDbSpline
 62
7
  6
CONTINUOUS
 70
0
 71
3
 72
11
 73
7
 74
5
 42
0.0000001
 43
0.0000001
 44
0.0000000001
 12
0.0
 22
-0.4680658555
 32
0.0
 13
-0.1674374283
 23
-0.437093071
 33
0.0
 40
0.0
 40
0.0
 40
0.0
 40
0.0
 40
0.1445461367
 40
0.3576974325
 40
0.6432572252
 40
1.0
 40
1.0
 40
1.0
 40
1.0
 10
108.4541963905
 20
148.2886929585
 30
0.0
 10
108.4541963905
 20
148.2661405882
 30
0.0
 10
108.4470977752
 20
148.2104620996
 30
0.0
 10
108.4236480232
 20
148.1128458063
 30
0.0
 10
108.3835527723
 20
147.9854338098
 30
0.0
 10
108.3491070881
 20
147.8913075902
 30
0.0
 10
108.3291963905
 20
147.8393309919
 30
0.0
 11
108.4541963905
 21
148.2886929585
 31
0.0
 11
108.4474890885
 21
148.2213691382
 31
0.0
 11
108.4253387877
 21
148.1240902281
 31
0.0
 11
108.3860311215
 21
147.9963400274
 31
0.0
 11
108.3291963905
 21
147.8393309919
 31
0.0
  0
SPLINE
  5
313
100
AcDbEntity
  8
BEZUGSACHSEN
100
AcDbSpline
 62
7
  6
CONTINUOUS
 70
0
 71
3
 72
12
 73
8
 74
6
 42
0.0000001
 43
0.0000001
 44
0.0000000001
 12
-0.1674556245
 22
0.4371405719
 32
0.0
 13
0.0
 23
0.4681167224
 33
0.0
 40
0.0
 40
0.0
 40
0.0
 40
0.0
 40
0.2995620764
 40
0.5419687552
 40
0.7353081792
 40
0.886011903
 40
1.0
 40
1.0
 40
1.0
 40
1.0
 10
104.5791963905
 20
147.8393309919
 30
0.0
 10
104.5624752723
 20
147.8829812377
 30
0.0
 10
104.5332250715
 20
147.9623491855
 30
0.0
 10
104.4974143995
 20
148.0713796275
 30
0.0
 10
104.4729638187
 20
148.1596246406
 30
0.0
 10
104.4584945455
 20
148.2296508144
 30
0.0
 10
104.4541963905
 20
148.2709063804
 30
0.0
 10
104.4541963905
 20
148.2886929585
 30
0.0
 11
104.5791963905
 21
147.8393309919
 31
0.0
 11
104.5310127517
 21
147.9710230369
 31
0.0
 11
104.4959699266
 21
148.0789512065
 31
0.0
 11
104.4722838485
 21
148.1663022242
 31
0.0
 11
104.4586519397
 21
148.2355195692
 31
0.0
 11
104.4541963905
 21
148.2886929585
 31
0.0
  0
SPLINE
  5
314
100
AcDbEntity
  8
BEZUGSACHSEN
100
AcDbSpline
 62
7
  6
CONTINUOUS
 70
0
 71
3
 72
19
 73
15
 74
13
 42
0.0000001
 43
0.0000001
 44
0.0000000001
 12
0.0
 22
-0.9530644332
 32
0.0
 13
-0.8939002421
 23
-0.3305664397
 33
0.0
 40
0.0
 40
0.0
 40
0.0
 40
0.0
 40
0.0479048512
 40
0.1038186277
 40
0.1656371908
 40
0.2321998811
 40
0.3035488221
 40
0.3800991219
 40
0.4626240486
 40
0.5522943159
 40
0.6500533187
 40
0.7587572076
 40
0.8782694549
 40
1.0
 40
1.0
 40
1.0
 40
1.0
 10
108.3291963905
 20
147.5831002029
 30
0.0
 10
108.3291963905
 20
147.5678813996
 30
0.0
 10
108.3275083535
 20
147.5348898342
 30
0.0
 10
108.3204022029
 20
147.4826984202
 30
0.0
 10
108.3081496385
 20
147.4253936741
 30
0.0
 10
108.2906042261
 20
147.3643659476
 30
0.0
 10
108.267415315
 20
147.300246953
 30
0.0
 10
108.2378466872
 20
147.2332158663
 30
0.0
 10
108.2007232296
 20
147.1633681715
 30
0.0
 10
108.1543908417
 20
147.0910710902
 30
0.0
 10
108.0963086308
 20
147.0168592085
 30
0.0
 10
108.0234170253
 20
146.942896391
 30
0.0
 10
107.9344844218
 20
146.8754360987
 30
0.0
 10
107.8654680451
 20
146.8406534472
 30
0.0
 10
107.8291963905
 20
146.8272401029
 30
0.0
 11
108.3291963905
 21
147.5831002029
 31
0.0
 11
108.327049653
 21
147.5374942901
 31
0.0
 11
108.3200293286
 21
147.4846693095
 31
0.0
 11
108.3078291557
 21
147.4270292422
 31
0.0
 11
108.2903731415
 21
147.3660396119
 31
0.0
 11
108.267282553
 21
147.3020799097
 31
0.0
 11
108.2378427194
 21
147.2353260803
 31
0.0
 11
108.2009041759
 21
147.1658882386
 31
0.0
 11
108.1547278502
 21
147.0939756374
 31
0.0
 11
108.0971835167
 21
147.0206993404
 31
0.0
 11
108.0242535849
 21
146.9471156456
 31
0.0
 11
107.9331562179
 21
146.8787406938
 31
0.0
 11
107.8291963905
 21
146.8272401029
 31
0.0
  0
SPLINE
  5
315
100
AcDbEntity
  8
0
100
AcDbSpline
 62
7
  6
CONTINUOUS
 70
0
 71
3
 72
96
 73
92
 74
90
 42
0.0000001
 43
0.0000001
 44
0.0000000001
 12
-24.789609356
 22
-20.3694390952
 32
0.0
 13
31.3884658431
 23
-14.5157923804
 33
0.0
 40
0.0
 40
0.0
 40
0.0
 40
0.0
 40
0.0195728407
 40
0.0374741208
 40
0.0537682959
 40
0.0685211538
 40
0.0820280956
 40
0.0943867395
 40
0.1055804017
 40
0.1157845752
 40
0.1253039675
 40
0.1345273787
 40
0.1437196517
 40
0.1531899828
 40
0.1635390513
 40
0.1752119728
 40
0.1883551456
 40
0.2025563145
 40
0.2174364525
 40
0.2328988525
 40
0.2488404093
 40
0.2650976767
 40
0.2814876311
 40
0.2978126759
 40
0.3137802266
 40
0.3286422043
 40
0.3416491223
 40
0.3527961615
 40
0.3624627736
 40
0.371097162
 40
0.3791449591
 40
0.3872523336
 40
0.3959224795
 40
0.4055925162
 40
0.416446286
 40
0.4283410156
 40
0.4412314171
 40
0.4549944381
 40
0.4695505429
 40
0.4848496445
 40
0.5008410125
 40
0.5174436756
 40
0.5344814084
 40
0.5514209428
 40
0.5675825162
 40
0.5820235647
 40
0.5941599478
 40
0.6042236132
 40
0.612739644
 40
0.6199304153
 40
0.6261741949
 40
0.6327000926
 40
0.6398534873
 40
0.6477106922
 40
0.6564288243
 40
0.6659757605
 40
0.6764403248
 40
0.6879255744
 40
0.7004854056
 40
0.7140181005
 40
0.7281813889
 40
0.7421307156
 40
0.7551385672
 40
0.7670373611
 40
0.7777770111
 40
0.7873084408
 40
0.795600949
 40
0.8025283989
 40
0.8080319653
 40
0.8124912004
 40
0.8165540849
 40
0.8209848288
 40
0.8264908652
 40
0.8335889261
 40
0.8425853026
 40
0.8533420109
 40
0.8657979234
 40
0.8802266239
 40
0.8961492434
 40
0.9119979508
 40
0.9268797333
 40
0.9407229195
 40
0.9535339192
 40
0.9652519925
 40
0.9755119926
 40
0.9837477345
 40
0.989844866
 40
0.9940564693
 40
0.9967232597
 40
0.9982782176
 40
1.0
 40
1.0
 40
1.0
 40
1.0
 10
148.8684485501
 20
120.93038651
 30
0.0
 10
148.706714192
 20
120.7974905813
 30
0.0
 10
148.3975974901
 20
120.5423754932
 30
0.0
 10
147.9619805795
 20
120.1668685811
 30
0.0
 10
147.5781357946
 20
119.8106373365
 30
0.0
 10
147.2465705597
 20
119.4680034987
 30
0.0
 10
146.9663774997
 20
119.1354698188
 30
0.0
 10
146.7378416096
 20
118.8108988926
 30
0.0
 10
146.5627428653
 20
118.4941549369
 30
0.0
 10
146.4429335844
 20
118.1847086687
 30
0.0
 10
146.3764834064
 20
117.8809848182
 30
0.0
 10
146.3616166447
 20
117.5811585339
 30
0.0
 10
146.3982728378
 20
117.2836746873
 30
0.0
 10
146.4884572231
 20
116.9853593191
 30
0.0
 10
146.6346179362
 20
116.6806543562
 30
0.0
 10
146.841128186
 20
116.365223693
 30
0.0
 10
147.1077121437
 20
116.0432436415
 30
0.0
 10
147.4265507032
 20
115.7227765337
 30
0.0
 10
147.7845714211
 20
115.4081357235
 30
0.0
 10
148.1711459048
 20
115.0987748097
 30
0.0
 10
148.5786665605
 20
114.7925049352
 30
0.0
 10
148.9992098194
 20
114.4872343387
 30
0.0
 10
149.4238198141
 20
114.1805994369
 30
0.0
 10
149.8420355488
 20
113.8704101729
 30
0.0
 10
150.2372881965
 20
113.5569395964
 30
0.0
 10
150.5881993632
 20
113.245500826
 30
0.0
 10
150.8772772868
 20
112.9437155921
 30
0.0
 10
151.0970235722
 20
112.6550988188
 30
0.0
 10
151.2491389678
 20
112.3777571144
 30
0.0
 10
151.3404246898
 20
112.1094704039
 30
0.0
 10
151.3761331712
 20
111.8450031144
 30
0.0
 10
151.3572941102
 20
111.5782784999
 30
0.0
 10
151.2805924419
 20
111.3042725593
 30
0.0
 10
151.1458415742
 20
111.0212594392
 30
0.0
 10
150.9545181732
 20
110.7310651808
 30
0.0
 10
150.7112578556
 20
110.4369086994
 30
0.0
 10
150.42339625
 20
110.1413374487
 30
0.0
 10
150.0984212027
 20
109.8433832346
 30
0.0
 10
149.7422406739
 20
109.5420019791
 30
0.0
 10
149.3594991094
 20
109.2354659197
 30
0.0
 10
148.9546058948
 20
108.9217246068
 30
0.0
 10
148.5335512987
 20
108.5985078316
 30
0.0
 10
148.1068273946
 20
108.2660162973
 30
0.0
 10
147.6910985868
 20
107.9272023957
 30
0.0
 10
147.3092508752
 20
107.591180379
 30
0.0
 10
146.9839145276
 20
107.2695713413
 30
0.0
 10
146.7293062926
 20
106.9708083768
 30
0.0
 10
146.5463105621
 20
106.6968660643
 30
0.0
 10
146.4283348272
 20
106.4463651686
 30
0.0
 10
146.3695228112
 20
106.217294162
 30
0.0
 10
146.364332587
 20
106.0019443766
 30
0.0
 10
146.412430236
 20
105.7920125006
 30
0.0
 10
146.5184972718
 20
105.5851510891
 30
0.0
 10
146.680645635
 20
105.3879340872
 30
0.0
 10
146.8925625845
 20
105.2043702886
 30
0.0
 10
147.1485110849
 20
105.0333813385
 30
0.0
 10
147.4442915565
 20
104.8715321211
 30
0.0
 10
147.779166043
 20
104.7158896831
 30
0.0
 10
148.151667426
 20
104.5647093366
 30
0.0
 10
148.5561554926
 20
104.4170639592
 30
0.0
 10
148.9778844608
 20
104.2737565575
 30
0.0
 10
149.3956888035
 20
104.1364731524
 30
0.0
 10
149.7901572059
 20
104.0057453767
 30
0.0
 10
150.1502990408
 20
103.8806133645
 30
0.0
 10
150.4720418051
 20
103.7585248568
 30
0.0
 10
150.7522794544
 20
103.6364422488
 30
0.0
 10
150.9862797928
 20
103.5118330533
 30
0.0
 10
151.1686910803
 20
103.3845404795
 30
0.0
 10
151.2960905955
 20
103.2542674733
 30
0.0
 10
151.366105467
 20
103.1176648766
 30
0.0
 10
151.3732451668
 20
102.975245077
 30
0.0
 10
151.3220021991
 20
102.8315662344
 30
0.0
 10
151.2148324697
 20
102.6823442867
 30
0.0
 10
151.0463595993
 20
102.5229471314
 30
0.0
 10
150.8141035274
 20
102.3532452224
 30
0.0
 10
150.5201124517
 20
102.1732431447
 30
0.0
 10
150.1653408466
 20
101.9826576165
 30
0.0
 10
149.7534220453
 20
101.7826444258
 30
0.0
 10
149.3029565913
 20
101.5795081815
 30
0.0
 10
148.8445485929
 20
101.3824561807
 30
0.0
 10
148.4048072364
 20
101.1983743499
 30
0.0
 10
147.9944581889
 20
101.0282316293
 30
0.0
 10
147.6156558036
 20
100.8703318249
 30
0.0
 10
147.2734413318
 20
100.7243145411
 30
0.0
 10
146.9783409023
 20
100.5925140142
 30
0.0
 10
146.7417486086
 20
100.4776449983
 30
0.0
 10
146.5666104549
 20
100.3840692841
 30
0.0
 10
146.4519475202
 20
100.3054034735
 30
0.0
 10
146.3819778603
 20
100.2484794822
 30
0.0
 10
146.3615333204
 20
100.1769200281
 30
0.0
 10
146.3962317214
 20
100.1550955194
 30
0.0
 10
146.4142464235
 20
100.1467645077
 30
0.0
 11
148.8684485501
 21
120.93038651
 31
0.0
 11
148.3853125185
 21
120.5291963444
 31
0.0
 11
147.9513958668
 21
120.1528906203
 31
0.0
 11
147.5694693187
 21
119.7958916611
 31
0.0
 11
147.2414860215
 21
119.454598489
 31
0.0
 11
146.9636151347
 21
119.1220387432
 31
0.0
 11
146.7370104758
 21
118.7966424131
 31
0.0
 11
146.5652925994
 21
118.4812067372
 31
0.0
 11
146.4486189042
 21
118.1753019735
 31
0.0
 11
146.3843297149
 21
117.8767162453
 31
0.0
 11
146.370130867
 21
117.5811251399
 31
0.0
 11
146.4060301939
 21
117.2883852605
 31
0.0
 11
146.492660968
 21
116.9971421319
 31
0.0
 11
146.634462733
 21
116.6968947864
 31
0.0
 11
146.8377644121
 21
116.3823526337
 31
0.0
 11
147.1050228899
 21
116.0561606027
 31
0.0
 11
147.4247974222
 21
115.7315770877
 31
0.0
 11
147.7821879037
 21
115.415019288
 31
0.0
 11
148.1686524538
 21
115.103941548
 31
0.0
 11
148.5767941985
 21
114.7956642016
 31
0.0
 11
148.9981849782
 21
114.4882407326
 31
0.0
 11
149.4237277843
 21
114.1792875306
 31
0.0
 11
149.8433850576
 21
113.8658541188
 31
0.0
 11
150.2434369097
 21
113.5458119593
 31
0.0
 11
150.5983271869
 21
113.227325442
 31
0.0
 11
150.8846710102
 21
112.9237342991
 31
0.0
 11
151.0986913661
 21
112.6371863459
 31
0.0
 11
151.245785601
 21
112.3641340901
 31
0.0
 11
151.3334114774
 21
112.101324067
 31
0.0
 11
151.3672301106
 21
111.8453357832
 31
0.0
 11
151.3493322673
 21
111.5858282011
 31
0.0
 11
151.2764606122
 21
111.3173619892
 31
0.0
 11
151.145446336
 21
111.0361188952
 31
0.0
 11
150.9558764347
 21
110.7439963398
 31
0.0
 11
150.7143898231
 21
110.4484731738
 31
0.0
 11
150.4273046299
 21
110.1507549117
 31
0.0
 11
150.1028029105
 21
109.8512625118
 31
0.0
 11
149.7470130583
 21
109.5487211706
 31
0.0
 11
149.3644870664
 21
109.2411063308
 31
0.0
 11
148.9595426024
 21
108.9260316911
 31
0.0
 11
148.5376269184
 21
108.6008389305
 31
0.0
 11
148.1072383589
 21
108.2637993991
 31
0.0
 11
147.6869000814
 21
107.9192548457
 31
0.0
 11
147.2990133945
 21
107.5751187103
 31
0.0
 11
146.9715769596
 21
107.2472947616
 31
0.0
 11
146.7214789826
 21
106.9488338996
 31
0.0
 11
146.5446110476
 21
106.6786921272
 31
0.0
 11
146.4310344779
 21
106.4301803033
 31
0.0
 11
146.3762968695
 21
106.2060527006
 31
0.0
 11
146.3725700403
 21
106.0057565233
 31
0.0
 11
146.418732221
 21
105.801525982
 31
0.0
 11
146.5215368369
 21
105.5963219873
 31
0.0
 11
146.6795265619
 21
105.3998726579
 31
0.0
 11
146.8891528081
 21
105.2146695744
 31
0.0
 11
147.1425311712
 21
105.0425458828
 31
0.0
 11
147.4362678739
 21
104.8799125191
 31
0.0
 11
147.7698851875
 21
104.7234077466
 31
0.0
 11
148.1428405809
 21
104.570772285
 31
0.0
 11
148.5503400058
 21
104.4208747006
 31
0.0
 11
148.9802924397
 21
104.2737522138
 31
0.0
 11
149.4051938077
 21
104.1331433635
 31
0.0
 11
149.801084494
 21
104.0010224569
 31
0.0
 11
150.1613732212
 21
103.8747635595
 31
0.0
 11
150.4830425444
 21
103.7512143757
 31
0.0
 11
150.7626150025
 21
103.6272714402
 31
0.0
 11
150.9962397592
 21
103.4999547369
 31
0.0
 11
151.1763626052
 21
103.3697315535
 31
0.0
 11
151.2962124888
 21
103.2400514593
 31
0.0
 11
151.3577224718
 21
103.1108745127
 31
0.0
 11
151.3648575055
 21
102.9807128125
 31
0.0
 11
151.3207403663
 21
102.8455717866
 31
0.0
 11
151.221220359
 21
102.6996105456
 31
0.0
 11
151.0585038155
 21
102.540271303
 31
0.0
 11
150.8273721045
 21
102.3673680282
 31
0.0
 11
150.5341394354
 21
102.1853580193
 31
0.0
 11
150.1827942168
 21
101.9949014305
 31
0.0
 11
149.7669216835
 21
101.7915145674
 31
0.0
 11
149.3016330117
 21
101.5805646332
 31
0.0
 11
148.8347239317
 21
101.3791399258
 31
0.0
 11
148.3944540186
 21
101.1943438541
 31
0.0
 11
147.9843154049
 21
101.0238692621
 31
0.0
 11
147.6051004525
 21
100.8652840298
 31
0.0
 11
147.2595343983
 21
100.7171635438
 31
0.0
 11
146.9594048211
 21
100.5819274902
 31
0.0
 11
146.7220079443
 21
100.4658804111
 31
0.0
 11
146.5509933457
 21
100.3708887971
 31
0.0
 11
146.4396889564
 21
100.2942656416
 31
0.0
 11
146.3809350901
 21
100.2320634217
 31
0.0
 11
146.3724591834
 21
100.182898056
 31
0.0
 11
146.4142464235
 21
100.1467645077
 31
0.0
  0
SPLINE
  5
316
100
AcDbEntity
  8
0
100
AcDbSpline
 62
7
  6
CONTINUOUS
 70
0
 71
3
 72
8
 73
4
 74
2
 42
0.0000001
 43
0.0000001
 44
0.0000000001
 12
0.0463895253
 22
-0.0214531262
 32
0.0
 13
0.0458888873
 23
-0.0105274244
 33
0.0
 40
0.0
 40
0.0
 40
0.0
 40
0.0
 40
1.0
 40
1.0
 40
1.0
 40
1.0
 10
146.4142464235
 20
100.1467645077
 30
0.0
 10
146.4297095986
 20
100.1396134657
 30
0.0
 10
146.4450123192
 20
100.1347735864
 30
0.0
 10
146.460308615
 20
100.1312644449
 30
0.0
 11
146.4142464235
 21
100.1467645077
 31
0.0
 11
146.460308615
 21
100.1312644449
 31
0.0
  0
SPLINE
  5
317
100
AcDbEntity
  8
0
100
AcDbSpline
 62
7
  6
CONTINUOUS
 70
0
 71
3
 72
98
 73
94
 74
92
 42
0.0000001
 43
0.0000001
 44
0.0000000001
 12
24.6819374208
 22
20.4878278595
 32
0.0
 13
-28.1052095963
 23
17.3659746899
 33
0.0
 40
0.0
 40
0.0
 40
0.0
 40
0.0
 40
0.0175461032
 40
0.0334077114
 40
0.0479934528
 40
0.0616702712
 40
0.0747466684
 40
0.0871652758
 40
0.0985919847
 40
0.1090210035
 40
0.1185635864
 40
0.127560287
 40
0.1364329605
 40
0.1455138139
 40
0.1553273357
 40
0.1663746118
 40
0.1789092867
 40
0.1927649446
 40
0.2075203178
 40
0.2229995716
 40
0.2391495457
 40
0.256047801
 40
0.2738299225
 40
0.2920706178
 40
0.3097017461
 40
0.3260932199
 40
0.3410957908
 40
0.3545769172
 40
0.3662515501
 40
0.3762821326
 40
0.3851452606
 40
0.3934914818
 40
0.4018809038
 40
0.4107230665
 40
0.4204135066
 40
0.4310082078
 40
0.4424692181
 40
0.4547804857
 40
0.4678120634
 40
0.481566502
 40
0.4960333281
 40
0.5109419907
 40
0.525793324
 40
0.5400783328
 40
0.5532958516
 40
0.5652567045
 40
0.5760865335
 40
0.585919434
 40
0.5946916309
 40
0.6024620102
 40
0.6093046234
 40
0.6153269167
 40
0.6216226429
 40
0.628918406
 40
0.6372089799
 40
0.6465011337
 40
0.656620554
 40
0.6675315832
 40
0.6793996144
 40
0.6924005064
 40
0.7066264364
 40
0.7220458921
 40
0.7379651457
 40
0.753319681
 40
0.76759565
 40
0.7806581389
 40
0.7924518036
 40
0.8029289155
 40
0.8120043041
 40
0.8194202333
 40
0.8252425949
 40
0.82990757
 40
0.834036794
 40
0.8384084863
 40
0.843720751
 40
0.8505523925
 40
0.8591573101
 40
0.8694320868
 40
0.8814611399
 40
0.8952671159
 40
0.9098337702
 40
0.9239011328
 40
0.9370961536
 40
0.9493621688
 40
0.9606533098
 40
0.9708421401
 40
0.9794898707
 40
0.9862258105
 40
0.9911037222
 40
0.9943614065
 40
0.9963017898
 40
0.9977215078
 40
1.0
 40
1.0
 40
1.0
 40
1.0
 10
147.7024181464
 20
120.93038651
 30
0.0
 10
147.8467754199
 20
121.0502136905
 30
0.0
 10
148.1219965119
 20
121.2779231065
 30
0.0
 10
148.5139307957
 20
121.6092068853
 30
0.0
 10
148.8672326391
 20
121.9219800808
 30
0.0
 10
149.187401529
 20
122.2269304114
 30
0.0
 10
149.4748738982
 20
122.5319124498
 30
0.0
 10
149.7243307898
 20
122.8384913033
 30
0.0
 10
149.9273976822
 20
123.1444548668
 30
0.0
 10
150.0766433418
 20
123.4464695619
 30
0.0
 10
150.1692106379
 20
123.7435247993
 30
0.0
 10
150.2080152427
 20
124.0355269485
 30
0.0
 10
150.1952288939
 20
124.3248836832
 30
0.0
 10
150.1311061873
 20
124.6162000492
 30
0.0
 10
150.0123508648
 20
124.9147961223
 30
0.0
 10
149.8361222626
 20
125.2263811159
 30
0.0
 10
149.6012974057
 20
125.5513761855
 30
0.0
 10
149.313071324
 20
125.8843310402
 30
0.0
 10
148.9815128279
 20
126.2197900255
 30
0.0
 10
148.6175998995
 20
126.5569012991
 30
0.0
 10
148.2271278606
 20
126.8986662325
 30
0.0
 10
147.8127231359
 20
127.2503276157
 30
0.0
 10
147.3801106226
 20
127.6150678036
 30
0.0
 10
146.9454945218
 20
127.9895813127
 30
0.0
 10
146.5319874575
 20
128.3656461124
 30
0.0
 10
146.1604030813
 20
128.7357407951
 30
0.0
 10
145.8420607414
 20
129.0953051638
 30
0.0
 10
145.5852766119
 20
129.440318926
 30
0.0
 10
145.3959480755
 20
129.7666499675
 30
0.0
 10
145.2731832875
 20
130.0709168432
 30
0.0
 10
145.20832719
 20
130.3562494915
 30
0.0
 10
145.1957219418
 20
130.6312605867
 30
0.0
 10
145.2368538878
 20
130.9034684029
 30
0.0
 10
145.3351737062
 20
131.1758020114
 30
0.0
 10
145.4908860096
 20
131.4470834356
 30
0.0
 10
145.7020333953
 20
131.7141561544
 30
0.0
 10
145.9633541319
 20
131.9734833548
 30
0.0
 10
146.267599776
 20
132.2237175036
 30
0.0
 10
146.6077286699
 20
132.4671443476
 30
0.0
 10
146.9786462386
 20
132.7060849585
 30
0.0
 10
147.374784197
 20
132.9423021932
 30
0.0
 10
147.7859394635
 20
133.1759478319
 30
0.0
 10
148.1970365877
 20
133.4057031995
 30
0.0
 10
148.5908215235
 20
133.6293837604
 30
0.0
 10
148.9529300235
 20
133.8461286884
 30
0.0
 10
149.275635121
 20
134.0563739406
 30
0.0
 10
149.556808735
 20
134.2632592464
 30
0.0
 10
149.7940978243
 20
134.4708677371
 30
0.0
 10
149.982140558
 20
134.6823571954
 30
0.0
 10
150.1155159075
 20
134.8956829713
 30
0.0
 10
150.190238328
 20
135.1054799594
 30
0.0
 10
150.2103067683
 20
135.31141817
 30
0.0
 10
150.178197739
 20
135.5206797996
 30
0.0
 10
150.0914705603
 20
135.7397628423
 30
0.0
 10
149.9499925885
 20
135.9663160773
 30
0.0
 10
149.7599113192
 20
136.1943670009
 30
0.0
 10
149.528073084
 20
136.4215520144
 30
0.0
 10
149.2601155193
 20
136.6497496506
 30
0.0
 10
148.9565521673
 20
136.8827808699
 30
0.0
 10
148.6155632357
 20
137.1247033386
 30
0.0
 10
148.2363635468
 20
137.3780268453
 30
0.0
 10
147.8263527621
 20
137.6412073161
 30
0.0
 10
147.4039389542
 20
137.9073464447
 30
0.0
 10
146.992302514
 20
138.1676590092
 30
0.0
 10
146.6093064472
 20
138.4160845568
 30
0.0
 10
146.2630919264
 20
138.6511312963
 30
0.0
 10
145.9576359561
 20
138.8736302573
 30
0.0
 10
145.6970576979
 20
139.0847703338
 30
0.0
 10
145.4874927467
 20
139.2834532736
 30
0.0
 10
145.3337069388
 20
139.466820122
 30
0.0
 10
145.2365936184
 20
139.6333629477
 30
0.0
 10
145.1953093276
 20
139.7869039694
 30
0.0
 10
145.2112817078
 20
139.9304674475
 30
0.0
 10
145.2856039143
 20
140.0620419828
 30
0.0
 10
145.4190167037
 20
140.181074888
 30
0.0
 10
145.614768342
 20
140.2880667595
 30
0.0
 10
145.8735610829
 20
140.3826906344
 30
0.0
 10
146.1937386648
 20
140.4659185827
 30
0.0
 10
146.5733038234
 20
140.5377833015
 30
0.0
 10
147.0012626845
 20
140.5975115731
 30
0.0
 10
147.4525507629
 20
140.6455407383
 30
0.0
 10
147.898199579
 20
140.68359289
 30
0.0
 10
148.3197268067
 20
140.7145377752
 30
0.0
 10
148.7117708615
 20
140.7413211253
 30
0.0
 10
149.0717607606
 20
140.7664254448
 30
0.0
 10
149.3927861954
 20
140.7918377994
 30
0.0
 10
149.6652170402
 20
140.8193110572
 30
0.0
 10
149.8790359423
 20
140.8485810681
 30
0.0
 10
150.037179498
 20
140.8803328324
 30
0.0
 10
150.1357303562
 20
140.9127219293
 30
0.0
 10
150.2049331762
 20
140.9535859332
 30
0.0
 10
150.1972015397
 20
141.022905272
 30
0.0
 10
150.162376875
 20
141.0462667703
 30
0.0
 10
150.1410310419
 20
141.0594561826
 30
0.0
 11
147.7024181464
 21
120.93038651
 31
0.0
 11
148.1352117777
 21
121.2902029259
 31
0.0
 11
148.523032742
 21
121.6195490127
 31
0.0
 11
148.8725380167
 21
121.9305934811
 31
0.0
 11
149.189211572
 21
122.2342187604
 31
0.0
 11
149.4757952951
 21
122.540506217
 31
0.0
 11
149.7256538281
 21
122.8507595188
 31
0.0
 11
149.9263103233
 21
123.1574947889
 31
0.0
 11
150.0723729479
 21
123.4584578732
 31
0.0
 11
150.1622127076
 21
123.7510768044
 31
0.0
 11
150.1996296904
 21
124.0372301723
 31
0.0
 11
150.1872819667
 21
124.3215730471
 31
0.0
 11
150.125566766
 21
124.6062488835
 31
0.0
 11
150.0111928388
 21
124.8995265109
 31
0.0
 11
149.8388198018
 21
125.2091437972
 31
0.0
 11
149.6052216895
 21
125.5364027562
 31
0.0
 11
149.3159183375
 21
125.8738052723
 31
0.0
 11
148.984611994
 21
126.2118289086
 31
0.0
 11
148.6213404911
 21
126.5503219445
 31
0.0
 11
148.2323099638
 21
126.8924147273
 31
0.0
 11
147.8197481246
 21
127.2439971677
 31
0.0
 11
147.3845116613
 21
127.6126798098
 31
0.0
 11
146.9423039086
 21
127.9958342279
 31
0.0
 11
146.5252176236
 21
128.3777959338
 31
0.0
 11
146.1540310818
 21
128.7501922655
 31
0.0
 11
145.8367963717
 21
129.1120693959
 31
0.0
 11
145.5810479008
 21
129.4607737494
 31
0.0
 11
145.3956712202
 21
129.7861630839
 31
0.0
 11
145.2772022167
 21
130.0853124233
 31
0.0
 11
145.2157168772
 21
130.3628888836
 31
0.0
 11
145.2044863183
 21
130.6303769433
 31
0.0
 11
145.2444741839
 21
130.896498872
 31
0.0
 11
145.3392218694
 21
131.1638377414
 31
0.0
 11
145.4920939511
 21
131.434491046
 31
0.0
 11
145.7011201034
 21
131.702456035
 31
0.0
 11
145.9605515052
 21
131.9629415603
 31
0.0
 11
146.2642340846
 21
132.2153934206
 31
0.0
 11
146.6032899014
 21
132.4598916224
 31
0.0
 11
146.973537661
 21
132.6998455895
 31
0.0
 11
147.3715222503
 21
132.9385002711
 31
0.0
 11
147.7867491854
 21
133.1757539007
 31
0.0
 11
148.202049353
 21
133.40914831
 31
0.0
 11
148.5998436203
 21
133.6365875302
 31
0.0
 11
148.9629773288
 21
133.8554349823
 31
0.0
 11
149.2836165894
 21
134.0661337873
 31
0.0
 11
149.5622379839
 21
134.2736202177
 31
0.0
 11
149.7978051579
 21
134.4833653259
 31
0.0
 11
149.9826494203
 21
134.6955249715
 31
0.0
 11
150.1122035247
 21
134.9084626183
 31
0.0
 11
150.1838418262
 21
135.115934897
 31
0.0
 11
150.2021165581
 21
135.3082470857
 31
0.0
 11
150.1730507158
 21
135.5080939717
 31
0.0
 11
150.0895279951
 21
135.7267101249
 31
0.0
 11
149.9510956642
 21
135.9537781402
 31
0.0
 11
149.762099893
 21
136.1842652485
 31
0.0
 11
149.5316944827
 21
136.412914506
 31
0.0
 11
149.2661375631
 21
136.6408980372
 31
0.0
 11
148.9648160571
 21
136.8735630399
 31
0.0
 11
148.6251949548
 21
137.1155832311
 31
0.0
 11
148.2462476666
 21
137.3698167399
 31
0.0
 11
147.8304850154
 21
137.6377420369
 31
0.0
 11
147.3989071731
 21
137.9106881204
 31
0.0
 11
146.9830816662
 21
138.1746502365
 31
0.0
 11
146.5993419026
 21
138.4245442368
 31
0.0
 11
146.2532551244
 21
138.6607477651
 31
0.0
 11
145.9483283051
 21
138.8846600484
 31
0.0
 11
145.6884490923
 21
139.0977572362
 31
0.0
 11
145.4789862676
 21
139.2999262989
 31
0.0
 11
145.3288212012
 21
139.4844216775
 31
0.0
 11
145.2387194704
 21
139.6480155201
 31
0.0
 11
145.2037876156
 21
139.7935206719
 31
0.0
 11
145.2193461364
 21
139.9250578153
 31
0.0
 11
145.2858666862
 21
140.0485081159
 31
0.0
 11
145.4098951266
 21
140.1653586645
 31
0.0
 11
145.5999463247
 21
140.2744593646
 31
0.0
 11
145.8579044451
 21
140.3726720995
 31
0.0
 11
146.1762888316
 21
140.4578695636
 31
0.0
 11
146.5550805514
 21
140.5313803436
 31
0.0
 11
146.9934802713
 21
140.5940581489
 31
0.0
 11
147.4580118972
 21
140.6444607715
 31
0.0
 11
147.9075650893
 21
140.6834656598
 31
0.0
 11
148.3296563748
 21
140.7148951244
 31
0.0
 11
148.7221726411
 21
140.7421284241
 31
0.0
 11
149.0834477234
 21
140.7678364401
 31
0.0
 11
149.4091951506
 21
140.7944099074
 31
0.0
 11
149.6850960417
 21
140.8231649478
 31
0.0
 11
149.8989602285
 21
140.8539626826
 31
0.0
 11
150.051913609
 21
140.8869490801
 31
0.0
 11
150.1499953775
 21
140.9230003818
 31
0.0
 11
150.1971238872
 21
140.9636573213
 31
0.0
 11
150.1939941697
 21
141.0090902842
 31
0.0
 11
150.1410310419
 21
141.0594561826
 31
0.0
  0
SPLINE
  5
318
100
AcDbEntity
  8
0
100
AcDbSpline
 62
7
  6
CONTINUOUS
 70
0
 71
3
 72
19
 73
15
 74
13
 42
0.0000001
 43
0.0000001
 44
0.0000000001
 12
-2.7214622193
 22
-0.4890298211
 32
0.0
 13
2.3147513146
 23
1.5261854509
 33
0.0
 40
0.0
 40
0.0
 40
0.0
 40
0.0
 40
0.1645883203
 40
0.3340054234
 40
0.4922332026
 40
0.6266877066
 40
0.7313984971
 40
0.8091896875
 40
0.8637807908
 40
0.8977927697
 40
0.9169989856
 40
0.9358008762
 40
0.9680528643
 40
1.0
 40
1.0
 40
1.0
 40
1.0
 10
147.7024181463
 20
100.1784749882
 30
0.0
 10
147.5531111812
 20
100.1516454559
 30
0.0
 10
147.2497215661
 20
100.0993664689
 30
0.0
 10
146.8014592254
 20
100.0293267694
 30
0.0
 10
146.3794162456
 20
99.9717135512
 30
0.0
 10
146.0154061493
 20
99.9310354651
 30
0.0
 10
145.7238738655
 20
99.9091841135
 30
0.0
 10
145.5057209489
 20
99.9021600394
 30
0.0
 10
145.351378305
 20
99.9127987839
 30
0.0
 10
145.2552505266
 20
99.9285982537
 30
0.0
 10
145.1935394964
 20
99.9756307974
 30
0.0
 10
145.2206185564
 20
100.0463515271
 30
0.0
 10
145.2791097472
 20
100.0939502701
 30
0.0
 10
145.3276003956
 20
100.1280037984
 30
0.0
 10
145.3522502871
 20
100.1442562163
 30
0.0
 11
147.7024181463
 21
100.1784749882
 31
0.0
 11
147.2539184908
 21
100.1012765306
 31
0.0
 11
146.7910376606
 21
100.0292775289
 31
0.0
 11
146.3574745945
 21
99.9706583724
 31
0.0
 11
145.9878744708
 21
99.9305170666
 31
0.0
 11
145.6990938405
 21
99.9096902323
 31
0.0
 11
145.4840333338
 21
99.9057496665
 31
0.0
 11
145.3334980488
 21
99.9168932678
 31
0.0
 11
145.242805211
 21
99.9417778783
 31
0.0
 11
145.2052496084
 21
99.9793257351
 31
0.0
 11
145.2176456035
 21
100.029814454
 31
0.0
 11
145.2801446198
 21
100.093427804
 31
0.0
 11
145.3522502871
 21
100.1442562163
 31
0.0
  0
SPLINE
  5
319
100
AcDbEntity
  8
0
100
AcDbSpline
 62
7
  6
CONTINUOUS
 70
0
 71
3
 72
15
 73
11
 74
9
 42
0.0000001
 43
0.0000001
 44
0.0000000001
 12
-0.9130905362
 22
0.0
 32
0.0
 13
0.0
 23
-0.9130905362
 33
0.0
 40
0.0
 40
0.0
 40
0.0
 40
0.0
 40
0.095246705
 40
0.1989926597
 40
0.3085683636
 40
0.4267140162
 40
0.5551384148
 40
0.6926402133
 40
0.8400968689
 40
1.0
 40
1.0
 40
1.0
 40
1.0
 10
105.0791963905
 20
99.7462975515
 30
0.0
 10
105.0502067688
 20
99.7462975515
 30
0.0
 10
104.9894254204
 20
99.7392030621
 30
0.0
 10
104.9004606839
 20
99.706596842
 30
0.0
 10
104.8152725022
 20
99.6510725378
 30
0.0
 10
104.7381384308
 20
99.5739007772
 30
0.0
 10
104.6723056731
 20
99.4765107109
 30
0.0
 10
104.6209602768
 20
99.3609709938
 30
0.0
 10
104.5871471771
 20
99.2292618396
 30
0.0
 10
104.5791963905
 20
99.1355063697
 30
0.0
 10
104.5791963905
 20
99.0868376912
 30
0.0
 11
105.0791963905
 21
99.7462975515
 31
0.0
 11
104.9928024503
 21
99.7363140364
 31
0.0
 11
104.9037213055
 21
99.7040926425
 31
0.0
 11
104.8196063604
 21
99.6499152818
 31
0.0
 11
104.7429218387
 21
99.5740398748
 31
0.0
 11
104.6767889375
 21
99.4772045781
 31
0.0
 11
104.6253947573
 21
99.3626539769
 31
0.0
 11
104.5916402589
 21
99.2323124745
 31
0.0
 11
104.5791963905
 21
99.0868376912
 31
0.0
  0
SPLINE
  5
31A
100
AcDbEntity
  8
0
100
AcDbSpline
 62
7
  6
CONTINUOUS
 70
0
 71
3
 72
18
 73
14
 74
12
 42
0.0000001
 43
0.0000001
 44
0.0000000001
 12
-1.7642311185
 22
0.0
 32
0.0
 13
0.0
 23
1.7642311185
 33
0.0
 40
0.0
 40
0.0
 40
0.0
 40
0.0
 40
0.086900447
 40
0.1740038441
 40
0.2602721501
 40
0.345790636
 40
0.4333324854
 40
0.523356292
 40
0.6154993271
 40
0.7098280223
 40
0.8064563316
 40
0.9037424561
 40
1.0
 40
1.0
 40
1.0
 40
1.0
 10
99.5291963905
 20
95.096288403
 30
0.0
 10
99.4780922329
 20
95.096288403
 30
0.0
 10
99.3755078059
 20
95.1060228299
 30
0.0
 10
99.2276737
 20
95.1487095482
 30
0.0
 10
99.0904227484
 20
95.216301104
 30
0.0
 10
98.9658425969
 20
95.3053195037
 30
0.0
 10
98.8545033823
 20
95.4135348485
 30
0.0
 10
98.7571820468
 20
95.5394060829
 30
0.0
 10
98.6754119812
 20
95.6804710391
 30
0.0
 10
98.6104284992
 20
95.8341989533
 30
0.0
 10
98.5634527836
 20
95.9974813647
 30
0.0
 10
98.5353702258
 20
96.1661514684
 30
0.0
 10
98.5291963905
 20
96.2800685722
 30
0.0
 10
98.5291963905
 20
96.3366754236
 30
0.0
 11
99.5291963905
 21
95.096288403
 31
0.0
 11
99.37656291
 21
95.1107014162
 31
0.0
 11
99.228855608
 21
95.1530946088
 31
0.0
 11
99.0921807961
 21
95.2200572298
 31
0.0
 11
98.9692313047
 21
95.3075014939
 31
0.0
 11
98.8582455524
 21
95.414903211
 31
0.0
 11
98.7608429913
 21
95.5403520979
 31
0.0
 11
98.6790723167
 21
95.6808506166
 31
0.0
 11
98.614058275
 21
95.8340433008
 31
0.0
 11
98.5667472249
 21
95.9978214364
 31
0.0
 11
98.5384434191
 21
96.1671068147
 31
0.0
 11
98.5291963905
 21
96.3366754236
 31
0.0
  0
SPLINE
  5
31B
100
AcDbEntity
  8
BEZUGSACHSEN
100
AcDbSpline
 62
7
  6
CONTINUOUS
 70
0
 71
3
 72
11
 73
7
 74
5
 42
0.0000001
 43
0.0000001
 44
0.0000000001
 12
0.0
 22
0.1830126193
 32
0.0
 13
0.1451726273
 23
-0.1114384454
 33
0.0
 40
0.0
 40
0.0
 40
0.0
 40
0.0
 40
0.2465776366
 40
0.4184562595
 40
0.6350985973
 40
1.0
 40
1.0
 40
1.0
 40
1.0
 10
104.4541963905
 20
148.2886929585
 30
0.0
 10
104.4541963905
 20
148.3037352316
 30
0.0
 10
104.4541688761
 20
148.3301484938
 30
0.0
 10
104.4835869184
 20
148.3634830259
 30
0.0
 10
104.5337496846
 20
148.3487282981
 30
0.0
 10
104.5615384921
 20
148.3289575649
 30
0.0
 10
104.5791963905
 20
148.3154028832
 30
0.0
 11
104.4541963905
 21
148.2886929585
 31
0.0
 11
104.4609037482
 21
148.3333185247
 31
0.0
 11
104.4830539261
 21
148.3556534044
 31
0.0
 11
104.5223617248
 21
148.3504685036
 31
0.0
 11
104.5791963905
 21
148.3154028832
 31
0.0
  0
SPLINE
  5
31C
100
AcDbEntity
  8
BEZUGSACHSEN
100
AcDbSpline
 62
7
  6
CONTINUOUS
 70
0
 71
3
 72
11
 73
7
 74
5
 42
0.0000001
 43
0.0000001
 44
0.0000000001
 12
0.0
 22
-0.1395867963
 32
0.0
 13
0.0661959442
 23
-0.1231095805
 33
0.0
 40
0.0
 40
0.0
 40
0.0
 40
0.0
 40
0.2989089425
 40
0.5912641764
 40
0.8672480948
 40
1.0
 40
1.0
 40
1.0
 40
1.0
 10
104.5791963905
 20
148.0591720942
 30
0.0
 10
104.5791963905
 20
148.0452641803
 30
0.0
 10
104.580486311
 20
148.017724461
 30
0.0
 10
104.5872137592
 20
147.9778144993
 30
0.0
 10
104.5974225021
 20
147.9466793673
 30
0.0
 10
104.6056906604
 20
147.9295011601
 30
0.0
 10
104.608619873
 20
147.924053483
 30
0.0
 11
104.5791963905
 21
148.0591720942
 31
0.0
 11
104.5813431443
 21
148.0175036161
 31
0.0
 11
104.5883639956
 21
147.9773031627
 31
0.0
 11
104.6005642422
 21
147.9407623596
 31
0.0
 11
104.608619873
 21
147.924053483
 31
0.0
  0
SPLINE
  5
31D
100
AcDbEntity
  8
BEZUGSACHSEN
100
AcDbSpline
 62
7
  6
CONTINUOUS
 70
0
 71
3
 72
16
 73
12
 74
10
 42
0.0000001
 43
0.0000001
 44
0.0000000001
 12
0.244791693
 22
-0.4552575388
 32
0.0
 13
0.497355697
 23
0.1381647029
 33
0.0
 40
0.0
 40
0.0
 40
0.0
 40
0.0
 40
0.0354819688
 40
0.1069116572
 40
0.1821577292
 40
0.2654043123
 40
0.3615453499
 40
0.4759438992
 40
0.6177190239
 40
0.7944984177
 40
1.0
 40
1.0
 40
1.0
 40
1.0
 10
104.608619873
 20
147.924053483
 30
0.0
 10
104.6115151034
 20
147.9186690051
 30
0.0
 10
104.6209565292
 20
147.9028321958
 30
0.0
 10
104.64071976
 20
147.8782688538
 30
0.0
 10
104.6709725432
 20
147.8524404331
 30
0.0
 10
104.7089395415
 20
147.8301645968
 30
0.0
 10
104.7562727486
 20
147.8118599228
 30
0.0
 10
104.8156216856
 20
147.7985432364
 30
0.0
 10
104.8901222482
 20
147.7925814135
 30
0.0
 10
104.9804181382
 20
147.7980160296
 30
0.0
 10
105.0451272629
 20
147.8112544873
 30
0.0
 10
105.0791963905
 20
147.8207188423
 30
0.0
 11
104.608619873
 21
147.924053483
 31
0.0
 11
104.6180196568
 21
147.9083135482
 31
0.0
 11
104.6411086602
 21
147.879566543
 31
0.0
 11
104.6705459504
 21
147.8542270378
 31
0.0
 11
104.707480889
 21
147.8322652033
 31
0.0
 11
104.7536534324
 21
147.8140734444
 31
0.0
 11
104.8111949701
 21
147.8008054933
 31
0.0
 11
104.8841131719
 21
147.7945866425
 31
0.0
 11
104.9752214815
 21
147.7997013847
 31
0.0
 11
105.0791963905
 21
147.8207188423
 31
0.0
  0
SPLINE
  5
31E
100
AcDbEntity
  8
BEZUGSACHSEN
100
AcDbSpline
 62
7
  6
CONTINUOUS
 70
0
 71
3
 72
12
 73
8
 74
6
 42
0.0000001
 43
0.0000001
 44
0.0000000001
 12
0.1458774432
 22
0.1119794812
 32
0.0
 13
0.0
 23
-0.1839011491
 33
0.0
 40
0.0
 40
0.0
 40
0.0
 40
0.0
 40
0.3119503866
 40
0.5109744676
 40
0.6456308384
 40
0.7914381086
 40
1.0
 40
1.0
 40
1.0
 40
1.0
 10
108.3291963905
 20
148.3154028832
 30
0.0
 10
108.3443652321
 20
148.3270468974
 30
0.0
 10
108.3702204385
 20
148.3445033214
 30
0.0
 10
108.4077897514
 20
148.3603809078
 30
0.0
 10
108.4392760032
 20
148.3525405217
 30
0.0
 10
108.4529707708
 20
148.3230290504
 30
0.0
 10
108.4541963905
 20
148.3014778824
 30
0.0
 10
108.4541963905
 20
148.2886929585
 30
0.0
 11
108.3291963905
 21
148.3154028832
 31
0.0
 11
108.3773800262
 21
148.3465385323
 31
0.0
 11
108.4124228182
 21
148.3571034818
 31
0.0
 11
108.4361088505
 21
148.3498784635
 31
0.0
 11
108.4497408074
 21
148.3267880537
 31
0.0
 11
108.4541963905
 21
148.2886929585
 31
0.0
  0
SPLINE
  5
31F
100
AcDbEntity
  8
0
100
AcDbSpline
 62
7
  6
CONTINUOUS
 70
0
 71
3
 72
15
 73
11
 74
9
 42
0.0000001
 43
0.0000001
 44
0.0000000001
 12
0.0
 22
0.9130903992
 32
0.0
 13
-0.9130903992
 23
0.0
 33
0.0
 40
0.0
 40
0.0
 40
0.0
 40
0.0
 40
0.1600918462
 40
0.3075422057
 40
0.4449036121
 40
0.5732119493
 40
0.6912879168
 40
0.8006702292
 40
0.9045439847
 40
1.0
 40
1.0
 40
1.0
 40
1.0
 10
108.3291963905
 20
99.0868376912
 30
0.0
 10
108.3291963905
 20
99.1355638004
 30
0.0
 10
108.3212314931
 20
99.2293755326
 30
0.0
 10
108.2873877986
 20
99.3610900785
 30
0.0
 10
108.2360588048
 20
99.4765478879
 30
0.0
 10
108.1702843578
 20
99.5738552427
 30
0.0
 10
108.0932464952
 20
99.6509579619
 30
0.0
 10
108.0081221316
 20
99.7064968452
 30
0.0
 10
107.9191349739
 20
99.7391749436
 30
0.0
 10
107.8582497142
 20
99.7462975515
 30
0.0
 10
107.8291963905
 20
99.7462975515
 30
0.0
 11
108.3291963905
 21
99.0868376912
 31
0.0
 11
108.316723022
 21
99.2324828716
 31
0.0
 11
108.2829426261
 21
99.3628117048
 31
0.0
 11
108.2315850595
 21
99.4772382094
 31
0.0
 11
108.1655143764
 21
99.5739876458
 31
0.0
 11
108.0888891947
 21
99.6498325343
 31
0.0
 11
108.0049487521
 21
99.7039546677
 31
0.0
 11
107.9157776595
 21
99.7362703668
 31
0.0
 11
107.8291963905
 21
99.7462975515
 31
0.0
  0
SPLINE
  5
320
100
AcDbEntity
  8
0
100
AcDbSpline
 62
7
  6
CONTINUOUS
 70
0
 71
3
 72
83
 73
79
 74
77
 42
0.0000001
 43
0.0000001
 44
0.0000000001
 12
-27.1694829188
 22
-5.8506037413
 32
0.0
 13
-21.4682825624
 23
-17.6403293756
 33
0.0
 40
0.0
 40
0.0
 40
0.0
 40
0.0
 40
0.0118585269
 40
0.0220412663
 40
0.03013928
 40
0.0364218302
 40
0.0415290219
 40
0.0462348518
 40
0.0514390762
 40
0.0578869509
 40
0.0661016033
 40
0.0762691225
 40
0.0881479162
 40
0.1015339891
 40
0.1161793373
 40
0.1319318888
 40
0.1487183746
 40
0.1662956742
 40
0.1839515254
 40
0.2009568015
 40
0.2167820979
 40
0.2310882468
 40
0.2440357889
 40
0.2558953628
 40
0.2667623384
 40
0.2764625732
 40
0.2850247709
 40
0.2924138809
 40
0.2991930555
 40
0.3067965393
 40
0.3154791985
 40
0.3253066774
 40
0.3363482765
 40
0.3484323561
 40
0.3616224551
 40
0.3760281489
 40
0.3917154276
 40
0.4086167494
 40
0.4263483518
 40
0.4438970968
 40
0.460472335
 40
0.4759373973
 40
0.4902882231
 40
0.5035376068
 40
0.5157898449
 40
0.5270469008
 40
0.537294925
 40
0.5469330339
 40
0.5564328066
 40
0.566385969
 40
0.577576206
 40
0.5905882935
 40
0.6056732063
 40
0.6224415991
 40
0.6409009409
 40
0.661312894
 40
0.6831339718
 40
0.7046476095
 40
0.7249188507
 40
0.7439880732
 40
0.761993947
 40
0.7790633893
 40
0.7950842057
 40
0.8095181799
 40
0.8221436575
 40
0.8333028382
 40
0.843644114
 40
0.8537762881
 40
0.8640562311
 40
0.8749548708
 40
0.8868702984
 40
0.8999425038
 40
0.9141714159
 40
0.9291743096
 40
0.9448836043
 40
0.9616431039
 40
0.97986258
 40
1.0
 40
1.0
 40
1.0
 40
1.0
 10
147.3813214945
 20
140.2718315369
 30
0.0
 10
147.2739248129
 20
140.2487050229
 30
0.0
 10
147.0755217945
 20
140.1998674101
 30
0.0
 10
146.8110133788
 20
140.1089057516
 30
0.0
 10
146.6073063424
 20
140.005115181
 30
0.0
 10
146.4661874119
 20
139.8893990868
 30
0.0
 10
146.3839567849
 20
139.7611095811
 30
0.0
 10
146.3601117368
 20
139.6202658749
 30
0.0
 10
146.3938035824
 20
139.4695608454
 30
0.0
 10
146.4831804332
 20
139.307006097
 30
0.0
 10
146.6287008333
 20
139.1279311579
 30
0.0
 10
146.8306371533
 20
138.9329072651
 30
0.0
 10
147.0847239342
 20
138.7248355089
 30
0.0
 10
147.3831759208
 20
138.5065416936
 30
0.0
 10
147.7186458696
 20
138.2786099646
 30
0.0
 10
148.0854790036
 20
138.0410365634
 30
0.0
 10
148.4782517034
 20
137.7936582123
 30
0.0
 10
148.8869080108
 20
137.5384367829
 30
0.0
 10
149.2958248142
 20
137.2798064632
 30
0.0
 10
149.6871734371
 20
137.0238117983
 30
0.0
 10
150.0462340684
 20
136.7753373922
 30
0.0
 10
150.3660196037
 20
136.536528904
 30
0.0
 10
150.6455656163
 20
136.3058240418
 30
0.0
 10
150.8862380844
 20
136.0789506042
 30
0.0
 10
151.0847353158
 20
135.8527425269
 30
0.0
 10
151.2355320646
 20
135.627819158
 30
0.0
 10
151.3324798898
 20
135.4092225688
 30
0.0
 10
151.3743240538
 20
135.2008583982
 30
0.0
 10
151.3639487743
 20
134.9974631985
 30
0.0
 10
151.3001584917
 20
134.7913636171
 30
0.0
 10
151.1778760413
 20
134.580757205
 30
0.0
 10
151.0000224443
 20
134.3712992606
 30
0.0
 10
150.7728824863
 20
134.166499077
 30
0.0
 10
150.503424046
 20
133.9646974173
 30
0.0
 10
150.1963774041
 20
133.7624664488
 30
0.0
 10
149.8528505287
 20
133.555688072
 30
0.0
 10
149.4742414481
 20
133.3409120458
 30
0.0
 10
149.0663456277
 20
133.1154382206
 30
0.0
 10
148.64411528
 20
132.8802478677
 30
0.0
 10
148.2287427045
 20
132.6390205472
 30
0.0
 10
147.8392700473
 20
132.395351942
 30
0.0
 10
147.4860331515
 20
132.1503443312
 30
0.0
 10
147.1733742855
 20
131.9020604984
 30
0.0
 10
146.9053738873
 20
131.6473223165
 30
0.0
 10
146.6867960023
 20
131.385058892
 30
0.0
 10
146.522325709
 20
131.1176265542
 30
0.0
 10
146.4148182223
 20
130.8481954515
 30
0.0
 10
146.3646139732
 20
130.5788305434
 30
0.0
 10
146.3688553802
 20
130.3077732337
 30
0.0
 10
146.4248187673
 20
130.0281266514
 30
0.0
 10
146.5371137417
 20
129.7310226284
 30
0.0
 10
146.714454001
 20
129.4120339309
 30
0.0
 10
146.9587745415
 20
129.0749739086
 30
0.0
 10
147.2649257585
 20
128.7230774194
 30
0.0
 10
147.6282438695
 20
128.357212789
 30
0.0
 10
148.0434916401
 20
127.9780943493
 30
0.0
 10
148.4915617417
 20
127.5935392244
 30
0.0
 10
148.9436214627
 20
127.2157775649
 30
0.0
 10
149.3753286293
 20
126.8534016281
 30
0.0
 10
149.7769165241
 20
126.5057189002
 30
0.0
 10
150.1466324256
 20
126.1667471713
 30
0.0
 10
150.4810924503
 20
125.8315952086
 30
0.0
 10
150.7708667043
 20
125.4996751852
 30
0.0
 10
151.0059535132
 20
125.1764409074
 30
0.0
 10
151.1812190958
 20
124.8678557775
 30
0.0
 10
151.2986466425
 20
124.5731161017
 30
0.0
 10
151.3617943391
 20
124.2855910432
 30
0.0
 10
151.3738598767
 20
123.999516358
 30
0.0
 10
151.3343683898
 20
123.7107212269
 30
0.0
 10
151.2412737474
 20
123.4172101161
 30
0.0
 10
151.0918346372
 20
123.1190356997
 30
0.0
 10
150.8888624561
 20
122.8169264519
 30
0.0
 10
150.6395858341
 20
122.5140314131
 30
0.0
 10
150.3522450649
 20
122.212503824
 30
0.0
 10
150.0321489134
 20
121.9108646131
 30
0.0
 10
149.6789663005
 20
121.6014632166
 30
0.0
 10
149.2874034485
 20
121.2738955449
 30
0.0
 10
149.0125538244
 20
121.0487967506
 30
0.0
 10
148.8684485501
 20
120.93038651
 30
0.0
 11
147.3813214945
 21
140.2718315369
 31
0.0
 11
147.0618742994
 21
140.1910355319
 31
0.0
 11
146.795457298
 21
140.095765667
 31
0.0
 11
146.5970465084
 21
139.9896349764
 31
0.0
 11
146.4650662587
 21
139.8753761011
 31
0.0
 11
146.3912653705
 21
139.754167182
 31
0.0
 11
146.3690537694
 21
139.6253107811
 31
0.0
 11
146.3969116036
 21
139.4834143272
 31
0.0
 11
146.4790934822
 21
139.3242133553
 31
0.0
 11
146.6202384333
 21
139.1448319922
 31
0.0
 11
146.8215521296
 21
138.9466199216
 31
0.0
 11
147.0756300947
 21
138.7359361128
 31
0.0
 11
147.3749341869
 21
138.5151157395
 31
0.0
 11
147.7109565243
 21
138.2855792073
 31
0.0
 11
148.0779193195
 21
138.0469967748
 31
0.0
 11
148.4722063599
 21
137.7978063459
 31
0.0
 11
148.8860461286
 21
137.5384301344
 31
0.0
 11
149.3002309527
 21
137.275509808
 31
0.0
 11
149.6951386517
 21
137.0160600219
 31
0.0
 11
150.0561920236
 21
136.7650674493
 31
0.0
 11
150.3740310921
 21
136.5263324641
 31
0.0
 11
150.6506338323
 21
136.296289912
 31
0.0
 11
150.8890664359
 21
136.0688236093
 31
0.0
 11
151.0864537129
 21
135.8403225996
 31
0.0
 11
151.2342236815
 21
135.6149086081
 31
0.0
 11
151.3280041023
 21
135.3962615991
 31
0.0
 11
151.3665164155
 21
135.1945912706
 31
0.0
 11
151.3570272226
 21
135.0064634862
 31
0.0
 11
151.2963378316
 21
134.8040965929
 31
0.0
 11
151.1777969329
 21
134.593969994
 31
0.0
 11
151.0032827221
 21
134.3839446489
 31
0.0
 11
150.7772894909
 21
134.1764470576
 31
0.0
 11
150.5097919932
 21
133.9735028347
 31
0.0
 11
150.2045313731
 21
133.7706742945
 31
0.0
 11
149.8621963987
 21
133.5632387805
 31
0.0
 11
149.4836484686
 21
133.3471362095
 31
0.0
 11
149.0731951496
 21
133.1189410759
 31
0.0
 11
148.64336079
 21
132.8781336276
 31
0.0
 11
148.2223541625
 21
132.6321287461
 31
0.0
 11
147.8326059705
 21
132.3867448216
 31
0.0
 11
147.4803902492
 21
132.1405776999
 31
0.0
 11
147.1693719645
 21
131.8910337611
 31
0.0
 11
146.9040274054
 21
131.6358359754
 31
0.0
 11
146.6877373224
 21
131.3729301934
 31
0.0
 11
146.5257776744
 21
131.1053361248
 31
0.0
 11
146.4219209724
 21
130.8401985182
 31
0.0
 11
146.3733779279
 21
130.5768291359
 31
0.0
 11
146.3765853949
 21
130.3128868141
 31
0.0
 11
146.4294070702
 21
130.0414182788
 31
0.0
 11
146.5374681357
 21
129.749866753
 31
0.0
 11
146.7107118412
 21
129.4325200532
 31
0.0
 11
146.9541742649
 21
129.0913254548
 31
0.0
 11
147.2581871536
 21
128.7382453286
 31
0.0
 11
147.618228701
 21
128.3729368312
 31
0.0
 11
148.0356961931
 21
127.9890077909
 31
0.0
 11
148.4945827796
 21
127.5927115093
 31
0.0
 11
148.9523067811
 21
127.2082245187
 31
0.0
 11
149.3829024363
 21
126.8451154371
 31
0.0
 11
149.782651118
 21
126.4973335126
 31
0.0
 11
150.1504144031
 21
126.1581232465
 31
0.0
 11
150.4840090649
 21
125.820974957
 31
0.0
 11
150.7751447274
 21
125.484219616
 31
0.0
 11
151.009115646
 21
125.1584742651
 31
0.0
 11
151.1802705789
 21
124.8522459827
 31
0.0
 11
151.2930934484
 21
124.5634301222
 31
0.0
 11
151.3538336093
 21
124.2825793466
 31
0.0
 11
151.3654852294
 21
124.0012867699
 31
0.0
 11
151.3274057371
 21
123.7181966817
 31
0.0
 11
151.2370990208
 21
123.4291443539
 31
0.0
 11
151.0909048555
 21
123.1320862144
 31
0.0
 11
150.890362441
 21
122.8292401229
 31
0.0
 11
150.6406750785
 21
122.5226937441
 31
0.0
 11
150.3542025864
 21
122.2198473703
 31
0.0
 11
150.0375213082
 21
121.9194384806
 31
0.0
 11
149.6880425288
 21
121.6116661852
 31
0.0
 11
149.3004986107
 21
121.2859404182
 31
0.0
 11
148.8684485501
 21
120.93038651
 31
0.0
  0
SPLINE
  5
321
100
AcDbEntity
  8
0
100
AcDbSpline
 62
7
  6
CONTINUOUS
 70
0
 71
3
 72
18
 73
14
 74
12
 42
0.0000001
 43
0.0000001
 44
0.0000000001
 12
0.0
 22
-1.7642310143
 32
0.0
 13
-1.7642310143
 23
0.0
 33
0.0
 40
0.0
 40
0.0
 40
0.0
 40
0.0
 40
0.0962938316
 40
0.1935830579
 40
0.2901642927
 40
0.3844575256
 40
0.4765796276
 40
0.5665887284
 40
0.6541294548
 40
0.7396658227
 40
0.8259929911
 40
0.9131223294
 40
1.0
 40
1.0
 40
1.0
 40
1.0
 10
114.3791963905
 20
96.3366754236
 30
0.0
 10
114.3791963905
 20
96.2800472355
 30
0.0
 10
114.3730189699
 20
96.1661068654
 30
0.0
 10
114.3449297234
 20
95.9974424329
 30
0.0
 10
114.2979637887
 20
95.8342063624
 30
0.0
 10
114.2330091388
 20
95.6805328513
 30
0.0
 10
114.1512707282
 20
95.5394983022
 30
0.0
 10
114.0539764628
 20
95.4136338735
 30
0.0
 10
113.9426507828
 20
95.3054030268
 30
0.0
 10
113.8180458184
 20
95.2163423819
 30
0.0
 10
113.6807439976
 20
95.148714419
 30
0.0
 10
113.5328732441
 20
95.1060203822
 30
0.0
 10
113.4302871508
 20
95.096288403
 30
0.0
 10
113.3791963905
 20
95.096288403
 30
0.0
 11
114.3791963905
 21
96.3366754236
 31
0.0
 11
114.3699423694
 21
96.167043091
 31
0.0
 11
114.3416301834
 21
95.9977535762
 31
0.0
 11
114.294339059
 21
95.834056141
 31
0.0
 11
114.2293545744
 21
95.6809188887
 31
0.0
 11
114.1476130855
 21
95.5404461256
 31
0.0
 11
114.0502401588
 21
95.4150070893
 31
0.0
 11
113.9392700794
 21
95.3075920403
 31
0.0
 11
113.8163061798
 21
95.2201136202
 31
0.0
 11
113.6795423769
 21
95.1530966257
 31
0.0
 11
113.5317902117
 21
95.1106938821
 31
0.0
 11
113.3791963905
 21
95.096288403
 31
0.0
  0
SPLINE
  5
322
100
AcDbEntity
  8
BEZUGSACHSEN
100
AcDbSpline
 62
7
  6
CONTINUOUS
 70
0
 71
3
 72
16
 73
12
 74
10
 42
0.0000001
 43
0.0000001
 44
0.0000000001
 12
0.4973714463
 22
-0.1381690781
 32
0.0
 13
0.2447633051
 23
0.4552915049
 33
0.0
 40
0.0
 40
0.0
 40
0.0
 40
0.0
 40
0.2054084362
 40
0.3821123936
 40
0.5239763358
 40
0.6383788277
 40
0.7345406286
 40
0.8178119434
 40
0.8930732946
 40
0.9645140243
 40
1.0
 40
1.0
 40
1.0
 40
1.0
 10
107.8291963905
 20
147.8207188423
 30
0.0
 10
107.8632511542
 20
147.8112584776
 30
0.0
 10
107.9279332071
 20
147.798023624
 30
0.0
 10
108.0182172995
 20
147.7925812041
 30
0.0
 10
108.0927241718
 20
147.7985351758
 30
0.0
 10
108.1520950451
 20
147.8118521712
 30
0.0
 10
108.1994390813
 20
147.8301571223
 30
0.0
 10
108.2374173314
 20
147.8524375376
 30
0.0
 10
108.2676776426
 20
147.8782728504
 30
0.0
 10
108.287443559
 20
147.9028421454
 30
0.0
 10
108.2968854306
 20
147.9186823993
 30
0.0
 10
108.2997806522
 20
147.9240678871
 30
0.0
 11
107.8291963905
 21
147.8207188423
 31
0.0
 11
107.9331268071
 21
147.7997070036
 31
0.0
 11
108.0241986133
 21
147.7945852256
 31
0.0
 11
108.0971654732
 21
147.800800348
 31
0.0
 11
108.1547118052
 21
147.8140648865
 31
0.0
 11
108.2008970506
 21
147.8322579323
 31
0.0
 11
108.2378449186
 21
147.8542256642
 31
0.0
 11
108.2672888473
 21
147.8795714325
 31
0.0
 11
108.2903806773
 21
147.9083249753
 31
0.0
 11
108.2997806522
 21
147.9240678871
 31
0.0
  0
SPLINE
  5
323
100
AcDbEntity
  8
BEZUGSACHSEN
100
AcDbSpline
 62
7
  6
CONTINUOUS
 70
0
 71
3
 72
11
 73
7
 74
5
 42
0.0000001
 43
0.0000001
 44
0.0000000001
 12
0.0661784389
 22
0.1231004829
 32
0.0
 13
-0.0
 23
0.1395704877
 33
0.0
 40
0.0
 40
0.0
 40
0.0
 40
0.0
 40
0.1327767541
 40
0.408761515
 40
0.7011191023
 40
1.0
 40
1.0
 40
1.0
 40
1.0
 10
108.2997806522
 20
147.9240678871
 30
0.0
 10
108.3027096383
 20
147.9295161813
 30
0.0
 10
108.3109759639
 20
147.9466941331
 30
0.0
 10
108.3211818983
 20
147.9778274677
 30
0.0
 10
108.3279069447
 20
148.0177318229
 30
0.0
 10
108.3291963905
 20
148.04526711
 30
0.0
 10
108.3291963905
 20
148.0591720942
 30
0.0
 11
108.2997806522
 21
147.9240678871
 31
0.0
 11
108.3078355077
 21
147.9407785878
 31
0.0
 11
108.3200319881
 21
147.9773160271
 31
0.0
 11
108.3270505817
 21
148.0175123681
 31
0.0
 11
108.3291963905
 21
148.0591720942
 31
0.0
  0
SPLINE
  5
324
100
AcDbEntity
  8
0
100
AcDbSpline
 62
7
  6
CONTINUOUS
 70
0
 71
3
 72
82
 73
78
 74
76
 42
0.0000001
 43
0.0000001
 44
0.0000000001
 12
23.3764175694
 22
14.2868010551
 32
0.0
 13
21.0769865297
 23
17.4954528269
 33
0.0
 40
0.0
 40
0.0
 40
0.0
 40
0.0
 40
0.0061078777
 40
0.0170227737
 40
0.025692445
 40
0.0324341596
 40
0.0378180918
 40
0.0426258808
 40
0.0477492947
 40
0.0539692522
 40
0.0618112897
 40
0.0713077197
 40
0.0822788225
 40
0.0945498505
 40
0.1078924103
 40
0.1222535854
 40
0.1375929827
 40
0.1535632363
 40
0.1695677905
 40
0.1849864218
 40
0.1992110064
 40
0.2120308934
 40
0.223603936
 40
0.2341171559
 40
0.2436090258
 40
0.2522420722
 40
0.2601482504
 40
0.2674864733
 40
0.2756113252
 40
0.2851361972
 40
0.2960310972
 40
0.3083882896
 40
0.3220903851
 40
0.3371121198
 40
0.353479107
 40
0.371186383
 40
0.3900888728
 40
0.409841222
 40
0.429508282
 40
0.4481458271
 40
0.4655470381
 40
0.4817203777
 40
0.4966993293
 40
0.5105217762
 40
0.523172869
 40
0.534454949
 40
0.5446037599
 40
0.5541330682
 40
0.5636581143
 40
0.5739450594
 40
0.5855198674
 40
0.598895328
 40
0.6143584538
 40
0.6317532001
 40
0.6502012935
 40
0.6689312365
 40
0.6877187662
 40
0.7064394686
 40
0.7249856476
 40
0.7432396237
 40
0.7609668393
 40
0.7778938354
 40
0.7935137123
 40
0.8073166248
 40
0.8194998598
 40
0.8306425524
 40
0.8414790795
 40
0.852365714
 40
0.8636034402
 40
0.8756432602
 40
0.8888419336
 40
0.9034068649
 40
0.9193228742
 40
0.9367040173
 40
0.9558945711
 40
0.9769692957
 40
1.0
 40
1.0
 40
1.0
 40
1.0
 10
149.4780393894
 20
102.0567855361
 30
0.0
 10
149.5256328226
 20
102.0858728806
 30
0.0
 10
149.6569757564
 20
102.1690634797
 30
0.0
 10
149.8482163283
 20
102.3055184297
 30
0.0
 10
150.02662588
 20
102.4678640004
 30
0.0
 10
150.1428893861
 20
102.6197642209
 30
0.0
 10
150.2027672162
 20
102.7650712934
 30
0.0
 10
150.2054377738
 20
102.9087779399
 30
0.0
 10
150.1457882045
 20
103.0476397681
 30
0.0
 10
150.0280555392
 20
103.1798321455
 30
0.0
 10
149.8550344477
 20
103.309096376
 30
0.0
 10
149.6292622062
 20
103.4359156008
 30
0.0
 10
149.3569754541
 20
103.5597927176
 30
0.0
 10
149.0459543935
 20
103.6818981979
 30
0.0
 10
148.7022264932
 20
103.8047643076
 30
0.0
 10
148.3300029145
 20
103.9309196064
 30
0.0
 10
147.9343585853
 20
104.0626752013
 30
0.0
 10
147.5253131692
 20
104.2016872869
 30
0.0
 10
147.1181198541
 20
104.3482777523
 30
0.0
 10
146.7304360114
 20
104.5015939534
 30
0.0
 10
146.3766876862
 20
104.6607500813
 30
0.0
 10
146.0643962095
 20
104.825091453
 30
0.0
 10
145.7950509706
 20
104.9963649117
 30
0.0
 10
145.5701274323
 20
105.1781242807
 30
0.0
 10
145.3938264221
 20
105.3730671906
 30
0.0
 10
145.2714208748
 20
105.5790724829
 30
0.0
 10
145.2069231522
 20
105.7897158721
 30
0.0
 10
145.196411451
 20
106.0048421311
 30
0.0
 10
145.2389585522
 20
106.2308605867
 30
0.0
 10
145.3373417926
 20
106.4736899174
 30
0.0
 10
145.4920378026
 20
106.7309557957
 30
0.0
 10
145.6994248933
 20
106.9978692433
 30
0.0
 10
145.9550715618
 20
107.2728152821
 30
0.0
 10
146.2535149338
 20
107.5566859237
 30
0.0
 10
146.5916418616
 20
107.851162946
 30
0.0
 10
146.9660530323
 20
108.1575037007
 30
0.0
 10
147.3706690592
 20
108.4755304667
 30
0.0
 10
147.7917152853
 20
108.8015606689
 30
0.0
 10
148.2093362832
 20
109.1280730212
 30
0.0
 10
148.6045772117
 20
109.4482871024
 30
0.0
 10
148.9662526434
 20
109.7590249546
 30
0.0
 10
149.2902067915
 20
110.0619254984
 30
0.0
 10
149.5733450658
 20
110.3598249573
 30
0.0
 10
149.8105940389
 20
110.6554712885
 30
0.0
 10
149.995934499
 20
110.9472145701
 30
0.0
 10
150.1247714674
 20
111.2318732839
 30
0.0
 10
150.1955587883
 20
111.5073100362
 30
0.0
 10
150.2089685507
 20
111.7754643354
 30
0.0
 10
150.1683832874
 20
112.0419913834
 30
0.0
 10
150.0719857055
 20
112.3135317732
 30
0.0
 10
149.9138129048
 20
112.5952589351
 30
0.0
 10
149.6876470634
 20
112.8881067439
 30
0.0
 10
149.3943014488
 20
113.1924865462
 30
0.0
 10
149.0437368266
 20
113.5037164443
 30
0.0
 10
148.6540621145
 20
113.8144890593
 30
0.0
 10
148.2449822977
 20
114.1207773171
 30
0.0
 10
147.8302694013
 20
114.4235785357
 30
0.0
 10
147.4176438549
 20
114.7264018399
 30
0.0
 10
147.0138064432
 20
115.0329161087
 30
0.0
 10
146.6263249315
 20
115.3457236434
 30
0.0
 10
146.2646085701
 20
115.6663057306
 30
0.0
 10
145.9420214937
 20
115.993568183
 30
0.0
 10
145.6734250548
 20
116.3215867383
 30
0.0
 10
145.4667183897
 20
116.6414407276
 30
0.0
 10
145.3213219003
 20
116.9489421084
 30
0.0
 10
145.2319128278
 20
117.2491847084
 30
0.0
 10
145.1956089014
 20
117.5485439726
 30
0.0
 10
145.210487543
 20
117.8505398037
 30
0.0
 10
145.2767526922
 20
118.15669758
 30
0.0
 10
145.3962689425
 20
118.4688126882
 30
0.0
 10
145.5710652209
 20
118.788469416
 30
0.0
 10
145.7993896167
 20
119.1162162387
 30
0.0
 10
146.0795368311
 20
119.4521873291
 30
0.0
 10
146.4112425037
 20
119.7985032582
 30
0.0
 10
146.7953660228
 20
120.1586210054
 30
0.0
 10
147.2312839364
 20
120.5381922617
 30
0.0
 10
147.5406121981
 20
120.796075643
 30
0.0
 10
147.7024181464
 20
120.93038651
 30
0.0
 11
149.4780393894
 21
102.0567855361
 31
0.0
 11
149.6192894782
 21
102.1465008738
 31
0.0
 11
149.8608735944
 21
102.3226476107
 31
0.0
 11
150.033907056
 21
102.4853025922
 31
0.0
 11
150.1427785889
 21
102.6344670478
 31
0.0
 11
150.1952433474
 21
102.7722968918
 31
0.0
 11
150.1963809596
 21
102.9039876878
 31
0.0
 11
150.1441838417
 21
103.0342610797
 31
0.0
 11
150.0346866984
 21
103.1647948119
 31
0.0
 11
149.8649475644
 21
103.2964462393
 31
0.0
 11
149.639516523
 21
103.4262432508
 31
0.0
 11
149.3668320035
 21
103.5525631749
 31
0.0
 11
149.054492352
 21
103.6767697139
 31
0.0
 11
148.7106698883
 21
103.80071659
 31
0.0
 11
148.3383562566
 21
103.9277330474
 31
0.0
 11
147.9399563621
 21
104.0612547981
 31
0.0
 11
147.5260367147
 21
104.2028228099
 31
0.0
 11
147.1138913054
 21
104.3522552816
 31
0.0
 11
146.7215960146
 21
104.5087275053
 31
0.0
 11
146.366810621
 21
104.6698121009
 31
0.0
 11
146.0568096225
 21
104.8347841659
 31
0.0
 11
145.7904722299
 21
105.0067147019
 31
0.0
 11
145.5681930499
 21
105.1898111524
 31
0.0
 11
145.3957663335
 21
105.3844145318
 31
0.0
 11
145.2770202718
 21
105.588916614
 31
0.0
 11
145.2146205169
 21
105.7962994817
 31
0.0
 11
145.2042613244
 21
105.9970421188
 31
0.0
 11
145.2430973953
 21
106.2161847051
 31
0.0
 11
145.3382756547
 21
106.4591115411
 31
0.0
 11
145.4896916062
 21
106.7162817996
 31
0.0
 11
145.6954574749
 21
106.9850493334
 31
0.0
 11
145.949446074
 21
107.2613867307
 31
0.0
 11
146.2465401725
 21
107.5460777905
 31
0.0
 11
146.5838294873
 21
107.8414302614
 31
0.0
 11
146.9585600301
 21
108.149393377
 31
0.0
 11
147.3649422568
 21
108.4702509314
 31
0.0
 11
147.7920731665
 21
108.8023721436
 31
0.0
 11
148.215750771
 21
109.1351182281
 31
0.0
 11
148.6117289238
 21
109.4573519558
 31
0.0
 11
148.9724589421
 21
109.768921301
 31
0.0
 11
149.2950135809
 21
110.0726112271
 31
0.0
 11
149.5761690484
 21
110.3714463661
 31
0.0
 11
149.8114202994
 21
110.6681195395
 31
0.0
 11
149.995106586
 21
110.9619729274
 31
0.0
 11
150.1201832157
 21
111.2445713472
 31
0.0
 11
150.1874113199
 21
111.514317833
 31
0.0
 11
150.2001901381
 21
111.7750331504
 31
0.0
 11
150.1617068764
 21
112.0330910439
 31
0.0
 11
150.0690796121
 21
112.2992133203
 31
0.0
 11
149.9159486503
 21
112.5768412847
 31
0.0
 11
149.6946863609
 21
112.8688674615
 31
0.0
 11
149.4030066927
 21
113.1760044436
 31
0.0
 11
149.0483371751
 21
113.4941904799
 31
0.0
 11
148.6545273078
 21
113.8108532168
 31
0.0
 11
148.2447979377
 21
114.1196343142
 31
0.0
 11
147.829899531
 21
114.4241081665
 31
0.0
 11
147.4171824474
 21
114.7284580771
 31
0.0
 11
147.0132460166
 21
115.0365481839
 31
0.0
 11
146.6250774397
 21
115.3517321365
 31
0.0
 11
146.2629474276
 21
115.6752383337
 31
0.0
 11
145.9391062901
 21
116.0070725317
 31
0.0
 11
145.6697517597
 21
116.3395091754
 31
0.0
 11
145.466385789
 21
116.6582496525
 31
0.0
 11
145.325512026
 21
116.9607839678
 31
0.0
 11
145.2396559455
 21
117.2536823
 31
0.0
 11
145.2040756876
 21
117.5483780142
 31
0.0
 11
145.218301285
 21
117.8462469093
 31
0.0
 11
145.2824501964
 21
118.1473141582
 31
0.0
 11
145.3988755313
 21
118.4558768905
 31
0.0
 11
145.5703093884
 21
118.7741875826
 31
0.0
 11
145.7966836988
 21
119.1027110113
 31
0.0
 11
146.0745098741
 21
119.4386958093
 31
0.0
 11
146.4026472462
 21
119.7836649834
 31
0.0
 11
146.7848554764
 21
120.144561784
 31
0.0
 11
147.2190860752
 21
120.5249543036
 31
0.0
 11
147.7024181464
 21
120.93038651
 31
0.0
  0
SPLINE
  5
325
100
AcDbEntity
  8
BEZUGSACHSEN
100
AcDbSpline
 62
7
  6
CONTINUOUS
 70
0
 71
3
 72
18
 73
14
 74
12
 42
0.0000001
 43
0.0000001
 44
0.0000000001
 12
2.6737590161
 22
0.7427664394
 32
0.0
 13
2.6737590161
 23
-0.7427664394
 33
0.0
 40
0.0
 40
0.0
 40
0.0
 40
0.0
 40
0.0788628999
 40
0.1647195541
 40
0.2563676281
 40
0.3521236596
 40
0.4503969613
 40
0.5496032532
 40
0.6478758258
 40
0.7436299262
 40
0.8352788674
 40
0.9211360457
 40
1.0
 40
1.0
 40
1.0
 40
1.0
 10
105.0791963905
 20
147.8207188423
 30
0.0
 10
105.1494831871
 20
147.8402444141
 30
0.0
 10
105.2979340611
 20
147.8751918691
 30
0.0
 10
105.5317129444
 20
147.9155948415
 30
0.0
 10
105.7827257582
 20
147.9461198119
 30
0.0
 10
106.0462606623
 20
147.9665629876
 30
0.0
 10
106.3173782909
 20
147.9768116299
 30
0.0
 10
106.59101441
 20
147.9768116188
 30
0.0
 10
106.862129579
 20
147.9665630846
 30
0.0
 10
107.1256628374
 20
147.946120198
 30
0.0
 10
107.3766751887
 20
147.9155955482
 30
0.0
 10
107.6104563363
 20
147.8751923894
 30
0.0
 10
107.7589086542
 20
147.8402446751
 30
0.0
 10
107.8291963905
 20
147.8207188423
 30
0.0
 11
105.0791963905
 21
147.8207188423
 31
0.0
 11
105.2920333617
 21
147.8716478048
 31
0.0
 11
105.5267098063
 21
147.9127763612
 31
0.0
 11
105.7791274011
 21
147.9438615995
 31
0.0
 11
106.0440368622
 21
147.9646527697
 31
0.0
 11
106.3165473833
 21
147.9750697979
 31
0.0
 11
106.5918459921
 21
147.9750697866
 31
0.0
 11
106.8643544921
 21
147.9646528523
 31
0.0
 11
107.1292586243
 21
147.9438622753
 31
0.0
 11
107.3816786397
 21
147.9127770027
 31
0.0
 11
107.6163565518
 21
147.8716483935
 31
0.0
 11
107.8291963905
 21
147.8207188423
 31
0.0
  0
SPLINE
  5
326
100
AcDbEntity
  8
0
100
AcDbSpline
 62
7
  6
CONTINUOUS
 70
0
 71
3
 72
20
 73
16
 74
14
 42
0.0000001
 43
0.0000001
 44
0.0000000001
 12
2.8109095616
 22
-0.5051029517
 32
0.0
 13
-2.768586471
 23
-0.6356803423
 33
0.0
 40
0.0
 40
0.0
 40
0.0
 40
0.0
 40
0.1562936552
 40
0.3159588863
 40
0.4663475226
 40
0.5974920645
 40
0.7034456388
 40
0.7851401053
 40
0.8453613711
 40
0.8860817614
 40
0.9104602538
 40
0.9260570799
 40
0.9486931318
 40
0.9865705607
 40
1.0
 40
1.0
 40
1.0
 40
1.0
 10
148.8684485501
 20
141.4727696262
 30
0.0
 10
149.0148909933
 20
141.4464548307
 30
0.0
 10
149.3105727032
 20
141.3912040049
 30
0.0
 10
149.745740953
 20
141.3032961259
 30
0.0
 10
150.1560305227
 20
141.2131689877
 30
0.0
 10
150.514456872
 20
141.1262840054
 30
0.0
 10
150.8076542948
 20
141.0466131011
 30
0.0
 10
151.0319853901
 20
140.9755449009
 30
0.0
 10
151.1965403094
 20
140.9139672089
 30
0.0
 10
151.299054667
 20
140.8587542128
 30
0.0
 10
151.3671013311
 20
140.8109880158
 30
0.0
 10
151.3674428769
 20
140.7420627708
 30
0.0
 10
151.2953114244
 20
140.7046219539
 30
0.0
 10
151.2306178571
 20
140.683944292
 30
0.0
 10
151.1836687683
 20
140.6724389477
 30
0.0
 10
151.171275247
 20
140.6695933375
 30
0.0
 11
148.8684485501
 21
141.4727696262
 31
0.0
 11
149.3072101642
 21
141.3907393589
 31
0.0
 11
149.7541343774
 21
141.3002504151
 31
0.0
 11
150.173529543
 21
141.207635259
 31
0.0
 11
150.5373748089
 21
141.1187721567
 31
0.0
 11
150.8290877884
 21
141.0383487024
 31
0.0
 11
151.0512295006
 21
140.9670159057
 31
0.0
 11
151.21112933
 21
140.9036768195
 31
0.0
 11
151.3130653107
 21
140.847699189
 31
0.0
 11
151.362051018
 21
140.7982239114
 31
0.0
 11
151.3613397786
 21
140.7536861319
 31
0.0
 11
151.3103725332
 21
140.7139171158
 31
0.0
 11
151.2081052324
 21
140.6786566658
 31
0.0
 11
151.171275247
 21
140.6695933375
 31
0.0
  0
ENDSEC
  0
SECTION
  2
OBJECTS
  0
DICTIONARY
  5
C
100
AcDbDictionary
280
0
281
1
  3
ACAD_GROUP
350
D
  3
ACAD_MLINESTYLE
350
17
  3
ACAD_LAYOUT
350
1A
  3
ACAD_PLOTSETTINGS
350
19
  3
ACAD_PLOTSTYLENAME
350
E
  0
DICTIONARY
  5
D
102
{ACAD_REACTORS
330
C
102
}
100
AcDbDictionary
280
0
281
1
  0
ACDBDICTIONARYWDFLT
  5
E
102
{ACAD_REACTORS
330
C
102
}
100
AcDbDictionary
281
1
  3
Normal
350
F
100
AcDbDictionaryWithDefault
340
F
  0
DICTIONARY
  5
17
102
{ACAD_REACTORS
330
C
102
}
100
AcDbDictionary
280
0
281
1
  3
Standard
350
18
  0
DICTIONARY
  5
19
102
{ACAD_REACTORS
330
C
102
}
100
AcDbDictionary
281
1
  0
DICTIONARY
  5
1A
102
{ACAD_REACTORS
330
C
102
}
100
AcDbDictionary
281
1
  3
Model
350
327
  3
Layout1
350
328
  0
ACDBPLACEHOLDER
  5
F
102
{ACAD_REACTORS
330
E
102
}
  0
MLINESTYLE
  5
18
102
{ACAD_REACTORS
330
17
102
}
100
AcDbMlineStyle
  2
STANDARD
 70
0
  3

 62
256
 51
90.0
 52
90.0
 71
2
 49
0.5
 62
256
  6
BYLAYER
 49
-0.5
 62
256
  6
BYLAYER
  0
LAYOUT
  5
327
102
{ACAD_REACTORS
330
1A
102
}
100
AcDbPlotSettings
  1

  2
none_device
  4
ISO_A4_(297.00_x_210.00_MM)
  6

 40
0.0
 41
0.0
 42
0.0
 43
0.0
 44
297.0
 45
210.0
 46
0.0
 47
0.0
 48
0.0
 49
0.0
140
0.0
141
0.0
142
1.0
143
1.0
 70
1024
 72
1
 73
0
 74
0
  7

 75
0
147
1.0
148
0.0
149
0.0
100
AcDbLayout
  1
Model
 70
0
 71
0
 10
0.0
 20
0.0
 11
297.0
 21
210.0
 12
0.0
 22
0.0
 32
0.0
 14
0.0
 24
0.0
 34
0.0
 15
0.0
 25
0.0
 35
0.0
146
0.0
 13
0.0
 23
0.0
 33
0.0
 16
1.0
 26
0.0
 36
0.0
 17
0.0
 27
1.0
 37
0.0
 76
0
330
217
345
0
346
0
  0
LAYOUT
  5
328
102
{ACAD_REACTORS
330
1A
102
}
100
AcDbPlotSettings
  1

  2
none_device
  4
ISO_A4_(297.00_x_210.00_MM)
  6

 40
0.0
 41
0.0
 42
0.0
 43
0.0
 44
297.0
 45
210.0
 46
0.0
 47
0.0
 48
0.0
 49
0.0
140
0.0
141
0.0
142
1.0
143
1.0
 70
0
 72
1
 73
0
 74
0
  7

 75
0
147
1.0
148
0.0
149
0.0
100
AcDbLayout
  1
Layout1
 70
0
 71
1
 10
0.0
 20
0.0
 11
297.0
 21
210.0
 12
0.0
 22
0.0
 32
0.0
 14
0.0
 24
0.0
 34
0.0
 15
0.0
 25
0.0
 35
0.0
146
0.0
 13
0.0
 23
0.0
 33
0.0
 16
1.0
 26
0.0
 36
0.0
 17
0.0
 27
1.0
 37
0.0
 76
0
330
218
345
0
346
0
  0
ENDSEC
  0
EOF
