999
DXF file: 40-482-04-8.dxf
999
Pro/ENGINEER 2009220 by Parametric Technology Corporation
  0
SECTION
  2
HEADER
  9
$ACADVER
  1
AC1021
  9
$DWGCODEPAGE
  3
ANSI_1252
  9
$EXTMAX
 10
297.0
 20
210.0
 30
0.0
  9
$EXTMIN
 10
0.0
 20
0.0
 30
0.0
  9
$LIMMIN
 10
0.0
 20
0.0
  9
$LIMMAX
 10
297.0
 20
210.0
  9
$VIEWCTR
 10
148.5
 20
105.0
  9
$VIEWSIZE
 40
210.0
  9
$CLAYER
  8
0
  9
$LTSCALE
 40
16.335
  9
$CELTYPE
  6
BYLAYER
  9
$DIMSCALE
 40
1.0
  9
$DIMASZ
 40
3.5
  9
$DIMEXO
 40
1.85625
  9
$DIMDLI
 40
11.286
  9
$DIMEXE
 40
5.346
  9
$DIMCEN
 40
2.673
  9
$DIMLFAC
 40
1.0
  9
$DIMBLK
  1
_FILLED
  9
$DIMTXT
 40
3.5
  9
$DIMTOL
 70
1
  9
$DIMLIM
 70
0
  9
$DIMTFAC
 40
1.0
  9
$DIMTP
 40
0.005
  9
$DIMTM
 40
0.005
  9
$PDMODE
 70
3
  9
$PDSIZE
 40
0.3125
  9
$HANDSEED
  5
328
  9
$TILEMODE
 70
1
  9
$MEASUREMENT
 70
1
  9
$INSUNITS
 70
4
  0
ENDSEC
  0
SECTION
  2
CLASSES
  0
CLASS
  1
ACDBDICTIONARYWDFLT
  2
AcDbDictionaryWithDefault
  3
AutoCAD 2000
 90
0
 91
1
280
0
281
0
  0
CLASS
  1
ACDBPLACEHOLDER
  2
AcDbPlaceHolder
  3
AutoCAD 2000
 90
0
 91
1
280
0
281
0
  0
CLASS
  1
LAYOUT
  2
AcDbLayout
  3
AutoCAD 2000
 90
0
 91
0
280
0
281
0
  0
ENDSEC
  0
SECTION
  2
TABLES
  0
TABLE
  2
VPORT
  5
8
100
AcDbSymbolTable
 70
2
  0
VPORT
  5
1F4
100
AcDbSymbolTableRecord
100
AcDbViewportTableRecord
  2
*ACTIVE
 70
0
 10
0.0
 20
0.0
 11
1.0
 21
1.0
 12
148.5
 22
105.0
 13
0.0
 23
0.0
 14
1.0
 24
1.0
 15
0.0
 25
0.0
 16
0.0
 26
0.0
 36
1.0
 17
0.0
 27
0.0
 37
0.0
 40
210.0
 41
1.4142857143
 42
50.0
 43
0.0
 44
0.0
 50
0.0
 51
0.0
 71
0
 72
100
 73
1
 74
1
 75
0
 76
0
 77
0
 78
0
  0
ENDTAB
  0
TABLE
  2
LTYPE
  5
5
100
AcDbSymbolTable
 70
6
  0
LTYPE
  5
14
100
AcDbSymbolTableRecord
100
AcDbLinetypeTableRecord
  2
BYBLOCK
 70
0
  3

 72
65
 73
0
 40
0.0
  0
LTYPE
  5
15
100
AcDbSymbolTableRecord
100
AcDbLinetypeTableRecord
  2
BYLAYER
 70
0
  3

 72
65
 73
0
 40
0.0
  0
LTYPE
  5
16
100
AcDbSymbolTableRecord
100
AcDbLinetypeTableRecord
  2
CONTINUOUS
 70
64
  3
Solid line
 72
65
 73
0
 40
0.0
  0
LTYPE
  5
1F5
100
AcDbSymbolTableRecord
100
AcDbLinetypeTableRecord
  2
CENTER
 70
64
  3
____ _ ____ _ ____ _ ____ _ ____ _ ____ _ ____
 72
65
 73
4
 40
0.6
 49
0.375
 74
0
 49
-0.075
 74
0
 49
0.075
 74
0
 49
-0.075
 74
0
  0
LTYPE
  5
1F6
100
AcDbSymbolTableRecord
100
AcDbLinetypeTableRecord
  2
HIDDEN
 70
64
  3
- - - - - - - - - - - - - - - - - - - -
 72
65
 73
2
 40
0.2
 49
0.1
 74
0
 49
-0.1
 74
0
  0
LTYPE
  5
1F7
100
AcDbSymbolTableRecord
100
AcDbLinetypeTableRecord
  2
PHANTOM
 70
64
  3
_____ _ _ _____ _ _ _____ _ _ _____
 72
65
 73
6
 40
0.8
 49
0.45
 74
0
 49
-0.05
 74
0
 49
0.1
 74
0
 49
-0.05
 74
0
 49
0.1
 74
0
 49
-0.05
 74
0
  0
LTYPE
  5
1F8
100
AcDbSymbolTableRecord
100
AcDbLinetypeTableRecord
  2
DOT
 70
64
  3
. . . . . . . . . . . . . . . . . . . .
 72
65
 73
2
 40
0.2
 49
0.1
 74
0
 49
-0.1
 74
0
  0
LTYPE
  5
1F9
100
AcDbSymbolTableRecord
100
AcDbLinetypeTableRecord
  2
DASHED
 70
64
  3
- - - - - - - - - - - - - - - - - - - -
 72
65
 73
2
 40
0.2
 49
0.1
 74
0
 49
-0.1
 74
0
  0
ENDTAB
  0
TABLE
  2
LAYER
  5
2
100
AcDbSymbolTable
 70
36
  0
LAYER
  5
10
100
AcDbSymbolTableRecord
100
AcDbLayerTableRecord
  2
0
 70
0
 62
7
  6
CONTINUOUS
370
-3
390
F
  0
LAYER
  5
1FA
100
AcDbSymbolTableRecord
100
AcDbLayerTableRecord
  2
DEFAULT_1
 70
0
 62
7
  6
CENTER
370
-3
390
F
  0
LAYER
  5
1FB
100
AcDbSymbolTableRecord
100
AcDbLayerTableRecord
  2
DEFAULT_2
 70
0
 62
8
  6
HIDDEN
370
-3
390
F
  0
LAYER
  5
1FC
100
AcDbSymbolTableRecord
100
AcDbLayerTableRecord
  2
DEFAULT_3
 70
0
 62
7
  6
PHANTOM
370
-3
390
F
  0
LAYER
  5
1FD
100
AcDbSymbolTableRecord
100
AcDbLayerTableRecord
  2
ANALYSEN
 70
0
 62
7
  6
CONTINUOUS
370
-3
390
F
  0
LAYER
  5
1FE
100
AcDbSymbolTableRecord
100
AcDbLayerTableRecord
  2
AUSSENKONTUR
 70
0
 62
7
  6
CONTINUOUS
370
-3
390
F
  0
LAYER
  5
1FF
100
AcDbSymbolTableRecord
100
AcDbLayerTableRecord
  2
BEZUGSACHSEN
 70
0
 62
7
  6
CONTINUOUS
370
-3
390
F
  0
LAYER
  5
200
100
AcDbSymbolTableRecord
100
AcDbLayerTableRecord
  2
BEZUGSACHSENKENNZEICHEN
 70
0
 62
7
  6
CONTINUOUS
370
-3
390
F
  0
LAYER
  5
201
100
AcDbSymbolTableRecord
100
AcDbLayerTableRecord
  2
BEZUGSEBENEN
 70
0
 62
7
  6
CONTINUOUS
370
-3
390
F
  0
LAYER
  5
202
100
AcDbSymbolTableRecord
100
AcDbLayerTableRecord
  2
BEZUGSPUNKTE
 70
0
 62
7
  6
CONTINUOUS
370
-3
390
F
  0
LAYER
  5
203
100
AcDbSymbolTableRecord
100
AcDbLayerTableRecord
  2
BOHRUNGEN
 70
0
 62
7
  6
CONTINUOUS
370
-3
390
F
  0
LAYER
  5
204
100
AcDbSymbolTableRecord
100
AcDbLayerTableRecord
  2
FASEN
 70
0
 62
7
  6
CONTINUOUS
370
-3
390
F
  0
LAYER
  5
205
100
AcDbSymbolTableRecord
100
AcDbLayerTableRecord
  2
FLAECHEN
 70
0
 62
7
  6
CONTINUOUS
370
-3
390
F
  0
LAYER
  5
206
100
AcDbSymbolTableRecord
100
AcDbLayerTableRecord
  2
GEWINDE
 70
0
 62
7
  6
CONTINUOUS
370
-3
390
F
  0
LAYER
  5
207
100
AcDbSymbolTableRecord
100
AcDbLayerTableRecord
  2
HILFEN
 70
0
 62
7
  6
CONTINUOUS
370
-3
390
F
  0
LAYER
  5
208
100
AcDbSymbolTableRecord
100
AcDbLayerTableRecord
  2
INNENKONTUR
 70
0
 62
7
  6
CONTINUOUS
370
-3
390
F
  0
LAYER
  5
209
100
AcDbSymbolTableRecord
100
AcDbLayerTableRecord
  2
KURVEN
 70
0
 62
7
  6
CONTINUOUS
370
-3
390
F
  0
LAYER
  5
20A
100
AcDbSymbolTableRecord
100
AcDbLayerTableRecord
  2
MAKINO
 70
0
 62
7
  6
CONTINUOUS
370
-3
390
F
  0
LAYER
  5
20B
100
AcDbSymbolTableRecord
100
AcDbLayerTableRecord
  2
OELVERDR_RILLE
 70
0
 62
7
  6
CONTINUOUS
370
-3
390
F
  0
LAYER
  5
20C
100
AcDbSymbolTableRecord
100
AcDbLayerTableRecord
  2
PLATZIERUNG
 70
0
 62
7
  6
CONTINUOUS
370
-3
390
F
  0
LAYER
  5
20D
100
AcDbSymbolTableRecord
100
AcDbLayerTableRecord
  2
PUNKTE
 70
0
 62
7
  6
CONTINUOUS
370
-3
390
F
  0
LAYER
  5
20E
100
AcDbSymbolTableRecord
100
AcDbLayerTableRecord
  2
RUNDUNGEN
 70
0
 62
7
  6
CONTINUOUS
370
-3
390
F
  0
LAYER
  5
20F
100
AcDbSymbolTableRecord
100
AcDbLayerTableRecord
  2
TEIL_STARTBEZUEGE
 70
0
 62
7
  6
CONTINUOUS
370
-3
390
F
  0
LAYER
  5
210
100
AcDbSymbolTableRecord
100
AcDbLayerTableRecord
  2
VERERBUNG
 70
0
 62
7
  6
CONTINUOUS
370
-3
390
F
  0
LAYER
  5
211
100
AcDbSymbolTableRecord
100
AcDbLayerTableRecord
  2
VOLUMEN
 70
0
 62
7
  6
CONTINUOUS
370
-3
390
F
  0
LAYER
  5
212
100
AcDbSymbolTableRecord
100
AcDbLayerTableRecord
  2
ZEICHNUNG
 70
0
 62
7
  6
CONTINUOUS
370
-3
390
F
  0
LAYER
  5
213
100
AcDbSymbolTableRecord
100
AcDbLayerTableRecord
  2
ZEICHNUNGSBEMASSUNGEN
 70
0
 62
7
  6
CONTINUOUS
370
-3
390
F
  0
ENDTAB
  0
TABLE
  2
STYLE
  5
3
100
AcDbSymbolTable
 70
1
  0
STYLE
  5
11
100
AcDbSymbolTableRecord
100
AcDbTextStyleTableRecord
  2
STANDARD
 70
0
 40
0.0
 41
0.7
 50
0.0
 71
0
 42
0.2
  3
txt
  4

  0
STYLE
  5
214
100
AcDbSymbolTableRecord
100
AcDbTextStyleTableRecord
  2
TEXTSTYLE_1
 70
0
 40
0.0
 41
0.8
 50
0.0
 71
0
 42
0.2
  3
gdt
  4

  0
STYLE
  5
215
100
AcDbSymbolTableRecord
100
AcDbTextStyleTableRecord
  2
TEXTSTYLE_2
 70
0
 40
0.0
 41
0.7
 50
0.0
 71
0
 42
0.2
  3
gdt
  4

  0
ENDTAB
  0
TABLE
  2
VIEW
  5
6
100
AcDbSymbolTable
 70
0
  0
ENDTAB
  0
TABLE
  2
UCS
  5
7
100
AcDbSymbolTable
 70
0
  0
ENDTAB
  0
TABLE
  2
APPID
  5
9
100
AcDbSymbolTable
 70
1
  0
APPID
  5
216
100
AcDbSymbolTableRecord
100
AcDbRegAppTableRecord
  2
ACAD
 70
0
  0
ENDTAB
  0
TABLE
  2
BLOCK_RECORD
  5
1
100
AcDbSymbolTable
 70
0
  0
BLOCK_RECORD
  5
217
100
AcDbSymbolTableRecord
100
AcDbBlockTableRecord
  2
*Model_Space
  0
BLOCK_RECORD
  5
218
100
AcDbSymbolTableRecord
100
AcDbBlockTableRecord
  2
*Paper_Space
  0
BLOCK_RECORD
  5
219
100
AcDbSymbolTableRecord
100
AcDbBlockTableRecord
  2
_FILLED
  0
BLOCK_RECORD
  5
21A
100
AcDbSymbolTableRecord
100
AcDbBlockTableRecord
  2
*D0
  0
BLOCK_RECORD
  5
21B
100
AcDbSymbolTableRecord
100
AcDbBlockTableRecord
  2
*D1
  0
BLOCK_RECORD
  5
21C
100
AcDbSymbolTableRecord
100
AcDbBlockTableRecord
  2
*D2
  0
BLOCK_RECORD
  5
21D
100
AcDbSymbolTableRecord
100
AcDbBlockTableRecord
  2
*D3
  0
BLOCK_RECORD
  5
21E
100
AcDbSymbolTableRecord
100
AcDbBlockTableRecord
  2
*D4
  0
BLOCK_RECORD
  5
21F
100
AcDbSymbolTableRecord
100
AcDbBlockTableRecord
  2
*D5
  0
ENDTAB
  0
TABLE
  2
DIMSTYLE
  5
A
100
AcDbSymbolTable
 70
1
100
AcDbDimStyleTable
 71
0
  0
DIMSTYLE
105
220
100
AcDbSymbolTableRecord
100
AcDbDimStyleTableRecord
  2
STANDARD
 70
0
  3

  4

 40
1.0
 41
3.5
 42
0.0625
 43
0.38
 44
0.18
 45
0.0
 46
0.0
 47
0.005
 48
0.005
140
3.5
141
0.09
142
0.0
143
25.4
144
1.0
145
0.0
146
1.0
147
0.09
 71
1.0
 72
0.0
 73
0
 74
0
 75
0
 76
0
 77
1
 78
8
170
0
171
2
172
0
173
0
174
0
175
0
176
0
177
0
178
5
270
2
271
3
272
3
273
2
274
2
275
0
280
0
281
0
282
0
283
1
284
8
285
0
286
0
287
3
288
0
340
11
341
219
342
219
343
219
344
219
  0
DIMSTYLE
105
221
100
AcDbSymbolTableRecord
100
AcDbDimStyleTableRecord
  2
DIMSTYLE_1
 70
0
  3

  4

 40
1.0
 41
3.5
 42
0.0625
 43
0.38
 44
0.18
 45
0.0
 46
0.0
 47
0.5
 48
0.5
140
3.5
141
0.09
142
0.0
143
25.4
144
1.0
145
0.0
146
1.0
147
0.09
 71
0.0
 72
0.0
 73
0
 74
0
 75
0
 76
0
 77
1
 78
8
170
0
171
2
172
0
173
0
174
0
175
0
176
0
177
0
178
5
270
2
271
3
272
3
273
2
274
2
275
0
280
0
281
0
282
0
283
1
284
8
285
0
286
0
287
3
288
0
340
11
341
219
342
219
343
219
344
219
  0
DIMSTYLE
105
222
100
AcDbSymbolTableRecord
100
AcDbDimStyleTableRecord
  2
DIMSTYLE_2
 70
0
  3

  4

 40
1.0
 41
3.5
 42
0.0625
 43
0.38
 44
0.18
 45
0.0
 46
0.0
 47
0.5
 48
0.5
140
3.5
141
0.09
142
0.0
143
25.4
144
1.0
145
0.0
146
1.0
147
0.09
 71
0.0
 72
0.0
 73
0
 74
0
 75
0
 76
0
 77
1
 78
8
170
0
171
2
172
0
173
0
174
0
175
0
176
0
177
0
178
5
270
2
271
2
272
2
273
2
274
2
275
0
280
0
281
0
282
0
283
1
284
8
285
0
286
0
287
3
288
0
340
11
341
219
342
219
343
219
344
219
  0
DIMSTYLE
105
223
100
AcDbSymbolTableRecord
100
AcDbDimStyleTableRecord
  2
DIMSTYLE_3
 70
0
  3

  4

 40
1.0
 41
3.5
 42
0.0625
 43
0.38
 44
0.18
 45
0.0
 46
0.0
 47
0.1
 48
0.0
140
3.5
141
0.09
142
0.0
143
25.4
144
1.0
145
0.0
146
1.0
147
0.09
 71
0.0
 72
0.0
 73
0
 74
0
 75
0
 76
0
 77
1
 78
8
170
0
171
2
172
0
173
0
174
0
175
0
176
0
177
0
178
5
270
2
271
2
272
2
273
2
274
2
275
0
280
0
281
0
282
0
283
1
284
8
285
0
286
0
287
3
288
0
340
11
341
219
342
219
343
219
344
219
  0
DIMSTYLE
105
224
100
AcDbSymbolTableRecord
100
AcDbDimStyleTableRecord
  2
DIMSTYLE_4
 70
0
  3

  4

 40
1.0
 41
3.5
 42
0.0625
 43
0.38
 44
0.18
 45
0.0
 46
0.0
 47
0.0
 48
0.0
140
3.5
141
0.09
142
0.0
143
25.4
144
1.0
145
0.0
146
1.0
147
0.09
 71
0.0
 72
0.0
 73
0
 74
0
 75
0
 76
0
 77
1
 78
8
170
0
171
2
172
0
173
0
174
0
175
0
176
0
177
0
178
5
270
2
271
0
272
0
273
2
274
2
275
0
280
0
281
0
282
0
283
1
284
8
285
0
286
0
287
3
288
0
340
11
341
219
342
219
343
219
344
219
  0
DIMSTYLE
105
225
100
AcDbSymbolTableRecord
100
AcDbDimStyleTableRecord
  2
DIMSTYLE_5
 70
0
  3

  4

 40
1.0
 41
3.5
 42
0.0625
 43
0.38
 44
0.18
 45
0.0
 46
0.0
 47
0.1
 48
0.1
140
3.5
141
0.09
142
0.0
143
25.4
144
1.0
145
0.0
146
1.0
147
0.09
 71
0.0
 72
0.0
 73
0
 74
0
 75
0
 76
0
 77
1
 78
8
170
0
171
2
172
0
173
0
174
0
175
0
176
0
177
0
178
5
270
2
271
2
272
2
273
2
274
2
275
0
280
0
281
0
282
0
283
1
284
8
285
0
286
0
287
3
288
0
340
11
341
219
342
219
343
219
344
219
  0
ENDTAB
  0
ENDSEC
  0
SECTION
  2
BLOCKS
  0
BLOCK
  5
20
100
AcDbEntity
  8
0
100
AcDbBlockBegin
  2
*Model_Space
 70
0
 10
0.0
 20
0.0
 30
0.0
  3
*Model_Space
  1

  0
ENDBLK
  5
21
100
AcDbEntity
  8
0
100
AcDbBlockEnd
  0
BLOCK
  5
1C
100
AcDbEntity
  8
0
100
AcDbBlockBegin
  2
*Paper_Space
 70
0
 10
0.0
 20
0.0
 30
0.0
  3
*Paper_Space
  1

  0
ENDBLK
  5
1D
100
AcDbEntity
  8
0
100
AcDbBlockEnd
  0
BLOCK
  5
226
100
AcDbEntity
  8
0
100
AcDbBlockBegin
  2
_FILLED
 70
64
 10
0.0
 20
0.0
  3
_FILLED
  1

  0
SOLID
  5
227
100
AcDbEntity
  8
0
  6
BYBLOCK
 62
0
100
AcDbTrace
 10
0.0
 20
0.0
 11
-1.0
 21
0.125
 12
-1.0
 22
-0.125
 13
-1.0
 23
-0.125
  0
ENDBLK
  5
228
100
AcDbEntity
  8
0
  6
BYBLOCK
 62
0
100
AcDbBlockEnd
  0
BLOCK
  5
229
100
AcDbEntity
  8
0
100
AcDbBlockBegin
 62
2
  6
CONTINUOUS
  2
*D0
 70
65
 10
0.0
 20
0.0
  3
*D0
  1

  0
MTEXT
  5
22A
100
AcDbEntity
  8
0
100
AcDbMText
 62
5
  6
CONTINUOUS
  7
STANDARD
 71
2
 72
1
 10
183.741703307
 20
166.3329664973
 30
0.0
 11
1.0
 21
0.0
 31
0.0
 44
0.9
  1
160
 40
3.5
 41
8.490234375
  0
LINE
  5
22B
100
AcDbEntity
  8
0
100
AcDbLine
 62
2
  6
CONTINUOUS
 10
252.361680798
 20
112.7191220363
 11
252.361680798
 21
163.4579664973
  0
LINE
  5
22C
100
AcDbEntity
  8
0
100
AcDbLine
 62
2
  6
CONTINUOUS
 10
92.361680798
 20
141.2913522905
 11
92.361680798
 21
163.4579664973
  0
LINE
  5
22D
100
AcDbEntity
  8
0
100
AcDbLine
 62
2
  6
CONTINUOUS
 10
252.361680798
 20
161.9579664973
 11
172.361680798
 21
161.9579664973
  0
LINE
  5
22E
100
AcDbEntity
  8
0
100
AcDbLine
 62
2
  6
CONTINUOUS
 10
92.361680798
 20
161.9579664973
 11
172.361680798
 21
161.9579664973
  0
INSERT
  5
22F
100
AcDbEntity
  8
0
100
AcDbBlockReference
 62
2
  6
CONTINUOUS
  2
_FILLED
 10
252.361680798
 20
161.9579664973
 41
3.5
 42
3.5
 43
3.5
  0
INSERT
  5
230
100
AcDbEntity
  8
0
100
AcDbBlockReference
 62
2
  6
CONTINUOUS
  2
_FILLED
 10
92.361680798
 20
161.9579664973
 41
3.5
 42
3.5
 43
3.5
 50
180.0
  0
ENDBLK
  5
231
100
AcDbEntity
  8
0
  6
BYBLOCK
 62
0
100
AcDbBlockEnd
  0
BLOCK
  5
232
100
AcDbEntity
  8
0
100
AcDbBlockBegin
 62
2
  6
CONTINUOUS
  2
*D1
 70
65
 10
0.0
 20
0.0
  3
*D1
  1

  0
MTEXT
  5
233
100
AcDbEntity
  8
0
100
AcDbMText
 62
5
  6
CONTINUOUS
  7
STANDARD
 71
2
 72
1
 10
159.4874872141
 20
173.012547869
 30
0.0
 11
1.0
 21
0.0
 31
0.0
 44
0.9
  1
228.4
 40
3.5
 41
12.7421875
  0
LINE
  5
234
100
AcDbEntity
  8
0
100
AcDbLine
 62
2
  6
CONTINUOUS
 10
23.961680798
 20
126.9201414144
 11
23.961680798
 21
170.137547869
  0
LINE
  5
235
100
AcDbEntity
  8
0
100
AcDbLine
 62
2
  6
CONTINUOUS
 10
252.361680798
 20
115.2191220363
 11
252.361680798
 21
170.137547869
  0
LINE
  5
236
100
AcDbEntity
  8
0
100
AcDbLine
 62
2
  6
CONTINUOUS
 10
23.961680798
 20
168.637547869
 11
138.161680798
 21
168.637547869
  0
LINE
  5
237
100
AcDbEntity
  8
0
100
AcDbLine
 62
2
  6
CONTINUOUS
 10
252.361680798
 20
168.637547869
 11
138.161680798
 21
168.637547869
  0
INSERT
  5
238
100
AcDbEntity
  8
0
100
AcDbBlockReference
 62
2
  6
CONTINUOUS
  2
_FILLED
 10
23.961680798
 20
168.637547869
 41
3.5
 42
3.5
 43
3.5
 50
180.0
  0
INSERT
  5
239
100
AcDbEntity
  8
0
100
AcDbBlockReference
 62
2
  6
CONTINUOUS
  2
_FILLED
 10
252.361680798
 20
168.637547869
 41
3.5
 42
3.5
 43
3.5
  0
ENDBLK
  5
23A
100
AcDbEntity
  8
0
  6
BYBLOCK
 62
0
100
AcDbBlockEnd
  0
BLOCK
  5
23B
100
AcDbEntity
  8
0
100
AcDbBlockBegin
 62
2
  6
CONTINUOUS
  2
*D2
 70
65
 10
0.0
 20
0.0
  3
*D2
  1

  0
MTEXT
  5
23C
100
AcDbEntity
  8
0
100
AcDbMText
 62
5
  6
CONTINUOUS
  7
STANDARD
 71
2
 72
1
 10
191.133847077
 20
158.9081693267
 30
0.0
 11
1.0
 21
0.0
 31
0.0
 44
0.9
  1
140.9
 40
3.5
 41
12.7421875
  0
LINE
  5
23D
100
AcDbEntity
  8
0
100
AcDbLine
 62
2
  6
CONTINUOUS
 10
252.361680798
 20
115.2191220363
 11
252.361680798
 21
156.0331693267
  0
LINE
  5
23E
100
AcDbEntity
  8
0
100
AcDbLine
 62
2
  6
CONTINUOUS
 10
111.461680798
 20
145.2824261374
 11
111.461680798
 21
156.0331693267
  0
LINE
  5
23F
100
AcDbEntity
  8
0
100
AcDbLine
 62
2
  6
CONTINUOUS
 10
252.361680798
 20
154.5331693267
 11
181.911680798
 21
154.5331693267
  0
LINE
  5
240
100
AcDbEntity
  8
0
100
AcDbLine
 62
2
  6
CONTINUOUS
 10
111.461680798
 20
154.5331693267
 11
181.911680798
 21
154.5331693267
  0
INSERT
  5
241
100
AcDbEntity
  8
0
100
AcDbBlockReference
 62
2
  6
CONTINUOUS
  2
_FILLED
 10
252.361680798
 20
154.5331693267
 41
3.5
 42
3.5
 43
3.5
  0
INSERT
  5
242
100
AcDbEntity
  8
0
100
AcDbBlockReference
 62
2
  6
CONTINUOUS
  2
_FILLED
 10
111.461680798
 20
154.5331693267
 41
3.5
 42
3.5
 43
3.5
 50
180.0
  0
ENDBLK
  5
243
100
AcDbEntity
  8
0
  6
BYBLOCK
 62
0
100
AcDbBlockEnd
  0
BLOCK
  5
244
100
AcDbEntity
  8
0
100
AcDbBlockBegin
 62
2
  6
CONTINUOUS
  2
*D3
 70
65
 10
0.0
 20
0.0
  3
*D3
  1

  0
MTEXT
  5
245
100
AcDbEntity
  8
0
100
AcDbMText
 62
5
  6
CONTINUOUS
  7
TEXTSTYLE_2
 71
1
 72
1
 10
273.3373740098
 20
122.2254098672
 30
0.0
 11
0.0
 21
1.0
 31
0.0
 44
0.9
  1
{\Fgdt;n}\Ftxt;10\P 
 40
3.5
 41
10.3268229167
  0
LINE
  5
246
100
AcDbEntity
  8
0
100
AcDbLine
 62
2
  6
CONTINUOUS
 10
252.361680798
 20
110.2191220363
 11
279.2123740098
 21
110.2191220363
  0
LINE
  5
247
100
AcDbEntity
  8
0
100
AcDbLine
 62
2
  6
CONTINUOUS
 10
252.361680798
 20
120.2191220363
 11
279.2123740098
 21
120.2191220363
  0
LINE
  5
248
100
AcDbEntity
  8
0
100
AcDbLine
 62
2
  6
CONTINUOUS
 10
277.7123740098
 20
110.2191220363
 11
277.7123740098
 21
115.2191220363
  0
LINE
  5
249
100
AcDbEntity
  8
0
100
AcDbLine
 62
2
  6
CONTINUOUS
 10
277.7123740098
 20
120.2191220363
 11
277.7123740098
 21
115.2191220363
  0
LINE
  5
24A
100
AcDbEntity
  8
0
100
AcDbLine
 62
2
  6
CONTINUOUS
 10
277.7123740098
 20
115.2191220363
 11
277.7123740098
 21
132.5522327838
  0
INSERT
  5
24B
100
AcDbEntity
  8
0
100
AcDbBlockReference
 62
2
  6
CONTINUOUS
  2
_FILLED
 10
277.7123740098
 20
110.2191220363
 41
3.5
 42
3.5
 43
3.5
 50
270.0
  0
INSERT
  5
24C
100
AcDbEntity
  8
0
100
AcDbBlockReference
 62
2
  6
CONTINUOUS
  2
_FILLED
 10
277.7123740098
 20
120.2191220363
 41
3.5
 42
3.5
 43
3.5
 50
90.0
  0
ENDBLK
  5
24D
100
AcDbEntity
  8
0
  6
BYBLOCK
 62
0
100
AcDbBlockEnd
  0
BLOCK
  5
24E
100
AcDbEntity
  8
0
100
AcDbBlockBegin
 62
2
  6
CONTINUOUS
  2
*D4
 70
65
 10
0.0
 20
0.0
  3
*D4
  1

  0
MTEXT
  5
24F
100
AcDbEntity
  8
0
100
AcDbMText
 62
5
  6
CONTINUOUS
  7
STANDARD
 71
2
 72
1
 10
183.0442590785
 20
134.5353227013
 30
0.0
 11
0.1164666381
 21
0.9931946044
 31
0.0
 44
0.9
  1
3\Fgdt;{\Fgdt;~}
 40
3.5
 41
5.1634114583
  0
LINE
  5
250
100
AcDbEntity
  8
0
100
AcDbLine
 62
2
  6
CONTINUOUS
 10
237.483116655
 20
120.9988745419
 11
187.6353285795
 21
123.6112864171
  0
LINE
  5
251
100
AcDbEntity
  8
0
100
AcDbLine
 62
2
  6
CONTINUOUS
 10
237.2487199529
 20
115.2191220363
 11
187.4155720212
 21
115.2191220363
  0
ARC
  5
252
100
AcDbEntity
  8
0
100
AcDbCircle
 62
2
  6
CONTINUOUS
 10
347.7673642366
 20
115.2191220363
 40
158.8517922154
100
AcDbArc
 50
173.3117742799
 51
177.0
  0
ARC
  5
253
100
AcDbEntity
  8
0
100
AcDbCircle
 62
2
  6
CONTINUOUS
 10
347.7673642366
 20
115.2191220363
 40
158.8517922154
100
AcDbArc
 50
180.0
 51
182.1641221184
  0
ARC
  5
254
100
AcDbEntity
  8
0
100
AcDbCircle
 62
2
  6
CONTINUOUS
 10
347.7673642366
 20
115.2191220363
 40
158.8517922154
100
AcDbArc
 50
177.0
 51
180.0
  0
SOLID
  5
255
100
AcDbEntity
  8
0
100
AcDbTrace
 62
2
  6
CONTINUOUS
 10
188.9183202764
 20
127.0534644661
 11
189.1332728816
 21
123.5327824828
 12
189.791563614
 22
126.9980472002
 13
189.791563614
 23
126.9980472002
  0
SOLID
  5
256
100
AcDbEntity
  8
0
100
AcDbTrace
 62
2
  6
CONTINUOUS
 10
189.3916026464
 20
111.7241540688
 11
188.9155720212
 21
115.2191220363
 12
188.5166557429
 22
111.7145147754
 13
188.5166557429
 23
111.7145147754
  0
ENDBLK
  5
257
100
AcDbEntity
  8
0
  6
BYBLOCK
 62
0
100
AcDbBlockEnd
  0
BLOCK
  5
258
100
AcDbEntity
  8
0
100
AcDbBlockBegin
 62
2
  6
CONTINUOUS
  2
*D5
 70
65
 10
0.0
 20
0.0
  3
*D5
  1

  0
MTEXT
  5
259
100
AcDbEntity
  8
0
100
AcDbMText
 62
5
  6
CONTINUOUS
  7
TEXTSTYLE_2
 71
1
 72
1
 10
260.4662407821
 20
122.6550095783
 30
0.0
 11
0.0
 21
1.0
 31
0.0
 44
0.9
  1
{\Fgdt;n}\Ftxt;4
 40
3.5
 41
7.4967447917
  0
LINE
  5
25A
100
AcDbEntity
  8
0
100
AcDbLine
 62
2
  6
CONTINUOUS
 10
252.361680798
 20
113.2191220363
 11
266.3412407821
 21
113.2191220363
  0
LINE
  5
25B
100
AcDbEntity
  8
0
100
AcDbLine
 62
2
  6
CONTINUOUS
 10
252.361680798
 20
117.2191220363
 11
266.3412407821
 21
117.2191220363
  0
LINE
  5
25C
100
AcDbEntity
  8
0
100
AcDbLine
 62
2
  6
CONTINUOUS
 10
264.8412407821
 20
113.2191220363
 11
264.8412407821
 21
107.2191220363
  0
LINE
  5
25D
100
AcDbEntity
  8
0
100
AcDbLine
 62
2
  6
CONTINUOUS
 10
264.8412407821
 20
107.2191220363
 11
264.8412407821
 21
115.2191220363
  0
LINE
  5
25E
100
AcDbEntity
  8
0
100
AcDbLine
 62
2
  6
CONTINUOUS
 10
264.8412407821
 20
117.2191220363
 11
264.8412407821
 21
130.1517543699
  0
LINE
  5
25F
100
AcDbEntity
  8
0
100
AcDbLine
 62
2
  6
CONTINUOUS
 10
264.8412407821
 20
130.1517543699
 11
264.8412407821
 21
115.2191220363
  0
INSERT
  5
260
100
AcDbEntity
  8
0
100
AcDbBlockReference
 62
2
  6
CONTINUOUS
  2
_FILLED
 10
264.8412407821
 20
113.2191220363
 41
3.5
 42
3.5
 43
3.5
 50
90.0
  0
INSERT
  5
261
100
AcDbEntity
  8
0
100
AcDbBlockReference
 62
2
  6
CONTINUOUS
  2
_FILLED
 10
264.8412407821
 20
117.2191220363
 41
3.5
 42
3.5
 43
3.5
 50
270.0
  0
ENDBLK
  5
262
100
AcDbEntity
  8
0
  6
BYBLOCK
 62
0
100
AcDbBlockEnd
  0
ENDSEC
  0
SECTION
  2
ENTITIES
  0
DIMENSION
  5
263
100
AcDbEntity
  8
0
100
AcDbDimension
 62
2
  6
CONTINUOUS
  2
*D0
 10
92.361680798
 20
161.9579664973
 11
179.4965861195
 21
164.5829664973
 70
160
 71
2
 42
160.0
  3
DIMSTYLE_1
100
AcDbAlignedDimension
 13
252.361680798
 23
112.7191220363
 14
92.361680798
 24
141.2913522905
 50
180.0
100
AcDbRotatedDimension
  0
DIMENSION
  5
264
100
AcDbEntity
  8
0
100
AcDbDimension
 62
2
  6
CONTINUOUS
  2
*D1
 10
252.361680798
 20
168.637547869
 11
153.1163934641
 21
171.262547869
 70
160
 71
2
 42
228.4
  3
DIMSTYLE_2
100
AcDbAlignedDimension
 13
23.961680798
 23
126.9201414144
 14
252.361680798
 24
115.2191220363
100
AcDbRotatedDimension
  0
DIMENSION
  5
265
100
AcDbEntity
  8
0
100
AcDbDimension
 62
2
  6
CONTINUOUS
  2
*D2
 10
111.461680798
 20
154.5331693267
 11
184.762753327
 21
157.1581693267
 70
160
 71
2
 42
140.9
  3
DIMSTYLE_2
100
AcDbAlignedDimension
 13
252.361680798
 23
115.2191220363
 14
111.461680798
 24
145.2824261374
 50
180.0
100
AcDbRotatedDimension
  0
DIMENSION
  5
266
100
AcDbEntity
  8
0
100
AcDbDimension
 62
2
  6
CONTINUOUS
  2
*D3
 10
277.7123740098
 20
120.2191220363
 11
275.0873740098
 21
127.3888213255
 70
160
 71
1
 42
10.0
  1
%%c<>\P 
  3
DIMSTYLE_3
100
AcDbAlignedDimension
 13
252.361680798
 23
110.2191220363
 14
252.361680798
 24
120.2191220363
 50
90.0
100
AcDbRotatedDimension
  0
DIMENSION
  5
267
100
AcDbEntity
  8
0
100
AcDbDimension
 62
2
  6
CONTINUOUS
  2
*D4
 10
187.4155720212
 20
115.2191220363
 11
184.8591989303
 21
133.0429428134
 70
162
 71
2
 42
0.0523598776
  3
DIMSTYLE_4
100
AcDb2LineAngularDimension
 13
187.6353285795
 23
123.6112864171
 14
237.483116655
 24
120.9988745419
 15
237.2487199529
 25
115.2191220363
 16
188.970006563
 26
119.3773771897
  0
DIMENSION
  5
268
100
AcDbEntity
  8
0
100
AcDbDimension
 62
2
  6
CONTINUOUS
  2
*D5
 10
264.8412407821
 20
117.2191220363
 11
262.2162407821
 21
126.4033819741
 70
160
 71
1
 42
4.0
  1
%%c<>
  3
DIMSTYLE_5
100
AcDbAlignedDimension
 13
252.361680798
 23
113.2191220363
 14
252.361680798
 24
117.2191220363
 50
90.0
100
AcDbRotatedDimension
  0
MTEXT
  5
269
100
AcDbEntity
  8
0
100
AcDbMText
 62
5
  6
CONTINUOUS
  7
STANDARD
 71
1
 72
1
 10
12.7834264553
 20
80.7007536383
 30
0.0
 11
1.0
 21
0.0
 31
0.0
 44
0.9
  3
Für diese Unterlage behalten wir das Ur-\Pheberrecht. Sie darf nur für den von uns \Pbestimmten Zweck benutzt und ohne unsere \PZustimmung weder vervielfältigt noch\PDritten zugänglich gemacht werden\P \PWe own the copyright of this document. It \Pde
  1
termined and may neither be copied or \Pmade accessible to outsiders without our\Ppermission.\P \PCe plan reste notre propriété. Il ne peut\Pêtre utilisé, copié ou reproduit sans notre\Paccord.\P 
 40
3.5
 41
99.162109375
  0
LINE
  5
26A
100
AcDbEntity
  8
0
100
AcDbLine
 62
7
  6
CONTINUOUS
 10
0.0
 20
0.0
 11
0.0
 21
210.0
  0
LINE
  5
26B
100
AcDbEntity
  8
0
100
AcDbLine
 62
7
  6
CONTINUOUS
 10
0.0
 20
0.0
 11
297.0
 21
0.0
  0
LINE
  5
26C
100
AcDbEntity
  8
0
100
AcDbLine
 62
7
  6
CONTINUOUS
 10
0.0
 20
210.0
 11
297.0
 21
210.0
  0
LINE
  5
26D
100
AcDbEntity
  8
0
100
AcDbLine
 62
7
  6
CONTINUOUS
 10
297.0
 20
0.0
 11
297.0
 21
210.0
  0
LINE
  5
26E
100
AcDbEntity
  8
BEZUGSACHSEN
100
AcDbLine
 62
7
  6
CONTINUOUS
 10
23.961680798
 20
125.7388227107
 11
23.961680798
 21
104.6994213618
  0
LINE
  5
26F
100
AcDbEntity
  8
BEZUGSACHSEN
100
AcDbLine
 62
9
  6
CONTINUOUS
 10
25.6730434596
 20
127.717885238
 11
25.6730434596
 21
102.7203588345
  0
LINE
  5
270
100
AcDbEntity
  8
BEZUGSACHSEN
100
AcDbLine
 62
7
  6
CONTINUOUS
 10
91.9043755355
 20
137.3774261275
 11
91.9043755355
 21
93.060817945
  0
LINE
  5
271
100
AcDbEntity
  8
BEZUGSACHSEN
100
AcDbLine
 62
7
  6
CENTER
 10
92.361680798
 20
85.8512728528
 11
92.361680798
 21
141.3130725029
  0
LINE
  5
272
100
AcDbEntity
  8
BEZUGSACHSEN
100
AcDbLine
 62
7
  6
CONTINUOUS
 10
92.961680798
 20
137.0941220363
 11
92.961680798
 21
93.3441220363
  0
LINE
  5
273
100
AcDbEntity
  8
BEZUGSACHSEN
100
AcDbLine
 62
9
  6
CONTINUOUS
 10
94.611680798
 20
137.0941220363
 11
94.611680798
 21
93.3441220363
  0
LINE
  5
274
100
AcDbEntity
  8
BEZUGSACHSEN
100
AcDbLine
 62
7
  6
CONTINUOUS
 10
95.611680798
 20
145.9807113808
 11
95.611680798
 21
123.4191220363
  0
LINE
  5
275
100
AcDbEntity
  8
BEZUGSACHSEN
100
AcDbLine
 62
7
  6
CONTINUOUS
 10
95.611680798
 20
107.0191220363
 11
95.611680798
 21
96.7191220363
  0
LINE
  5
276
100
AcDbEntity
  8
BEZUGSACHSEN
100
AcDbLine
 62
7
  6
CONTINUOUS
 10
95.611680798
 20
90.6254109499
 11
95.611680798
 21
84.4781942834
  0
LINE
  5
277
100
AcDbEntity
  8
0
100
AcDbLine
 62
7
  6
CONTINUOUS
 10
95.611680798
 20
84.4441374096
 11
95.611680798
 21
90.6254109499
  0
LINE
  5
278
100
AcDbEntity
  8
FASEN
100
AcDbLine
 62
7
  6
CONTINUOUS
 10
95.611680798
 20
90.6254109499
 11
95.611680798
 21
96.7191220363
  0
LINE
  5
279
100
AcDbEntity
  8
0
100
AcDbLine
 62
7
  6
CONTINUOUS
 10
95.611680798
 20
96.7191220363
 11
95.611680798
 21
107.0191220363
  0
LINE
  5
27A
100
AcDbEntity
  8
FASEN
100
AcDbLine
 62
7
  6
CONTINUOUS
 10
95.611680798
 20
107.0191220363
 11
95.611680798
 21
123.4191220363
  0
LINE
  5
27B
100
AcDbEntity
  8
0
100
AcDbLine
 62
7
  6
CONTINUOUS
 10
95.611680798
 20
123.4191220363
 11
95.611680798
 21
145.9940941648
  0
LINE
  5
27C
100
AcDbEntity
  8
0
100
AcDbLine
 62
9
  6
CONTINUOUS
 10
96.611680798
 20
146.9941220363
 11
96.611680798
 21
123.4191220363
  0
LINE
  5
27D
100
AcDbEntity
  8
0
100
AcDbLine
 62
9
  6
CONTINUOUS
 10
96.611680798
 20
107.0191220363
 11
96.611680798
 21
96.7191220363
  0
LINE
  5
27E
100
AcDbEntity
  8
0
100
AcDbLine
 62
9
  6
CONTINUOUS
 10
96.611680798
 20
89.3850239293
 11
96.611680798
 21
83.4441220363
  0
LINE
  5
27F
100
AcDbEntity
  8
0
100
AcDbLine
 62
7
  6
CONTINUOUS
 10
100.0004103992
 20
83.4441220363
 11
100.0004103992
 21
89.3850239293
  0
LINE
  5
280
100
AcDbEntity
  8
0
100
AcDbLine
 62
7
  6
CONTINUOUS
 10
100.0004103992
 20
96.7191220363
 11
100.0004103992
 21
107.0191220363
  0
LINE
  5
281
100
AcDbEntity
  8
0
100
AcDbLine
 62
7
  6
CONTINUOUS
 10
100.0004103992
 20
123.4191220363
 11
100.0004103992
 21
146.9941220363
  0
LINE
  5
282
100
AcDbEntity
  8
BEZUGSACHSEN
100
AcDbLine
 62
7
  6
CONTINUOUS
 10
105.411680798
 20
144.1167173005
 11
107.0729511968
 21
146.9941220363
  0
LINE
  5
283
100
AcDbEntity
  8
BEZUGSACHSEN
100
AcDbLine
 62
7
  6
CONTINUOUS
 10
105.411680798
 20
86.3215267721
 11
107.0729511968
 21
83.4441220363
  0
LINE
  5
284
100
AcDbEntity
  8
0
100
AcDbLine
 62
7
  6
CONTINUOUS
 10
101.661680798
 20
144.1167168697
 11
101.661680798
 21
142.6041384095
  0
LINE
  5
285
100
AcDbEntity
  8
BEZUGSACHSEN
100
AcDbLine
 62
7
  6
CONTINUOUS
 10
101.661680798
 20
142.6041384095
 11
101.661680798
 21
142.3479076205
  0
LINE
  5
286
100
AcDbEntity
  8
0
100
AcDbLine
 62
7
  6
CONTINUOUS
 10
101.661680798
 20
142.1280665182
 11
101.661680798
 21
123.4191220363
  0
LINE
  5
287
100
AcDbEntity
  8
0
100
AcDbLine
 62
7
  6
CONTINUOUS
 10
101.661680798
 20
107.0191220363
 11
101.661680798
 21
96.7191220363
  0
LINE
  5
288
100
AcDbEntity
  8
0
100
AcDbLine
 62
7
  6
CONTINUOUS
 10
101.661680798
 20
86.3215328127
 11
101.661680798
 21
93.3755732174
  0
LINE
  5
289
100
AcDbEntity
  8
0
100
AcDbLine
 62
9
  6
CONTINUOUS
 10
102.161680798
 20
87.0941220363
 11
102.161680798
 21
94.0350330778
  0
LINE
  5
28A
100
AcDbEntity
  8
0
100
AcDbLine
 62
9
  6
CONTINUOUS
 10
102.161680798
 20
96.7191220363
 11
102.161680798
 21
107.0191220363
  0
LINE
  5
28B
100
AcDbEntity
  8
0
100
AcDbLine
 62
9
  6
CONTINUOUS
 10
102.161680798
 20
123.4191220363
 11
102.161680798
 21
141.1159756292
  0
LINE
  5
28C
100
AcDbEntity
  8
0
100
AcDbLine
 62
9
  6
CONTINUOUS
 10
102.161680798
 20
142.1094543686
 11
102.161680798
 21
143.3441220363
  0
LINE
  5
28D
100
AcDbEntity
  8
0
100
AcDbLine
 62
9
  6
CONTINUOUS
 10
104.911680798
 20
87.0941220363
 11
104.911680798
 21
94.0350330778
  0
LINE
  5
28E
100
AcDbEntity
  8
0
100
AcDbLine
 62
9
  6
CONTINUOUS
 10
104.911680798
 20
96.7191220363
 11
104.911680798
 21
107.0191220363
  0
LINE
  5
28F
100
AcDbEntity
  8
0
100
AcDbLine
 62
9
  6
CONTINUOUS
 10
104.911680798
 20
123.4191220363
 11
104.911680798
 21
141.1159756292
  0
LINE
  5
290
100
AcDbEntity
  8
0
100
AcDbLine
 62
9
  6
CONTINUOUS
 10
104.911680798
 20
142.1094543686
 11
104.911680798
 21
143.3441220363
  0
LINE
  5
291
100
AcDbEntity
  8
BEZUGSACHSEN
100
AcDbLine
 62
7
  6
CONTINUOUS
 10
105.411680798
 20
142.6041384095
 11
105.411680798
 21
142.3479076205
  0
LINE
  5
292
100
AcDbEntity
  8
0
100
AcDbLine
 62
7
  6
CONTINUOUS
 10
105.411680798
 20
142.1280665182
 11
105.411680798
 21
123.4191220363
  0
LINE
  5
293
100
AcDbEntity
  8
0
100
AcDbLine
 62
7
  6
CONTINUOUS
 10
105.411680798
 20
86.3215328127
 11
105.411680798
 21
93.3755732174
  0
LINE
  5
294
100
AcDbEntity
  8
0
100
AcDbLine
 62
7
  6
CONTINUOUS
 10
105.411680798
 20
96.7191220363
 11
105.411680798
 21
107.0191220363
  0
LINE
  5
295
100
AcDbEntity
  8
0
100
AcDbLine
 62
7
  6
CONTINUOUS
 10
105.411680798
 20
142.6041384095
 11
105.411680798
 21
144.1167168697
  0
LINE
  5
296
100
AcDbEntity
  8
0
100
AcDbLine
 62
7
  6
CONTINUOUS
 10
107.0729511968
 20
146.9941220363
 11
107.0729511968
 21
123.4191220363
  0
LINE
  5
297
100
AcDbEntity
  8
0
100
AcDbLine
 62
7
  6
CONTINUOUS
 10
107.0729511968
 20
107.0191220363
 11
107.0729511968
 21
96.7191220363
  0
LINE
  5
298
100
AcDbEntity
  8
0
100
AcDbLine
 62
7
  6
CONTINUOUS
 10
107.0729511968
 20
89.3850239293
 11
107.0729511968
 21
83.4441220363
  0
LINE
  5
299
100
AcDbEntity
  8
0
100
AcDbLine
 62
9
  6
CONTINUOUS
 10
110.461680798
 20
83.4441220363
 11
110.461680798
 21
89.3850239293
  0
LINE
  5
29A
100
AcDbEntity
  8
0
100
AcDbLine
 62
9
  6
CONTINUOUS
 10
110.461680798
 20
96.7191220363
 11
110.461680798
 21
107.0191220363
  0
LINE
  5
29B
100
AcDbEntity
  8
0
100
AcDbLine
 62
9
  6
CONTINUOUS
 10
110.461680798
 20
123.4191220363
 11
110.461680798
 21
146.9941220363
  0
LINE
  5
29C
100
AcDbEntity
  8
BEZUGSACHSEN
100
AcDbLine
 62
7
  6
CONTINUOUS
 10
111.461680798
 20
145.9807113808
 11
111.461680798
 21
123.4191220363
  0
LINE
  5
29D
100
AcDbEntity
  8
0
100
AcDbLine
 62
7
  6
CONTINUOUS
 10
111.461680798
 20
145.9940941648
 11
111.461680798
 21
123.4191220363
  0
LINE
  5
29E
100
AcDbEntity
  8
0
100
AcDbLine
 62
7
  6
CONTINUOUS
 10
111.461680798
 20
107.0191220363
 11
111.461680798
 21
96.7191220363
  0
LINE
  5
29F
100
AcDbEntity
  8
BEZUGSACHSEN
100
AcDbLine
 62
7
  6
CONTINUOUS
 10
111.461680798
 20
90.6254109499
 11
111.461680798
 21
84.4781942834
  0
LINE
  5
2A0
100
AcDbEntity
  8
0
100
AcDbLine
 62
7
  6
CONTINUOUS
 10
111.461680798
 20
90.6254109499
 11
111.461680798
 21
84.4441374096
  0
LINE
  5
2A1
100
AcDbEntity
  8
FASEN
100
AcDbLine
 62
7
  6
CONTINUOUS
 10
111.461680798
 20
90.6254109499
 11
111.461680798
 21
96.7191220363
  0
LINE
  5
2A2
100
AcDbEntity
  8
FASEN
100
AcDbLine
 62
7
  6
CONTINUOUS
 10
111.461680798
 20
107.0191220363
 11
111.461680798
 21
123.4191220363
  0
LINE
  5
2A3
100
AcDbEntity
  8
RUNDUNGEN
100
AcDbLine
 62
9
  6
CONTINUOUS
 10
112.461680798
 20
137.7191220363
 11
112.461680798
 21
92.7191220363
  0
LINE
  5
2A4
100
AcDbEntity
  8
BEZUGSACHSEN
100
AcDbLine
 62
7
  6
CONTINUOUS
 10
96.611680798
 20
83.4441220363
 11
100.0004103992
 21
83.4441220363
  0
LINE
  5
2A5
100
AcDbEntity
  8
BEZUGSACHSEN
100
AcDbLine
 62
7
  6
CONTINUOUS
 10
107.0729511968
 20
83.4441220363
 11
110.461680798
 21
83.4441220363
  0
LINE
  5
2A6
100
AcDbEntity
  8
BEZUGSACHSEN
100
AcDbLine
 62
7
  6
CONTINUOUS
 10
102.161680798
 20
87.0941220363
 11
104.911680798
 21
87.0941220363
  0
LINE
  5
2A7
100
AcDbEntity
  8
0
100
AcDbLine
 62
7
  6
CONTINUOUS
 10
96.611680798
 20
89.3850239293
 11
100.0004103992
 21
89.3850239293
  0
LINE
  5
2A8
100
AcDbEntity
  8
0
100
AcDbLine
 62
7
  6
CONTINUOUS
 10
107.0729511968
 20
89.3850239293
 11
110.461680798
 21
89.3850239293
  0
LINE
  5
2A9
100
AcDbEntity
  8
BEZUGSACHSEN
100
AcDbLine
 62
7
  6
CONTINUOUS
 10
25.6730434596
 20
102.7203588345
 11
91.9043755355
 21
93.060817945
  0
LINE
  5
2AA
100
AcDbEntity
  8
BEZUGSACHSEN
100
AcDbLine
 62
7
  6
CONTINUOUS
 10
100.0004103992
 20
83.4441220363
 11
101.661680798
 21
86.3215267721
  0
LINE
  5
2AB
100
AcDbEntity
  8
BEZUGSACHSEN
100
AcDbLine
 62
7
  6
CONTINUOUS
 10
135.0567499045
 20
92.7191220363
 11
144.7844487606
 21
94.4671289707
  0
LINE
  5
2AC
100
AcDbEntity
  8
BEZUGSACHSEN
100
AcDbLine
 62
7
  6
CONTINUOUS
 10
145.9504791644
 20
94.6766573763
 11
154.1687281178
 21
96.1534255587
  0
LINE
  5
2AD
100
AcDbEntity
  8
BEZUGSACHSEN
100
AcDbLine
 62
7
  6
CONTINUOUS
 10
112.461680798
 20
92.7191220363
 11
135.0567499045
 21
92.7191220363
  0
LINE
  5
2AE
100
AcDbEntity
  8
BEZUGSACHSEN
100
AcDbLine
 62
7
  6
CONTINUOUS
 10
92.961680798
 20
93.3441220363
 11
94.611680798
 21
93.3441220363
  0
LINE
  5
2AF
100
AcDbEntity
  8
0
100
AcDbLine
 62
7
  6
CONTINUOUS
 10
102.161680798
 20
94.0350330778
 11
104.911680798
 21
94.0350330778
  0
LINE
  5
2B0
100
AcDbEntity
  8
FASEN
100
AcDbLine
 62
7
  6
CONTINUOUS
 10
95.611680798
 20
96.3191220363
 11
111.461680798
 21
96.3191220363
  0
LINE
  5
2B1
100
AcDbEntity
  8
0
100
AcDbLine
 62
7
  6
CONTINUOUS
 10
95.611680798
 20
96.7191220363
 11
111.461680798
 21
96.7191220363
  0
LINE
  5
2B2
100
AcDbEntity
  8
BEZUGSACHSEN
100
AcDbLine
 62
7
  6
CONTINUOUS
 10
155.5735610133
 20
97.2191220363
 11
156.861680798
 21
97.2191220363
  0
LINE
  5
2B3
100
AcDbEntity
  8
BEZUGSACHSEN
100
AcDbLine
 62
7
  6
CONTINUOUS
 10
161.861680798
 20
97.2191220363
 11
163.1400895782
 21
97.2191220363
  0
LWPOLYLINE
  5
2B4
100
AcDbEntity
  8
0
100
AcDbPolyline
 62
7
  6
CONTINUOUS
 90
10
 70
0
 10
143.427460951
 20
94.4413839233
 10
143.4188694683
 20
94.4415111376
 10
143.4129711261
 20
94.4416845674
 10
143.4133430188
 20
94.4416540897
 10
143.420380596
 20
94.4411272387
 10
143.4346385845
 20
94.4397154465
 10
143.4557438097
 20
94.4370461018
 10
143.4837821326
 20
94.4326468175
 10
143.5173617393
 20
94.4262659808
 10
143.5413469891
 20
94.4210227619
  0
LINE
  5
2B5
100
AcDbEntity
  8
BEZUGSACHSEN
100
AcDbLine
 62
7
  6
CONTINUOUS
 10
100.0004103992
 20
146.9941220363
 11
101.661680798
 21
144.1167173005
  0
LINE
  5
2B6
100
AcDbEntity
  8
BEZUGSACHSEN
100
AcDbLine
 62
7
  6
CONTINUOUS
 10
91.9043755355
 20
93.060817945
 11
92.961680798
 21
93.3441220363
  0
LINE
  5
2B7
100
AcDbEntity
  8
BEZUGSACHSEN
100
AcDbLine
 62
7
  6
CONTINUOUS
 10
173.1283567234
 20
106.0666794763
 11
252.0773815848
 21
110.2042225459
  0
LINE
  5
2B8
100
AcDbEntity
  8
BEZUGSACHSEN
100
AcDbLine
 62
7
  6
CONTINUOUS
 10
135.0567499045
 20
137.7191220363
 11
135.0567499045
 21
92.7191220363
  0
LINE
  5
2B9
100
AcDbEntity
  8
0
100
AcDbLine
 62
7
  6
CONTINUOUS
 10
95.611680798
 20
107.0191220363
 11
111.461680798
 21
107.0191220363
  0
LINE
  5
2BA
100
AcDbEntity
  8
FASEN
100
AcDbLine
 62
7
  6
CONTINUOUS
 10
111.461680798
 20
107.4191220363
 11
95.611680798
 21
107.4191220363
  0
LINE
  5
2BB
100
AcDbEntity
  8
DEFAULT_2
100
AcDbLine
 62
8
  6
HIDDEN
 10
251.361680798
 20
113.2191220363
 11
240.3621111075
 21
113.2191220363
  0
LINE
  5
2BC
100
AcDbEntity
  8
DEFAULT_1
100
AcDbLine
 62
7
  6
CENTER
 10
159.361680798
 20
115.2191220363
 11
153.861680798
 21
115.2191220363
  0
LINE
  5
2BD
100
AcDbEntity
  8
BEZUGSACHSEN
100
AcDbLine
 62
7
  6
CENTER
 10
257.361680798
 20
115.2191220363
 11
20.961680798
 21
115.2191220363
  0
LINE
  5
2BE
100
AcDbEntity
  8
0
100
AcDbLine
 62
9
  6
CONTINUOUS
 10
144.7849025538
 20
115.2191220363
 11
145.9509329576
 21
115.2191220363
  0
LINE
  5
2BF
100
AcDbEntity
  8
DEFAULT_1
100
AcDbLine
 62
7
  6
CENTER
 10
159.361680798
 20
115.2191220363
 11
164.861680798
 21
115.2191220363
  0
LINE
  5
2C0
100
AcDbEntity
  8
DEFAULT_2
100
AcDbLine
 62
8
  6
HIDDEN
 10
251.361680798
 20
117.2191220363
 11
240.3621111075
 21
117.2191220363
  0
LINE
  5
2C1
100
AcDbEntity
  8
BEZUGSACHSEN
100
AcDbLine
 62
9
  6
CONTINUOUS
 10
154.1687281178
 20
134.2848185138
 11
154.1687281178
 21
96.1534255587
  0
LINE
  5
2C2
100
AcDbEntity
  8
BEZUGSACHSEN
100
AcDbLine
 62
9
  6
CONTINUOUS
 10
154.720059599
 20
133.8974298502
 11
154.720059599
 21
96.5408142224
  0
LINE
  5
2C3
100
AcDbEntity
  8
BEZUGSACHSEN
100
AcDbLine
 62
9
  6
CONTINUOUS
 10
154.8807406903
 20
133.6191220363
 11
154.8807406903
 21
96.8191220363
  0
LINE
  5
2C4
100
AcDbEntity
  8
BEZUGSACHSEN
100
AcDbLine
 62
9
  6
CONTINUOUS
 10
155.5735610133
 20
133.2191220363
 11
155.5735610133
 21
97.2191220363
  0
LINE
  5
2C5
100
AcDbEntity
  8
FASEN
100
AcDbLine
 62
7
  6
CONTINUOUS
 10
95.611680798
 20
123.0191220363
 11
111.461680798
 21
123.0191220363
  0
LINE
  5
2C6
100
AcDbEntity
  8
0
100
AcDbLine
 62
7
  6
CONTINUOUS
 10
95.611680798
 20
123.4191220363
 11
111.461680798
 21
123.4191220363
  0
LINE
  5
2C7
100
AcDbEntity
  8
BEZUGSACHSEN
100
AcDbLine
 62
7
  6
CONTINUOUS
 10
173.1283567234
 20
124.3715645962
 11
252.0773815848
 21
120.2340215267
  0
LINE
  5
2C8
100
AcDbEntity
  8
BEZUGSACHSEN
100
AcDbLine
 62
7
  6
CONTINUOUS
 10
91.9043755355
 20
137.3774261275
 11
92.961680798
 21
137.0941220363
  0
LINE
  5
2C9
100
AcDbEntity
  8
DEFAULT_1
100
AcDbLine
 62
7
  6
CENTER
 10
159.361680798
 20
115.2191220363
 11
159.361680798
 21
95.4718052653
  0
LINE
  5
2CA
100
AcDbEntity
  8
DEFAULT_1
100
AcDbLine
 62
7
  6
CENTER
 10
159.361680798
 20
115.2191220363
 11
159.361680798
 21
133.4506203843
  0
LINE
  5
2CB
100
AcDbEntity
  8
BEZUGSACHSEN
100
AcDbLine
 62
9
  6
CONTINUOUS
 10
163.1400895782
 20
133.2191220363
 11
163.1400895782
 21
97.2191220363
  0
LINE
  5
2CC
100
AcDbEntity
  8
BEZUGSACHSEN
100
AcDbLine
 62
9
  6
CONTINUOUS
 10
163.8471963594
 20
132.9262288175
 11
163.8471963594
 21
97.5120152551
  0
LINE
  5
2CD
100
AcDbEntity
  8
BEZUGSACHSEN
100
AcDbLine
 62
7
  6
CONTINUOUS
 10
154.720059599
 20
96.5408142224
 11
154.8807406903
 21
96.8191220363
  0
LINE
  5
2CE
100
AcDbEntity
  8
BEZUGSACHSEN
100
AcDbLine
 62
7
  6
CONTINUOUS
 10
155.5735610133
 20
133.2191220363
 11
156.861680798
 21
133.2191220363
  0
LINE
  5
2CF
100
AcDbEntity
  8
BEZUGSACHSEN
100
AcDbLine
 62
7
  6
CONTINUOUS
 10
161.861680798
 20
133.2191220363
 11
163.1400895782
 21
133.2191220363
  0
LINE
  5
2D0
100
AcDbEntity
  8
BEZUGSACHSEN
100
AcDbLine
 62
7
  6
CONTINUOUS
 10
92.961680798
 20
137.0941220363
 11
94.611680798
 21
137.0941220363
  0
LINE
  5
2D1
100
AcDbEntity
  8
BEZUGSACHSEN
100
AcDbLine
 62
7
  6
CONTINUOUS
 10
112.461680798
 20
137.7191220363
 11
135.0567499045
 21
137.7191220363
  0
LINE
  5
2D2
100
AcDbEntity
  8
BEZUGSACHSEN
100
AcDbLine
 62
7
  6
CONTINUOUS
 10
135.0567499045
 20
137.7191220363
 11
144.7844487606
 21
135.9711151019
  0
LINE
  5
2D3
100
AcDbEntity
  8
BEZUGSACHSEN
100
AcDbLine
 62
7
  6
CONTINUOUS
 10
145.9504791644
 20
135.7615866963
 11
154.1687281178
 21
134.2848185138
  0
LWPOLYLINE
  5
2D4
100
AcDbEntity
  8
0
100
AcDbPolyline
 62
7
  6
CONTINUOUS
 90
10
 70
0
 10
147.3116190279
 20
135.2960972131
 10
147.3210001184
 20
135.2925149564
 10
147.3276896416
 20
135.2898440902
 10
147.3280937656
 20
135.2896866967
 10
147.321969942
 20
135.2924719415
 10
147.3088958002
 20
135.298817202
 10
147.2896061595
 20
135.3088674451
 10
147.2644503698
 20
135.3229844446
 10
147.2348204209
 20
135.3409319662
 10
147.2174611876
 20
135.3520811597
  0
LINE
  5
2D5
100
AcDbEntity
  8
BEZUGSACHSEN
100
AcDbLine
 62
7
  6
CONTINUOUS
 10
154.720059599
 20
133.8974298502
 11
154.8807406903
 21
133.6191220363
  0
LINE
  5
2D6
100
AcDbEntity
  8
BEZUGSACHSEN
100
AcDbLine
 62
9
  6
CONTINUOUS
 10
171.8188150735
 20
124.9546101034
 11
171.8188150735
 21
105.4836339692
  0
LINE
  5
2D7
100
AcDbEntity
  8
BEZUGSACHSEN
100
AcDbLine
 62
7
  6
CONTINUOUS
 10
163.8471963594
 20
97.5120152551
 11
171.8188150735
 21
105.4836339692
  0
LINE
  5
2D8
100
AcDbEntity
  8
BEZUGSACHSEN
100
AcDbLine
 62
7
  6
CONTINUOUS
 10
25.6730434596
 20
127.717885238
 11
91.9043755355
 21
137.3774261275
  0
LINE
  5
2D9
100
AcDbEntity
  8
BEZUGSACHSEN
100
AcDbLine
 62
7
  6
CONTINUOUS
 10
102.161680798
 20
143.3441220363
 11
104.911680798
 21
143.3441220363
  0
LINE
  5
2DA
100
AcDbEntity
  8
BEZUGSACHSEN
100
AcDbLine
 62
7
  6
CONTINUOUS
 10
163.8471963594
 20
132.9262288175
 11
171.8188150735
 21
124.9546101034
  0
LINE
  5
2DB
100
AcDbEntity
  8
BEZUGSACHSEN
100
AcDbLine
 62
9
  6
CONTINUOUS
 10
173.1283567234
 20
124.3715645962
 11
173.1283567234
 21
106.0666794763
  0
LINE
  5
2DC
100
AcDbEntity
  8
BEZUGSACHSEN
100
AcDbLine
 62
7
  6
CONTINUOUS
 10
96.611680798
 20
146.9941220363
 11
100.0004103992
 21
146.9941220363
  0
LINE
  5
2DD
100
AcDbEntity
  8
BEZUGSACHSEN
100
AcDbLine
 62
7
  6
CONTINUOUS
 10
107.0729511968
 20
146.9941220363
 11
110.461680798
 21
146.9941220363
  0
LINE
  5
2DE
100
AcDbEntity
  8
DEFAULT_2
100
AcDbLine
 62
8
  6
HIDDEN
 10
240.061680798
 20
117.7191220363
 11
240.061680798
 21
112.7191220363
  0
LINE
  5
2DF
100
AcDbEntity
  8
BEZUGSACHSEN
100
AcDbLine
 62
9
  6
CONTINUOUS
 10
252.0773815848
 20
120.2340215267
 11
252.0773815848
 21
110.2042225459
  0
LINE
  5
2E0
100
AcDbEntity
  8
BEZUGSACHSEN
100
AcDbLine
 62
7
  6
CONTINUOUS
 10
252.361680798
 20
119.9344326663
 11
252.361680798
 21
110.5038114063
  0
CIRCLE
  5
2E1
100
AcDbEntity
  8
BEZUGSACHSEN
100
AcDbCircle
 62
7
  6
CONTINUOUS
 10
103.461680798
 20
115.2191220363
 40
5.0
  0
CIRCLE
  5
2E2
100
AcDbEntity
  8
BEZUGSACHSEN
100
AcDbCircle
 62
7
  6
CONTINUOUS
 10
103.461680798
 20
115.2191220363
 40
4.7
  0
CIRCLE
  5
2E3
100
AcDbEntity
  8
BEZUGSACHSEN
100
AcDbCircle
 62
7
  6
CONTINUOUS
 10
103.461680798
 20
115.2191220363
 40
2.0
  0
ARC
  5
2E4
100
AcDbEntity
  8
BEZUGSACHSEN
100
AcDbCircle
 62
7
  6
CONTINUOUS
 10
25.961680798
 20
104.6994213618
 40
2.0
100
AcDbArc
 50
180.0
 51
261.7021731718
  0
ARC
  5
2E5
100
AcDbEntity
  8
BEZUGSACHSEN
100
AcDbCircle
 62
7
  6
CONTINUOUS
 10
96.611680798
 20
84.4441220363
 40
1.0
100
AcDbArc
 50
180.0
 51
270.0
  0
ARC
  5
2E6
100
AcDbEntity
  8
BEZUGSACHSEN
100
AcDbCircle
 62
7
  6
CONTINUOUS
 10
94.611680798
 20
92.3441220363
 40
1.0
100
AcDbArc
 50
0.0
 51
90.0
  0
ARC
  5
2E7
100
AcDbEntity
  8
BEZUGSACHSEN
100
AcDbCircle
 62
7
  6
CONTINUOUS
 10
102.161680798
 20
86.5941220363
 40
0.5
100
AcDbArc
 50
90.0
 51
180.0
  0
ARC
  5
2E8
100
AcDbEntity
  8
0
100
AcDbCircle
 62
7
  6
CONTINUOUS
 10
-71.9590258041
 20
170.1865494884
 40
189.9972240794
100
AcDbArc
 50
334.8317727047
 51
336.0368933894
  0
ARC
  5
2E9
100
AcDbEntity
  8
BEZUGSACHSEN
100
AcDbCircle
 62
7
  6
CONTINUOUS
 10
25.961680798
 20
125.7388227107
 40
2.0
100
AcDbArc
 50
98.2978268282
 51
180.0
  0
ARC
  5
2EA
100
AcDbEntity
  8
BEZUGSACHSEN
100
AcDbCircle
 62
7
  6
CONTINUOUS
 10
94.611680798
 20
138.0941220363
 40
1.0
100
AcDbArc
 50
270.0
 51
360.0
  0
ARC
  5
2EB
100
AcDbEntity
  8
BEZUGSACHSEN
100
AcDbCircle
 62
7
  6
CONTINUOUS
 10
96.611680798
 20
145.9941220363
 40
1.0
100
AcDbArc
 50
90.0
 51
180.0
  0
ARC
  5
2EC
100
AcDbEntity
  8
BEZUGSACHSEN
100
AcDbCircle
 62
7
  6
CONTINUOUS
 10
102.161680798
 20
143.8441220363
 40
0.5
100
AcDbArc
 50
180.0
 51
270.0
  0
ARC
  5
2ED
100
AcDbEntity
  8
0
100
AcDbCircle
 62
7
  6
CONTINUOUS
 10
139.3497750322
 20
124.7378122784
 40
30.7546735709
100
AcDbArc
 50
280.1782139985
 51
281.286289494
  0
ARC
  5
2EE
100
AcDbEntity
  8
0
100
AcDbCircle
 62
7
  6
CONTINUOUS
 10
140.6310386523
 20
106.2126976731
 40
30.0238786612
100
AcDbArc
 50
79.7948233416
 51
80.9207526952
  0
ARC
  5
2EF
100
AcDbEntity
  8
0
100
AcDbCircle
 62
7
  6
CONTINUOUS
 10
141.2804217122
 20
114.9351699472
 40
21.3200198949
100
AcDbArc
 50
77.3612684892
 51
77.5995625153
  0
ARC
  5
2F0
100
AcDbEntity
  8
0
100
AcDbCircle
 62
7
  6
CONTINUOUS
 10
142.2371415102
 20
113.511529852
 40
19.189788225
100
AcDbArc
 50
277.618567606
 51
277.8059199234
  0
ARC
  5
2F1
100
AcDbEntity
  8
GEWINDE
100
AcDbCircle
 62
7
  6
CONTINUOUS
 10
159.3616807983
 20
79.3933756891
 40
18.0000000014
100
AcDbArc
 50
82.016533546
 51
97.9834664563
  0
ARC
  5
2F2
100
AcDbEntity
  8
0
100
AcDbCircle
 62
2
  6
CONTINUOUS
 10
159.361680798
 20
115.2191220363
 40
3.0
100
AcDbArc
 50
180.0000000004
 51
179.8490064425
  0
CIRCLE
  5
2F3
100
AcDbEntity
  8
GEWINDE
100
AcDbCircle
 62
7
  6
CONTINUOUS
 10
159.361680798
 20
115.2191220363
 40
2.5
  0
ARC
  5
2F4
100
AcDbEntity
  8
BEZUGSACHSEN
100
AcDbCircle
 62
7
  6
CONTINUOUS
 10
173.2330286359
 20
104.0694204068
 40
2.0
100
AcDbArc
 50
93.0
 51
135.0
  0
ARC
  5
2F5
100
AcDbEntity
  8
RUNDUNGEN
100
AcDbCircle
 62
7
  6
CONTINUOUS
 10
112.461680798
 20
91.7191220363
 40
1.0
100
AcDbArc
 50
90.0
 51
180.0
  0
ARC
  5
2F6
100
AcDbEntity
  8
BEZUGSACHSEN
100
AcDbCircle
 62
7
  6
CONTINUOUS
 10
163.1400895782
 20
98.2191220363
 40
1.0
100
AcDbArc
 50
270.0
 51
315.0
  0
ARC
  5
2F7
100
AcDbEntity
  8
BEZUGSACHSEN
100
AcDbCircle
 62
7
  6
CONTINUOUS
 10
110.461680798
 20
84.4441220363
 40
1.0
100
AcDbArc
 50
270.0
 51
360.0
  0
ARC
  5
2F8
100
AcDbEntity
  8
BEZUGSACHSEN
100
AcDbCircle
 62
7
  6
CONTINUOUS
 10
154.027239276
 20
96.9408142224
 40
0.8
100
AcDbArc
 50
280.1869780731
 51
330.0
  0
ARC
  5
2F9
100
AcDbEntity
  8
BEZUGSACHSEN
100
AcDbCircle
 62
7
  6
CONTINUOUS
 10
155.5735610133
 20
96.4191220363
 40
0.8
100
AcDbArc
 50
90.0
 51
150.0
  0
ARC
  5
2FA
100
AcDbEntity
  8
BEZUGSACHSEN
100
AcDbCircle
 62
7
  6
CONTINUOUS
 10
104.911680798
 20
86.5941220363
 40
0.5
100
AcDbArc
 50
0.0
 51
90.0
  0
ARC
  5
2FB
100
AcDbEntity
  8
BEZUGSACHSEN
100
AcDbCircle
 62
7
  6
CONTINUOUS
 10
252.061680798
 20
119.9344326663
 40
0.3
100
AcDbArc
 50
0.0
 51
87.0
  0
ARC
  5
2FC
100
AcDbEntity
  8
BEZUGSACHSEN
100
AcDbCircle
 62
7
  6
CONTINUOUS
 10
252.061680798
 20
110.5038114063
 40
0.3
100
AcDbArc
 50
273.0
 51
360.0
  0
ARC
  5
2FD
100
AcDbEntity
  8
0
100
AcDbCircle
 62
7
  6
CONTINUOUS
 10
279.0323873998
 20
170.1865494872
 40
189.9972240794
100
AcDbArc
 50
203.9631066104
 51
205.168227295
  0
ARC
  5
2FE
100
AcDbEntity
  8
GEWINDE
100
AcDbCircle
 62
7
  6
CONTINUOUS
 10
159.3616807977
 20
151.0448683835
 40
18.0000000011
100
AcDbArc
 50
262.0165335459
 51
277.9834664561
  0
ARC
  5
2FF
100
AcDbEntity
  8
BEZUGSACHSEN
100
AcDbCircle
 62
7
  6
CONTINUOUS
 10
173.2330286359
 20
126.3688236657
 40
2.0
100
AcDbArc
 50
225.0
 51
267.0
  0
ARC
  5
300
100
AcDbEntity
  8
RUNDUNGEN
100
AcDbCircle
 62
7
  6
CONTINUOUS
 10
112.461680798
 20
138.7191220363
 40
1.0
100
AcDbArc
 50
180.0
 51
270.0
  0
ARC
  5
301
100
AcDbEntity
  8
BEZUGSACHSEN
100
AcDbCircle
 62
7
  6
CONTINUOUS
 10
163.1400895782
 20
132.2191220363
 40
1.0
100
AcDbArc
 50
45.0
 51
90.0
  0
ARC
  5
302
100
AcDbEntity
  8
BEZUGSACHSEN
100
AcDbCircle
 62
7
  6
CONTINUOUS
 10
110.461680798
 20
145.9941220363
 40
1.0
100
AcDbArc
 50
0.0
 51
90.0
  0
ARC
  5
303
100
AcDbEntity
  8
0
100
AcDbCircle
 62
7
  6
CONTINUOUS
 10
146.7408135275
 20
134.5753258104
 40
0.9110588885
100
AcDbArc
 50
57.9727254987
 51
58.4677416441
  0
ARC
  5
304
100
AcDbEntity
  8
BEZUGSACHSEN
100
AcDbCircle
 62
7
  6
CONTINUOUS
 10
154.027239276
 20
133.4974298502
 40
0.8
100
AcDbArc
 50
30.0
 51
79.8130219269
  0
ARC
  5
305
100
AcDbEntity
  8
BEZUGSACHSEN
100
AcDbCircle
 62
7
  6
CONTINUOUS
 10
155.5735610133
 20
134.0191220363
 40
0.8
100
AcDbArc
 50
210.0
 51
270.0
  0
ARC
  5
306
100
AcDbEntity
  8
BEZUGSACHSEN
100
AcDbCircle
 62
7
  6
CONTINUOUS
 10
104.911680798
 20
143.8441220363
 40
0.5
100
AcDbArc
 50
270.0
 51
360.0
  0
SPLINE
  5
307
100
AcDbEntity
  8
0
100
AcDbSpline
 62
2
  6
CONTINUOUS
 70
0
 71
3
 72
30
 73
26
 74
24
 42
0.0000001
 43
0.0000001
 44
0.0000000001
 12
-0.0232799672
 22
0.0038799825
 32
0.0
 13
-0.0236892072
 23
-0.0039481885
 33
0.0
 40
0.0
 40
0.0
 40
0.0
 40
0.0
 40
0.0434782609
 40
0.0869565217
 40
0.1304347826
 40
0.1739130435
 40
0.2173913043
 40
0.2608695652
 40
0.3043478261
 40
0.347826087
 40
0.3913043478
 40
0.4347826087
 40
0.4782608696
 40
0.5217391304
 40
0.5652173913
 40
0.6086956522
 40
0.652173913
 40
0.6956521739
 40
0.7391304348
 40
0.7826086957
 40
0.8260869565
 40
0.8695652174
 40
0.9130434783
 40
0.9565217391
 40
1.0
 40
1.0
 40
1.0
 40
1.0
 10
162.3616711963
 20
97.2191235824
 30
0.0
 10
162.3613338055
 20
97.219179814
 30
0.0
 10
162.3428566179
 20
97.2222722097
 30
0.0
 10
162.2619830799
 20
97.235569353
 30
0.0
 10
162.1294256412
 20
97.2565914805
 30
0.0
 10
161.9486924643
 20
97.283705466
 30
0.0
 10
161.7216981639
 20
97.3152306068
 30
0.0
 10
161.4492229127
 20
97.3493307777
 30
0.0
 10
161.1364071077
 20
97.3833693712
 30
0.0
 10
160.7917830424
 20
97.414583653
 30
0.0
 10
160.4098644531
 20
97.441439748
 30
0.0
 10
159.9988340599
 20
97.4611151485
 30
0.0
 10
159.573246297
 20
97.4713186601
 30
0.0
 10
159.149802008
 20
97.4713152169
 30
0.0
 10
158.7241846728
 20
97.4611026644
 30
0.0
 10
158.3132530969
 20
97.4414241752
 30
0.0
 10
157.9315068235
 20
97.414576803
 30
0.0
 10
157.5869916487
 20
97.3833728531
 30
0.0
 10
157.2741723631
 20
97.349334671
 30
0.0
 10
157.0017404802
 20
97.3152405375
 30
0.0
 10
156.7747677028
 20
97.2837197216
 30
0.0
 10
156.5940059708
 20
97.2566023808
 30
0.0
 10
156.4614139513
 20
97.2355751155
 30
0.0
 10
156.3805231122
 20
97.2222752275
 30
0.0
 10
156.3620340623
 20
97.2191808574
 30
0.0
 10
156.3616907405
 20
97.2191236373
 30
0.0
 11
162.3616711963
 21
97.2191235824
 31
0.0
 11
162.3339969918
 21
97.2237153013
 31
0.0
 11
162.2533690965
 21
97.2368568504
 31
0.0
 11
162.1213963515
 21
97.2576067902
 31
0.0
 11
161.9409822771
 21
97.2844406586
 31
0.0
 11
161.7141180055
 21
97.3156597785
 31
0.0
 11
161.4424994871
 21
97.3493205148
 31
0.0
 11
161.131105731
 21
97.3828986526
 31
0.0
 11
160.7855672884
 21
97.4138572885
 31
0.0
 11
160.4050124858
 21
97.4402429656
 31
0.0
 11
159.9964078316
 21
97.4595365004
 31
0.0
 11
159.5736035426
 21
97.4696175009
 31
0.0
 11
159.1494398336
 21
97.4696136987
 31
0.0
 11
158.7266322994
 21
97.4595250083
 31
0.0
 11
158.318117314
 21
97.4402293614
 31
0.0
 11
157.9377120066
 21
97.4138507067
 31
0.0
 11
157.5922742969
 21
97.3829004811
 31
0.0
 11
157.2809035969
 21
97.3493253457
 31
0.0
 11
157.0093169978
 21
97.3156694238
 31
0.0
 11
156.7824695437
 21
97.2844536341
 31
0.0
 11
156.6020342562
 21
97.2576173934
 31
0.0
 11
156.4700308147
 21
97.2368630117
 31
0.0
 11
156.3893826562
 21
97.223718283
 31
0.0
 11
156.3616907405
 21
97.2191236373
 31
0.0
  0
SPLINE
  5
308
100
AcDbEntity
  8
0
100
AcDbSpline
 62
2
  6
CONTINUOUS
 70
0
 71
3
 72
30
 73
26
 74
24
 42
0.0000001
 43
0.0000001
 44
0.0000000001
 12
0.023599864
 22
-0.003933298
 32
0.0
 13
0.0237062949
 23
0.0039510364
 33
0.0
 40
0.0
 40
0.0
 40
0.0
 40
0.0
 40
0.0434782609
 40
0.0869565217
 40
0.1304347826
 40
0.1739130435
 40
0.2173913043
 40
0.2608695652
 40
0.3043478261
 40
0.347826087
 40
0.3913043478
 40
0.4347826087
 40
0.4782608696
 40
0.5217391304
 40
0.5652173913
 40
0.6086956522
 40
0.652173913
 40
0.6956521739
 40
0.7391304348
 40
0.7826086957
 40
0.8260869565
 40
0.8695652174
 40
0.9130434783
 40
0.9565217391
 40
1.0
 40
1.0
 40
1.0
 40
1.0
 10
156.3616906967
 20
133.2191204423
 30
0.0
 10
156.3620327237
 20
133.219063438
 30
0.0
 10
156.3804627072
 20
133.2159789936
 30
0.0
 10
156.4611233771
 20
133.2027163493
 30
0.0
 10
156.5933572083
 20
133.181742932
 30
0.0
 10
156.773574968
 20
133.1546986812
 30
0.0
 10
156.9998709878
 20
133.1232534851
 30
0.0
 10
157.2714968981
 20
133.0892266515
 30
0.0
 10
157.583544928
 20
133.0552186104
 30
0.0
 10
157.9275831457
 20
133.0239847328
 30
0.0
 10
158.3092747642
 20
132.9970541321
 30
0.0
 10
158.7204484016
 20
132.9772732766
 30
0.0
 10
159.1464557147
 20
132.9669657922
 30
0.0
 10
159.5703189593
 20
132.9668874194
 30
0.0
 10
159.9963020142
 20
132.9770354211
 30
0.0
 10
160.4076407731
 20
132.9966713453
 30
0.0
 10
160.7898133125
 20
133.0235005211
 30
0.0
 10
161.1347402731
 20
133.0547067175
 30
0.0
 10
161.4479413157
 20
133.0887616125
 30
0.0
 10
161.7207426674
 20
133.1228861685
 30
0.0
 10
161.9480298687
 20
133.1544419787
 30
0.0
 10
162.1290361578
 20
133.1815918746
 30
0.0
 10
162.2618088599
 20
133.2026462993
 30
0.0
 10
162.3428122694
 20
133.2159644396
 30
0.0
 10
162.3613272858
 20
133.2190631738
 30
0.0
 10
162.3616708553
 20
133.2191204352
 30
0.0
 11
156.3616906967
 21
133.2191204423
 31
0.0
 11
156.3892986563
 21
133.214539664
 31
0.0
 11
156.469718904
 21
133.2014312205
 31
0.0
 11
156.6013545297
 21
133.1807311264
 31
0.0
 11
156.781254678
 21
133.1539651903
 31
0.0
 11
157.0074259696
 21
133.1228232122
 31
0.0
 11
157.2782339181
 21
133.0892297836
 31
0.0
 11
157.588876626
 21
133.055680971
 31
0.0
 11
157.9338587125
 21
133.0247019456
 31
0.0
 11
158.314188434
 21
132.9982457563
 31
0.0
 11
158.7229206809
 21
132.9788521718
 31
0.0
 11
159.14609837
 21
132.9686706441
 31
0.0
 11
159.570672261
 21
132.9685918152
 31
0.0
 11
159.9938612982
 21
132.9786167415
 31
0.0
 11
160.4027797365
 21
132.9978702205
 31
0.0
 11
160.783605716
 21
133.0242300245
 31
0.0
 11
161.1294526201
 21
133.0551815006
 31
0.0
 11
161.4412080339
 21
133.0887732227
 31
0.0
 11
161.7131569756
 21
133.1224580442
 31
0.0
 11
161.9403163833
 21
133.1537076596
 31
0.0
 11
162.1209972266
 21
133.1805759628
 31
0.0
 11
162.2531806444
 21
133.2013569186
 31
0.0
 11
162.3339404552
 21
133.2145194331
 31
0.0
 11
162.3616708553
 21
133.2191204352
 31
0.0
  0
SPLINE
  5
309
100
AcDbEntity
  8
BEZUGSACHSEN
100
AcDbSpline
 62
7
  6
CONTINUOUS
 70
0
 71
3
 72
19
 73
15
 74
13
 42
0.0000001
 43
0.0000001
 44
0.0000000001
 12
-0.8939002816
 22
0.3305664543
 32
0.0
 13
0.0
 23
0.9530644753
 33
0.0
 40
0.0
 40
0.0
 40
0.0
 40
0.0
 40
0.1217181457
 40
0.2412117709
 40
0.3499481467
 40
0.4477039725
 40
0.5373829645
 40
0.6199208207
 40
0.6964779373
 40
0.7678297527
 40
0.8343908613
 40
0.8961956983
 40
0.9521075556
 40
1.0
 40
1.0
 40
1.0
 40
1.0
 10
102.161680798
 20
141.1159756292
 30
0.0
 10
102.1254128364
 20
141.1293876078
 30
0.0
 10
102.0564050338
 20
141.1641649555
 30
0.0
 10
101.9674700754
 20
141.2316226848
 30
0.0
 10
101.8945747222
 20
141.3055869192
 30
0.0
 10
101.8364850558
 20
141.3798082918
 30
0.0
 10
101.7901496722
 20
141.4521104729
 30
0.0
 10
101.7530228318
 20
141.5219666523
 30
0.0
 10
101.7234527281
 20
141.5890049644
 30
0.0
 10
101.7002646359
 20
141.6531270056
 30
0.0
 10
101.6827220965
 20
141.714151454
 30
0.0
 10
101.6704721277
 20
141.7714511329
 30
0.0
 10
101.663368175
 20
141.8236338563
 30
0.0
 10
101.661680798
 20
141.8566208667
 30
0.0
 10
101.661680798
 20
141.8718357292
 30
0.0
 11
102.161680798
 21
141.1159756292
 31
0.0
 11
102.0577310358
 21
141.1674699281
 31
0.0
 11
101.9666458259
 21
141.2358315195
 31
0.0
 11
101.8936927718
 21
141.3094358967
 31
0.0
 11
101.8361502959
 21
141.3827098079
 31
0.0
 11
101.7899696564
 21
141.4546295254
 31
0.0
 11
101.7530261936
 21
141.5240787118
 31
0.0
 11
101.7235851744
 21
141.5908391226
 31
0.0
 11
101.7004953671
 21
141.6548020225
 31
0.0
 11
101.6830415717
 21
141.7157907227
 31
0.0
 11
101.6708455347
 21
141.7734182964
 31
0.0
 11
101.6638264724
 21
141.8262416019
 31
0.0
 11
101.661680798
 21
141.8718357292
 31
0.0
  0
SPLINE
  5
30A
100
AcDbEntity
  8
0
100
AcDbSpline
 62
7
  6
CONTINUOUS
 70
0
 71
3
 72
13
 73
9
 74
7
 42
0.0000001
 43
0.0000001
 44
0.0000000001
 12
1.260977403
 22
-0.2410090897
 32
0.0
 13
1.2345306974
 23
0.1651104329
 33
0.0
 40
0.0
 40
0.0
 40
0.0
 40
0.0
 40
0.093763691
 40
0.2328884389
 40
0.4150230581
 40
0.6375903145
 40
0.9018012989
 40
1.0
 40
1.0
 40
1.0
 40
1.0
 10
143.5413879607
 20
94.4211873533
 30
0.0
 10
143.5807992592
 20
94.4136547194
 30
0.0
 10
143.6747687027
 20
94.4016295075
 30
0.0
 10
143.8486434097
 20
94.4018860243
 30
0.0
 10
144.0736253256
 20
94.413098912
 30
0.0
 10
144.3504835573
 20
94.4380790786
 30
0.0
 10
144.591671988
 20
94.4662752254
 30
0.0
 10
144.7408678538
 20
94.4857324748
 30
0.0
 10
144.7812776241
 20
94.4911370181
 30
0.0
 11
143.5413879607
 21
94.4211873533
 31
0.0
 11
143.657049204
 21
94.405944306
 31
0.0
 11
143.8303080096
 21
94.4030644548
 31
0.0
 11
144.0569139596
 21
94.4136362599
 31
0.0
 11
144.3330858502
 21
94.437628662
 31
0.0
 11
144.6599988102
 21
94.4753342109
 31
0.0
 11
144.7812776241
 21
94.4911370181
 31
0.0
  0
SPLINE
  5
30B
100
AcDbEntity
  8
0
100
AcDbSpline
 62
7
  6
CONTINUOUS
 70
0
 71
3
 72
10
 73
6
 74
4
 42
0.0000001
 43
0.0000001
 44
0.0000000001
 12
1.1108017457
 22
0.152261325
 32
0.0
 13
1.1034813963
 23
0.1982887383
 33
0.0
 40
0.0
 40
0.0
 40
0.0
 40
0.0
 40
0.1769912047
 40
0.5660684557
 40
1.0
 40
1.0
 40
1.0
 40
1.0
 10
144.8434589759
 20
94.4995577978
 30
0.0
 10
144.9089930223
 20
94.5085407696
 30
0.0
 10
145.1184526072
 20
94.5383266165
 30
0.0
 10
145.4877240742
 20
94.5958585377
 30
0.0
 10
145.7908673689
 20
94.6479761301
 30
0.0
 10
145.9504791644
 20
94.6766573763
 30
0.0
 11
144.8434589759
 21
94.4995577978
 31
0.0
 11
145.0399337184
 21
94.5274387905
 31
0.0
 11
145.4709884915
 21
94.5943436662
 31
0.0
 11
145.9504791644
 21
94.6766573763
 31
0.0
  0
SPLINE
  5
30C
100
AcDbEntity
  8
BEZUGSACHSEN
100
AcDbSpline
 62
7
  6
CONTINUOUS
 70
0
 71
3
 72
18
 73
14
 74
12
 42
0.0000001
 43
0.0000001
 44
0.0000000001
 12
-2.6242089124
 22
-0.9704387092
 32
0.0
 13
-2.6242089124
 23
0.9704387092
 33
0.0
 40
0.0
 40
0.0
 40
0.0
 40
0.0
 40
0.0799679098
 40
0.1663286595
 40
0.257944786
 40
0.3532485422
 40
0.4508026001
 40
0.549197501
 40
0.6467509057
 40
0.7420528253
 40
0.8336699519
 40
0.920031171
 40
1.0
 40
1.0
 40
1.0
 40
1.0
 10
104.911680798
 20
141.1159756292
 30
0.0
 10
104.8417299641
 20
141.0901076441
 30
0.0
 10
104.6938417034
 20
141.0426627242
 30
0.0
 10
104.4599177707
 20
140.9857965852
 30
0.0
 10
104.2087167965
 20
140.9417149132
 30
0.0
 10
103.9449664467
 20
140.9116345189
 30
0.0
 10
103.6736175011
 20
140.8963811705
 30
0.0
 10
103.3997444219
 20
140.8963811783
 30
0.0
 10
103.1283977953
 20
140.9116343615
 30
0.0
 10
102.8646488079
 20
140.9417143652
 30
0.0
 10
102.6134481098
 20
140.9857956519
 30
0.0
 10
102.3795219584
 20
141.0426621022
 30
0.0
 10
102.2316324359
 20
141.0901073468
 30
0.0
 10
102.161680798
 20
141.1159756292
 30
0.0
 11
104.911680798
 21
141.1159756292
 31
0.0
 11
104.6988436099
 21
141.04697724
 31
0.0
 11
104.4641670867
 21
140.9894340064
 31
0.0
 11
104.2117496752
 21
140.9448048621
 31
0.0
 11
103.9468403985
 21
140.9143859213
 31
0.0
 11
103.6743300214
 21
140.8989687735
 31
0.0
 11
103.3990312923
 21
140.8989687815
 31
0.0
 11
103.1265227377
 21
140.9143857897
 31
0.0
 11
102.8616185382
 21
140.9448039009
 31
0.0
 11
102.6091983137
 21
140.9894332071
 31
0.0
 11
102.3745204621
 21
141.046976539
 31
0.0
 11
102.161680798
 21
141.1159756292
 31
0.0
  0
SPLINE
  5
30D
100
AcDbEntity
  8
0
100
AcDbSpline
 62
7
  6
CONTINUOUS
 70
0
 71
3
 72
19
 73
15
 74
13
 42
0.0000001
 43
0.0000001
 44
0.0000000001
 12
3.7646712221
 22
2.4728698276
 32
0.0
 13
3.8823789721
 23
2.3721679495
 33
0.0
 40
0.0
 40
0.0
 40
0.0
 40
0.0
 40
0.0335041989
 40
0.0863068409
 40
0.1540177925
 40
0.2334831
 40
0.3211524528
 40
0.4150023469
 40
0.5133480137
 40
0.6145788774
 40
0.7170946995
 40
0.8191167783
 40
0.9175197629
 40
1.0
 40
1.0
 40
1.0
 40
1.0
 10
142.4342779435
 20
94.4333228833
 30
0.0
 10
142.4763220413
 20
94.4609400574
 30
0.0
 10
142.5913871655
 20
94.5264894005
 30
0.0
 10
142.7990143951
 20
94.6315745238
 30
0.0
 10
143.0747329122
 20
94.7586918693
 30
0.0
 10
143.4009792831
 20
94.9011027494
 30
0.0
 10
143.7656111853
 20
95.0549496786
 30
0.0
 10
144.1572683977
 20
95.2182341166
 30
0.0
 10
144.5676796667
 20
95.3900127602
 30
0.0
 10
144.9890026288
 20
95.569728918
 30
0.0
 10
145.4131396901
 20
95.7569978187
 30
0.0
 10
145.8295624762
 20
95.9509534103
 30
0.0
 10
146.2127323424
 20
96.1440141747
 30
0.0
 10
146.4517459058
 20
96.2788123853
 30
0.0
 10
146.5584857519
 20
96.3440313769
 30
0.0
 11
142.4342779435
 21
94.4333228833
 31
0.0
 11
142.5658516078
 21
94.510828308
 31
0.0
 11
142.7796263499
 21
94.6203237101
 31
0.0
 11
143.0588524886
 21
94.7503089333
 31
0.0
 11
143.3898824324
 21
94.8954886954
 31
0.0
 11
143.757073964
 21
95.0510503083
 31
0.0
 11
144.1509417046
 21
95.2157019794
 31
0.0
 11
144.5634502005
 21
95.3887831895
 31
0.0
 11
144.9868299976
 21
95.5698470879
 31
0.0
 11
145.4131814656
 21
95.7587280931
 31
0.0
 11
145.833488752
 21
95.9554609798
 31
0.0
 11
146.2325295116
 21
96.1582420755
 31
0.0
 11
146.5584857519
 21
96.3440313769
 31
0.0
  0
SPLINE
  5
30E
100
AcDbEntity
  8
0
100
AcDbSpline
 62
7
  6
CONTINUOUS
 70
0
 71
3
 72
13
 73
9
 74
7
 42
0.0000001
 43
0.0000001
 44
0.0000000001
 12
-1.1659797196
 22
0.7154114195
 32
0.0
 13
-1.3010662089
 23
0.2917767891
 33
0.0
 40
0.0
 40
0.0
 40
0.0
 40
0.0
 40
0.0844182439
 40
0.2176447543
 40
0.3986075576
 40
0.6306631452
 40
0.9117533992
 40
1.0
 40
1.0
 40
1.0
 40
1.0
 10
147.2172777663
 20
135.3518630776
 30
0.0
 10
147.1844677795
 20
135.3719943361
 30
0.0
 10
147.10039794
 20
135.4161818963
 30
0.0
 10
146.9327634071
 20
135.4781201138
 30
0.0
 10
146.7016412168
 20
135.5506988567
 30
0.0
 10
146.4034720662
 20
135.6310430969
 30
0.0
 10
146.1436458833
 20
135.6936267831
 30
0.0
 10
145.9835755311
 20
135.7300032861
 30
0.0
 10
145.9453039744
 20
135.7385860561
 30
0.0
 11
147.2172777663
 21
135.3518630776
 31
0.0
 11
147.1181287285
 21
135.4047126602
 31
0.0
 11
146.9526942644
 21
135.4694304472
 31
0.0
 11
146.7227469012
 21
135.5425530704
 31
0.0
 11
146.4242767811
 21
135.6241408078
 31
0.0
 11
146.0600389286
 21
135.7125027124
 31
0.0
 11
145.9453039744
 21
135.7385860561
 31
0.0
  0
SPLINE
  5
30F
100
AcDbEntity
  8
0
100
AcDbSpline
 62
7
  6
CONTINUOUS
 70
0
 71
3
 72
10
 73
6
 74
4
 42
0.0000001
 43
0.0000001
 44
0.0000000001
 12
-1.0697877618
 22
0.2352416322
 32
0.0
 13
-1.0780470883
 23
0.1937183515
 33
0.0
 40
0.0
 40
0.0
 40
0.0
 40
0.0
 40
0.1960612397
 40
0.5998166391
 40
1.0
 40
1.0
 40
1.0
 40
1.0
 10
145.8587421519
 20
135.7578073947
 30
0.0
 10
145.7888275136
 20
135.7731813167
 30
0.0
 10
145.5746989496
 20
135.8191741749
 30
0.0
 10
145.2167975706
 20
135.8913723844
 30
0.0
 10
144.928254263
 20
135.9452741482
 30
0.0
 10
144.7844487606
 20
135.9711151019
 30
0.0
 11
145.8587421519
 21
135.7578073947
 31
0.0
 11
145.6487852907
 21
135.8029614556
 31
0.0
 11
145.2153141948
 21
135.890585765
 31
0.0
 11
144.7844487606
 21
135.9711151019
 31
0.0
  0
SPLINE
  5
310
100
AcDbEntity
  8
0
100
AcDbSpline
 62
7
  6
CONTINUOUS
 70
0
 71
3
 72
18
 73
14
 74
12
 42
0.0000001
 43
0.0000001
 44
0.0000000001
 12
-3.6870241927
 22
-0.8530610467
 32
0.0
 13
-3.72619482
 23
-0.8031900281
 33
0.0
 40
0.0
 40
0.0
 40
0.0
 40
0.0
 40
0.0353098306
 40
0.0942979345
 40
0.1684905434
 40
0.2548021059
 40
0.3500977864
 40
0.4526688109
 40
0.5614937595
 40
0.6762690577
 40
0.7946205096
 40
0.9083421808
 40
1.0
 40
1.0
 40
1.0
 40
1.0
 10
148.2532192171
 20
134.9578653106
 30
0.0
 10
148.2098231506
 20
134.9478248302
 30
0.0
 10
148.0904918976
 20
134.9268424327
 30
0.0
 10
147.8789192412
 20
134.8997981058
 30
0.0
 10
147.6009476858
 20
134.8737861165
 30
0.0
 10
147.2770015854
 20
134.8494269213
 30
0.0
 10
146.9167504952
 20
134.8254601935
 30
0.0
 10
146.5279939242
 20
134.7997958439
 30
0.0
 10
146.1146889389
 20
134.7701423993
 30
0.0
 10
145.6817907212
 20
134.7337766155
 30
0.0
 10
145.2435058676
 20
134.6879495458
 30
0.0
 10
144.8359268039
 20
134.6323230081
 30
0.0
 10
144.5791285174
 20
134.5854978919
 30
0.0
 10
144.4652835536
 20
134.5609583431
 30
0.0
 11
148.2532192171
 21
134.9578653106
 31
0.0
 11
148.1205853087
 21
134.9329309054
 31
0.0
 11
147.8977309769
 21
134.9033358925
 31
0.0
 11
147.6162963545
 21
134.8760208042
 31
0.0
 11
147.2883262191
 21
134.8507291991
 31
0.0
 11
146.9259785837
 21
134.8261038663
 31
0.0
 11
146.5359431893
 21
134.7999592339
 31
0.0
 11
146.1222912588
 21
134.7698659142
 31
0.0
 11
145.6864503587
 21
134.7327003715
 31
0.0
 11
145.2379341334
 21
134.684941374
 31
0.0
 11
144.8086927021
 21
134.6249951991
 31
0.0
 11
144.4652835536
 21
134.5609583431
 31
0.0
  0
SPLINE
  5
311
100
AcDbEntity
  8
BEZUGSACHSEN
100
AcDbSpline
 62
7
  6
CONTINUOUS
 70
0
 71
3
 72
11
 73
7
 74
5
 42
0.0000001
 43
0.0000001
 44
0.0000000001
 12
0.0
 22
-0.4680658555
 32
0.0
 13
-0.1674374283
 23
-0.437093071
 33
0.0
 40
0.0
 40
0.0
 40
0.0
 40
0.0
 40
0.1445461367
 40
0.3576974325
 40
0.6432572252
 40
1.0
 40
1.0
 40
1.0
 40
1.0
 10
105.536680798
 20
142.5774284848
 30
0.0
 10
105.536680798
 20
142.5548761144
 30
0.0
 10
105.5295821827
 20
142.4991976259
 30
0.0
 10
105.5061324306
 20
142.4015813326
 30
0.0
 10
105.4660371797
 20
142.2741693361
 30
0.0
 10
105.4315914956
 20
142.1800431165
 30
0.0
 10
105.411680798
 20
142.1280665182
 30
0.0
 11
105.536680798
 21
142.5774284848
 31
0.0
 11
105.529973496
 21
142.5101046645
 31
0.0
 11
105.5078231952
 21
142.4128257544
 31
0.0
 11
105.468515529
 21
142.2850755537
 31
0.0
 11
105.411680798
 21
142.1280665182
 31
0.0
  0
SPLINE
  5
312
100
AcDbEntity
  8
BEZUGSACHSEN
100
AcDbSpline
 62
7
  6
CONTINUOUS
 70
0
 71
3
 72
12
 73
8
 74
6
 42
0.0000001
 43
0.0000001
 44
0.0000000001
 12
-0.1674556245
 22
0.4371405719
 32
0.0
 13
0.0
 23
0.4681167224
 33
0.0
 40
0.0
 40
0.0
 40
0.0
 40
0.0
 40
0.2995620764
 40
0.5419687552
 40
0.7353081792
 40
0.886011903
 40
1.0
 40
1.0
 40
1.0
 40
1.0
 10
101.661680798
 20
142.1280665182
 30
0.0
 10
101.6449596798
 20
142.171716764
 30
0.0
 10
101.615709479
 20
142.2510847118
 30
0.0
 10
101.579898807
 20
142.3601151538
 30
0.0
 10
101.5554482262
 20
142.4483601668
 30
0.0
 10
101.540978953
 20
142.5183863407
 30
0.0
 10
101.536680798
 20
142.5596419067
 30
0.0
 10
101.536680798
 20
142.5774284848
 30
0.0
 11
101.661680798
 21
142.1280665182
 31
0.0
 11
101.6134971592
 21
142.2597585632
 31
0.0
 11
101.5784543341
 21
142.3676867328
 31
0.0
 11
101.554768256
 21
142.4550377505
 31
0.0
 11
101.5411363472
 21
142.5242550955
 31
0.0
 11
101.536680798
 21
142.5774284848
 31
0.0
  0
SPLINE
  5
313
100
AcDbEntity
  8
BEZUGSACHSEN
100
AcDbSpline
 62
7
  6
CONTINUOUS
 70
0
 71
3
 72
19
 73
15
 74
13
 42
0.0000001
 43
0.0000001
 44
0.0000000001
 12
0.0
 22
-0.9530644332
 32
0.0
 13
-0.8939002421
 23
-0.3305664397
 33
0.0
 40
0.0
 40
0.0
 40
0.0
 40
0.0
 40
0.0479048512
 40
0.1038186277
 40
0.1656371908
 40
0.2321998811
 40
0.3035488221
 40
0.3800991219
 40
0.4626240486
 40
0.5522943159
 40
0.6500533187
 40
0.7587572076
 40
0.8782694549
 40
1.0
 40
1.0
 40
1.0
 40
1.0
 10
105.411680798
 20
141.8718357292
 30
0.0
 10
105.411680798
 20
141.8566169259
 30
0.0
 10
105.409992761
 20
141.8236253605
 30
0.0
 10
105.4028866104
 20
141.7714339465
 30
0.0
 10
105.3906340459
 20
141.7141292004
 30
0.0
 10
105.3730886336
 20
141.6531014739
 30
0.0
 10
105.3498997225
 20
141.5889824793
 30
0.0
 10
105.3203310946
 20
141.5219513926
 30
0.0
 10
105.2832076371
 20
141.4521036978
 30
0.0
 10
105.2368752491
 20
141.3798066164
 30
0.0
 10
105.1787930383
 20
141.3055947348
 30
0.0
 10
105.1059014328
 20
141.2316319173
 30
0.0
 10
105.0169688293
 20
141.164171625
 30
0.0
 10
104.9479524525
 20
141.1293889735
 30
0.0
 10
104.911680798
 20
141.1159756292
 30
0.0
 11
105.411680798
 21
141.8718357292
 31
0.0
 11
105.4095340605
 21
141.8262298164
 31
0.0
 11
105.4025137361
 21
141.7734048358
 31
0.0
 11
105.3903135631
 21
141.7157647684
 31
0.0
 11
105.372857549
 21
141.6547751382
 31
0.0
 11
105.3497669605
 21
141.590815436
 31
0.0
 11
105.3203271268
 21
141.5240616066
 31
0.0
 11
105.2833885834
 21
141.4546237648
 31
0.0
 11
105.2372122577
 21
141.3827111637
 31
0.0
 11
105.1796679242
 21
141.3094348667
 31
0.0
 11
105.1067379924
 21
141.2358511719
 31
0.0
 11
105.0156406254
 21
141.16747622
 31
0.0
 11
104.911680798
 21
141.1159756292
 31
0.0
  0
SPLINE
  5
314
100
AcDbEntity
  8
0
100
AcDbSpline
 62
7
  6
CONTINUOUS
 70
0
 71
3
 72
82
 73
78
 74
76
 42
0.0000001
 43
0.0000001
 44
0.0000000001
 12
23.380584206
 22
14.2857440999
 32
0.0
 13
21.0780359828
 23
17.4963239504
 33
0.0
 40
0.0
 40
0.0
 40
0.0
 40
0.0
 40
0.0008736689
 40
0.012889443
 40
0.0224725838
 40
0.029998478
 40
0.0359197576
 40
0.0408929409
 40
0.0458009451
 40
0.0514521699
 40
0.0585172345
 40
0.06725556
 40
0.0775397648
 40
0.0892579423
 40
0.1022096431
 40
0.1162586351
 40
0.1313336562
 40
0.1472260164
 40
0.163386893
 40
0.1792128975
 40
0.1940686763
 40
0.2075130555
 40
0.2195923222
 40
0.230490485
 40
0.2403505715
 40
0.2492936951
 40
0.2575488572
 40
0.2652055271
 40
0.2731501112
 40
0.2823993033
 40
0.2929593396
 40
0.3049011677
 40
0.3182463313
 40
0.3329897512
 40
0.3491481829
 40
0.3666666786
 40
0.3854253794
 40
0.4051711931
 40
0.4250979441
 40
0.4441653553
 40
0.461971829
 40
0.4784643011
 40
0.4936577964
 40
0.5076029171
 40
0.5203831777
 40
0.5318451489
 40
0.5421379668
 40
0.5517720579
 40
0.5612878829
 40
0.5714300354
 40
0.5827804725
 40
0.5958314721
 40
0.6109650536
 40
0.6281650025
 40
0.6466386598
 40
0.6654787148
 40
0.6843957819
 40
0.7032702753
 40
0.7220029364
 40
0.7404899209
 40
0.7585192747
 40
0.7758148494
 40
0.7918834987
 40
0.8061275942
 40
0.8186557765
 40
0.8300285228
 40
0.8410085384
 40
0.8519812045
 40
0.8632622613
 40
0.8753174762
 40
0.888516685
 40
0.9030830249
 40
0.9190203136
 40
0.9364412685
 40
0.9556964351
 40
0.9768589392
 40
1.0
 40
1.0
 40
1.0
 40
1.0
 10
146.5584857519
 20
96.3440313769
 30
0.0
 10
146.5652947148
 20
96.3481917136
 30
0.0
 10
146.6656140532
 20
96.4097954413
 30
0.0
 10
146.8369508037
 20
96.5231329715
 30
0.0
 10
147.0435994058
 20
96.6914891295
 30
0.0
 10
147.1859448357
 20
96.8478685663
 30
0.0
 10
147.268273806
 20
96.9971264683
 30
0.0
 10
147.2924987798
 20
97.1429302387
 30
0.0
 10
147.2570549656
 20
97.2840846945
 30
0.0
 10
147.1636599087
 20
97.4182521509
 30
0.0
 10
147.014077655
 20
97.5466806558
 30
0.0
 10
146.8110683209
 20
97.6723546834
 30
0.0
 10
146.5589808795
 20
97.7964359395
 30
0.0
 10
146.2642451788
 20
97.9192582251
 30
0.0
 10
145.9325545092
 20
98.0418027512
 30
0.0
 10
145.5692316826
 20
98.1667673692
 30
0.0
 10
145.1792993456
 20
98.2968307258
 30
0.0
 10
144.7713599533
 20
98.4338601111
 30
0.0
 10
144.3588054071
 20
98.578633514
 30
0.0
 10
143.9588991084
 20
98.7305831381
 30
0.0
 10
143.5880563714
 20
98.8885124468
 30
0.0
 10
143.2572580734
 20
99.0519740973
 30
0.0
 10
142.9710096602
 20
99.2221067005
 30
0.0
 10
142.729332752
 20
99.4006952043
 30
0.0
 10
142.5339269658
 20
99.5902724756
 30
0.0
 10
142.389294229
 20
99.7928623511
 30
0.0
 10
142.30415517
 20
100.0059475534
 30
0.0
 10
142.2770746983
 20
100.2243185365
 30
0.0
 10
142.303306258
 20
100.4515991577
 30
0.0
 10
142.3855736624
 20
100.6930816935
 30
0.0
 10
142.5266295403
 20
100.9476496365
 30
0.0
 10
142.7208534107
 20
101.2118856074
 30
0.0
 10
142.9637452363
 20
101.4855329704
 30
0.0
 10
143.2519021094
 20
101.7690577043
 30
0.0
 10
143.5825141837
 20
102.0628219103
 30
0.0
 10
143.9514697721
 20
102.368071249
 30
0.0
 10
144.3525330731
 20
102.685650082
 30
0.0
 10
144.7740304776
 20
103.0127750529
 30
0.0
 10
145.197115312
 20
103.3424565998
 30
0.0
 10
145.6018639215
 20
103.6668269353
 30
0.0
 10
145.9741749113
 20
103.9813455778
 30
0.0
 10
146.3076796427
 20
104.2865780181
 30
0.0
 10
146.5985703139
 20
104.5853127632
 30
0.0
 10
146.844374602
 20
104.8793468159
 30
0.0
 10
147.0404681135
 20
105.1686048528
 30
0.0
 10
147.1816435321
 20
105.4519706818
 30
0.0
 10
147.2644785072
 20
105.7279978049
 30
0.0
 10
147.2920653998
 20
105.9971340425
 30
0.0
 10
147.266143164
 20
106.2650838091
 30
0.0
 10
147.1838842813
 20
106.5378457979
 30
0.0
 10
147.0380287782
 20
106.8192401002
 30
0.0
 10
146.8248408946
 20
107.1118531833
 30
0.0
 10
146.5434759291
 20
107.4170343955
 30
0.0
 10
146.200577337
 20
107.7301308438
 30
0.0
 10
145.8134813473
 20
108.0433454707
 30
0.0
 10
145.4037239135
 20
108.3528164432
 30
0.0
 10
144.9864863796
 20
108.6583011041
 30
0.0
 10
144.5700529481
 20
108.9632221114
 30
0.0
 10
144.1608766504
 20
109.2713831131
 30
0.0
 10
143.7663565659
 20
109.5859641996
 30
0.0
 10
143.3958697436
 20
109.9091013574
 30
0.0
 10
143.0631274103
 20
110.2406801919
 30
0.0
 10
142.7830001179
 20
110.5740625172
 30
0.0
 10
142.5655481699
 20
110.9003978944
 30
0.0
 10
142.4120720805
 20
111.2144394734
 30
0.0
 10
142.3182336968
 20
111.5202799248
 30
0.0
 10
142.2787405305
 20
111.8234929554
 30
0.0
 10
142.2913550751
 20
112.1281389339
 30
0.0
 10
142.3561072105
 20
112.4360457562
 30
0.0
 10
142.4750568358
 20
112.749004523
 30
0.0
 10
142.6489919847
 20
113.0693172119
 30
0.0
 10
142.8765812123
 20
113.3978696821
 30
0.0
 10
143.1564384156
 20
113.7348665372
 30
0.0
 10
143.4886479139
 20
114.0823354282
 30
0.0
 10
143.8739122991
 20
114.4438437874
 30
0.0
 10
144.3115857221
 20
114.8250987686
 30
0.0
 10
144.622313183
 20
115.0841608707
 30
0.0
 10
144.7849025538
 20
115.2191220363
 30
0.0
 11
146.5584857519
 21
96.3440313769
 31
0.0
 11
146.5788849492
 21
96.3565585616
 31
0.0
 11
146.8519618402
 21
96.5403290668
 31
0.0
 11
147.0532873994
 21
96.7088005784
 31
0.0
 11
147.1886545468
 21
96.8642932932
 31
0.0
 11
147.2630608686
 21
97.008425389
 31
0.0
 11
147.2830499951
 21
97.1431839321
 31
0.0
 11
147.2518676562
 21
97.2739654105
 31
0.0
 11
147.166950983
 21
97.4034039958
 31
0.0
 11
147.0231859146
 21
97.5329731754
 31
0.0
 11
146.8214177569
 21
97.6617725573
 31
0.0
 11
146.5696266112
 21
97.7881359233
 31
0.0
 11
146.2738973767
 21
97.9129821827
 31
0.0
 11
145.9415300591
 21
98.0371184478
 31
0.0
 11
145.57790821
 21
98.1631728342
 31
0.0
 11
145.1864236974
 21
98.2946038132
 31
0.0
 11
144.7739944861
 21
98.4339944783
 31
0.0
 11
144.3565677714
 21
98.581443281
 31
0.0
 11
143.9517024182
 21
98.7364667831
 31
0.0
 11
143.5778472113
 21
98.8972221178
 31
0.0
 11
143.2484328767
 21
99.0619124037
 31
0.0
 11
142.964898789
 21
99.2324967534
 31
0.0
 11
142.726159948
 21
99.4117433042
 31
0.0
 11
142.5342735866
 21
99.6018353202
 31
0.0
 11
142.3945447171
 21
99.8030636116
 31
0.0
 11
142.3119140082
 21
100.0135642959
 31
0.0
 11
142.285633562
 21
100.221654479
 31
0.0
 11
142.3089354249
 21
100.4380335327
 31
0.0
 11
142.3880725376
 21
100.6787255047
 31
0.0
 11
142.5253255818
 21
100.9333674794
 31
0.0
 11
142.716913138
 21
101.1985229088
 31
0.0
 11
142.9580811306
 21
101.4732594402
 31
0.0
 11
143.2449061692
 21
101.7575933019
 31
0.0
 11
143.5748433994
 21
102.0526667501
 31
0.0
 11
143.9437800006
 21
102.3595597829
 31
0.0
 11
144.3459659263
 21
102.6794122825
 31
0.0
 11
144.7726182849
 21
103.011900663
 31
0.0
 11
145.2025218182
 21
103.3482788752
 31
0.0
 11
145.6093773708
 21
103.6758310299
 31
0.0
 11
145.98114179
 21
103.9916197165
 31
0.0
 11
146.3133110057
 21
104.2978467358
 31
0.0
 11
146.6024800388
 21
104.5971901438
 31
0.0
 11
146.8459022399
 21
104.8915949216
 31
0.0
 11
147.0401822759
 21
105.1828383034
 31
0.0
 11
147.1776730369
 21
105.4651184482
 31
0.0
 11
147.2571680156
 21
105.735636516
 31
0.0
 11
147.2833457137
 21
105.9982466779
 31
0.0
 11
147.2585542254
 21
106.2577370342
 31
0.0
 11
147.1795776737
 21
106.5241048284
 31
0.0
 11
147.0390318044
 21
106.801455412
 31
0.0
 11
146.8311928122
 21
107.0923477823
 31
0.0
 11
146.552394745
 21
107.3991593688
 31
0.0
 11
146.206255494
 21
107.7188249769
 31
0.0
 11
145.814380385
 21
108.0390266489
 31
0.0
 11
145.4035282847
 21
108.3513646743
 31
0.0
 11
144.9861748714
 21
108.6585333792
 31
0.0
 11
144.5696984727
 21
108.964926182
 31
0.0
 11
144.1605336132
 21
109.2746206518
 31
0.0
 11
143.7654839426
 21
109.5914811959
 31
0.0
 11
143.3945947423
 21
109.9176192527
 31
0.0
 11
143.0604771858
 21
110.2535348278
 31
0.0
 11
142.7791486224
 21
110.5920756922
 31
0.0
 11
142.5648134937
 21
110.9181329063
 31
0.0
 11
142.4161784776
 21
111.2274672022
 31
0.0
 11
142.3258865004
 21
111.5256353658
 31
0.0
 11
142.287324618
 21
111.8239344754
 31
0.0
 11
142.2993954325
 21
112.1242719578
 31
0.0
 11
142.3621085864
 21
112.4268695065
 31
0.0
 11
142.4777326552
 21
112.7362011745
 31
0.0
 11
142.6482892607
 21
113.0550198206
 31
0.0
 11
142.8738370408
 21
113.3841821141
 31
0.0
 11
143.1513884121
 21
113.7211776182
 31
0.0
 11
143.4799366434
 21
114.0672935114
 31
0.0
 11
143.8632724116
 21
114.4296123104
 31
0.0
 11
144.2992497247
 21
114.8117036923
 31
0.0
 11
144.7849025538
 21
115.2191220363
 31
0.0
  0
SPLINE
  5
315
100
AcDbEntity
  8
0
100
AcDbSpline
 62
7
  6
CONTINUOUS
 70
0
 71
3
 72
98
 73
94
 74
92
 42
0.0000001
 43
0.0000001
 44
0.0000000001
 12
-24.790875126
 22
-20.3704791691
 32
0.0
 13
29.8162974116
 23
-12.5409594633
 33
0.0
 40
0.0
 40
0.0
 40
0.0
 40
0.0
 40
0.0194368093
 40
0.0372230272
 40
0.0534206841
 40
0.0680909343
 40
0.0815093107
 40
0.0937982539
 40
0.1049417509
 40
0.1151110284
 40
0.1245991999
 40
0.1337962594
 40
0.1429807458
 40
0.1524447926
 40
0.1627734169
 40
0.1744180575
 40
0.1875437314
 40
0.2017376425
 40
0.2165889047
 40
0.2319931222
 40
0.2478552832
 40
0.2640242937
 40
0.2803304668
 40
0.296592364
 40
0.3125489945
 40
0.3274823401
 40
0.34060409
 40
0.3518607858
 40
0.3616136807
 40
0.3703072426
 40
0.3783466222
 40
0.3863398086
 40
0.3947630275
 40
0.4040344038
 40
0.414433025
 40
0.4258936222
 40
0.4383843014
 40
0.4518065607
 40
0.4660661199
 40
0.4811559976
 40
0.4970339986
 40
0.5133646762
 40
0.5296857078
 40
0.5454188542
 40
0.5599742016
 40
0.5731688433
 40
0.5850309618
 40
0.5956543971
 40
0.6050520745
 40
0.6133624524
 40
0.6205512952
 40
0.6268947125
 40
0.6335319688
 40
0.6407310752
 40
0.6486001744
 40
0.6573020449
 40
0.6668462483
 40
0.6773465995
 40
0.6888815038
 40
0.7014628468
 40
0.7149819335
 40
0.7290807345
 40
0.7429224214
 40
0.7558208308
 40
0.7675933742
 40
0.7781556467
 40
0.7874768207
 40
0.7955688357
 40
0.8023375255
 40
0.8077395272
 40
0.8121557591
 40
0.8161939995
 40
0.8205670133
 40
0.8259761102
 40
0.8328857246
 40
0.8416412339
 40
0.8524063105
 40
0.8650509676
 40
0.8787519953
 40
0.8927642259
 40
0.9068176051
 40
0.9207446382
 40
0.9343866267
 40
0.9475377118
 40
0.9598377256
 40
0.9708680415
 40
0.9800994363
 40
0.9871837488
 40
0.9922493325
 40
0.9955929894
 40
0.9975777472
 40
0.9989948092
 40
1.0
 40
1.0
 40
1.0
 40
1.0
 10
145.9509329576
 20
115.2191220363
 30
0.0
 10
145.7903144532
 20
115.0871429964
 30
0.0
 10
145.4832533953
 20
114.83372471
 30
0.0
 10
145.0503304109
 20
114.4607452044
 30
0.0
 10
144.6684799392
 20
114.1069634266
 30
0.0
 10
144.3383207404
 20
113.7669280209
 30
0.0
 10
144.0590806647
 20
113.4369513707
 30
0.0
 10
143.8306264604
 20
113.1150567524
 30
0.0
 10
143.654349449
 20
112.8009231486
 30
0.0
 10
143.531629984
 20
112.4939810235
 30
0.0
 10
143.4621090614
 20
112.1919488383
 30
0.0
 10
143.4437021462
 20
111.8930263089
 30
0.0
 10
143.4763811858
 20
111.5955457937
 30
0.0
 10
143.5618721924
 20
111.2961895196
 30
0.0
 10
143.7048612357
 20
110.9905110797
 30
0.0
 10
143.908922489
 20
110.6742824749
 30
0.0
 10
144.1734429909
 20
110.3513143704
 30
0.0
 10
144.4899135029
 20
110.0292700688
 30
0.0
 10
144.8461248233
 20
109.7140246771
 30
0.0
 10
145.2307490298
 20
109.4050318125
 30
0.0
 10
145.6359908186
 20
109.0997043245
 30
0.0
 10
146.0540941725
 20
108.7956048699
 30
0.0
 10
146.4766732013
 20
108.4904073131
 30
0.0
 10
146.8939430653
 20
108.1817489389
 30
0.0
 10
147.2905699956
 20
107.8700540801
 30
0.0
 10
147.6446329557
 20
107.5593182123
 30
0.0
 10
147.9377257412
 20
107.2569960633
 30
0.0
 10
148.1626811661
 20
106.9683516006
 30
0.0
 10
148.3215042819
 20
106.6916334005
 30
0.0
 10
148.4172055132
 20
106.4232176444
 30
0.0
 10
148.4564307247
 20
106.159959562
 30
0.0
 10
148.4428925131
 20
105.8970561176
 30
0.0
 10
148.3760907305
 20
105.6289250248
 30
0.0
 10
148.2527856511
 20
105.3534836485
 30
0.0
 10
148.0740969639
 20
105.0715086267
 30
0.0
 10
147.8446302702
 20
104.7839149174
 30
0.0
 10
147.5703273311
 20
104.4926914744
 30
0.0
 10
147.2567270919
 20
104.1986920315
 30
0.0
 10
146.9094678765
 20
103.9007446726
 30
0.0
 10
146.5332711795
 20
103.5965890293
 30
0.0
 10
146.1343327926
 20
103.2855007641
 30
0.0
 10
145.7228144076
 20
102.969172758
 30
0.0
 10
145.3137319764
 20
102.652211077
 30
0.0
 10
144.924428674
 20
102.3407740857
 30
0.0
 10
144.5695895123
 20
102.0399811123
 30
0.0
 10
144.258700866
 20
101.7518825556
 30
0.0
 10
143.9944151802
 20
101.4761859202
 30
0.0
 10
143.7784057179
 20
101.211716047
 30
0.0
 10
143.6126852242
 20
100.9570555248
 30
0.0
 10
143.5025175555
 20
100.7131018228
 30
0.0
 10
143.4497222966
 20
100.4836702392
 30
0.0
 10
143.4497769707
 20
100.266038834
 30
0.0
 10
143.5034466911
 20
100.0544952109
 30
0.0
 10
143.6167921637
 20
99.8493252593
 30
0.0
 10
143.7847702314
 20
99.6566462812
 30
0.0
 10
143.9993541428
 20
99.4765801502
 30
0.0
 10
144.2564918387
 20
99.3071122346
 30
0.0
 10
144.5538874621
 20
99.1463235734
 30
0.0
 10
144.8906989357
 20
98.9921147493
 30
0.0
 10
145.2643167922
 20
98.8420391699
 30
0.0
 10
145.6684934469
 20
98.695258511
 30
0.0
 10
146.0884457849
 20
98.5528324235
 30
0.0
 10
146.5034145124
 20
98.4164943242
 30
0.0
 10
146.8944330766
 20
98.2869637419
 30
0.0
 10
147.2503849396
 20
98.1631656985
 30
0.0
 10
147.5667147442
 20
98.042228399
 30
0.0
 10
147.8407726983
 20
97.9217067342
 30
0.0
 10
148.0694573612
 20
97.8001655691
 30
0.0
 10
148.2484673807
 20
97.6766761777
 30
0.0
 10
148.3740182924
 20
97.5490308122
 30
0.0
 10
148.4439637574
 20
97.4149108161
 30
0.0
 10
148.4560175544
 20
97.2745070938
 30
0.0
 10
148.4102584896
 20
97.1307926464
 30
0.0
 10
148.3076881021
 20
96.9825782622
 30
0.0
 10
148.1448068525
 20
96.8254863062
 30
0.0
 10
147.917932775
 20
96.6560587286
 30
0.0
 10
147.6253844472
 20
96.4744805766
 30
0.0
 10
147.2759783661
 20
96.285830982
 30
0.0
 10
146.888028012
 20
96.0964112519
 30
0.0
 10
146.4815296555
 20
95.9110939275
 30
0.0
 10
146.0696636224
 20
95.731931353
 30
0.0
 10
145.6595184738
 20
95.5588341007
 30
0.0
 10
145.25731269
 20
95.39176049
 30
0.0
 10
144.8711075373
 20
95.2315767419
 30
0.0
 10
144.5114557948
 20
95.0801334232
 30
0.0
 10
144.1924465177
 20
94.9407207255
 30
0.0
 10
143.9267475609
 20
94.8174203209
 30
0.0
 10
143.7238821316
 20
94.713889564
 30
0.0
 10
143.5790304267
 20
94.6284043861
 30
0.0
 10
143.4947735433
 20
94.5624825008
 30
0.0
 10
143.4414368388
 20
94.5003940061
 30
0.0
 10
143.4644604599
 20
94.4508571878
 30
0.0
 10
143.4864866473
 20
94.4373246084
 30
0.0
 10
143.4964770038
 20
94.4331225892
 30
0.0
 11
145.9509329576
 21
115.2191220363
 31
0.0
 11
145.471110884
 21
114.8207230955
 31
0.0
 11
145.0398375565
 21
114.4469597151
 31
0.0
 11
144.659834081
 21
114.0923998306
 31
0.0
 11
144.3331207036
 21
113.7535297391
 31
0.0
 11
144.0562866704
 21
113.4237795212
 31
0.0
 11
143.8296696023
 21
113.1010962438
 31
0.0
 11
143.6565903961
 21
112.7882227842
 31
0.0
 11
143.5372016066
 21
112.484552268
 31
0.0
 11
143.4698338533
 21
112.1876571895
 31
0.0
 11
143.4521335134
 21
111.8930869959
 31
0.0
 11
143.4840898675
 21
111.6001266695
 31
0.0
 11
143.5665533392
 21
111.3078696734
 31
0.0
 11
143.7050195044
 21
111.0067727477
 31
0.0
 11
143.9056488231
 21
110.6915718337
 31
0.0
 11
144.1707041805
 21
110.3642816026
 31
0.0
 11
144.4885136343
 21
110.0380663496
 31
0.0
 11
144.8440715159
 21
109.7208049656
 31
0.0
 11
145.2284700726
 21
109.4100990927
 31
0.0
 11
145.6342072978
 21
109.1028224332
 31
0.0
 11
146.0530759232
 21
108.7967017979
 31
0.0
 11
146.476473666
 21
108.4893240161
 31
0.0
 11
146.8950296423
 21
108.1777585167
 31
0.0
 11
147.2961529387
 21
107.8595817539
 31
0.0
 11
147.6545237548
 21
107.5415194902
 31
0.0
 11
147.9455234839
 21
107.2372394216
 31
0.0
 11
148.1650905304
 21
106.9504518448
 31
0.0
 11
148.3182286728
 21
106.6775455315
 31
0.0
 11
148.4104142774
 21
106.4142724756
 31
0.0
 11
148.4478772203
 21
106.1590517419
 31
0.0
 11
148.4351640491
 21
105.9028935972
 31
0.0
 11
148.371124524
 21
105.6403184355
 31
0.0
 11
148.2518301264
 21
105.3677990568
 31
0.0
 11
148.075541265
 21
105.0845179553
 31
0.0
 11
147.8478964136
 21
104.7957212037
 31
0.0
 11
147.574353872
 21
104.5028032972
 31
0.0
 11
147.2612291536
 21
104.2071134251
 31
0.0
 11
146.9148305731
 21
103.9081981148
 31
0.0
 11
146.5389694494
 21
103.6029767129
 31
0.0
 11
146.1377967075
 21
103.2889389957
 31
0.0
 11
145.7229364696
 21
102.968843526
 31
0.0
 11
145.309611854
 21
102.6472714102
 31
0.0
 11
144.9161607415
 21
102.3309785397
 31
0.0
 11
144.5608680753
 21
102.0278541795
 31
0.0
 11
144.2513087021
 21
101.7390374288
 31
0.0
 11
143.9891954129
 21
101.4630598952
 31
0.0
 11
143.7753191625
 21
101.19763839
 31
0.0
 11
143.6134291449
 21
100.943242688
 31
0.0
 11
143.5065016575
 21
100.6989697557
 31
0.0
 11
143.4569199537
 21
100.4736967472
 31
0.0
 11
143.4580122317
 21
100.2701615748
 31
0.0
 11
143.5101107534
 21
100.0636660124
 31
0.0
 11
143.6196386969
 21
99.8602896627
 31
0.0
 11
143.783182713
 21
99.6679214835
 31
0.0
 11
143.9954549339
 21
99.4865373766
 31
0.0
 11
144.2500856138
 21
99.3164014212
 31
0.0
 11
144.5457078007
 21
99.1547773694
 31
0.0
 11
144.8816072403
 21
98.9993536953
 31
0.0
 11
145.2557778587
 21
98.8478180506
 31
0.0
 11
145.6631602166
 21
98.6988048501
 31
0.0
 11
146.0912771939
 21
98.5526382684
 31
0.0
 11
146.5129410706
 21
98.4131669209
 31
0.0
 11
146.9055250564
 21
98.2821632207
 31
0.0
 11
147.2619293981
 21
98.1570101348
 31
0.0
 11
147.5780149632
 21
98.0347502426
 31
0.0
 11
147.8511199942
 21
97.9128288333
 31
0.0
 11
148.0792293682
 21
97.7888071581
 31
0.0
 11
148.2557786789
 21
97.6623197615
 31
0.0
 11
148.3739857319
 21
97.5355488887
 31
0.0
 11
148.4363949186
 21
97.4083309846
 31
0.0
 11
148.44746194
 21
97.2792314448
 31
0.0
 11
148.4081487214
 21
97.1445366199
 31
0.0
 11
148.3131466997
 21
96.9992873477
 31
0.0
 11
148.1564679742
 21
96.8424273598
 31
0.0
 11
147.9331748776
 21
96.6719458642
 31
0.0
 11
147.640895167
 21
96.4878719744
 31
0.0
 11
147.2847256001
 21
96.2935673366
 31
0.0
 11
146.8902076168
 21
96.0996094841
 31
0.0
 11
146.4814023522
 21
95.9124689252
 31
0.0
 11
146.0681004302
 21
95.7321529846
 31
0.0
 11
145.6565452095
 21
95.5580410874
 31
0.0
 11
145.252451445
 21
95.3897843913
 31
0.0
 11
144.8628398533
 21
95.2277242246
 31
0.0
 11
144.4993368368
 21
95.0740179999
 31
0.0
 11
144.1753080469
 21
94.9316531246
 31
0.0
 11
143.9070780035
 21
94.8059988949
 31
0.0
 11
143.7053019123
 21
94.7013249812
 31
0.0
 11
143.5667243427
 21
94.6163867906
 31
0.0
 11
143.4841760017
 21
94.5478585859
 31
0.0
 11
143.4521539835
 21
94.4928110151
 31
0.0
 11
143.4698195904
 21
94.4509145116
 31
0.0
 11
143.4964770038
 21
94.4331225892
 31
0.0
  0
SPLINE
  5
316
100
AcDbEntity
  8
0
100
AcDbSpline
 62
7
  6
CONTINUOUS
 70
0
 71
3
 72
9
 73
5
 74
3
 42
0.0000001
 43
0.0000001
 44
0.0000000001
 12
0.0420044719
 22
-0.0176673975
 32
0.0
 13
0.0457636491
 23
-0.008746751
 33
0.0
 40
0.0
 40
0.0
 40
0.0
 40
0.0
 40
0.91143919
 40
1.0
 40
1.0
 40
1.0
 40
1.0
 10
143.4964770038
 20
94.4331225892
 30
0.0
 10
143.509238511
 20
94.427755003
 30
0.0
 10
143.5247615182
 20
94.4243968489
 30
0.0
 10
143.5400370054
 20
94.4214455597
 30
0.0
 10
143.5413879607
 20
94.4211873533
 30
0.0
 11
143.4964770038
 21
94.4331225892
 31
0.0
 11
143.5373294451
 21
94.4219714879
 31
0.0
 11
143.5413879607
 21
94.4211873533
 31
0.0
  0
SPLINE
  5
317
100
AcDbEntity
  8
0
100
AcDbSpline
 62
7
  6
CONTINUOUS
 70
0
 71
3
 72
98
 73
94
 74
92
 42
0.0000001
 43
0.0000001
 44
0.0000000001
 12
24.6800254613
 22
20.4862407922
 32
0.0
 13
-28.0763644775
 23
17.5625090447
 33
0.0
 40
0.0
 40
0.0
 40
0.0
 40
0.0
 40
0.0175594167
 40
0.0334353106
 40
0.0480313879
 40
0.061709649
 40
0.0747729064
 40
0.0871600192
 40
0.0985372989
 40
0.1089102082
 40
0.1184128365
 40
0.1274021473
 40
0.13630719
 40
0.1454576058
 40
0.1553755679
 40
0.1665721877
 40
0.1792876116
 40
0.1933052395
 40
0.2081670976
 40
0.2237528646
 40
0.2400808955
 40
0.2570589176
 40
0.2744970646
 40
0.2922089986
 40
0.3099677956
 40
0.3271340906
 40
0.3425856516
 40
0.3558163571
 40
0.3671287524
 40
0.3770152947
 40
0.3858240222
 40
0.3941193739
 40
0.4024270363
 40
0.4111626871
 40
0.4207279088
 40
0.4311960545
 40
0.4425528492
 40
0.4547937394
 40
0.4678098154
 40
0.4815801859
 40
0.4960604028
 40
0.5109700746
 40
0.5258194504
 40
0.5401097274
 40
0.5533488868
 40
0.5653289907
 40
0.576134509
 40
0.5858986593
 40
0.5946205262
 40
0.6023953261
 40
0.6093180568
 40
0.6155092835
 40
0.6219839806
 40
0.6293666228
 40
0.637642279
 40
0.6468479984
 40
0.6568969485
 40
0.6678215824
 40
0.6797569512
 40
0.6928210018
 40
0.7070887643
 40
0.7225368133
 40
0.7384635087
 40
0.753818179
 40
0.7680796299
 40
0.7810604386
 40
0.7926855751
 40
0.802951365
 40
0.8118375502
 40
0.8191432082
 40
0.82493007
 40
0.8296160025
 40
0.8337559295
 40
0.838089752
 40
0.8433474136
 40
0.850107644
 40
0.8586192189
 40
0.8688060119
 40
0.8807512474
 40
0.8944873089
 40
0.9090557715
 40
0.9231734641
 40
0.9364346373
 40
0.9487819116
 40
0.9601673749
 40
0.9704641411
 40
0.9792480372
 40
0.9861130651
 40
0.9910759881
 40
0.9943631863
 40
0.9963236697
 40
0.9977431893
 40
1.0
 40
1.0
 40
1.0
 40
1.0
 10
144.7849025538
 20
115.2191220363
 30
0.0
 10
144.929358171
 20
115.3390308492
 30
0.0
 10
145.2047771259
 20
115.5669205247
 30
0.0
 10
145.5969724633
 20
115.8984626709
 30
0.0
 10
145.9504292241
 20
116.2114251992
 30
0.0
 10
146.2705839546
 20
116.5163199043
 30
0.0
 10
146.5576776418
 20
116.820981798
 30
0.0
 10
146.8063524205
 20
117.1268666799
 30
0.0
 10
147.0085475281
 20
117.4315832575
 30
0.0
 10
147.1578116931
 20
117.7317822896
 30
0.0
 10
147.2508794926
 20
118.0275066277
 30
0.0
 10
147.2901092328
 20
118.3192802203
 30
0.0
 10
147.2777186559
 20
118.6096427123
 30
0.0
 10
147.213771696
 20
118.9032207921
 30
0.0
 10
147.0945634045
 20
119.2053852678
 30
0.0
 10
146.9153422891
 20
119.5206691356
 30
0.0
 10
146.6764121436
 20
119.8491429358
 30
0.0
 10
146.3843157874
 20
120.1850438406
 30
0.0
 10
146.0494948691
 20
120.5228658666
 30
0.0
 10
145.6818060693
 20
120.8620009615
 30
0.0
 10
145.2878534615
 20
121.2056357775
 30
0.0
 10
144.8739374008
 20
121.5563816215
 30
0.0
 10
144.4480837123
 20
121.9159183615
 30
0.0
 10
144.019898727
 20
122.2856237176
 30
0.0
 10
143.603567135
 20
122.66444079
 30
0.0
 10
143.2219950847
 20
123.0449947905
 30
0.0
 10
142.8994295171
 20
123.4147958769
 30
0.0
 10
142.6478810395
 20
123.7614577172
 30
0.0
 10
142.465912026
 20
124.0825359373
 30
0.0
 10
142.3479144588
 20
124.3822686352
 30
0.0
 10
142.2880806553
 20
124.6660493584
 30
0.0
 10
142.2803434606
 20
124.9391548173
 30
0.0
 10
142.323910818
 20
125.2082015838
 30
0.0
 10
142.4223594465
 20
125.4768776866
 30
0.0
 10
142.5785291833
 20
125.7434670256
 30
0.0
 10
142.7888451016
 20
126.0061800475
 30
0.0
 10
143.0480157801
 20
126.2629640531
 30
0.0
 10
143.3499629199
 20
126.5127385247
 30
0.0
 10
143.6894821001
 20
126.7557198581
 30
0.0
 10
144.0606945569
 20
126.9944044615
 30
0.0
 10
144.4571369588
 20
127.2306693585
 30
0.0
 10
144.8682655315
 20
127.4645544247
 30
0.0
 10
145.2792200172
 20
127.6945861191
 30
0.0
 10
145.6731424007
 20
127.9184885299
 30
0.0
 10
146.035903487
 20
128.1350305107
 30
0.0
 10
146.3588841184
 20
128.3451469108
 30
0.0
 10
146.6389543028
 20
128.5521881683
 30
0.0
 10
146.8748056856
 20
128.75898034
 30
0.0
 10
147.0633215505
 20
128.9682484498
 30
0.0
 10
147.1981925851
 20
129.1812081697
 30
0.0
 10
147.2725992666
 20
129.3941804553
 30
0.0
 10
147.2911261608
 20
129.6048433031
 30
0.0
 10
147.2576022819
 20
129.8185550571
 30
0.0
 10
147.1689107602
 20
130.0398360117
 30
0.0
 10
147.0252640726
 20
130.2648459161
 30
0.0
 10
146.8349346313
 20
130.490147524
 30
0.0
 10
146.6041073029
 20
130.7160929062
 30
0.0
 10
146.3360995808
 20
130.944379925
 30
0.0
 10
146.030939968
 20
131.1778270304
 30
0.0
 10
145.6879293077
 20
131.4200216744
 30
0.0
 10
145.3073413083
 20
131.6737652104
 30
0.0
 10
144.89667162
 20
131.9373887506
 30
0.0
 10
144.4740676632
 20
132.2038789101
 30
0.0
 10
144.0625646996
 20
132.4641927865
 30
0.0
 10
143.6804055743
 20
132.7119536537
 30
0.0
 10
143.3366775567
 20
132.9455821662
 30
0.0
 10
143.0359179071
 20
133.1661031365
 30
0.0
 10
142.7805477984
 20
133.3739352705
 30
0.0
 10
142.5745255306
 20
133.5682757811
 30
0.0
 10
142.4216045827
 20
133.74763375
 30
0.0
 10
142.3239188902
 20
133.9122192936
 30
0.0
 10
142.2796695526
 20
134.0645203941
 30
0.0
 10
142.2897921953
 20
134.2083697818
 30
0.0
 10
142.3591143206
 20
134.3419748738
 30
0.0
 10
142.4898782959
 20
134.461705094
 30
0.0
 10
142.6825380523
 20
134.5692513449
 30
0.0
 10
142.9378437716
 20
134.6655052039
 30
0.0
 10
143.2547563121
 20
134.75003298
 30
0.0
 10
143.6315455064
 20
134.8225625752
 30
0.0
 10
144.0577270755
 20
134.8830313696
 30
0.0
 10
144.5087135963
 20
134.9317883375
 30
0.0
 10
144.9555466974
 20
134.970441282
 30
0.0
 10
145.3791351831
 20
135.0017471703
 30
0.0
 10
145.773727972
 20
135.0286966607
 30
0.0
 10
146.1367248497
 20
135.053852493
 30
0.0
 10
146.4613412465
 20
135.0794295613
 30
0.0
 10
146.7377672271
 20
135.1068125248
 30
0.0
 10
146.9553446275
 20
135.1360880188
 30
0.0
 10
147.1161573314
 20
135.1676483509
 30
0.0
 10
147.2161007
 20
135.200844906
 30
0.0
 10
147.2855911404
 20
135.2415459886
 30
0.0
 10
147.2796924009
 20
135.3109027463
 30
0.0
 10
147.2450899328
 20
135.3345059046
 30
0.0
 10
147.2239689196
 20
135.3477176574
 30
0.0
 11
144.7849025538
 21
115.2191220363
 31
0.0
 11
145.2179812202
 21
115.5791953724
 31
0.0
 11
145.6061023756
 21
115.9088349501
 31
0.0
 11
145.9558112376
 21
116.2200948161
 31
0.0
 11
146.2724946215
 21
116.5237276022
 31
0.0
 11
146.5587175698
 21
116.8297309433
 31
0.0
 11
146.8078160066
 21
117.139259687
 31
0.0
 11
147.0076703955
 21
117.4445911949
 31
0.0
 11
147.1535676323
 21
117.7436044709
 31
0.0
 11
147.2437820956
 21
118.0347419029
 31
0.0
 11
147.2816947646
 21
118.3205683708
 31
0.0
 11
147.2698031816
 21
118.6059477565
 31
0.0
 11
147.2082686606
 21
118.8929219337
 31
0.0
 11
147.0932692242
 21
119.1895244142
 31
0.0
 11
146.9181373544
 21
119.5030564309
 31
0.0
 11
146.6802417109
 21
119.8343304073
 31
0.0
 11
146.3867910582
 21
120.1749733413
 31
0.0
 11
146.0525465763
 21
120.5148474035
 31
0.0
 11
145.6861416535
 21
120.8549312925
 31
0.0
 11
145.2922961871
 21
121.2001353111
 31
0.0
 11
144.8775862839
 21
121.5530767489
 31
0.0
 11
144.4509821304
 21
121.9148121518
 31
0.0
 11
144.0218999706
 21
122.287146419
 31
0.0
 11
143.601906707
 21
122.6719321811
 31
0.0
 11
143.2138758887
 21
123.0625695715
 31
0.0
 11
142.8900136897
 21
123.4377196459
 31
0.0
 11
142.6429788752
 21
123.7827776926
 31
0.0
 11
142.4665435863
 21
124.0998346343
 31
0.0
 11
142.3526448363
 21
124.3957819389
 31
0.0
 11
142.2956181369
 21
124.6725047891
 31
0.0
 11
142.288735364
 21
124.9384870999
 31
0.0
 11
142.3311949567
 21
125.2015487367
 31
0.0
 11
142.4264977291
 21
125.4650368138
 31
0.0
 11
142.5794354835
 21
125.7310021897
 31
0.0
 11
142.7874495184
 21
125.9945682583
 31
0.0
 11
143.04478156
 21
126.2523864329
 31
0.0
 11
143.3462557933
 21
126.5039147878
 31
0.0
 11
143.6847918133
 21
126.7482283172
 31
0.0
 11
144.0555838168
 21
126.9882191298
 31
0.0
 11
144.4539623299
 21
127.2269821398
 31
0.0
 11
144.869095697
 21
127.4643900286
 31
0.0
 11
145.2841776719
 21
127.6979690595
 31
0.0
 11
145.6820696966
 21
127.9255062214
 31
0.0
 11
146.0459617694
 21
128.1443761118
 31
0.0
 11
146.3671400823
 21
128.3553248324
 31
0.0
 11
146.6447784381
 21
128.5627799717
 31
0.0
 11
146.8786942968
 21
128.7710268812
 31
0.0
 11
147.063573728
 21
128.980980731
 31
0.0
 11
147.1940642639
 21
129.1934895559
 31
0.0
 11
147.2656439916
 21
129.4036805796
 31
0.0
 11
147.2829353283
 21
129.601508397
 31
0.0
 11
147.2520563384
 21
129.8068741794
 31
0.0
 11
147.1663279461
 21
130.0276074711
 31
0.0
 11
147.0261862249
 21
130.2530370381
 31
0.0
 11
146.8375289485
 21
130.4801790523
 31
0.0
 11
146.6084198725
 21
130.7068895617
 31
0.0
 11
146.3425001868
 21
130.9350788075
 31
0.0
 11
146.0391559297
 21
131.1686092631
 31
0.0
 11
145.6974379566
 21
131.4111206405
 31
0.0
 11
145.3171490665
 21
131.6656989257
 31
0.0
 11
144.9006275183
 21
131.9340689272
 31
0.0
 11
144.4689603229
 21
132.2072462486
 31
0.0
 11
144.0531963863
 21
132.4712422377
 31
0.0
 11
143.6698712379
 21
132.7208545856
 31
0.0
 11
143.32618733
 21
132.9558734679
 31
0.0
 11
143.0262147117
 21
133.1773480238
 31
0.0
 11
142.7719099184
 21
133.386511981
 31
0.0
 11
142.5662619409
 21
133.5838607991
 31
0.0
 11
142.4170016097
 21
133.7645001514
 31
0.0
 11
142.3257564989
 21
133.926136169
 31
0.0
 11
142.2874636568
 21
134.0714764103
 31
0.0
 11
142.2982981883
 21
134.2038207894
 31
0.0
 11
142.3602241706
 21
134.328271258
 31
0.0
 11
142.4810539864
 21
134.44591052
 31
0.0
 11
142.6680288115
 21
134.5557141638
 31
0.0
 11
142.9222593211
 21
134.6552103068
 31
0.0
 11
143.2373348525
 21
134.7417301905
 31
0.0
 11
143.6131974431
 21
134.8160533375
 31
0.0
 11
144.049196426
 21
134.8794276183
 31
0.0
 11
144.5136635619
 21
134.9306205345
 31
0.0
 11
144.9647467836
 21
134.9702592702
 31
0.0
 11
145.3889053109
 21
135.0020583637
 31
0.0
 11
145.7839915347
 21
135.0294663907
 31
0.0
 11
146.1482656066
 21
135.0552568812
 31
0.0
 11
146.4774554711
 21
135.0818991576
 31
0.0
 11
146.7577272908
 21
135.1106369636
 31
0.0
 11
146.9757547825
 21
135.1414499615
 31
0.0
 11
147.1314450698
 21
135.1746199406
 31
0.0
 11
147.2303934363
 21
135.2110340114
 31
0.0
 11
147.2781875176
 21
135.2518981049
 31
0.0
 11
147.2759832339
 21
135.297375456
 31
0.0
 11
147.2239689196
 21
135.3477176574
 31
0.0
  0
SPLINE
  5
318
100
AcDbEntity
  8
0
100
AcDbSpline
 62
7
  6
CONTINUOUS
 70
0
 71
3
 72
20
 73
16
 74
14
 42
0.0000001
 43
0.0000001
 44
0.0000000001
 12
-2.7217650244
 22
-0.4890842333
 32
0.0
 13
2.288695939
 23
1.5033576103
 33
0.0
 40
0.0
 40
0.0
 40
0.0
 40
0.0
 40
0.1780669409
 40
0.3375201138
 40
0.4774008889
 40
0.5970719088
 40
0.6975676069
 40
0.779221846
 40
0.8409800412
 40
0.8833752881
 40
0.9086806439
 40
0.9252700925
 40
0.9504026222
 40
0.992263398
 40
1.0
 40
1.0
 40
1.0
 40
1.0
 10
144.7844487606
 20
94.4671289707
 30
0.0
 10
144.6228966367
 20
94.4380990596
 30
0.0
 10
144.3162463428
 20
94.3854318578
 30
0.0
 10
143.8813873917
 20
94.3179179842
 30
0.0
 10
143.4986805441
 20
94.265404257
 30
0.0
 10
143.1690505092
 20
94.2274075067
 30
0.0
 10
142.8915401624
 20
94.2031862289
 30
0.0
 10
142.6676739647
 20
94.1928932881
 30
0.0
 10
142.4942813912
 20
94.1943485562
 30
0.0
 10
142.379694026
 20
94.210480271
 30
0.0
 10
142.2972564176
 20
94.2337406936
 30
0.0
 10
142.2783704182
 20
94.302682367
 30
0.0
 10
142.3379761847
 20
94.3636063355
 30
0.0
 10
142.3908694413
 20
94.4043174451
 30
0.0
 10
142.4283757003
 20
94.4294459234
 30
0.0
 10
142.4342779435
 20
94.4333228833
 30
0.0
 11
144.7844487606
 21
94.4671289707
 31
0.0
 11
144.2991143178
 21
94.3839009772
 31
0.0
 11
143.8633482813
 21
94.3165167459
 31
0.0
 11
143.4800596517
 21
94.2643637974
 31
0.0
 11
143.151239172
 21
94.2270284076
 31
0.0
 11
142.8743063347
 21
94.2037839149
 31
0.0
 11
142.648698998
 21
94.1943797298
 31
0.0
 11
142.4779720486
 21
94.1987765465
 31
0.0
 11
142.3621010342
 21
94.2166279034
 31
0.0
 11
142.2993743362
 21
94.2476494366
 31
0.0
 11
142.2873402053
 21
94.2919186852
 31
0.0
 11
142.3259963205
 21
94.3496769603
 31
0.0
 11
142.4167330749
 21
94.4215604221
 31
0.0
 11
142.4342779435
 21
94.4333228833
 31
0.0
  0
SPLINE
  5
319
100
AcDbEntity
  8
0
100
AcDbSpline
 62
7
  6
CONTINUOUS
 70
0
 71
3
 72
18
 73
14
 74
12
 42
0.0000001
 43
0.0000001
 44
0.0000000001
 12
0.0
 22
-1.7642310143
 32
0.0
 13
-1.7642310143
 23
0.0
 33
0.0
 40
0.0
 40
0.0
 40
0.0
 40
0.0
 40
0.0962938316
 40
0.1935830579
 40
0.2901642927
 40
0.3844575256
 40
0.4765796276
 40
0.5665887284
 40
0.6541294548
 40
0.7396658227
 40
0.8259929911
 40
0.9131223294
 40
1.0
 40
1.0
 40
1.0
 40
1.0
 10
111.461680798
 20
90.6254109499
 30
0.0
 10
111.461680798
 20
90.5687827618
 30
0.0
 10
111.4555033774
 20
90.4548423916
 30
0.0
 10
111.4274141309
 20
90.2861779592
 30
0.0
 10
111.3804481962
 20
90.1229418887
 30
0.0
 10
111.3154935463
 20
89.9692683775
 30
0.0
 10
111.2337551356
 20
89.8282338285
 30
0.0
 10
111.1364608703
 20
89.7023693997
 30
0.0
 10
111.0251351903
 20
89.5941385531
 30
0.0
 10
110.9005302259
 20
89.5050779082
 30
0.0
 10
110.763228405
 20
89.4374499453
 30
0.0
 10
110.6153576516
 20
89.3947559085
 30
0.0
 10
110.5127715583
 20
89.3850239293
 30
0.0
 10
110.461680798
 20
89.3850239293
 30
0.0
 11
111.461680798
 21
90.6254109499
 31
0.0
 11
111.4524267769
 21
90.4557786173
 31
0.0
 11
111.4241145909
 21
90.2864891025
 31
0.0
 11
111.3768234664
 21
90.1227916673
 31
0.0
 11
111.3118389819
 21
89.969654415
 31
0.0
 11
111.2300974929
 21
89.8291816519
 31
0.0
 11
111.1327245663
 21
89.7037426156
 31
0.0
 11
111.0217544869
 21
89.5963275666
 31
0.0
 11
110.8987905873
 21
89.5088491464
 31
0.0
 11
110.7620267844
 21
89.441832152
 31
0.0
 11
110.6142746192
 21
89.3994294084
 31
0.0
 11
110.461680798
 21
89.3850239293
 31
0.0
  0
SPLINE
  5
31A
100
AcDbEntity
  8
0
100
AcDbSpline
 62
7
  6
CONTINUOUS
 70
0
 71
3
 72
15
 73
11
 74
9
 42
0.0000001
 43
0.0000001
 44
0.0000000001
 12
-0.9130905362
 22
0.0
 32
0.0
 13
-0.0
 23
-0.9130905362
 33
0.0
 40
0.0
 40
0.0
 40
0.0
 40
0.0
 40
0.095246705
 40
0.1989926597
 40
0.3085683636
 40
0.4267140162
 40
0.5551384148
 40
0.6926402133
 40
0.8400968689
 40
1.0
 40
1.0
 40
1.0
 40
1.0
 10
102.161680798
 20
94.0350330778
 30
0.0
 10
102.1326911763
 20
94.0350330778
 30
0.0
 10
102.0719098279
 20
94.0279385884
 30
0.0
 10
101.9829450914
 20
93.9953323683
 30
0.0
 10
101.8977569097
 20
93.9398080641
 30
0.0
 10
101.8206228383
 20
93.8626363035
 30
0.0
 10
101.7547900806
 20
93.7652462372
 30
0.0
 10
101.7034446843
 20
93.6497065201
 30
0.0
 10
101.6696315846
 20
93.5179973659
 30
0.0
 10
101.661680798
 20
93.424241896
 30
0.0
 10
101.661680798
 20
93.3755732174
 30
0.0
 11
102.161680798
 21
94.0350330778
 31
0.0
 11
102.0752868578
 21
94.0250495627
 31
0.0
 11
101.986205713
 21
93.9928281688
 31
0.0
 11
101.9020907679
 21
93.9386508081
 31
0.0
 11
101.8254062462
 21
93.8627754011
 31
0.0
 11
101.759273345
 21
93.7659401044
 31
0.0
 11
101.7078791648
 21
93.6513895032
 31
0.0
 11
101.6741246664
 21
93.5210480008
 31
0.0
 11
101.661680798
 21
93.3755732174
 31
0.0
  0
SPLINE
  5
31B
100
AcDbEntity
  8
BEZUGSACHSEN
100
AcDbSpline
 62
7
  6
CONTINUOUS
 70
0
 71
3
 72
11
 73
7
 74
5
 42
0.0000001
 43
0.0000001
 44
0.0000000001
 12
0.0
 22
0.1830126193
 32
0.0
 13
0.1451726273
 23
-0.1114384454
 33
0.0
 40
0.0
 40
0.0
 40
0.0
 40
0.0
 40
0.2465776366
 40
0.4184562595
 40
0.6350985973
 40
1.0
 40
1.0
 40
1.0
 40
1.0
 10
101.536680798
 20
142.5774284848
 30
0.0
 10
101.536680798
 20
142.5924707579
 30
0.0
 10
101.5366532836
 20
142.6188840201
 30
0.0
 10
101.5660713259
 20
142.6522185522
 30
0.0
 10
101.6162340921
 20
142.6374638244
 30
0.0
 10
101.6440228995
 20
142.6176930912
 30
0.0
 10
101.661680798
 20
142.6041384095
 30
0.0
 11
101.536680798
 21
142.5774284848
 31
0.0
 11
101.5433881557
 21
142.622054051
 31
0.0
 11
101.5655383336
 21
142.6443889307
 31
0.0
 11
101.6048461323
 21
142.6392040299
 31
0.0
 11
101.661680798
 21
142.6041384095
 31
0.0
  0
SPLINE
  5
31C
100
AcDbEntity
  8
BEZUGSACHSEN
100
AcDbSpline
 62
7
  6
CONTINUOUS
 70
0
 71
3
 72
12
 73
8
 74
6
 42
0.0000001
 43
0.0000001
 44
0.0000000001
 12
0.1458774432
 22
0.1119794812
 32
0.0
 13
0.0
 23
-0.1839011491
 33
0.0
 40
0.0
 40
0.0
 40
0.0
 40
0.0
 40
0.3119503866
 40
0.5109744676
 40
0.6456308384
 40
0.7914381086
 40
1.0
 40
1.0
 40
1.0
 40
1.0
 10
105.411680798
 20
142.6041384095
 30
0.0
 10
105.4268496396
 20
142.6157824237
 30
0.0
 10
105.452704846
 20
142.6332388477
 30
0.0
 10
105.4902741589
 20
142.6491164341
 30
0.0
 10
105.5217604107
 20
142.641276048
 30
0.0
 10
105.5354551783
 20
142.6117645767
 30
0.0
 10
105.536680798
 20
142.5902134087
 30
0.0
 10
105.536680798
 20
142.5774284848
 30
0.0
 11
105.411680798
 21
142.6041384095
 31
0.0
 11
105.4598644337
 21
142.6352740586
 31
0.0
 11
105.4949072256
 21
142.6458390081
 31
0.0
 11
105.518593258
 21
142.6386139898
 31
0.0
 11
105.5322252149
 21
142.61552358
 31
0.0
 11
105.536680798
 21
142.5774284848
 31
0.0
  0
SPLINE
  5
31D
100
AcDbEntity
  8
0
100
AcDbSpline
 62
7
  6
CONTINUOUS
 70
0
 71
3
 72
15
 73
11
 74
9
 42
0.0000001
 43
0.0000001
 44
0.0000000001
 12
0.0
 22
0.9130903992
 32
0.0
 13
-0.9130903992
 23
0.0
 33
0.0
 40
0.0
 40
0.0
 40
0.0
 40
0.0
 40
0.1600918462
 40
0.3075422057
 40
0.4449036121
 40
0.5732119493
 40
0.6912879168
 40
0.8006702292
 40
0.9045439847
 40
1.0
 40
1.0
 40
1.0
 40
1.0
 10
105.411680798
 20
93.3755732174
 30
0.0
 10
105.411680798
 20
93.4242993267
 30
0.0
 10
105.4037159006
 20
93.5181110589
 30
0.0
 10
105.3698722061
 20
93.6498256048
 30
0.0
 10
105.3185432122
 20
93.7652834142
 30
0.0
 10
105.2527687653
 20
93.8625907689
 30
0.0
 10
105.1757309027
 20
93.9396934881
 30
0.0
 10
105.090606539
 20
93.9952323715
 30
0.0
 10
105.0016193814
 20
94.0279104699
 30
0.0
 10
104.9407341217
 20
94.0350330778
 30
0.0
 10
104.911680798
 20
94.0350330778
 30
0.0
 11
105.411680798
 21
93.3755732174
 31
0.0
 11
105.3992074295
 21
93.5212183979
 31
0.0
 11
105.3654270336
 21
93.6515472311
 31
0.0
 11
105.314069467
 21
93.7659737357
 31
0.0
 11
105.2479987839
 21
93.8627231721
 31
0.0
 11
105.1713736022
 21
93.9385680605
 31
0.0
 11
105.0874331595
 21
93.992690194
 31
0.0
 11
104.9982620669
 21
94.0250058931
 31
0.0
 11
104.911680798
 21
94.0350330778
 31
0.0
  0
SPLINE
  5
31E
100
AcDbEntity
  8
0
100
AcDbSpline
 62
7
  6
CONTINUOUS
 70
0
 71
3
 72
18
 73
14
 74
12
 42
0.0000001
 43
0.0000001
 44
0.0000000001
 12
-1.7642311185
 22
0.0
 32
0.0
 13
-0.0
 23
1.7642311185
 33
0.0
 40
0.0
 40
0.0
 40
0.0
 40
0.0
 40
0.086900447
 40
0.1740038441
 40
0.2602721501
 40
0.345790636
 40
0.4333324854
 40
0.523356292
 40
0.6154993271
 40
0.7098280223
 40
0.8064563316
 40
0.9037424561
 40
1.0
 40
1.0
 40
1.0
 40
1.0
 10
96.611680798
 20
89.3850239293
 30
0.0
 10
96.5605766404
 20
89.3850239293
 30
0.0
 10
96.4579922134
 20
89.3947583562
 30
0.0
 10
96.3101581074
 20
89.4374450745
 30
0.0
 10
96.1729071559
 20
89.5050366303
 30
0.0
 10
96.0483270044
 20
89.59405503
 30
0.0
 10
95.9369877898
 20
89.7022703748
 30
0.0
 10
95.8396664543
 20
89.8281416091
 30
0.0
 10
95.7578963887
 20
89.9692065654
 30
0.0
 10
95.6929129067
 20
90.1229344796
 30
0.0
 10
95.6459371911
 20
90.286216891
 30
0.0
 10
95.6178546333
 20
90.4548869947
 30
0.0
 10
95.611680798
 20
90.5688040985
 30
0.0
 10
95.611680798
 20
90.6254109499
 30
0.0
 11
96.611680798
 21
89.3850239293
 31
0.0
 11
96.4590473175
 21
89.3994369425
 31
0.0
 11
96.3113400155
 21
89.441830135
 31
0.0
 11
96.1746652036
 21
89.5087927561
 31
0.0
 11
96.0517157122
 21
89.5962370202
 31
0.0
 11
95.9407299598
 21
89.7036387373
 31
0.0
 11
95.8433273987
 21
89.8290876241
 31
0.0
 11
95.7615567241
 21
89.9695861429
 31
0.0
 11
95.6965426825
 21
90.122778827
 31
0.0
 11
95.6492316324
 21
90.2865569627
 31
0.0
 11
95.6209278266
 21
90.455842341
 31
0.0
 11
95.611680798
 21
90.6254109499
 31
0.0
  0
SPLINE
  5
31F
100
AcDbEntity
  8
BEZUGSACHSEN
100
AcDbSpline
 62
7
  6
CONTINUOUS
 70
0
 71
3
 72
11
 73
7
 74
5
 42
0.0000001
 43
0.0000001
 44
0.0000000001
 12
0.0
 22
-0.1395867963
 32
0.0
 13
0.0661959442
 23
-0.1231095805
 33
0.0
 40
0.0
 40
0.0
 40
0.0
 40
0.0
 40
0.2989089425
 40
0.5912641764
 40
0.8672480948
 40
1.0
 40
1.0
 40
1.0
 40
1.0
 10
101.661680798
 20
142.3479076205
 30
0.0
 10
101.661680798
 20
142.3339997066
 30
0.0
 10
101.6629707185
 20
142.3064599873
 30
0.0
 10
101.6696981667
 20
142.2665500256
 30
0.0
 10
101.6799069095
 20
142.2354148936
 30
0.0
 10
101.6881750679
 20
142.2182366864
 30
0.0
 10
101.6911042804
 20
142.2127890093
 30
0.0
 11
101.661680798
 21
142.3479076205
 31
0.0
 11
101.6638275518
 21
142.3062391424
 31
0.0
 11
101.6708484031
 21
142.266038689
 31
0.0
 11
101.6830486497
 21
142.2294978859
 31
0.0
 11
101.6911042804
 21
142.2127890093
 31
0.0
  0
SPLINE
  5
320
100
AcDbEntity
  8
BEZUGSACHSEN
100
AcDbSpline
 62
7
  6
CONTINUOUS
 70
0
 71
3
 72
16
 73
12
 74
10
 42
0.0000001
 43
0.0000001
 44
0.0000000001
 12
0.244791693
 22
-0.4552575388
 32
0.0
 13
0.497355697
 23
0.1381647029
 33
0.0
 40
0.0
 40
0.0
 40
0.0
 40
0.0
 40
0.0354819688
 40
0.1069116572
 40
0.1821577292
 40
0.2654043123
 40
0.3615453499
 40
0.4759438992
 40
0.6177190239
 40
0.7944984177
 40
1.0
 40
1.0
 40
1.0
 40
1.0
 10
101.6911042804
 20
142.2127890093
 30
0.0
 10
101.6939995108
 20
142.2074045314
 30
0.0
 10
101.7034409367
 20
142.1915677221
 30
0.0
 10
101.7232041675
 20
142.1670043801
 30
0.0
 10
101.7534569507
 20
142.1411759594
 30
0.0
 10
101.7914239489
 20
142.1189001231
 30
0.0
 10
101.8387571561
 20
142.1005954491
 30
0.0
 10
101.8981060931
 20
142.0872787627
 30
0.0
 10
101.9726066557
 20
142.0813169398
 30
0.0
 10
102.0629025456
 20
142.0867515559
 30
0.0
 10
102.1276116704
 20
142.0999900136
 30
0.0
 10
102.161680798
 20
142.1094543686
 30
0.0
 11
101.6911042804
 21
142.2127890093
 31
0.0
 11
101.7005040643
 21
142.1970490745
 31
0.0
 11
101.7235930677
 21
142.1683020693
 31
0.0
 11
101.7530303579
 21
142.1429625641
 31
0.0
 11
101.7899652964
 21
142.1210007296
 31
0.0
 11
101.8361378399
 21
142.1028089707
 31
0.0
 11
101.8936793776
 21
142.0895410196
 31
0.0
 11
101.9665975794
 21
142.0833221688
 31
0.0
 11
102.057705889
 21
142.0884369109
 31
0.0
 11
102.161680798
 21
142.1094543686
 31
0.0
  0
SPLINE
  5
321
100
AcDbEntity
  8
0
100
AcDbSpline
 62
7
  6
CONTINUOUS
 70
0
 71
3
 72
84
 73
80
 74
78
 42
0.0000001
 43
0.0000001
 44
0.0000000001
 12
-27.1680969741
 22
-5.8561469882
 32
0.0
 13
-21.4692024565
 23
-17.6410852457
 33
0.0
 40
0.0
 40
0.0
 40
0.0
 40
0.0
 40
0.0013833476
 40
0.0133715344
 40
0.0233244617
 40
0.0312117388
 40
0.0373356361
 40
0.0423480933
 40
0.0470827978
 40
0.0524064714
 40
0.05896831
 40
0.0672603138
 40
0.0774126098
 40
0.0892307242
 40
0.1025925688
 40
0.1172970421
 40
0.1331823391
 40
0.1501135739
 40
0.167776267
 40
0.1854446144
 40
0.2024145324
 40
0.2181843786
 40
0.2324363445
 40
0.2452971508
 40
0.2569961904
 40
0.2676504855
 40
0.2772053096
 40
0.2857291181
 40
0.2931916065
 40
0.30024365
 40
0.3081209872
 40
0.317010801
 40
0.3270180749
 40
0.3381953611
 40
0.3504501967
 40
0.3638777795
 40
0.3785487044
 40
0.3944871005
 40
0.4116219147
 40
0.4294563108
 40
0.4469400424
 40
0.4633922472
 40
0.4786797753
 40
0.4927858046
 40
0.5057454288
 40
0.517705418
 40
0.5286477891
 40
0.5386436206
 40
0.5481520087
 40
0.5576485943
 40
0.5677531357
 40
0.579131975
 40
0.5922104524
 40
0.6074711756
 40
0.6250822599
 40
0.6444401766
 40
0.66438431
 40
0.6842886095
 40
0.7039740124
 40
0.7233064191
 40
0.7421494075
 40
0.7603576752
 40
0.7777501038
 40
0.7940660669
 40
0.8087826045
 40
0.8216641877
 40
0.8330247582
 40
0.8434960207
 40
0.8536932849
 40
0.8639807828
 40
0.8748415599
 40
0.8867019045
 40
0.8997306241
 40
0.9139456628
 40
0.9289651773
 40
0.9447096789
 40
0.9615173483
 40
0.979795474
 40
1.0
 40
1.0
 40
1.0
 40
1.0
 10
144.4652835536
 20
134.5609583431
 30
0.0
 10
144.4527559133
 20
134.5582579809
 30
0.0
 10
144.3317518569
 20
134.5317297822
 30
0.0
 10
144.1222687878
 20
134.4779756814
 30
0.0
 10
143.862013301
 20
134.3833655755
 30
0.0
 10
143.6655486878
 20
134.2777529352
 30
0.0
 10
143.5310976435
 20
134.1602358844
 30
0.0
 10
143.4580221846
 20
134.0284005942
 30
0.0
 10
143.4447920556
 20
133.8857931687
 30
0.0
 10
143.4865430125
 20
133.7350570903
 30
0.0
 10
143.5815966835
 20
133.5725802839
 30
0.0
 10
143.7319278045
 20
133.3954144464
 30
0.0
 10
143.9360664152
 20
133.202808557
 30
0.0
 10
144.190330916
 20
132.9964481912
 30
0.0
 10
144.4888011782
 20
132.7785660463
 30
0.0
 10
144.8260638454
 20
132.5504696627
 30
0.0
 10
145.1959831157
 20
132.3118991014
 30
0.0
 10
145.5918086316
 20
132.0630259039
 30
0.0
 10
146.0022439785
 20
131.8063713845
 30
0.0
 10
146.4113316041
 20
131.5468867428
 30
0.0
 10
146.8016566773
 20
131.2906182982
 30
0.0
 10
147.1592738276
 20
131.0423843685
 30
0.0
 10
147.4768942232
 20
130.8036639879
 30
0.0
 10
147.7527516315
 20
130.5728244425
 30
0.0
 10
147.9882244522
 20
130.3466426541
 30
0.0
 10
148.1817491085
 20
130.1225107471
 30
0.0
 10
148.3284838947
 20
129.8991824719
 30
0.0
 10
148.4204064662
 20
129.6793040506
 30
0.0
 10
148.4567362922
 20
129.4669920176
 30
0.0
 10
148.4407987704
 20
129.2581416667
 30
0.0
 10
148.3690875079
 20
129.0470664284
 30
0.0
 10
148.2363417086
 20
128.835519115
 30
0.0
 10
148.0492637545
 20
128.6278796487
 30
0.0
 10
147.8155816153
 20
128.4238285633
 30
0.0
 10
147.5402878901
 20
128.2214343117
 30
0.0
 10
147.226342238
 20
128.0183309904
 30
0.0
 10
146.8754837497
 20
127.8102015932
 30
0.0
 10
146.4902336615
 20
127.5930389461
 30
0.0
 10
146.0776050539
 20
127.3648406178
 30
0.0
 10
145.6537477781
 20
127.1273596058
 30
0.0
 10
145.2401177046
 20
126.8846570588
 30
0.0
 10
144.8550463133
 20
126.6402961674
 30
0.0
 10
144.5084161999
 20
126.394545994
 30
0.0
 10
144.2050777412
 20
126.1451270759
 30
0.0
 10
143.9473302233
 20
125.890805644
 30
0.0
 10
143.7388470863
 20
125.6310244353
 30
0.0
 10
143.5842484207
 20
125.3668095237
 30
0.0
 10
143.4874671681
 20
125.1001298465
 30
0.0
 10
143.4457208116
 20
124.8330897601
 30
0.0
 10
143.4554252396
 20
124.5621003009
 30
0.0
 10
143.5173959683
 20
124.2804315841
 30
0.0
 10
143.6379535644
 20
123.9824776262
 30
0.0
 10
143.822756826
 20
123.6632847692
 30
0.0
 10
144.0760947652
 20
123.3204232361
 30
0.0
 10
144.3970660941
 20
122.9578052557
 30
0.0
 10
144.7726008688
 20
122.5874579271
 30
0.0
 10
145.1799274117
 20
122.2201269802
 30
0.0
 10
145.598798946
 20
121.8614494209
 30
0.0
 10
146.0173494561
 20
121.5112041314
 30
0.0
 10
146.4279980023
 20
121.1668301739
 30
0.0
 10
146.8236832387
 20
120.82593358
 30
0.0
 10
147.1968234737
 20
120.4865740912
 30
0.0
 10
147.5380477622
 20
120.1474124519
 30
0.0
 10
147.8351359773
 20
119.8108013142
 30
0.0
 10
148.0771059565
 20
119.4830297254
 30
0.0
 10
148.2579906411
 20
119.1696672889
 30
0.0
 10
148.3782807685
 20
118.8701365155
 30
0.0
 10
148.4431649324
 20
118.579222866
 30
0.0
 10
148.456360158
 20
118.2912968194
 30
0.0
 10
148.4177187707
 20
118.0020233223
 30
0.0
 10
148.3251795588
 20
117.7091260731
 30
0.0
 10
148.1764640485
 20
117.4120080282
 30
0.0
 10
147.9746993551
 20
117.110342681
 30
0.0
 10
147.7261612132
 20
116.8072927398
 30
0.0
 10
147.4388380086
 20
116.5052304198
 30
0.0
 10
147.1181597567
 20
116.2028275359
 30
0.0
 10
146.7640577043
 20
115.8924483668
 30
0.0
 10
146.3712801922
 20
115.5637869133
 30
0.0
 10
146.0955246437
 20
115.3379319579
 30
0.0
 10
145.9509329576
 20
115.2191220363
 30
0.0
 11
144.4652835536
 21
134.5609583431
 31
0.0
 11
144.4277287942
 21
134.5527231537
 31
0.0
 11
144.1056675171
 21
134.4676049851
 31
0.0
 11
143.8469154839
 21
134.3699544782
 31
0.0
 11
143.6561122969
 21
134.2621214126
 31
0.0
 11
143.5315375729
 21
134.1461998038
 31
0.0
 11
143.4663488111
 21
134.0231140835
 31
0.0
 11
143.4528643157
 21
133.8922422442
 31
0.0
 11
143.4886758291
 21
133.7487118065
 31
0.0
 11
143.5772170894
 21
133.5893166918
 31
0.0
 11
143.7234798192
 21
133.4112798361
 31
0.0
 11
143.9269441241
 21
133.2158687329
 31
0.0
 11
144.180813527
 21
133.0075596315
 31
0.0
 11
144.4799632046
 21
132.7876380192
 31
0.0
 11
144.8177862098
 21
132.5577951764
 31
0.0
 11
145.1882796681
 21
132.3178429248
 31
0.0
 11
145.5861726295
 21
132.0667922106
 31
0.0
 11
146.0019207491
 21
131.805953417
 31
0.0
 11
146.4160871051
 21
131.5423175782
 31
0.0
 11
146.8097785864
 21
131.2827701469
 31
0.0
 11
147.1691397218
 21
131.0320108873
 31
0.0
 11
147.4849568655
 21
130.7930666078
 31
0.0
 11
147.7581758504
 21
130.562713185
 31
0.0
 11
147.9914031253
 21
130.3362508581
 31
0.0
 11
148.1830352708
 21
130.1105847235
 31
0.0
 11
148.3261347073
 21
129.8869459201
 31
0.0
 11
148.4150361385
 21
129.6674095648
 31
0.0
 11
148.4486024107
 21
129.4627818555
 31
0.0
 11
148.433728318
 21
129.2673898646
 31
0.0
 11
148.3649291511
 21
129.0595930698
 31
0.0
 11
148.2366018234
 21
128.8485173614
 31
0.0
 11
148.0529126029
 21
128.6397493234
 31
0.0
 11
147.8205501248
 21
128.4336624955
 31
0.0
 11
147.5472268429
 21
128.2305509047
 31
0.0
 11
147.2348124769
 21
128.0265579987
 31
0.0
 11
146.8848671712
 21
127.8174420915
 31
0.0
 11
146.499608152
 21
127.5989867534
 31
0.0
 11
146.083483074
 21
127.3675995123
 31
0.0
 11
145.6517337037
 21
127.1243260433
 31
0.0
 11
145.2333784696
 21
126.8773328076
 31
0.0
 11
144.8481706104
 21
126.6311368355
 31
0.0
 11
144.5026529769
 21
126.3840093759
 31
0.0
 11
144.200966018
 21
126.13376078
 31
0.0
 11
143.9460597607
 21
125.8793905165
 31
0.0
 11
143.7398900145
 21
125.6187351926
 31
0.0
 11
143.5884958265
 21
125.3550465433
 31
0.0
 11
143.4948275002
 21
125.093559758
 31
0.0
 11
143.4541376057
 21
124.8324992533
 31
0.0
 11
143.4628923296
 21
124.5687599587
 31
0.0
 11
143.5219179325
 21
124.2942562756
 31
0.0
 11
143.6381909645
 21
124.0002239545
 31
0.0
 11
143.8177963576
 21
123.6842922089
 31
0.0
 11
144.0676145984
 21
123.3416363939
 31
0.0
 11
144.3901316509
 21
122.9735868002
 31
0.0
 11
144.7714157516
 21
122.5941614564
 31
0.0
 11
145.1817594422
 21
122.2216714268
 31
0.0
 11
145.6010155335
 21
121.860936796
 31
0.0
 11
146.0197946418
 21
121.5090307825
 31
0.0
 11
146.4306936439
 21
121.1629945442
 31
0.0
 11
146.8265655901
 21
120.8203020991
 31
0.0
 11
147.1997966764
 21
120.4786987842
 31
0.0
 11
147.5411966644
 21
120.136625545
 31
0.0
 11
147.8395874004
 21
119.7952849382
 31
0.0
 11
148.0804121984
 21
119.4647859283
 31
0.0
 11
148.2569910833
 21
119.153427315
 31
0.0
 11
148.3728528996
 21
118.8597783693
 31
0.0
 11
148.4352344207
 21
118.5755759028
 31
0.0
 11
148.4479002599
 21
118.292504591
 31
0.0
 11
148.4105650537
 21
118.0090912905
 31
0.0
 11
148.3209400611
 21
117.7209148984
 31
0.0
 11
148.1756737706
 21
117.4250903681
 31
0.0
 11
147.9763278579
 21
117.1228832518
 31
0.0
 11
147.7273862239
 21
116.816205531
 31
0.0
 11
147.4408805998
 21
116.5127304453
 31
0.0
 11
147.1236099842
 21
116.2114942058
 31
0.0
 11
146.7731939073
 21
115.9027307953
 31
0.0
 11
146.3844286478
 21
115.5758915208
 31
0.0
 11
145.9509329576
 21
115.2191220363
 31
0.0
  0
SPLINE
  5
322
100
AcDbEntity
  8
BEZUGSACHSEN
100
AcDbSpline
 62
7
  6
CONTINUOUS
 70
0
 71
3
 72
16
 73
12
 74
10
 42
0.0000001
 43
0.0000001
 44
0.0000000001
 12
0.4973714463
 22
-0.1381690781
 32
0.0
 13
0.2447633051
 23
0.4552915049
 33
0.0
 40
0.0
 40
0.0
 40
0.0
 40
0.0
 40
0.2054084362
 40
0.3821123936
 40
0.5239763358
 40
0.6383788277
 40
0.7345406286
 40
0.8178119434
 40
0.8930732946
 40
0.9645140243
 40
1.0
 40
1.0
 40
1.0
 40
1.0
 10
104.911680798
 20
142.1094543686
 30
0.0
 10
104.9457355616
 20
142.0999940038
 30
0.0
 10
105.0104176146
 20
142.0867591502
 30
0.0
 10
105.100701707
 20
142.0813167304
 30
0.0
 10
105.1752085793
 20
142.0872707021
 30
0.0
 10
105.2345794526
 20
142.1005876975
 30
0.0
 10
105.2819234888
 20
142.1188926486
 30
0.0
 10
105.3199017389
 20
142.1411730639
 30
0.0
 10
105.35016205
 20
142.1670083767
 30
0.0
 10
105.3699279665
 20
142.1915776717
 30
0.0
 10
105.3793698381
 20
142.2074179256
 30
0.0
 10
105.3822650597
 20
142.2128034134
 30
0.0
 11
104.911680798
 21
142.1094543686
 31
0.0
 11
105.0156112146
 21
142.0884425299
 31
0.0
 11
105.1066830208
 21
142.0833207519
 31
0.0
 11
105.1796498806
 21
142.0895358743
 31
0.0
 11
105.2371962127
 21
142.1028004128
 31
0.0
 11
105.283381458
 21
142.1209934586
 31
0.0
 11
105.3203293261
 21
142.1429611905
 31
0.0
 11
105.3497732547
 21
142.1683069588
 31
0.0
 11
105.3728650848
 21
142.1970605016
 31
0.0
 11
105.3822650597
 21
142.2128034134
 31
0.0
  0
SPLINE
  5
323
100
AcDbEntity
  8
BEZUGSACHSEN
100
AcDbSpline
 62
7
  6
CONTINUOUS
 70
0
 71
3
 72
11
 73
7
 74
5
 42
0.0000001
 43
0.0000001
 44
0.0000000001
 12
0.0661784389
 22
0.1231004829
 32
0.0
 13
0.0
 23
0.1395704877
 33
0.0
 40
0.0
 40
0.0
 40
0.0
 40
0.0
 40
0.1327767541
 40
0.408761515
 40
0.7011191023
 40
1.0
 40
1.0
 40
1.0
 40
1.0
 10
105.3822650597
 20
142.2128034134
 30
0.0
 10
105.3851940458
 20
142.2182517076
 30
0.0
 10
105.3934603714
 20
142.2354296594
 30
0.0
 10
105.4036663058
 20
142.266562994
 30
0.0
 10
105.4103913522
 20
142.3064673492
 30
0.0
 10
105.411680798
 20
142.3340026363
 30
0.0
 10
105.411680798
 20
142.3479076205
 30
0.0
 11
105.3822650597
 21
142.2128034134
 31
0.0
 11
105.3903199152
 21
142.2295141141
 31
0.0
 11
105.4025163956
 21
142.2660515534
 31
0.0
 11
105.4095349892
 21
142.3062478944
 31
0.0
 11
105.411680798
 21
142.3479076205
 31
0.0
  0
SPLINE
  5
324
100
AcDbEntity
  8
BEZUGSACHSEN
100
AcDbSpline
 62
7
  6
CONTINUOUS
 70
0
 71
3
 72
18
 73
14
 74
12
 42
0.0000001
 43
0.0000001
 44
0.0000000001
 12
2.6737590161
 22
0.7427664394
 32
0.0
 13
2.6737590161
 23
-0.7427664394
 33
0.0
 40
0.0
 40
0.0
 40
0.0
 40
0.0
 40
0.0788628999
 40
0.1647195541
 40
0.2563676281
 40
0.3521236596
 40
0.4503969613
 40
0.5496032532
 40
0.6478758258
 40
0.7436299262
 40
0.8352788674
 40
0.9211360457
 40
1.0
 40
1.0
 40
1.0
 40
1.0
 10
102.161680798
 20
142.1094543686
 30
0.0
 10
102.2319675945
 20
142.1289799404
 30
0.0
 10
102.3804184686
 20
142.1639273953
 30
0.0
 10
102.6141973519
 20
142.2043303678
 30
0.0
 10
102.8652101657
 20
142.2348553382
 30
0.0
 10
103.1287450698
 20
142.2552985139
 30
0.0
 10
103.3998626984
 20
142.2655471562
 30
0.0
 10
103.6734988175
 20
142.2655471451
 30
0.0
 10
103.9446139865
 20
142.2552986109
 30
0.0
 10
104.2081472449
 20
142.2348557242
 30
0.0
 10
104.4591595961
 20
142.2043310745
 30
0.0
 10
104.6929407437
 20
142.1639279157
 30
0.0
 10
104.8413930617
 20
142.1289802014
 30
0.0
 10
104.911680798
 20
142.1094543686
 30
0.0
 11
102.161680798
 21
142.1094543686
 31
0.0
 11
102.3745177692
 21
142.1603833311
 31
0.0
 11
102.6091942138
 21
142.2015118875
 31
0.0
 11
102.8616118086
 21
142.2325971258
 31
0.0
 11
103.1265212697
 21
142.253388296
 31
0.0
 11
103.3990317908
 21
142.2638053241
 31
0.0
 11
103.6743303995
 21
142.2638053129
 31
0.0
 11
103.9468388996
 21
142.2533883786
 31
0.0
 11
104.2117430317
 21
142.2325978016
 31
0.0
 11
104.4641630472
 21
142.201512529
 31
0.0
 11
104.6988409593
 21
142.1603839198
 31
0.0
 11
104.911680798
 21
142.1094543686
 31
0.0
  0
SPLINE
  5
325
100
AcDbEntity
  8
0
100
AcDbSpline
 62
7
  6
CONTINUOUS
 70
0
 71
3
 72
20
 73
16
 74
14
 42
0.0000001
 43
0.0000001
 44
0.0000000001
 12
2.8102862474
 22
-0.504990946
 32
0.0
 13
-2.7623235415
 23
-0.6391144968
 33
0.0
 40
0.0
 40
0.0
 40
0.0
 40
0.0
 40
0.1569204042
 40
0.3172372279
 40
0.4681904967
 40
0.5997153188
 40
0.7057175416
 40
0.7872363091
 40
0.8471330513
 40
0.887361131
 40
0.9112383199
 40
0.9268879975
 40
0.9502076128
 40
0.9891254135
 40
1.0
 40
1.0
 40
1.0
 40
1.0
 10
145.9504791644
 20
135.7615866963
 30
0.0
 10
146.097476249
 20
135.7351722352
 30
0.0
 10
146.3942870928
 20
135.6797012876
 30
0.0
 10
146.8310695409
 20
135.5914269773
 30
0.0
 10
147.2427407896
 20
135.5009237922
 30
0.0
 10
147.6019834859
 20
135.4137860946
 30
0.0
 10
147.8953325489
 20
135.333886137
 30
0.0
 10
148.1190761913
 20
135.2628157258
 30
0.0
 10
148.2827023466
 20
135.2010138328
 30
0.0
 10
148.3836234566
 20
135.1463657389
 30
0.0
 10
148.4506941131
 20
135.097325641
 30
0.0
 10
148.4465970361
 20
135.0283622489
 30
0.0
 10
148.3729789716
 20
134.9917737862
 30
0.0
 10
148.30876597
 20
134.9713219961
 30
0.0
 10
148.2632322592
 20
134.9601820125
 30
0.0
 10
148.2532192171
 20
134.9578653106
 30
0.0
 11
145.9504791644
 21
135.7615866963
 31
0.0
 11
146.3909001339
 21
135.6792327691
 31
0.0
 11
146.8395402984
 21
135.5883530424
 31
0.0
 11
147.2604025158
 21
135.4953464372
 31
0.0
 11
147.6252006082
 21
135.4061582526
 31
0.0
 11
147.9169367082
 21
135.3255486755
 31
0.0
 11
148.1384645471
 21
135.2541148269
 31
0.0
 11
148.2973047872
 21
135.1907219732
 31
0.0
 11
148.3976148358
 21
135.1347627435
 31
0.0
 11
148.4445431444
 21
135.0853080526
 31
0.0
 11
148.4415664846
 21
135.0407228205
 31
0.0
 11
148.3883068173
 21
135.0007616413
 31
0.0
 11
148.2830353065
 21
134.965180934
 31
0.0
 11
148.2532192171
 21
134.9578653106
 31
0.0
  0
ENDSEC
  0
SECTION
  2
OBJECTS
  0
DICTIONARY
  5
C
100
AcDbDictionary
280
0
281
1
  3
ACAD_GROUP
350
D
  3
ACAD_MLINESTYLE
350
17
  3
ACAD_LAYOUT
350
1A
  3
ACAD_PLOTSETTINGS
350
19
  3
ACAD_PLOTSTYLENAME
350
E
  0
DICTIONARY
  5
D
102
{ACAD_REACTORS
330
C
102
}
100
AcDbDictionary
280
0
281
1
  0
ACDBDICTIONARYWDFLT
  5
E
102
{ACAD_REACTORS
330
C
102
}
100
AcDbDictionary
281
1
  3
Normal
350
F
100
AcDbDictionaryWithDefault
340
F
  0
DICTIONARY
  5
17
102
{ACAD_REACTORS
330
C
102
}
100
AcDbDictionary
280
0
281
1
  3
Standard
350
18
  0
DICTIONARY
  5
19
102
{ACAD_REACTORS
330
C
102
}
100
AcDbDictionary
281
1
  0
DICTIONARY
  5
1A
102
{ACAD_REACTORS
330
C
102
}
100
AcDbDictionary
281
1
  3
Model
350
326
  3
Layout1
350
327
  0
ACDBPLACEHOLDER
  5
F
102
{ACAD_REACTORS
330
E
102
}
  0
MLINESTYLE
  5
18
102
{ACAD_REACTORS
330
17
102
}
100
AcDbMlineStyle
  2
STANDARD
 70
0
  3

 62
256
 51
90.0
 52
90.0
 71
2
 49
0.5
 62
256
  6
BYLAYER
 49
-0.5
 62
256
  6
BYLAYER
  0
LAYOUT
  5
326
102
{ACAD_REACTORS
330
1A
102
}
100
AcDbPlotSettings
  1

  2
none_device
  4
ISO_A4_(297.00_x_210.00_MM)
  6

 40
0.0
 41
0.0
 42
0.0
 43
0.0
 44
297.0
 45
210.0
 46
0.0
 47
0.0
 48
0.0
 49
0.0
140
0.0
141
0.0
142
1.0
143
1.0
 70
1024
 72
1
 73
0
 74
0
  7

 75
0
147
1.0
148
0.0
149
0.0
100
AcDbLayout
  1
Model
 70
0
 71
0
 10
0.0
 20
0.0
 11
297.0
 21
210.0
 12
0.0
 22
0.0
 32
0.0
 14
0.0
 24
0.0
 34
0.0
 15
0.0
 25
0.0
 35
0.0
146
0.0
 13
0.0
 23
0.0
 33
0.0
 16
1.0
 26
0.0
 36
0.0
 17
0.0
 27
1.0
 37
0.0
 76
0
330
217
345
0
346
0
  0
LAYOUT
  5
327
102
{ACAD_REACTORS
330
1A
102
}
100
AcDbPlotSettings
  1

  2
none_device
  4
ISO_A4_(297.00_x_210.00_MM)
  6

 40
0.0
 41
0.0
 42
0.0
 43
0.0
 44
297.0
 45
210.0
 46
0.0
 47
0.0
 48
0.0
 49
0.0
140
0.0
141
0.0
142
1.0
143
1.0
 70
0
 72
1
 73
0
 74
0
  7

 75
0
147
1.0
148
0.0
149
0.0
100
AcDbLayout
  1
Layout1
 70
0
 71
1
 10
0.0
 20
0.0
 11
297.0
 21
210.0
 12
0.0
 22
0.0
 32
0.0
 14
0.0
 24
0.0
 34
0.0
 15
0.0
 25
0.0
 35
0.0
146
0.0
 13
0.0
 23
0.0
 33
0.0
 16
1.0
 26
0.0
 36
0.0
 17
0.0
 27
1.0
 37
0.0
 76
0
330
218
345
0
346
0
  0
ENDSEC
  0
EOF
