999
DXF file: 50-484-08-8.dxf
999
Pro/ENGINEER 2009220 by Parametric Technology Corporation
  0
SECTION
  2
HEADER
  9
$ACADVER
  1
AC1021
  9
$DWGCODEPAGE
  3
ANSI_1252
  9
$EXTMAX
 10
297.0
 20
210.0
 30
0.0
  9
$EXTMIN
 10
0.0
 20
0.0
 30
0.0
  9
$LIMMIN
 10
0.0
 20
0.0
  9
$LIMMAX
 10
297.0
 20
210.0
  9
$VIEWCTR
 10
148.5
 20
105.0
  9
$VIEWSIZE
 40
210.0
  9
$CLAYER
  8
0
  9
$LTSCALE
 40
16.335
  9
$CELTYPE
  6
BYLAYER
  9
$DIMSCALE
 40
1.0
  9
$DIMASZ
 40
3.5
  9
$DIMEXO
 40
1.85625
  9
$DIMDLI
 40
11.286
  9
$DIMEXE
 40
5.346
  9
$DIMCEN
 40
2.673
  9
$DIMLFAC
 40
1.0
  9
$DIMBLK
  1
_FILLED
  9
$DIMTXT
 40
3.5
  9
$DIMTOL
 70
1
  9
$DIMLIM
 70
0
  9
$DIMTFAC
 40
1.0
  9
$DIMTP
 40
0.005
  9
$DIMTM
 40
0.005
  9
$PDMODE
 70
3
  9
$PDSIZE
 40
0.3125
  9
$HANDSEED
  5
325
  9
$TILEMODE
 70
1
  9
$MEASUREMENT
 70
1
  9
$INSUNITS
 70
4
  0
ENDSEC
  0
SECTION
  2
CLASSES
  0
CLASS
  1
ACDBDICTIONARYWDFLT
  2
AcDbDictionaryWithDefault
  3
AutoCAD 2000
 90
0
 91
1
280
0
281
0
  0
CLASS
  1
ACDBPLACEHOLDER
  2
AcDbPlaceHolder
  3
AutoCAD 2000
 90
0
 91
1
280
0
281
0
  0
CLASS
  1
LAYOUT
  2
AcDbLayout
  3
AutoCAD 2000
 90
0
 91
0
280
0
281
0
  0
ENDSEC
  0
SECTION
  2
TABLES
  0
TABLE
  2
VPORT
  5
8
100
AcDbSymbolTable
 70
2
  0
VPORT
  5
1F4
100
AcDbSymbolTableRecord
100
AcDbViewportTableRecord
  2
*ACTIVE
 70
0
 10
0.0
 20
0.0
 11
1.0
 21
1.0
 12
148.5
 22
105.0
 13
0.0
 23
0.0
 14
1.0
 24
1.0
 15
0.0
 25
0.0
 16
0.0
 26
0.0
 36
1.0
 17
0.0
 27
0.0
 37
0.0
 40
210.0
 41
1.4142857143
 42
50.0
 43
0.0
 44
0.0
 50
0.0
 51
0.0
 71
0
 72
100
 73
1
 74
1
 75
0
 76
0
 77
0
 78
0
  0
ENDTAB
  0
TABLE
  2
LTYPE
  5
5
100
AcDbSymbolTable
 70
6
  0
LTYPE
  5
14
100
AcDbSymbolTableRecord
100
AcDbLinetypeTableRecord
  2
BYBLOCK
 70
0
  3

 72
65
 73
0
 40
0.0
  0
LTYPE
  5
15
100
AcDbSymbolTableRecord
100
AcDbLinetypeTableRecord
  2
BYLAYER
 70
0
  3

 72
65
 73
0
 40
0.0
  0
LTYPE
  5
16
100
AcDbSymbolTableRecord
100
AcDbLinetypeTableRecord
  2
CONTINUOUS
 70
64
  3
Solid line
 72
65
 73
0
 40
0.0
  0
LTYPE
  5
1F5
100
AcDbSymbolTableRecord
100
AcDbLinetypeTableRecord
  2
CENTER
 70
64
  3
____ _ ____ _ ____ _ ____ _ ____ _ ____ _ ____
 72
65
 73
4
 40
0.6
 49
0.375
 74
0
 49
-0.075
 74
0
 49
0.075
 74
0
 49
-0.075
 74
0
  0
LTYPE
  5
1F6
100
AcDbSymbolTableRecord
100
AcDbLinetypeTableRecord
  2
HIDDEN
 70
64
  3
- - - - - - - - - - - - - - - - - - - -
 72
65
 73
2
 40
0.2
 49
0.1
 74
0
 49
-0.1
 74
0
  0
LTYPE
  5
1F7
100
AcDbSymbolTableRecord
100
AcDbLinetypeTableRecord
  2
PHANTOM
 70
64
  3
_____ _ _ _____ _ _ _____ _ _ _____
 72
65
 73
6
 40
0.8
 49
0.45
 74
0
 49
-0.05
 74
0
 49
0.1
 74
0
 49
-0.05
 74
0
 49
0.1
 74
0
 49
-0.05
 74
0
  0
LTYPE
  5
1F8
100
AcDbSymbolTableRecord
100
AcDbLinetypeTableRecord
  2
DOT
 70
64
  3
. . . . . . . . . . . . . . . . . . . .
 72
65
 73
2
 40
0.2
 49
0.1
 74
0
 49
-0.1
 74
0
  0
LTYPE
  5
1F9
100
AcDbSymbolTableRecord
100
AcDbLinetypeTableRecord
  2
DASHED
 70
64
  3
- - - - - - - - - - - - - - - - - - - -
 72
65
 73
2
 40
0.2
 49
0.1
 74
0
 49
-0.1
 74
0
  0
ENDTAB
  0
TABLE
  2
LAYER
  5
2
100
AcDbSymbolTable
 70
36
  0
LAYER
  5
10
100
AcDbSymbolTableRecord
100
AcDbLayerTableRecord
  2
0
 70
0
 62
7
  6
CONTINUOUS
370
-3
390
F
  0
LAYER
  5
1FA
100
AcDbSymbolTableRecord
100
AcDbLayerTableRecord
  2
DEFAULT_1
 70
0
 62
7
  6
CENTER
370
-3
390
F
  0
LAYER
  5
1FB
100
AcDbSymbolTableRecord
100
AcDbLayerTableRecord
  2
DEFAULT_2
 70
0
 62
8
  6
HIDDEN
370
-3
390
F
  0
LAYER
  5
1FC
100
AcDbSymbolTableRecord
100
AcDbLayerTableRecord
  2
DEFAULT_3
 70
0
 62
7
  6
PHANTOM
370
-3
390
F
  0
LAYER
  5
1FD
100
AcDbSymbolTableRecord
100
AcDbLayerTableRecord
  2
ANALYSEN
 70
0
 62
7
  6
CONTINUOUS
370
-3
390
F
  0
LAYER
  5
1FE
100
AcDbSymbolTableRecord
100
AcDbLayerTableRecord
  2
AUSSENKONTUR
 70
0
 62
7
  6
CONTINUOUS
370
-3
390
F
  0
LAYER
  5
1FF
100
AcDbSymbolTableRecord
100
AcDbLayerTableRecord
  2
BEZUGSACHSEN
 70
0
 62
7
  6
CONTINUOUS
370
-3
390
F
  0
LAYER
  5
200
100
AcDbSymbolTableRecord
100
AcDbLayerTableRecord
  2
BEZUGSACHSENKENNZEICHEN
 70
0
 62
7
  6
CONTINUOUS
370
-3
390
F
  0
LAYER
  5
201
100
AcDbSymbolTableRecord
100
AcDbLayerTableRecord
  2
BEZUGSEBENEN
 70
0
 62
7
  6
CONTINUOUS
370
-3
390
F
  0
LAYER
  5
202
100
AcDbSymbolTableRecord
100
AcDbLayerTableRecord
  2
BEZUGSPUNKTE
 70
0
 62
7
  6
CONTINUOUS
370
-3
390
F
  0
LAYER
  5
203
100
AcDbSymbolTableRecord
100
AcDbLayerTableRecord
  2
BOHRUNGEN
 70
0
 62
7
  6
CONTINUOUS
370
-3
390
F
  0
LAYER
  5
204
100
AcDbSymbolTableRecord
100
AcDbLayerTableRecord
  2
FASEN
 70
0
 62
7
  6
CONTINUOUS
370
-3
390
F
  0
LAYER
  5
205
100
AcDbSymbolTableRecord
100
AcDbLayerTableRecord
  2
FLAECHEN
 70
0
 62
7
  6
CONTINUOUS
370
-3
390
F
  0
LAYER
  5
206
100
AcDbSymbolTableRecord
100
AcDbLayerTableRecord
  2
GEWINDE
 70
0
 62
7
  6
CONTINUOUS
370
-3
390
F
  0
LAYER
  5
207
100
AcDbSymbolTableRecord
100
AcDbLayerTableRecord
  2
HILFEN
 70
0
 62
7
  6
CONTINUOUS
370
-3
390
F
  0
LAYER
  5
208
100
AcDbSymbolTableRecord
100
AcDbLayerTableRecord
  2
INNENKONTUR
 70
0
 62
7
  6
CONTINUOUS
370
-3
390
F
  0
LAYER
  5
209
100
AcDbSymbolTableRecord
100
AcDbLayerTableRecord
  2
KURVEN
 70
0
 62
7
  6
CONTINUOUS
370
-3
390
F
  0
LAYER
  5
20A
100
AcDbSymbolTableRecord
100
AcDbLayerTableRecord
  2
MAKINO
 70
0
 62
7
  6
CONTINUOUS
370
-3
390
F
  0
LAYER
  5
20B
100
AcDbSymbolTableRecord
100
AcDbLayerTableRecord
  2
OELVERDR_RILLE
 70
0
 62
7
  6
CONTINUOUS
370
-3
390
F
  0
LAYER
  5
20C
100
AcDbSymbolTableRecord
100
AcDbLayerTableRecord
  2
PLATZIERUNG
 70
0
 62
7
  6
CONTINUOUS
370
-3
390
F
  0
LAYER
  5
20D
100
AcDbSymbolTableRecord
100
AcDbLayerTableRecord
  2
PUNKTE
 70
0
 62
7
  6
CONTINUOUS
370
-3
390
F
  0
LAYER
  5
20E
100
AcDbSymbolTableRecord
100
AcDbLayerTableRecord
  2
RUNDUNGEN
 70
0
 62
7
  6
CONTINUOUS
370
-3
390
F
  0
LAYER
  5
20F
100
AcDbSymbolTableRecord
100
AcDbLayerTableRecord
  2
TEIL_STARTBEZUEGE
 70
0
 62
7
  6
CONTINUOUS
370
-3
390
F
  0
LAYER
  5
210
100
AcDbSymbolTableRecord
100
AcDbLayerTableRecord
  2
VERERBUNG
 70
0
 62
7
  6
CONTINUOUS
370
-3
390
F
  0
LAYER
  5
211
100
AcDbSymbolTableRecord
100
AcDbLayerTableRecord
  2
VOLUMEN
 70
0
 62
7
  6
CONTINUOUS
370
-3
390
F
  0
LAYER
  5
212
100
AcDbSymbolTableRecord
100
AcDbLayerTableRecord
  2
ZEICHNUNG
 70
0
 62
7
  6
CONTINUOUS
370
-3
390
F
  0
LAYER
  5
213
100
AcDbSymbolTableRecord
100
AcDbLayerTableRecord
  2
ZEICHNUNGSBEMASSUNGEN
 70
0
 62
7
  6
CONTINUOUS
370
-3
390
F
  0
ENDTAB
  0
TABLE
  2
STYLE
  5
3
100
AcDbSymbolTable
 70
1
  0
STYLE
  5
11
100
AcDbSymbolTableRecord
100
AcDbTextStyleTableRecord
  2
STANDARD
 70
0
 40
0.0
 41
0.7
 50
0.0
 71
0
 42
0.2
  3
txt
  4

  0
STYLE
  5
214
100
AcDbSymbolTableRecord
100
AcDbTextStyleTableRecord
  2
TEXTSTYLE_1
 70
0
 40
0.0
 41
0.8
 50
0.0
 71
0
 42
0.2
  3
gdt
  4

  0
STYLE
  5
215
100
AcDbSymbolTableRecord
100
AcDbTextStyleTableRecord
  2
TEXTSTYLE_2
 70
0
 40
0.0
 41
0.7
 50
0.0
 71
0
 42
0.2
  3
gdt
  4

  0
ENDTAB
  0
TABLE
  2
VIEW
  5
6
100
AcDbSymbolTable
 70
0
  0
ENDTAB
  0
TABLE
  2
UCS
  5
7
100
AcDbSymbolTable
 70
0
  0
ENDTAB
  0
TABLE
  2
APPID
  5
9
100
AcDbSymbolTable
 70
1
  0
APPID
  5
216
100
AcDbSymbolTableRecord
100
AcDbRegAppTableRecord
  2
ACAD
 70
0
  0
ENDTAB
  0
TABLE
  2
BLOCK_RECORD
  5
1
100
AcDbSymbolTable
 70
0
  0
BLOCK_RECORD
  5
217
100
AcDbSymbolTableRecord
100
AcDbBlockTableRecord
  2
*Model_Space
  0
BLOCK_RECORD
  5
218
100
AcDbSymbolTableRecord
100
AcDbBlockTableRecord
  2
*Paper_Space
  0
BLOCK_RECORD
  5
219
100
AcDbSymbolTableRecord
100
AcDbBlockTableRecord
  2
_FILLED
  0
BLOCK_RECORD
  5
21A
100
AcDbSymbolTableRecord
100
AcDbBlockTableRecord
  2
*D0
  0
BLOCK_RECORD
  5
21B
100
AcDbSymbolTableRecord
100
AcDbBlockTableRecord
  2
*D1
  0
BLOCK_RECORD
  5
21C
100
AcDbSymbolTableRecord
100
AcDbBlockTableRecord
  2
*D2
  0
BLOCK_RECORD
  5
21D
100
AcDbSymbolTableRecord
100
AcDbBlockTableRecord
  2
*D3
  0
BLOCK_RECORD
  5
21E
100
AcDbSymbolTableRecord
100
AcDbBlockTableRecord
  2
*D4
  0
BLOCK_RECORD
  5
21F
100
AcDbSymbolTableRecord
100
AcDbBlockTableRecord
  2
*D5
  0
ENDTAB
  0
TABLE
  2
DIMSTYLE
  5
A
100
AcDbSymbolTable
 70
1
100
AcDbDimStyleTable
 71
0
  0
DIMSTYLE
105
220
100
AcDbSymbolTableRecord
100
AcDbDimStyleTableRecord
  2
STANDARD
 70
0
  3

  4

 40
1.0
 41
3.5
 42
0.0625
 43
0.38
 44
0.18
 45
0.0
 46
0.0
 47
0.005
 48
0.005
140
3.5
141
0.09
142
0.0
143
25.4
144
1.0
145
0.0
146
1.0
147
0.09
 71
1.0
 72
0.0
 73
0
 74
0
 75
0
 76
0
 77
1
 78
8
170
0
171
2
172
0
173
0
174
0
175
0
176
0
177
0
178
5
270
2
271
3
272
3
273
2
274
2
275
0
280
0
281
0
282
0
283
1
284
8
285
0
286
0
287
3
288
0
340
11
341
219
342
219
343
219
344
219
  0
DIMSTYLE
105
221
100
AcDbSymbolTableRecord
100
AcDbDimStyleTableRecord
  2
DIMSTYLE_1
 70
0
  3

  4

 40
1.0
 41
3.5
 42
0.0625
 43
0.38
 44
0.18
 45
0.0
 46
0.0
 47
0.5
 48
0.5
140
3.5
141
0.09
142
0.0
143
25.4
144
1.0
145
0.0
146
1.0
147
0.09
 71
0.0
 72
0.0
 73
0
 74
0
 75
0
 76
0
 77
1
 78
8
170
0
171
2
172
0
173
0
174
0
175
0
176
0
177
0
178
5
270
2
271
3
272
3
273
2
274
2
275
0
280
0
281
0
282
0
283
1
284
8
285
0
286
0
287
3
288
0
340
11
341
219
342
219
343
219
344
219
  0
DIMSTYLE
105
222
100
AcDbSymbolTableRecord
100
AcDbDimStyleTableRecord
  2
DIMSTYLE_2
 70
0
  3

  4

 40
1.0
 41
3.5
 42
0.0625
 43
0.38
 44
0.18
 45
0.0
 46
0.0
 47
0.5
 48
0.5
140
3.5
141
0.09
142
0.0
143
25.4
144
1.0
145
0.0
146
1.0
147
0.09
 71
0.0
 72
0.0
 73
0
 74
0
 75
0
 76
0
 77
1
 78
8
170
0
171
2
172
0
173
0
174
0
175
0
176
0
177
0
178
5
270
2
271
2
272
2
273
2
274
2
275
0
280
0
281
0
282
0
283
1
284
8
285
0
286
0
287
3
288
0
340
11
341
219
342
219
343
219
344
219
  0
DIMSTYLE
105
223
100
AcDbSymbolTableRecord
100
AcDbDimStyleTableRecord
  2
DIMSTYLE_3
 70
0
  3

  4

 40
1.0
 41
3.5
 42
0.0625
 43
0.38
 44
0.18
 45
0.0
 46
0.0
 47
0.3
 48
0.3
140
3.5
141
0.09
142
0.0
143
25.4
144
1.0
145
0.0
146
1.0
147
0.09
 71
0.0
 72
0.0
 73
0
 74
0
 75
0
 76
0
 77
1
 78
8
170
0
171
2
172
0
173
0
174
0
175
0
176
0
177
0
178
5
270
2
271
2
272
2
273
2
274
2
275
0
280
0
281
0
282
0
283
1
284
8
285
0
286
0
287
3
288
0
340
11
341
219
342
219
343
219
344
219
  0
DIMSTYLE
105
224
100
AcDbSymbolTableRecord
100
AcDbDimStyleTableRecord
  2
DIMSTYLE_4
 70
0
  3

  4

 40
1.0
 41
3.5
 42
0.0625
 43
0.38
 44
0.18
 45
0.0
 46
0.0
 47
0.1
 48
0.0
140
3.5
141
0.09
142
0.0
143
25.4
144
1.0
145
0.0
146
1.0
147
0.09
 71
0.0
 72
0.0
 73
0
 74
0
 75
0
 76
0
 77
1
 78
8
170
0
171
2
172
0
173
0
174
0
175
0
176
0
177
0
178
5
270
2
271
2
272
2
273
2
274
2
275
0
280
0
281
0
282
0
283
1
284
8
285
0
286
0
287
3
288
0
340
11
341
219
342
219
343
219
344
219
  0
DIMSTYLE
105
225
100
AcDbSymbolTableRecord
100
AcDbDimStyleTableRecord
  2
DIMSTYLE_5
 70
0
  3

  4

 40
1.0
 41
3.5
 42
0.0625
 43
0.38
 44
0.18
 45
0.0
 46
0.0
 47
0.0
 48
0.0
140
3.5
141
0.09
142
0.0
143
25.4
144
1.0
145
0.0
146
1.0
147
0.09
 71
0.0
 72
0.0
 73
0
 74
0
 75
0
 76
0
 77
1
 78
8
170
0
171
2
172
0
173
0
174
0
175
0
176
0
177
0
178
5
270
2
271
0
272
0
273
2
274
2
275
0
280
0
281
0
282
0
283
1
284
8
285
0
286
0
287
3
288
0
340
11
341
219
342
219
343
219
344
219
  0
DIMSTYLE
105
226
100
AcDbSymbolTableRecord
100
AcDbDimStyleTableRecord
  2
DIMSTYLE_6
 70
0
  3

  4

 40
1.0
 41
3.5
 42
0.0625
 43
0.38
 44
0.18
 45
0.0
 46
0.0
 47
0.2
 48
0.2
140
3.5
141
0.09
142
0.0
143
25.4
144
1.0
145
0.0
146
1.0
147
0.09
 71
0.0
 72
0.0
 73
0
 74
0
 75
0
 76
0
 77
1
 78
8
170
0
171
2
172
0
173
0
174
0
175
0
176
0
177
0
178
5
270
2
271
2
272
2
273
2
274
2
275
0
280
0
281
0
282
0
283
1
284
8
285
0
286
0
287
3
288
0
340
11
341
219
342
219
343
219
344
219
  0
ENDTAB
  0
ENDSEC
  0
SECTION
  2
BLOCKS
  0
BLOCK
  5
20
100
AcDbEntity
  8
0
100
AcDbBlockBegin
  2
*Model_Space
 70
0
 10
0.0
 20
0.0
 30
0.0
  3
*Model_Space
  1

  0
ENDBLK
  5
21
100
AcDbEntity
  8
0
100
AcDbBlockEnd
  0
BLOCK
  5
1C
100
AcDbEntity
  8
0
100
AcDbBlockBegin
  2
*Paper_Space
 70
0
 10
0.0
 20
0.0
 30
0.0
  3
*Paper_Space
  1

  0
ENDBLK
  5
1D
100
AcDbEntity
  8
0
100
AcDbBlockEnd
  0
BLOCK
  5
227
100
AcDbEntity
  8
0
100
AcDbBlockBegin
  2
_FILLED
 70
64
 10
0.0
 20
0.0
  3
_FILLED
  1

  0
SOLID
  5
228
100
AcDbEntity
  8
0
  6
BYBLOCK
 62
0
100
AcDbTrace
 10
0.0
 20
0.0
 11
-1.0
 21
0.125
 12
-1.0
 22
-0.125
 13
-1.0
 23
-0.125
  0
ENDBLK
  5
229
100
AcDbEntity
  8
0
  6
BYBLOCK
 62
0
100
AcDbBlockEnd
  0
BLOCK
  5
22A
100
AcDbEntity
  8
0
100
AcDbBlockBegin
 62
2
  6
CONTINUOUS
  2
*D0
 70
65
 10
0.0
 20
0.0
  3
*D0
  1

  0
MTEXT
  5
22B
100
AcDbEntity
  8
0
100
AcDbMText
 62
5
  6
CONTINUOUS
  7
STANDARD
 71
2
 72
1
 10
197.5821964042
 20
181.2000852897
 30
0.0
 11
1.0
 21
0.0
 31
0.0
 44
0.9
  1
130
 40
3.5
 41
8.490234375
  0
LINE
  5
22C
100
AcDbEntity
  8
0
100
AcDbLine
 62
2
  6
CONTINUOUS
 10
253.0363079437
 20
107.4392494516
 11
253.0363079437
 21
178.3250852897
  0
LINE
  5
22D
100
AcDbEntity
  8
0
100
AcDbLine
 62
2
  6
CONTINUOUS
 10
123.0363079437
 20
149.4079742678
 11
123.0363079437
 21
178.3250852897
  0
LINE
  5
22E
100
AcDbEntity
  8
0
100
AcDbLine
 62
2
  6
CONTINUOUS
 10
253.0363079437
 20
176.8250852897
 11
188.0363079437
 21
176.8250852897
  0
LINE
  5
22F
100
AcDbEntity
  8
0
100
AcDbLine
 62
2
  6
CONTINUOUS
 10
123.0363079437
 20
176.8250852897
 11
188.0363079437
 21
176.8250852897
  0
INSERT
  5
230
100
AcDbEntity
  8
0
100
AcDbBlockReference
 62
2
  6
CONTINUOUS
  2
_FILLED
 10
253.0363079437
 20
176.8250852897
 41
3.5
 42
3.5
 43
3.5
  0
INSERT
  5
231
100
AcDbEntity
  8
0
100
AcDbBlockReference
 62
2
  6
CONTINUOUS
  2
_FILLED
 10
123.0363079437
 20
176.8250852897
 41
3.5
 42
3.5
 43
3.5
 50
180.0
  0
ENDBLK
  5
232
100
AcDbEntity
  8
0
  6
BYBLOCK
 62
0
100
AcDbBlockEnd
  0
BLOCK
  5
233
100
AcDbEntity
  8
0
100
AcDbBlockBegin
 62
2
  6
CONTINUOUS
  2
*D1
 70
65
 10
0.0
 20
0.0
  3
*D1
  1

  0
MTEXT
  5
234
100
AcDbEntity
  8
0
100
AcDbMText
 62
5
  6
CONTINUOUS
  7
STANDARD
 71
2
 72
1
 10
159.1740773354
 20
187.8796666615
 30
0.0
 11
1.0
 21
0.0
 31
0.0
 44
0.9
  1
231.75
 40
3.5
 41
15.572265625
  0
LINE
  5
235
100
AcDbEntity
  8
0
100
AcDbLine
 62
2
  6
CONTINUOUS
 10
21.2863079437
 20
119.4210086565
 11
21.2863079437
 21
185.0046666615
  0
LINE
  5
236
100
AcDbEntity
  8
0
100
AcDbLine
 62
2
  6
CONTINUOUS
 10
253.0363079437
 20
109.9392494516
 11
253.0363079437
 21
185.0046666615
  0
LINE
  5
237
100
AcDbEntity
  8
0
100
AcDbLine
 62
2
  6
CONTINUOUS
 10
21.2863079437
 20
183.5046666615
 11
137.1613079437
 21
183.5046666615
  0
LINE
  5
238
100
AcDbEntity
  8
0
100
AcDbLine
 62
2
  6
CONTINUOUS
 10
253.0363079437
 20
183.5046666615
 11
137.1613079437
 21
183.5046666615
  0
INSERT
  5
239
100
AcDbEntity
  8
0
100
AcDbBlockReference
 62
2
  6
CONTINUOUS
  2
_FILLED
 10
21.2863079437
 20
183.5046666615
 41
3.5
 42
3.5
 43
3.5
 50
180.0
  0
INSERT
  5
23A
100
AcDbEntity
  8
0
100
AcDbBlockReference
 62
2
  6
CONTINUOUS
  2
_FILLED
 10
253.0363079437
 20
183.5046666615
 41
3.5
 42
3.5
 43
3.5
  0
ENDBLK
  5
23B
100
AcDbEntity
  8
0
  6
BYBLOCK
 62
0
100
AcDbBlockEnd
  0
BLOCK
  5
23C
100
AcDbEntity
  8
0
100
AcDbBlockBegin
 62
2
  6
CONTINUOUS
  2
*D2
 70
65
 10
0.0
 20
0.0
  3
*D2
  1

  0
MTEXT
  5
23D
100
AcDbEntity
  8
0
100
AcDbMText
 62
5
  6
CONTINUOUS
  7
STANDARD
 71
2
 72
1
 10
205.1351659213
 20
173.7752881192
 30
0.0
 11
1.0
 21
0.0
 31
0.0
 44
0.9
  1
110.9
 40
3.5
 41
12.7421875
  0
LINE
  5
23E
100
AcDbEntity
  8
0
100
AcDbLine
 62
2
  6
CONTINUOUS
 10
253.0363079437
 20
109.9392494516
 11
253.0363079437
 21
170.9002881192
  0
LINE
  5
23F
100
AcDbEntity
  8
0
100
AcDbLine
 62
2
  6
CONTINUOUS
 10
142.1363079437
 20
155.9807751696
 11
142.1363079437
 21
170.9002881192
  0
LINE
  5
240
100
AcDbEntity
  8
0
100
AcDbLine
 62
2
  6
CONTINUOUS
 10
253.0363079437
 20
169.4002881192
 11
197.5863079437
 21
169.4002881192
  0
LINE
  5
241
100
AcDbEntity
  8
0
100
AcDbLine
 62
2
  6
CONTINUOUS
 10
142.1363079437
 20
169.4002881192
 11
197.5863079437
 21
169.4002881192
  0
INSERT
  5
242
100
AcDbEntity
  8
0
100
AcDbBlockReference
 62
2
  6
CONTINUOUS
  2
_FILLED
 10
253.0363079437
 20
169.4002881192
 41
3.5
 42
3.5
 43
3.5
  0
INSERT
  5
243
100
AcDbEntity
  8
0
100
AcDbBlockReference
 62
2
  6
CONTINUOUS
  2
_FILLED
 10
142.1363079437
 20
169.4002881192
 41
3.5
 42
3.5
 43
3.5
 50
180.0
  0
ENDBLK
  5
244
100
AcDbEntity
  8
0
  6
BYBLOCK
 62
0
100
AcDbBlockEnd
  0
BLOCK
  5
245
100
AcDbEntity
  8
0
100
AcDbBlockBegin
 62
2
  6
CONTINUOUS
  2
*D3
 70
65
 10
0.0
 20
0.0
  3
*D3
  1

  0
MTEXT
  5
246
100
AcDbEntity
  8
0
100
AcDbMText
 62
5
  6
CONTINUOUS
  7
TEXTSTYLE_2
 71
2
 72
1
 10
269.1985631374
 20
109.9392494516
 30
0.0
 11
0.0
 21
1.0
 31
0.0
 44
0.9
  1
{\Fgdt;n}\Ftxt;14
 40
3.5
 41
10.3268229167
  0
LINE
  5
247
100
AcDbEntity
  8
0
100
AcDbLine
 62
2
  6
CONTINUOUS
 10
253.0363079437
 20
102.9392494516
 11
275.0735631374
 21
102.9392494516
  0
LINE
  5
248
100
AcDbEntity
  8
0
100
AcDbLine
 62
2
  6
CONTINUOUS
 10
253.0363079437
 20
116.9392494516
 11
275.0735631374
 21
116.9392494516
  0
LINE
  5
249
100
AcDbEntity
  8
0
100
AcDbLine
 62
2
  6
CONTINUOUS
 10
273.5735631374
 20
102.9392494516
 11
273.5735631374
 21
109.9392494516
  0
LINE
  5
24A
100
AcDbEntity
  8
0
100
AcDbLine
 62
2
  6
CONTINUOUS
 10
273.5735631374
 20
116.9392494516
 11
273.5735631374
 21
109.9392494516
  0
INSERT
  5
24B
100
AcDbEntity
  8
0
100
AcDbBlockReference
 62
2
  6
CONTINUOUS
  2
_FILLED
 10
273.5735631374
 20
102.9392494516
 41
3.5
 42
3.5
 43
3.5
 50
270.0
  0
INSERT
  5
24C
100
AcDbEntity
  8
0
100
AcDbBlockReference
 62
2
  6
CONTINUOUS
  2
_FILLED
 10
273.5735631374
 20
116.9392494516
 41
3.5
 42
3.5
 43
3.5
 50
90.0
  0
ENDBLK
  5
24D
100
AcDbEntity
  8
0
  6
BYBLOCK
 62
0
100
AcDbBlockEnd
  0
BLOCK
  5
24E
100
AcDbEntity
  8
0
100
AcDbBlockBegin
 62
2
  6
CONTINUOUS
  2
*D4
 70
65
 10
0.0
 20
0.0
  3
*D4
  1

  0
MTEXT
  5
24F
100
AcDbEntity
  8
0
100
AcDbMText
 62
5
  6
CONTINUOUS
  7
STANDARD
 71
2
 72
1
 10
207.6522827444
 20
130.5253148796
 30
0.0
 11
0.1142831159
 21
0.9934482218
 31
0.0
 44
0.9
  1
3\Fgdt;{\Fgdt;~}
 40
3.5
 41
5.1634114583
  0
LINE
  5
250
100
AcDbEntity
  8
0
100
AcDbLine
 62
2
  6
CONTINUOUS
 10
231.3200490343
 20
118.0773503554
 11
212.2114240528
 21
119.0787909558
  0
LINE
  5
251
100
AcDbEntity
  8
0
100
AcDbLine
 62
2
  6
CONTINUOUS
 10
231.0760099597
 20
109.9392494516
 11
211.9720967358
 21
109.9392494516
  0
ARC
  5
252
100
AcDbEntity
  8
0
100
AcDbCircle
 62
2
  6
CONTINUOUS
 10
386.6042647578
 20
109.9392494516
 40
173.132168022
100
AcDbArc
 50
173.4377219921
 51
177.0
  0
ARC
  5
253
100
AcDbEntity
  8
0
100
AcDbCircle
 62
2
  6
CONTINUOUS
 10
386.6042647578
 20
109.9392494516
 40
173.132168022
100
AcDbArc
 50
180.0
 51
181.9856198938
  0
ARC
  5
254
100
AcDbEntity
  8
0
100
AcDbCircle
 62
2
  6
CONTINUOUS
 10
386.6042647578
 20
109.9392494516
 40
173.132168022
100
AcDbArc
 50
177.0
 51
180.0
  0
SOLID
  5
255
100
AcDbEntity
  8
0
100
AcDbTrace
 62
2
  6
CONTINUOUS
 10
213.491216689
 20
122.5207722296
 11
213.7093683549
 21
119.0002870215
 12
214.3645100222
 22
122.4661484794
 13
214.3645100222
 23
122.4661484794
  0
SOLID
  5
256
100
AcDbEntity
  8
0
100
AcDbTrace
 62
2
  6
CONTINUOUS
 10
213.9449513806
 20
106.4438503707
 11
213.4720967358
 21
109.9392494516
 12
213.0699960793
 22
106.4350061222
 13
213.0699960793
 23
106.4350061222
  0
ENDBLK
  5
257
100
AcDbEntity
  8
0
  6
BYBLOCK
 62
0
100
AcDbBlockEnd
  0
BLOCK
  5
258
100
AcDbEntity
  8
0
100
AcDbBlockBegin
 62
2
  6
CONTINUOUS
  2
*D5
 70
65
 10
0.0
 20
0.0
  3
*D5
  1

  0
MTEXT
  5
259
100
AcDbEntity
  8
0
100
AcDbMText
 62
5
  6
CONTINUOUS
  7
TEXTSTYLE_2
 71
1
 72
1
 10
258.7964665668
 20
119.8682046838
 30
0.0
 11
0.0
 21
1.0
 31
0.0
 44
0.9
  1
{\Fgdt;n}\Ftxt;8
 40
3.5
 41
7.4967447917
  0
LINE
  5
25A
100
AcDbEntity
  8
0
100
AcDbLine
 62
2
  6
CONTINUOUS
 10
253.0363079437
 20
105.9392494516
 11
264.6714665668
 21
105.9392494516
  0
LINE
  5
25B
100
AcDbEntity
  8
0
100
AcDbLine
 62
2
  6
CONTINUOUS
 10
253.0363079437
 20
113.9392494516
 11
264.6714665668
 21
113.9392494516
  0
LINE
  5
25C
100
AcDbEntity
  8
0
100
AcDbLine
 62
2
  6
CONTINUOUS
 10
263.1714665668
 20
105.9392494516
 11
263.1714665668
 21
99.9392494516
  0
LINE
  5
25D
100
AcDbEntity
  8
0
100
AcDbLine
 62
2
  6
CONTINUOUS
 10
263.1714665668
 20
99.9392494516
 11
263.1714665668
 21
109.9392494516
  0
LINE
  5
25E
100
AcDbEntity
  8
0
100
AcDbLine
 62
2
  6
CONTINUOUS
 10
263.1714665668
 20
113.9392494516
 11
263.1714665668
 21
127.3649494755
  0
LINE
  5
25F
100
AcDbEntity
  8
0
100
AcDbLine
 62
2
  6
CONTINUOUS
 10
263.1714665668
 20
127.3649494755
 11
263.1714665668
 21
109.9392494516
  0
INSERT
  5
260
100
AcDbEntity
  8
0
100
AcDbBlockReference
 62
2
  6
CONTINUOUS
  2
_FILLED
 10
263.1714665668
 20
105.9392494516
 41
3.5
 42
3.5
 43
3.5
 50
90.0
  0
INSERT
  5
261
100
AcDbEntity
  8
0
100
AcDbBlockReference
 62
2
  6
CONTINUOUS
  2
_FILLED
 10
263.1714665668
 20
113.9392494516
 41
3.5
 42
3.5
 43
3.5
 50
270.0
  0
ENDBLK
  5
262
100
AcDbEntity
  8
0
  6
BYBLOCK
 62
0
100
AcDbBlockEnd
  0
ENDSEC
  0
SECTION
  2
ENTITIES
  0
DIMENSION
  5
263
100
AcDbEntity
  8
0
100
AcDbDimension
 62
2
  6
CONTINUOUS
  2
*D0
 10
123.0363079437
 20
176.8250852897
 11
193.3370792167
 21
179.4500852897
 70
160
 71
2
 42
130.0
  3
DIMSTYLE_1
100
AcDbAlignedDimension
 13
253.0363079437
 23
107.4392494516
 14
123.0363079437
 24
149.4079742678
 50
180.0
100
AcDbRotatedDimension
  0
DIMENSION
  5
264
100
AcDbEntity
  8
0
100
AcDbDimension
 62
2
  6
CONTINUOUS
  2
*D1
 10
253.0363079437
 20
183.5046666615
 11
151.3879445229
 21
186.1296666615
 70
160
 71
2
 42
231.75
  3
DIMSTYLE_2
100
AcDbAlignedDimension
 13
21.2863079437
 23
119.4210086565
 14
253.0363079437
 24
109.9392494516
100
AcDbRotatedDimension
  0
DIMENSION
  5
265
100
AcDbEntity
  8
0
100
AcDbDimension
 62
2
  6
CONTINUOUS
  2
*D2
 10
142.1363079437
 20
169.4002881192
 11
198.7640721713
 21
172.0252881192
 70
160
 71
2
 42
110.9
  3
DIMSTYLE_3
100
AcDbAlignedDimension
 13
253.0363079437
 23
109.9392494516
 14
142.1363079437
 24
155.9807751696
 50
180.0
100
AcDbRotatedDimension
  0
DIMENSION
  5
266
100
AcDbEntity
  8
0
100
AcDbDimension
 62
2
  6
CONTINUOUS
  2
*D3
 10
273.5735631374
 20
116.9392494516
 11
272.1053573593
 21
107.6312131433
 70
160
 71
2
 42
14.0
  1
%%c<>
  3
DIMSTYLE_4
100
AcDbAlignedDimension
 13
253.0363079437
 23
102.9392494516
 14
253.0363079437
 24
116.9392494516
 50
90.0
100
AcDbRotatedDimension
  0
DIMENSION
  5
267
100
AcDbEntity
  8
0
100
AcDbDimension
 62
2
  6
CONTINUOUS
  2
*D4
 10
211.9720967358
 20
109.9392494516
 11
209.6289205775
 21
129.0566162041
 70
162
 71
2
 42
0.0523598776
  3
DIMSTYLE_5
100
AcDb2LineAngularDimension
 13
212.2114240528
 23
119.0787909558
 14
231.3200490343
 24
118.0773503554
 15
231.0760099597
 25
109.9392494516
 16
213.5314248057
 26
114.4713212644
  0
DIMENSION
  5
268
100
AcDbEntity
  8
0
100
AcDbDimension
 62
2
  6
CONTINUOUS
  2
*D5
 10
263.1714665668
 20
113.9392494516
 11
260.5464665668
 21
123.6165770796
 70
160
 71
1
 42
8.0
  1
%%c<>
  3
DIMSTYLE_6
100
AcDbAlignedDimension
 13
253.0363079437
 23
105.9392494516
 14
253.0363079437
 24
113.9392494516
 50
90.0
100
AcDbRotatedDimension
  0
MTEXT
  5
269
100
AcDbEntity
  8
0
100
AcDbMText
 62
5
  6
CONTINUOUS
  7
STANDARD
 71
1
 72
1
 10
11.1568379479
 20
75.7944135751
 30
0.0
 11
1.0
 21
0.0
 31
0.0
 44
0.9
  3
Für diese Unterlage behalten wir das Ur-\Pheberrecht. Sie darf nur für den von uns \Pbestimmten Zweck benutzt und ohne unsere \PZustimmung weder vervielfältigt noch\PDritten zugänglich gemacht werden\P \PWe own the copyright of this document. It \Pde
  1
termined and may neither be copied or \Pmade accessible to outsiders without our\Ppermission.\P \PCe plan reste notre propriété. Il ne peut\Pêtre utilisé, copié ou reproduit sans notre\Paccord.
 40
3.5
 41
99.162109375
  0
LINE
  5
26A
100
AcDbEntity
  8
0
100
AcDbLine
 62
7
  6
CONTINUOUS
 10
0.0
 20
0.0
 11
0.0
 21
210.0
  0
LINE
  5
26B
100
AcDbEntity
  8
0
100
AcDbLine
 62
7
  6
CONTINUOUS
 10
0.0
 20
0.0
 11
297.0
 21
0.0
  0
LINE
  5
26C
100
AcDbEntity
  8
0
100
AcDbLine
 62
7
  6
CONTINUOUS
 10
0.0
 20
210.0
 11
297.0
 21
210.0
  0
LINE
  5
26D
100
AcDbEntity
  8
0
100
AcDbLine
 62
7
  6
CONTINUOUS
 10
297.0
 20
0.0
 11
297.0
 21
210.0
  0
LINE
  5
26E
100
AcDbEntity
  8
BEZUGSACHSEN
100
AcDbLine
 62
7
  6
CONTINUOUS
 10
21.2863079437
 20
127.9656348055
 11
21.2863079437
 21
91.9128640978
  0
LINE
  5
26F
100
AcDbEntity
  8
BEZUGSACHSEN
100
AcDbLine
 62
9
  6
CONTINUOUS
 10
23.4255112708
 20
130.4394629646
 11
23.4255112708
 21
89.4390359387
  0
LINE
  5
270
100
AcDbEntity
  8
BEZUGSACHSEN
100
AcDbLine
 62
7
  6
CONTINUOUS
 10
127.2863079437
 20
61.1892494516
 11
130.9637126795
 21
61.1892494516
  0
LINE
  5
271
100
AcDbEntity
  8
BEZUGSACHSEN
100
AcDbLine
 62
7
  6
CONTINUOUS
 10
137.4589032079
 20
61.1892494516
 11
141.1363079437
 21
61.1892494516
  0
LINE
  5
272
100
AcDbEntity
  8
BEZUGSACHSEN
100
AcDbLine
 62
7
  6
CONTINUOUS
 10
132.8363079437
 20
64.3142494516
 11
135.5863079437
 21
64.3142494516
  0
LINE
  5
273
100
AcDbEntity
  8
0
100
AcDbLine
 62
7
  6
CONTINUOUS
 10
127.2863079437
 20
71.5131840793
 11
130.9637126795
 21
71.5131840793
  0
LINE
  5
274
100
AcDbEntity
  8
0
100
AcDbLine
 62
7
  6
CONTINUOUS
 10
137.4589032079
 20
71.5131840793
 11
141.1363079437
 21
71.5131840793
  0
LINE
  5
275
100
AcDbEntity
  8
BEZUGSACHSEN
100
AcDbLine
 62
7
  6
CONTINUOUS
 10
123.6363079437
 20
75.3642494516
 11
125.2863079437
 21
75.3642494516
  0
LINE
  5
276
100
AcDbEntity
  8
0
100
AcDbLine
 62
7
  6
CONTINUOUS
 10
132.8363079437
 20
75.5642494516
 11
135.5863079437
 21
75.5642494516
  0
LINE
  5
277
100
AcDbEntity
  8
BEZUGSACHSEN
100
AcDbLine
 62
7
  6
CONTINUOUS
 10
23.4255112708
 20
89.4390359387
 11
122.3300901611
 21
75.0142494516
  0
LINE
  5
278
100
AcDbEntity
  8
BEZUGSACHSEN
100
AcDbLine
 62
7
  6
CONTINUOUS
 10
136.0863079437
 20
156.3118447158
 11
137.4589032079
 21
158.6892494516
  0
LINE
  5
279
100
AcDbEntity
  8
BEZUGSACHSEN
100
AcDbLine
 62
7
  6
CONTINUOUS
 10
122.3300901611
 20
75.0142494516
 11
123.6363079437
 21
75.3642494516
  0
LINE
  5
27A
100
AcDbEntity
  8
BEZUGSACHSEN
100
AcDbLine
 62
7
  6
CONTINUOUS
 10
142.9594443913
 20
83.3471641061
 11
175.4595252009
 21
89.1873115556
  0
LINE
  5
27B
100
AcDbEntity
  8
BEZUGSACHSEN
100
AcDbLine
 62
7
  6
CONTINUOUS
 10
176.6255579434
 20
89.3968434391
 11
184.8433566461
 21
90.8735522638
  0
LINE
  5
27C
100
AcDbEntity
  8
FASEN
100
AcDbLine
 62
7
  6
CONTINUOUS
 10
126.2863079437
 20
79.5392494516
 11
142.1363079437
 21
79.5392494516
  0
LINE
  5
27D
100
AcDbEntity
  8
0
100
AcDbLine
 62
7
  6
CONTINUOUS
 10
126.2863079437
 20
79.9392494516
 11
142.1363079437
 21
79.9392494516
  0
LINE
  5
27E
100
AcDbEntity
  8
BEZUGSACHSEN
100
AcDbLine
 62
7
  6
CONTINUOUS
 10
136.0863079437
 20
63.5666541874
 11
137.4589032079
 21
61.1892494516
  0
LINE
  5
27F
100
AcDbEntity
  8
BEZUGSACHSEN
100
AcDbLine
 62
7
  6
CONTINUOUS
 10
122.3300901611
 20
144.8642494516
 11
122.3300901611
 21
75.0142494516
  0
LINE
  5
280
100
AcDbEntity
  8
BEZUGSACHSEN
100
AcDbLine
 62
7
  6
CONTINUOUS
 10
186.2481881591
 20
91.9392494516
 11
187.5363079437
 21
91.9392494516
  0
LINE
  5
281
100
AcDbEntity
  8
BEZUGSACHSEN
100
AcDbLine
 62
7
  6
CONTINUOUS
 10
192.5363079437
 20
91.9392494516
 11
194.2424833455
 21
91.9392494516
  0
LWPOLYLINE
  5
282
100
AcDbEntity
  8
0
100
AcDbPolyline
 62
7
  6
CONTINUOUS
 90
10
 70
0
 10
174.1045188747
 20
89.1612750296
 10
174.095587534
 20
89.1613868885
 10
174.0896196077
 20
89.1615509712
 10
174.0903873795
 20
89.1615002024
 10
174.09802006
 20
89.1609285242
 10
174.1128564341
 20
89.1594466798
 10
174.1343240831
 20
89.1567006844
 10
174.1622377619
 20
89.1522742159
 10
174.1952868202
 20
89.1459417679
 10
174.2175306232
 20
89.1410626825
  0
LINE
  5
283
100
AcDbEntity
  8
BEZUGSACHSEN
100
AcDbLine
 62
7
  6
CENTER
 10
123.0363079437
 20
65.6808926968
 11
123.0363079437
 21
148.3743065941
  0
LINE
  5
284
100
AcDbEntity
  8
BEZUGSACHSEN
100
AcDbLine
 62
7
  6
CONTINUOUS
 10
123.6363079437
 20
144.5142494516
 11
123.6363079437
 21
75.3642494516
  0
LINE
  5
285
100
AcDbEntity
  8
BEZUGSACHSEN
100
AcDbLine
 62
9
  6
CONTINUOUS
 10
125.2863079437
 20
144.5142494516
 11
125.2863079437
 21
75.3642494516
  0
LINE
  5
286
100
AcDbEntity
  8
BEZUGSACHSEN
100
AcDbLine
 62
7
  6
CONTINUOUS
 10
126.2863079437
 20
157.6496445945
 11
126.2863079437
 21
122.8892494516
  0
LINE
  5
287
100
AcDbEntity
  8
BEZUGSACHSEN
100
AcDbLine
 62
7
  6
CONTINUOUS
 10
126.2863079437
 20
96.9892494516
 11
126.2863079437
 21
79.9392494516
  0
LINE
  5
288
100
AcDbEntity
  8
BEZUGSACHSEN
100
AcDbLine
 62
7
  6
CONTINUOUS
 10
126.2863079437
 20
72.7900569974
 11
126.2863079437
 21
62.193469736
  0
LINE
  5
289
100
AcDbEntity
  8
0
100
AcDbLine
 62
7
  6
CONTINUOUS
 10
126.2863079437
 20
62.1892501745
 11
126.2863079437
 21
72.7900569974
  0
LINE
  5
28A
100
AcDbEntity
  8
FASEN
100
AcDbLine
 62
7
  6
CONTINUOUS
 10
126.2863079437
 20
72.7900569974
 11
126.2863079437
 21
79.9392494516
  0
LINE
  5
28B
100
AcDbEntity
  8
0
100
AcDbLine
 62
7
  6
CONTINUOUS
 10
126.2863079437
 20
79.9392494516
 11
126.2863079437
 21
96.9892494516
  0
LINE
  5
28C
100
AcDbEntity
  8
FASEN
100
AcDbLine
 62
7
  6
CONTINUOUS
 10
126.2863079437
 20
96.9892494516
 11
126.2863079437
 21
122.8892494516
  0
LINE
  5
28D
100
AcDbEntity
  8
0
100
AcDbLine
 62
7
  6
CONTINUOUS
 10
126.2863079437
 20
122.8892494516
 11
126.2863079437
 21
157.6892493608
  0
LINE
  5
28E
100
AcDbEntity
  8
0
100
AcDbLine
 62
9
  6
CONTINUOUS
 10
127.2863079437
 20
158.6892494516
 11
127.2863079437
 21
122.8892494516
  0
LINE
  5
28F
100
AcDbEntity
  8
0
100
AcDbLine
 62
9
  6
CONTINUOUS
 10
127.2863079437
 20
96.9892494516
 11
127.2863079437
 21
79.9392494516
  0
LINE
  5
290
100
AcDbEntity
  8
0
100
AcDbLine
 62
9
  6
CONTINUOUS
 10
127.2863079437
 20
71.5131840793
 11
127.2863079437
 21
61.1892494516
  0
LINE
  5
291
100
AcDbEntity
  8
BEZUGSACHSEN
100
AcDbLine
 62
7
  6
CONTINUOUS
 10
203.8029838691
 20
100.3590402701
 11
252.7520087306
 21
102.9243499612
  0
LINE
  5
292
100
AcDbEntity
  8
0
100
AcDbLine
 62
7
  6
CONTINUOUS
 10
126.2863079437
 20
96.9892494516
 11
142.1363079437
 21
96.9892494516
  0
LINE
  5
293
100
AcDbEntity
  8
FASEN
100
AcDbLine
 62
7
  6
CONTINUOUS
 10
142.1363079437
 20
97.3892494516
 11
126.2863079437
 21
97.3892494516
  0
LINE
  5
294
100
AcDbEntity
  8
0
100
AcDbLine
 62
7
  6
CONTINUOUS
 10
130.9637126795
 20
61.1892494516
 11
130.9637126795
 21
71.5131840793
  0
LINE
  5
295
100
AcDbEntity
  8
0
100
AcDbLine
 62
7
  6
CONTINUOUS
 10
130.9637126795
 20
79.9392494516
 11
130.9637126795
 21
96.9892494516
  0
LINE
  5
296
100
AcDbEntity
  8
0
100
AcDbLine
 62
7
  6
CONTINUOUS
 10
130.9637126795
 20
122.8892494516
 11
130.9637126795
 21
158.6892494516
  0
LINE
  5
297
100
AcDbEntity
  8
0
100
AcDbLine
 62
7
  6
CONTINUOUS
 10
132.3363079437
 20
156.3118286283
 11
132.3363079437
 21
153.7483630185
  0
LINE
  5
298
100
AcDbEntity
  8
BEZUGSACHSEN
100
AcDbLine
 62
7
  6
CONTINUOUS
 10
132.3363079437
 20
153.7483630185
 11
132.3363079437
 21
153.5156732273
  0
LINE
  5
299
100
AcDbEntity
  8
0
100
AcDbLine
 62
7
  6
CONTINUOUS
 10
132.3363079437
 20
153.2722911271
 11
132.3363079437
 21
122.8892494516
  0
LINE
  5
29A
100
AcDbEntity
  8
0
100
AcDbLine
 62
7
  6
CONTINUOUS
 10
132.3363079437
 20
96.9892494516
 11
132.3363079437
 21
79.9392494516
  0
LINE
  5
29B
100
AcDbEntity
  8
0
100
AcDbLine
 62
7
  6
CONTINUOUS
 10
132.3363079437
 20
63.5666617234
 11
132.3363079437
 21
74.9033303827
  0
LINE
  5
29C
100
AcDbEntity
  8
0
100
AcDbLine
 62
9
  6
CONTINUOUS
 10
132.8363079437
 20
64.3142494516
 11
132.8363079437
 21
75.5642494516
  0
LINE
  5
29D
100
AcDbEntity
  8
0
100
AcDbLine
 62
9
  6
CONTINUOUS
 10
132.8363079437
 20
79.9392494516
 11
132.8363079437
 21
96.9892494516
  0
LINE
  5
29E
100
AcDbEntity
  8
0
100
AcDbLine
 62
9
  6
CONTINUOUS
 10
132.8363079437
 20
122.8892494516
 11
132.8363079437
 21
152.294258053
  0
LINE
  5
29F
100
AcDbEntity
  8
0
100
AcDbLine
 62
9
  6
CONTINUOUS
 10
132.8363079437
 20
153.2877367924
 11
132.8363079437
 21
155.5642494516
  0
LINE
  5
2A0
100
AcDbEntity
  8
0
100
AcDbLine
 62
9
  6
CONTINUOUS
 10
135.5863079437
 20
64.3142494516
 11
135.5863079437
 21
75.5642494516
  0
LINE
  5
2A1
100
AcDbEntity
  8
0
100
AcDbLine
 62
9
  6
CONTINUOUS
 10
135.5863079437
 20
79.9392494516
 11
135.5863079437
 21
96.9892494516
  0
LINE
  5
2A2
100
AcDbEntity
  8
0
100
AcDbLine
 62
9
  6
CONTINUOUS
 10
135.5863079437
 20
122.8892494516
 11
135.5863079437
 21
152.294258053
  0
LINE
  5
2A3
100
AcDbEntity
  8
0
100
AcDbLine
 62
9
  6
CONTINUOUS
 10
135.5863079437
 20
153.2877367924
 11
135.5863079437
 21
155.5642494516
  0
LINE
  5
2A4
100
AcDbEntity
  8
BEZUGSACHSEN
100
AcDbLine
 62
7
  6
CONTINUOUS
 10
136.0863079437
 20
153.7483630185
 11
136.0863079437
 21
153.5156732273
  0
LINE
  5
2A5
100
AcDbEntity
  8
0
100
AcDbLine
 62
7
  6
CONTINUOUS
 10
136.0863079437
 20
153.2722911271
 11
136.0863079437
 21
122.8892494516
  0
LINE
  5
2A6
100
AcDbEntity
  8
0
100
AcDbLine
 62
7
  6
CONTINUOUS
 10
136.0863079437
 20
63.5666617234
 11
136.0863079437
 21
74.9033303827
  0
LINE
  5
2A7
100
AcDbEntity
  8
0
100
AcDbLine
 62
7
  6
CONTINUOUS
 10
136.0863079437
 20
79.9392494516
 11
136.0863079437
 21
96.9892494516
  0
LINE
  5
2A8
100
AcDbEntity
  8
0
100
AcDbLine
 62
7
  6
CONTINUOUS
 10
136.0863079437
 20
153.7483630185
 11
136.0863079437
 21
156.3118286283
  0
LINE
  5
2A9
100
AcDbEntity
  8
0
100
AcDbLine
 62
7
  6
CONTINUOUS
 10
137.4589032079
 20
158.6892494516
 11
137.4589032079
 21
122.8892494516
  0
LINE
  5
2AA
100
AcDbEntity
  8
0
100
AcDbLine
 62
7
  6
CONTINUOUS
 10
137.4589032079
 20
96.9892494516
 11
137.4589032079
 21
79.9392494516
  0
LINE
  5
2AB
100
AcDbEntity
  8
0
100
AcDbLine
 62
7
  6
CONTINUOUS
 10
137.4589032079
 20
71.5131840793
 11
137.4589032079
 21
61.1892494516
  0
LINE
  5
2AC
100
AcDbEntity
  8
DEFAULT_2
100
AcDbLine
 62
8
  6
HIDDEN
 10
251.5363079437
 20
105.9392494516
 11
227.0365230985
 21
105.9392494516
  0
LINE
  5
2AD
100
AcDbEntity
  8
DEFAULT_1
100
AcDbLine
 62
7
  6
CENTER
 10
190.0363079437
 20
109.9392494516
 11
184.5363079437
 21
109.9392494516
  0
LINE
  5
2AE
100
AcDbEntity
  8
BEZUGSACHSEN
100
AcDbLine
 62
7
  6
CENTER
 10
258.0363079437
 20
109.9392494516
 11
18.2863079437
 21
109.9392494516
  0
LINE
  5
2AF
100
AcDbEntity
  8
0
100
AcDbLine
 62
9
  6
CONTINUOUS
 10
175.4595252009
 20
109.9392494516
 11
176.6255579434
 21
109.9392494516
  0
LINE
  5
2B0
100
AcDbEntity
  8
DEFAULT_1
100
AcDbLine
 62
7
  6
CENTER
 10
190.0363079437
 20
109.9392494516
 11
195.5363079437
 21
109.9392494516
  0
LINE
  5
2B1
100
AcDbEntity
  8
0
100
AcDbLine
 62
9
  6
CONTINUOUS
 10
141.1363079437
 20
61.1892494516
 11
141.1363079437
 21
71.5131840793
  0
LINE
  5
2B2
100
AcDbEntity
  8
0
100
AcDbLine
 62
9
  6
CONTINUOUS
 10
141.1363079437
 20
79.9392494516
 11
141.1363079437
 21
96.9892494516
  0
LINE
  5
2B3
100
AcDbEntity
  8
0
100
AcDbLine
 62
9
  6
CONTINUOUS
 10
141.1363079437
 20
122.8892494516
 11
141.1363079437
 21
158.6892494516
  0
LINE
  5
2B4
100
AcDbEntity
  8
0
100
AcDbLine
 62
7
  6
CONTINUOUS
 10
142.1363079437
 20
157.6892493608
 11
142.1363079437
 21
122.8892494516
  0
LINE
  5
2B5
100
AcDbEntity
  8
BEZUGSACHSEN
100
AcDbLine
 62
7
  6
CONTINUOUS
 10
142.1363079437
 20
157.6496445945
 11
142.1363079437
 21
122.8892494516
  0
LINE
  5
2B6
100
AcDbEntity
  8
0
100
AcDbLine
 62
7
  6
CONTINUOUS
 10
142.1363079437
 20
96.9892494516
 11
142.1363079437
 21
79.9392494516
  0
LINE
  5
2B7
100
AcDbEntity
  8
0
100
AcDbLine
 62
7
  6
CONTINUOUS
 10
142.1363079437
 20
72.7900569974
 11
142.1363079437
 21
62.1892501745
  0
LINE
  5
2B8
100
AcDbEntity
  8
BEZUGSACHSEN
100
AcDbLine
 62
7
  6
CONTINUOUS
 10
142.1363079437
 20
72.7900569974
 11
142.1363079437
 21
62.193469736
  0
LINE
  5
2B9
100
AcDbEntity
  8
FASEN
100
AcDbLine
 62
7
  6
CONTINUOUS
 10
142.1363079437
 20
72.7900569974
 11
142.1363079437
 21
79.9392494516
  0
LINE
  5
2BA
100
AcDbEntity
  8
FASEN
100
AcDbLine
 62
7
  6
CONTINUOUS
 10
142.1363079437
 20
96.9892494516
 11
142.1363079437
 21
122.8892494516
  0
LINE
  5
2BB
100
AcDbEntity
  8
BEZUGSACHSEN
100
AcDbLine
 62
9
  6
CONTINUOUS
 10
142.9594443913
 20
136.5313347971
 11
142.9594443913
 21
83.3471641061
  0
LINE
  5
2BC
100
AcDbEntity
  8
DEFAULT_2
100
AcDbLine
 62
8
  6
HIDDEN
 10
251.5363079437
 20
113.9392494516
 11
227.0365230985
 21
113.9392494516
  0
LINE
  5
2BD
100
AcDbEntity
  8
FASEN
100
AcDbLine
 62
7
  6
CONTINUOUS
 10
126.2863079437
 20
122.4892494516
 11
142.1363079437
 21
122.4892494516
  0
LINE
  5
2BE
100
AcDbEntity
  8
0
100
AcDbLine
 62
7
  6
CONTINUOUS
 10
126.2863079437
 20
122.8892494516
 11
142.1363079437
 21
122.8892494516
  0
LINE
  5
2BF
100
AcDbEntity
  8
BEZUGSACHSEN
100
AcDbLine
 62
7
  6
CONTINUOUS
 10
186.2481881591
 20
127.9392494516
 11
187.5363079437
 21
127.9392494516
  0
LINE
  5
2C0
100
AcDbEntity
  8
BEZUGSACHSEN
100
AcDbLine
 62
7
  6
CONTINUOUS
 10
192.5363079437
 20
127.9392494516
 11
194.2424833455
 21
127.9392494516
  0
LINE
  5
2C1
100
AcDbEntity
  8
BEZUGSACHSEN
100
AcDbLine
 62
7
  6
CONTINUOUS
 10
203.8029838691
 20
119.5194586331
 11
252.7520087306
 21
116.954148942
  0
LINE
  5
2C2
100
AcDbEntity
  8
BEZUGSACHSEN
100
AcDbLine
 62
7
  6
CONTINUOUS
 10
130.9637126795
 20
61.1892494516
 11
132.3363079437
 21
63.5666541874
  0
LINE
  5
2C3
100
AcDbEntity
  8
BEZUGSACHSEN
100
AcDbLine
 62
7
  6
CONTINUOUS
 10
130.9637126795
 20
158.6892494516
 11
132.3363079437
 21
156.3118447158
  0
LINE
  5
2C4
100
AcDbEntity
  8
BEZUGSACHSEN
100
AcDbLine
 62
7
  6
CONTINUOUS
 10
123.6363079437
 20
144.5142494516
 11
125.2863079437
 21
144.5142494516
  0
LINE
  5
2C5
100
AcDbEntity
  8
BEZUGSACHSEN
100
AcDbLine
 62
7
  6
CONTINUOUS
 10
142.9594443913
 20
136.5313347971
 11
175.4595252009
 21
130.6911873477
  0
LINE
  5
2C6
100
AcDbEntity
  8
BEZUGSACHSEN
100
AcDbLine
 62
7
  6
CONTINUOUS
 10
176.6255579434
 20
130.4816554641
 11
184.8433566461
 21
129.0049466395
  0
LINE
  5
2C7
100
AcDbEntity
  8
BEZUGSACHSEN
100
AcDbLine
 62
7
  6
CONTINUOUS
 10
122.3300901611
 20
144.8642494516
 11
123.6363079437
 21
144.5142494516
  0
LWPOLYLINE
  5
2C8
100
AcDbEntity
  8
0
100
AcDbPolyline
 62
7
  6
CONTINUOUS
 90
10
 70
0
 10
177.9889190777
 20
130.0152568292
 10
177.9970415319
 20
130.012116752
 10
178.0020855288
 20
130.0100766033
 10
178.0010379037
 20
130.010542174
 10
177.9937624217
 20
130.013901874
 10
177.9799919152
 20
130.0206944107
 10
177.9605102439
 20
130.0309996818
 10
177.9356779692
 20
130.045119707
 10
177.9069939699
 20
130.0626764555
 10
177.8933860836
 20
130.0714546486
  0
LINE
  5
2C9
100
AcDbEntity
  8
BEZUGSACHSEN
100
AcDbLine
 62
7
  6
CONTINUOUS
 10
23.4255112708
 20
130.4394629646
 11
122.3300901611
 21
144.8642494516
  0
LINE
  5
2CA
100
AcDbEntity
  8
BEZUGSACHSEN
100
AcDbLine
 62
9
  6
CONTINUOUS
 10
184.8433566461
 20
129.0049466395
 11
184.8433566461
 21
90.8735522638
  0
LINE
  5
2CB
100
AcDbEntity
  8
BEZUGSACHSEN
100
AcDbLine
 62
9
  6
CONTINUOUS
 10
185.3946861272
 20
128.6175583352
 11
185.3946861272
 21
91.260940568
  0
LINE
  5
2CC
100
AcDbEntity
  8
BEZUGSACHSEN
100
AcDbLine
 62
9
  6
CONTINUOUS
 10
185.555367836
 20
128.3392494516
 11
185.555367836
 21
91.5392494516
  0
LINE
  5
2CD
100
AcDbEntity
  8
BEZUGSACHSEN
100
AcDbLine
 62
9
  6
CONTINUOUS
 10
186.2481881591
 20
127.9392494516
 11
186.2481881591
 21
91.9392494516
  0
LINE
  5
2CE
100
AcDbEntity
  8
BEZUGSACHSEN
100
AcDbLine
 62
7
  6
CONTINUOUS
 10
185.3946861272
 20
91.260940568
 11
185.555367836
 21
91.5392494516
  0
LINE
  5
2CF
100
AcDbEntity
  8
BEZUGSACHSEN
100
AcDbLine
 62
7
  6
CONTINUOUS
 10
132.8363079437
 20
155.5642494516
 11
135.5863079437
 21
155.5642494516
  0
LINE
  5
2D0
100
AcDbEntity
  8
BEZUGSACHSEN
100
AcDbLine
 62
7
  6
CONTINUOUS
 10
127.2863079437
 20
158.6892494516
 11
130.9637126795
 21
158.6892494516
  0
LINE
  5
2D1
100
AcDbEntity
  8
BEZUGSACHSEN
100
AcDbLine
 62
7
  6
CONTINUOUS
 10
137.4589032079
 20
158.6892494516
 11
141.1363079437
 21
158.6892494516
  0
LINE
  5
2D2
100
AcDbEntity
  8
BEZUGSACHSEN
100
AcDbLine
 62
7
  6
CONTINUOUS
 10
185.3946861272
 20
128.6175583352
 11
185.555367836
 21
128.3392494516
  0
LINE
  5
2D3
100
AcDbEntity
  8
DEFAULT_1
100
AcDbLine
 62
7
  6
CENTER
 10
190.0363079437
 20
109.9392494516
 11
190.0363079437
 21
89.271357367
  0
LINE
  5
2D4
100
AcDbEntity
  8
DEFAULT_1
100
AcDbLine
 62
7
  6
CENTER
 10
190.0363079437
 20
109.9392494516
 11
190.0363079437
 21
130.7182659674
  0
LINE
  5
2D5
100
AcDbEntity
  8
BEZUGSACHSEN
100
AcDbLine
 62
9
  6
CONTINUOUS
 10
194.2424833455
 20
127.9392494516
 11
194.2424833455
 21
91.9392494516
  0
LINE
  5
2D6
100
AcDbEntity
  8
BEZUGSACHSEN
100
AcDbLine
 62
9
  6
CONTINUOUS
 10
194.9495901267
 20
127.6463562328
 11
194.9495901267
 21
92.2321426704
  0
LINE
  5
2D7
100
AcDbEntity
  8
BEZUGSACHSEN
100
AcDbLine
 62
7
  6
CONTINUOUS
 10
194.9495901267
 20
92.2321426704
 11
202.4934422193
 21
99.775994763
  0
LINE
  5
2D8
100
AcDbEntity
  8
BEZUGSACHSEN
100
AcDbLine
 62
7
  6
CONTINUOUS
 10
194.9495901267
 20
127.6463562328
 11
202.4934422193
 21
120.1025041402
  0
LINE
  5
2D9
100
AcDbEntity
  8
BEZUGSACHSEN
100
AcDbLine
 62
9
  6
CONTINUOUS
 10
202.4934422193
 20
120.1025041402
 11
202.4934422193
 21
99.775994763
  0
LINE
  5
2DA
100
AcDbEntity
  8
BEZUGSACHSEN
100
AcDbLine
 62
9
  6
CONTINUOUS
 10
203.8029838691
 20
119.5194586331
 11
203.8029838691
 21
100.3590402701
  0
LINE
  5
2DB
100
AcDbEntity
  8
DEFAULT_2
100
AcDbLine
 62
8
  6
HIDDEN
 10
226.8863079437
 20
114.1892494516
 11
226.8863079437
 21
105.6892494516
  0
LINE
  5
2DC
100
AcDbEntity
  8
BEZUGSACHSEN
100
AcDbLine
 62
9
  6
CONTINUOUS
 10
252.7520087306
 20
116.954148942
 11
252.7520087306
 21
102.9243499612
  0
LINE
  5
2DD
100
AcDbEntity
  8
BEZUGSACHSEN
100
AcDbLine
 62
7
  6
CONTINUOUS
 10
253.0363079437
 20
116.6545600816
 11
253.0363079437
 21
103.2239388216
  0
CIRCLE
  5
2DE
100
AcDbEntity
  8
BEZUGSACHSEN
100
AcDbCircle
 62
7
  6
CONTINUOUS
 10
134.1363079437
 20
109.9392494516
 40
5.0
  0
CIRCLE
  5
2DF
100
AcDbEntity
  8
BEZUGSACHSEN
100
AcDbCircle
 62
7
  6
CONTINUOUS
 10
134.1363079437
 20
109.9392494516
 40
4.7
  0
ARC
  5
2E0
100
AcDbEntity
  8
BEZUGSACHSEN
100
AcDbCircle
 62
7
  6
CONTINUOUS
 10
23.7863079437
 20
91.9128640978
 40
2.5
100
AcDbArc
 50
180.0
 51
261.7021731718
  0
CIRCLE
  5
2E1
100
AcDbEntity
  8
BEZUGSACHSEN
100
AcDbCircle
 62
7
  6
CONTINUOUS
 10
134.1363079437
 20
109.9392494516
 40
2.0
  0
ARC
  5
2E2
100
AcDbEntity
  8
BEZUGSACHSEN
100
AcDbCircle
 62
7
  6
CONTINUOUS
 10
127.2863079437
 20
62.1892494516
 40
1.0
100
AcDbArc
 50
180.0
 51
270.0
  0
ARC
  5
2E3
100
AcDbEntity
  8
BEZUGSACHSEN
100
AcDbCircle
 62
7
  6
CONTINUOUS
 10
125.2863079437
 20
74.3642494516
 40
1.0
100
AcDbArc
 50
0.0
 51
90.0
  0
ARC
  5
2E4
100
AcDbEntity
  8
BEZUGSACHSEN
100
AcDbCircle
 62
7
  6
CONTINUOUS
 10
132.8363079437
 20
63.8142494516
 40
0.5
100
AcDbArc
 50
90.0
 51
180.0
  0
ARC
  5
2E5
100
AcDbEntity
  8
0
100
AcDbCircle
 62
7
  6
CONTINUOUS
 10
-118.8211346385
 20
185.2226499632
 40
274.4491153919
100
AcDbArc
 50
335.5235651904
 51
336.2246380453
  0
ARC
  5
2E6
100
AcDbEntity
  8
BEZUGSACHSEN
100
AcDbCircle
 62
7
  6
CONTINUOUS
 10
23.7863079437
 20
127.9656348055
 40
2.5
100
AcDbArc
 50
98.2978268282
 51
180.0
  0
ARC
  5
2E7
100
AcDbEntity
  8
BEZUGSACHSEN
100
AcDbCircle
 62
7
  6
CONTINUOUS
 10
127.2863079437
 20
157.6892494516
 40
1.0
100
AcDbArc
 50
90.0
 51
180.0
  0
ARC
  5
2E8
100
AcDbEntity
  8
BEZUGSACHSEN
100
AcDbCircle
 62
7
  6
CONTINUOUS
 10
125.2863079437
 20
145.5142494516
 40
1.0
100
AcDbArc
 50
270.0
 51
360.0
  0
ARC
  5
2E9
100
AcDbEntity
  8
BEZUGSACHSEN
100
AcDbCircle
 62
7
  6
CONTINUOUS
 10
132.8363079437
 20
156.0642494516
 40
0.5
100
AcDbArc
 50
180.0
 51
270.0
  0
ARC
  5
2EA
100
AcDbEntity
  8
0
100
AcDbCircle
 62
7
  6
CONTINUOUS
 10
170.0207546714
 20
119.4800953249
 40
30.7771501827
100
AcDbArc
 50
280.1784503245
 51
281.2895595624
  0
ARC
  5
2EB
100
AcDbEntity
  8
0
100
AcDbCircle
 62
7
  6
CONTINUOUS
 10
171.3033591886
 20
100.9179073982
 40
30.0389913161
100
AcDbArc
 50
79.7946669836
 51
80.916094847
  0
ARC
  5
2EC
100
AcDbEntity
  8
0
100
AcDbCircle
 62
7
  6
CONTINUOUS
 10
172.9112559125
 20
108.2345654926
 40
19.1927568232
100
AcDbArc
 50
277.6202850853
 51
277.8056489984
  0
ARC
  5
2ED
100
AcDbEntity
  8
GEWINDE
100
AcDbCircle
 62
7
  6
CONTINUOUS
 10
190.0363079441
 20
74.1135031045
 40
18.0000000014
100
AcDbArc
 50
82.016533546
 51
97.9834664563
  0
CIRCLE
  5
2EE
100
AcDbEntity
  8
0
100
AcDbCircle
 62
2
  6
CONTINUOUS
 10
190.0363079437
 20
109.9392494516
 40
3.0
  0
CIRCLE
  5
2EF
100
AcDbEntity
  8
GEWINDE
100
AcDbCircle
 62
7
  6
CONTINUOUS
 10
190.0363079437
 20
109.9392494516
 40
2.5
  0
ARC
  5
2F0
100
AcDbEntity
  8
BEZUGSACHSEN
100
AcDbCircle
 62
7
  6
CONTINUOUS
 10
203.9076557816
 20
121.5167177026
 40
2.0
100
AcDbArc
 50
225.0
 51
267.0
  0
ARC
  5
2F1
100
AcDbEntity
  8
BEZUGSACHSEN
100
AcDbCircle
 62
7
  6
CONTINUOUS
 10
203.9076557816
 20
98.3617812006
 40
2.0
100
AcDbArc
 50
93.0
 51
135.0
  0
ARC
  5
2F2
100
AcDbEntity
  8
BEZUGSACHSEN
100
AcDbCircle
 62
7
  6
CONTINUOUS
 10
143.1363079437
 20
82.3629287258
 40
1.0
100
AcDbArc
 50
100.1871236196
 51
180.0
  0
ARC
  5
2F3
100
AcDbEntity
  8
BEZUGSACHSEN
100
AcDbCircle
 62
7
  6
CONTINUOUS
 10
194.2424833455
 20
92.9392494516
 40
1.0
100
AcDbArc
 50
270.0
 51
315.0
  0
ARC
  5
2F4
100
AcDbEntity
  8
BEZUGSACHSEN
100
AcDbCircle
 62
7
  6
CONTINUOUS
 10
141.1363079437
 20
62.1892494516
 40
1.0
100
AcDbArc
 50
270.0
 51
360.0
  0
ARC
  5
2F5
100
AcDbEntity
  8
BEZUGSACHSEN
100
AcDbCircle
 62
7
  6
CONTINUOUS
 10
184.7018658041
 20
91.660940568
 40
0.8
100
AcDbArc
 50
280.1871236196
 51
330.0
  0
ARC
  5
2F6
100
AcDbEntity
  8
BEZUGSACHSEN
100
AcDbCircle
 62
7
  6
CONTINUOUS
 10
186.2481881591
 20
91.1392494516
 40
0.8
100
AcDbArc
 50
90.0
 51
150.0
  0
ARC
  5
2F7
100
AcDbEntity
  8
BEZUGSACHSEN
100
AcDbCircle
 62
7
  6
CONTINUOUS
 10
135.5863079437
 20
63.8142494516
 40
0.5
100
AcDbArc
 50
0.0
 51
90.0
  0
ARC
  5
2F8
100
AcDbEntity
  8
BEZUGSACHSEN
100
AcDbCircle
 62
7
  6
CONTINUOUS
 10
252.7363079437
 20
116.6545600816
 40
0.3
100
AcDbArc
 50
0.0
 51
87.0
  0
ARC
  5
2F9
100
AcDbEntity
  8
BEZUGSACHSEN
100
AcDbCircle
 62
7
  6
CONTINUOUS
 10
252.7363079437
 20
103.2239388216
 40
0.3
100
AcDbArc
 50
273.0
 51
360.0
  0
ARC
  5
2FA
100
AcDbEntity
  8
0
100
AcDbCircle
 62
7
  6
CONTINUOUS
 10
387.2437505258
 20
185.222649963
 40
274.4491153915
100
AcDbArc
 50
203.7753619547
 51
204.4764348096
  0
ARC
  5
2FB
100
AcDbEntity
  8
GEWINDE
100
AcDbCircle
 62
7
  6
CONTINUOUS
 10
190.0363079434
 20
145.7649957988
 40
18.0000000011
100
AcDbArc
 50
262.0165335459
 51
277.9834664561
  0
ARC
  5
2FC
100
AcDbEntity
  8
BEZUGSACHSEN
100
AcDbCircle
 62
7
  6
CONTINUOUS
 10
143.1363079437
 20
137.5155701774
 40
1.0
100
AcDbArc
 50
180.0
 51
259.8128763804
  0
ARC
  5
2FD
100
AcDbEntity
  8
BEZUGSACHSEN
100
AcDbCircle
 62
7
  6
CONTINUOUS
 10
194.2424833455
 20
126.9392494516
 40
1.0
100
AcDbArc
 50
45.0
 51
90.0
  0
ARC
  5
2FE
100
AcDbEntity
  8
BEZUGSACHSEN
100
AcDbCircle
 62
7
  6
CONTINUOUS
 10
141.1363079437
 20
157.6892494516
 40
1.0
100
AcDbArc
 50
0.0
 51
90.0
  0
ARC
  5
2FF
100
AcDbEntity
  8
BEZUGSACHSEN
100
AcDbCircle
 62
7
  6
CONTINUOUS
 10
184.7018658041
 20
128.2175583352
 40
0.8
100
AcDbArc
 50
30.0
 51
79.8128763804
  0
ARC
  5
300
100
AcDbEntity
  8
BEZUGSACHSEN
100
AcDbCircle
 62
7
  6
CONTINUOUS
 10
186.2481881591
 20
128.7392494516
 40
0.8
100
AcDbArc
 50
210.0
 51
270.0
  0
ARC
  5
301
100
AcDbEntity
  8
0
100
AcDbCircle
 62
7
  6
CONTINUOUS
 10
177.505104678
 20
129.4606293881
 40
0.7233157039
100
AcDbArc
 50
56.1216094629
 51
57.5611768783
  0
ARC
  5
302
100
AcDbEntity
  8
BEZUGSACHSEN
100
AcDbCircle
 62
7
  6
CONTINUOUS
 10
135.5863079437
 20
156.0642494516
 40
0.5
100
AcDbArc
 50
270.0
 51
360.0
  0
SPLINE
  5
303
100
AcDbEntity
  8
0
100
AcDbSpline
 62
2
  6
CONTINUOUS
 70
0
 71
3
 72
31
 73
27
 74
25
 42
0.0000001
 43
0.0000001
 44
0.0000000001
 12
-0.022423587
 22
0.0037372538
 32
0.0
 13
-0.0228378658
 23
-0.0038062997
 33
0.0
 40
0.0
 40
0.0
 40
0.0
 40
0.0
 40
0.0416666667
 40
0.0833333333
 40
0.125
 40
0.1666666667
 40
0.2083333333
 40
0.25
 40
0.2916666667
 40
0.3333333333
 40
0.375
 40
0.4166666667
 40
0.4583333333
 40
0.5
 40
0.5416666667
 40
0.5833333333
 40
0.625
 40
0.6666666667
 40
0.7083333333
 40
0.75
 40
0.7916666667
 40
0.8333333333
 40
0.875
 40
0.9166666667
 40
0.9583333333
 40
1.0
 40
1.0
 40
1.0
 40
1.0
 10
193.0362991167
 20
91.939250873
 30
0.0
 10
193.035987678
 20
91.9393027793
 30
0.0
 10
193.0188728202
 20
91.9421664581
 30
0.0
 10
192.9439516235
 20
91.9544966356
 30
0.0
 10
192.8212992511
 20
91.9740232406
 30
0.0
 10
192.6530767994
 20
91.9994652085
 30
0.0
 10
192.4421566675
 20
92.0291835878
 30
0.0
 10
192.1879365199
 20
92.0617535043
 30
0.0
 10
191.8959392147
 20
92.0947278928
 30
0.0
 10
191.5731038007
 20
92.1256530365
 30
0.0
 10
191.2210970134
 20
92.1527714218
 30
0.0
 10
190.8386748014
 20
92.1743343532
 30
0.0
 10
190.4390168967
 20
92.1879635275
 30
0.0
 10
190.0362086107
 20
92.1925346018
 30
0.0
 10
189.6333727607
 20
92.1879586774
 30
0.0
 10
189.2337096535
 20
92.1743235004
 30
0.0
 10
188.8514010653
 20
92.1527625347
 30
0.0
 10
188.4995273361
 20
92.1256538437
 30
0.0
 10
188.1767170483
 20
92.094732138
 30
0.0
 10
187.8847203538
 20
92.0617583443
 30
0.0
 10
187.6305349751
 20
92.029193592
 30
0.0
 10
187.419637734
 20
91.999479635
 30
0.0
 10
187.2513801881
 20
91.9740331955
 30
0.0
 10
187.1287031184
 20
91.9545029493
 30
0.0
 10
187.0537600702
 20
91.9421692964
 30
0.0
 10
187.0366342927
 20
91.9393037913
 30
0.0
 10
187.0363171001
 20
91.939250926
 30
0.0
 11
193.0362991167
 21
91.939250873
 31
0.0
 11
193.0106646685
 21
91.943505568
 31
0.0
 11
192.9359964276
 21
91.9556960401
 31
0.0
 11
192.8137042379
 21
91.9750091344
 31
0.0
 11
192.6459605194
 21
92.0001779437
 31
0.0
 11
192.4349399982
 21
92.029658844
 31
0.0
 11
192.1816403269
 21
92.0618209163
 31
0.0
 11
191.8907995299
 21
92.094386352
 31
0.0
 11
191.5682419052
 21
92.1250185768
 31
0.0
 11
191.216027776
 21
92.1518455128
 31
0.0
 11
190.8358021859
 21
92.1730120603
 31
0.0
 11
190.4384918332
 21
92.1864538441
 31
0.0
 11
190.0362040167
 21
92.191010102
 31
0.0
 11
189.6339015511
 21
92.186448802
 31
0.0
 11
189.2366020733
 21
92.1730025356
 31
0.0
 11
188.8564735418
 21
92.1518379138
 31
0.0
 11
188.504371243
 21
92.1250183412
 31
0.0
 11
188.1818526472
 21
92.0943901233
 31
0.0
 11
187.8910222398
 21
92.0618265179
 31
0.0
 11
187.6377496647
 21
92.0296687246
 31
0.0
 11
187.4267443499
 21
92.000190888
 31
0.0
 11
187.2589769341
 21
91.9750192277
 31
0.0
 11
187.1366587887
 21
91.9557023815
 31
0.0
 11
187.0619691339
 21
91.9435085289
 31
0.0
 11
187.0363171001
 21
91.939250926
 31
0.0
  0
SPLINE
  5
304
100
AcDbEntity
  8
0
100
AcDbSpline
 62
2
  6
CONTINUOUS
 70
0
 71
3
 72
31
 73
27
 74
25
 42
0.0000001
 43
0.0000001
 44
0.0000000001
 12
0.0227513231
 22
-0.003791876
 32
0.0
 13
0.0228539263
 23
0.0038089764
 33
0.0
 40
0.0
 40
0.0
 40
0.0
 40
0.0
 40
0.0416666667
 40
0.0833333333
 40
0.125
 40
0.1666666667
 40
0.2083333333
 40
0.25
 40
0.2916666667
 40
0.3333333333
 40
0.375
 40
0.4166666667
 40
0.4583333333
 40
0.5
 40
0.5416666667
 40
0.5833333333
 40
0.625
 40
0.6666666667
 40
0.7083333333
 40
0.75
 40
0.7916666667
 40
0.8333333333
 40
0.875
 40
0.9166666667
 40
0.9583333333
 40
1.0
 40
1.0
 40
1.0
 40
1.0
 10
187.0363170593
 20
127.9392479838
 30
0.0
 10
187.0366330499
 20
127.9391953188
 30
0.0
 10
187.0537047823
 20
127.9363388945
 30
0.0
 10
187.1284338665
 20
127.9240399308
 30
0.0
 10
187.2507851066
 20
127.9045590466
 30
0.0
 10
187.4185440331
 20
127.8791807228
 30
0.0
 10
187.6288287856
 20
127.8495375135
 30
0.0
 10
187.8822577789
 20
127.8170410777
 30
0.0
 10
188.1734954664
 20
127.7841068554
 30
0.0
 10
188.4957279985
 20
127.7531757778
 30
0.0
 10
188.8474150682
 20
127.7260024508
 30
0.0
 10
189.2298531359
 20
127.7043483251
 30
0.0
 10
189.6298292027
 20
127.6906182146
 30
0.0
 10
190.0330607706
 20
127.6859615878
 30
0.0
 10
190.4362519751
 20
127.6904700294
 30
0.0
 10
190.836261969
 20
127.7040534161
 30
0.0
 10
191.2189540156
 20
127.7255831785
 30
0.0
 10
191.5712163267
 20
127.7526812519
 30
0.0
 10
191.8943945119
 20
127.7836079825
 30
0.0
 10
192.1867506691
 20
127.8166010111
 30
0.0
 10
192.4412769036
 20
127.8491959698
 30
0.0
 10
192.652463023
 20
127.8789432631
 30
0.0
 10
192.8209437071
 20
127.9044199408
 30
0.0
 10
192.9437865395
 20
127.9239753132
 30
0.0
 10
193.018831835
 20
127.9363255796
 30
0.0
 10
193.0359813717
 20
127.9391950747
 30
0.0
 10
193.0362987873
 20
127.9392479772
 30
0.0
 11
187.0363170593
 21
127.9392479838
 31
0.0
 11
187.0618916966
 21
127.9350031733
 31
0.0
 11
187.1363708925
 21
127.922842944
 31
0.0
 11
187.2583530543
 21
127.90357614
 31
0.0
 11
187.4256316708
 21
127.8784699085
 31
0.0
 11
187.6360194924
 21
127.8490619757
 31
0.0
 11
187.888559228
 21
127.8169681133
 31
0.0
 11
188.1786612739
 21
127.7844407128
 31
0.0
 11
188.5006370881
 21
127.7538020695
 31
0.0
 11
188.8525402346
 21
127.7269223177
 31
0.0
 11
189.2327761358
 21
127.7056689943
 31
0.0
 11
189.6303717862
 21
127.6921304619
 31
0.0
 11
190.0330540433
 21
127.6874890992
 31
0.0
 11
190.4357217733
 21
127.6919825203
 31
0.0
 11
190.8333756444
 21
127.7053778121
 31
0.0
 11
191.213882393
 21
127.7265112303
 31
0.0
 11
191.5663689724
 21
127.7533193614
 31
0.0
 11
191.8892575072
 21
127.7839523655
 31
0.0
 11
192.180445682
 21
127.8165346661
 31
0.0
 11
192.4340535511
 21
127.8487213589
 31
0.0
 11
192.6453454505
 21
127.8782314938
 31
0.0
 11
192.8133373985
 21
127.9034330566
 31
0.0
 11
192.9358202833
 21
127.9227744622
 31
0.0
 11
193.0106116699
 21
127.9349845757
 31
0.0
 11
193.0362987873
 21
127.9392479772
 31
0.0
  0
SPLINE
  5
305
100
AcDbEntity
  8
0
100
AcDbSpline
 62
7
  6
CONTINUOUS
 70
0
 71
3
 72
13
 73
9
 74
7
 42
0.0000001
 43
0.0000001
 44
0.0000000001
 12
1.2508569951
 22
-0.2428814449
 32
0.0
 13
1.2334591939
 23
0.1650050869
 33
0.0
 40
0.0
 40
0.0
 40
0.0
 40
0.0
 40
0.0915713693
 40
0.2297350888
 40
0.4121070441
 40
0.636381157
 40
0.9012015664
 40
1.0
 40
1.0
 40
1.0
 40
1.0
 10
174.2175826532
 20
89.1412524356
 30
0.0
 10
174.2557635491
 20
89.1338387735
 30
0.0
 10
174.3487834228
 20
89.12159334
 30
0.0
 10
174.5210545158
 20
89.1217412203
 30
0.0
 10
174.7463428232
 20
89.1329587871
 30
0.0
 10
175.0239801478
 20
89.1580577689
 30
0.0
 10
175.2661698387
 20
89.1863649483
 30
0.0
 10
175.4157345533
 20
89.2058724665
 30
0.0
 10
175.456355832
 20
89.2113065479
 30
0.0
 11
174.2175826532
 21
89.1412524356
 31
0.0
 11
174.3303971967
 21
89.1260354565
 31
0.0
 11
174.5023059083
 21
89.1229301979
 31
0.0
 11
174.7290124201
 21
89.1334692358
 31
0.0
 11
175.0070591116
 21
89.1576498602
 31
0.0
 11
175.3344412944
 21
89.1954193298
 31
0.0
 11
175.456355832
 21
89.2113065479
 31
0.0
  0
SPLINE
  5
306
100
AcDbEntity
  8
0
100
AcDbSpline
 62
7
  6
CONTINUOUS
 70
0
 71
3
 72
10
 73
6
 74
4
 42
0.0000001
 43
0.0000001
 44
0.0000000001
 12
1.1114542068
 22
0.1523456985
 32
0.0
 13
1.1041307231
 23
0.1984083136
 33
0.0
 40
0.0
 40
0.0
 40
0.0
 40
0.0
 40
0.1768244291
 40
0.5656967434
 40
1.0
 40
1.0
 40
1.0
 40
1.0
 10
175.5178866544
 20
89.219640022
 30
0.0
 10
175.5833974062
 20
89.2286195024
 30
0.0
 10
175.7928414496
 20
89.2584018521
 30
0.0
 10
176.1623322644
 20
89.3159623288
 30
0.0
 10
176.4657154204
 20
89.3681203135
 30
0.0
 10
176.6255579434
 20
89.3968434391
 30
0.0
 11
175.5178866544
 21
89.219640022
 31
0.0
 11
175.7142912047
 21
89.2475096885
 31
0.0
 11
176.1453735174
 21
89.3144130577
 31
0.0
 11
176.6255579434
 21
89.3968434391
 31
0.0
  0
SPLINE
  5
307
100
AcDbEntity
  8
BEZUGSACHSEN
100
AcDbSpline
 62
7
  6
CONTINUOUS
 70
0
 71
3
 72
19
 73
15
 74
13
 42
0.0000001
 43
0.0000001
 44
0.0000000001
 12
-0.8917749806
 22
0.3140245951
 32
0.0
 13
0.0
 23
0.9454491326
 33
0.0
 40
0.0
 40
0.0
 40
0.0
 40
0.0
 40
0.1214133986
 40
0.2405443248
 40
0.349104296
 40
0.4467037493
 40
0.5363127997
 40
0.6188635833
 40
0.6954987707
 40
0.7669978011
 40
0.833763553
 40
0.8958113366
 40
0.9519236155
 40
1.0
 40
1.0
 40
1.0
 40
1.0
 10
132.8363079437
 20
152.294258053
 30
0.0
 10
132.8002168
 20
152.3069669841
 30
0.0
 10
132.7314179013
 20
152.3403107173
 30
0.0
 10
132.6424989475
 20
152.4058790676
 30
0.0
 10
132.5695251476
 20
152.4782986788
 30
0.0
 10
132.5113273932
 20
152.5513214014
 30
0.0
 10
132.4649026168
 20
152.6226741598
 30
0.0
 10
132.4277034493
 20
152.6917857749
 30
0.0
 10
132.3980803851
 20
152.7582447527
 30
0.0
 10
132.3748591997
 20
152.8219211793
 30
0.0
 10
132.3573031722
 20
152.8826103691
 30
0.0
 10
132.345062926
 20
152.9396435214
 30
0.0
 10
132.3379825049
 20
152.9916052476
 30
0.0
 10
132.3363079437
 20
153.0244500773
 30
0.0
 10
132.3363079437
 20
153.0396013359
 30
0.0
 11
132.8363079437
 21
152.294258053
 31
0.0
 11
132.7326836871
 21
152.3436422784
 31
0.0
 11
132.6416995532
 21
152.4100343471
 31
0.0
 11
132.5686421826
 21
152.4821257156
 31
0.0
 11
132.5110104572
 21
152.5541903991
 31
0.0
 11
132.4647410602
 21
152.6251605104
 31
0.0
 11
132.4277224051
 21
152.6938703484
 31
0.0
 11
132.3982279376
 21
152.7600500719
 31
0.0
 11
132.3751024644
 21
152.8235701178
 31
0.0
 11
132.3576320723
 21
152.8842279869
 31
0.0
 11
132.3454389178
 21
152.9416098418
 31
0.0
 11
132.3384416747
 21
152.9941976693
 31
0.0
 11
132.3363079437
 21
153.0396013359
 31
0.0
  0
SPLINE
  5
308
100
AcDbEntity
  8
0
100
AcDbSpline
 62
7
  6
CONTINUOUS
 70
0
 71
3
 72
21
 73
17
 74
15
 42
0.0000001
 43
0.0000001
 44
0.0000000001
 12
3.8001534683
 22
2.4737175036
 32
0.0
 13
3.884246853
 23
2.3737827765
 33
0.0
 40
0.0
 40
0.0
 40
0.0
 40
0.0
 40
0.0255472883
 40
0.0754570647
 40
0.1397435059
 40
0.214636905
 40
0.2962193934
 40
0.3807686017
 40
0.466203878
 40
0.5517624502
 40
0.6368629512
 40
0.7210589752
 40
0.804654865
 40
0.8874378971
 40
0.9647418875
 40
1.0
 40
1.0
 40
1.0
 40
1.0
 10
173.1098107085
 20
89.1538081839
 30
0.0
 10
173.142171914
 20
89.1748737754
 30
0.0
 10
173.2419092311
 20
89.2337398613
 30
0.0
 10
173.4295852135
 20
89.3306924867
 30
0.0
 10
173.6898914745
 20
89.4522313962
 30
0.0
 10
173.9964392509
 20
89.5869093231
 30
0.0
 10
174.3330255599
 20
89.7299467323
 30
0.0
 10
174.6851080998
 20
89.8772658305
 30
0.0
 10
175.0429080719
 20
90.0265825747
 30
0.0
 10
175.4009582567
 20
90.1774605841
 30
0.0
 10
175.7561450997
 20
90.3302765935
 30
0.0
 10
176.1067691465
 20
90.4861122286
 30
0.0
 10
176.4514614905
 20
90.6465276004
 30
0.0
 10
176.7827920651
 20
90.810671375
 30
0.0
 10
177.0437191265
 20
90.9513938545
 30
0.0
 10
177.1908676693
 20
91.0381625483
 30
0.0
 10
177.2365180735
 20
91.0660609151
 30
0.0
 11
173.1098107085
 21
89.1538081839
 31
0.0
 11
173.2098910924
 21
89.2139872589
 31
0.0
 11
173.4110107927
 21
89.3196049397
 31
0.0
 11
173.6756447124
 21
89.4444427134
 31
0.0
 11
173.9874337234
 21
89.5822334005
 31
0.0
 11
174.3290059779
 21
89.7278716845
 31
0.0
 11
174.6838931214
 21
89.8766925093
 31
0.0
 11
175.0426484824
 21
90.0267170762
 31
0.0
 11
175.4014083853
 21
90.1781795199
 31
0.0
 11
175.7570965347
 21
90.3315287849
 31
0.0
 11
176.107142826
 21
90.4874949923
 31
0.0
 11
176.4519107094
 21
90.6484511306
 31
0.0
 11
176.789216301
 21
90.8163647272
 31
0.0
 11
177.0983699586
 21
90.9843624164
 31
0.0
 11
177.2365180735
 21
91.0660609151
 31
0.0
  0
SPLINE
  5
309
100
AcDbEntity
  8
BEZUGSACHSEN
100
AcDbSpline
 62
7
  6
CONTINUOUS
 70
0
 71
3
 72
18
 73
14
 74
12
 42
0.0000001
 43
0.0000001
 44
0.0000000001
 12
-2.6343875959
 22
-0.92765834
 32
0.0
 13
-2.6343875959
 23
0.92765834
 33
0.0
 40
0.0
 40
0.0
 40
0.0
 40
0.0
 40
0.0796840474
 40
0.1658993179
 40
0.2575081596
 40
0.3529288858
 40
0.4506857492
 40
0.5493141003
 40
0.6470704032
 40
0.7424892824
 40
0.834099213
 40
0.9203149986
 40
1.0
 40
1.0
 40
1.0
 40
1.0
 10
135.5863079437
 20
152.294258053
 30
0.0
 10
135.516335055
 20
152.269618196
 30
0.0
 10
135.3684086837
 20
152.2245851872
 30
0.0
 10
135.1346031481
 20
152.170894416
 30
0.0
 10
134.8834667184
 20
152.1294115026
 30
0.0
 10
134.619709537
 20
152.1011680686
 30
0.0
 10
134.3482916024
 20
152.0868647505
 30
0.0
 10
134.0743252284
 20
152.0868647395
 30
0.0
 10
133.8029095305
 20
152.1011678765
 30
0.0
 10
133.5391535512
 20
152.1294109358
 30
0.0
 10
133.2880172862
 20
152.1708934805
 30
0.0
 10
133.0542093778
 20
152.2245845666
 30
0.0
 10
132.9062816701
 20
152.269617901
 30
0.0
 10
132.8363079437
 20
152.294258053
 30
0.0
 11
135.5863079437
 21
152.294258053
 31
0.0
 11
135.373608848
 21
152.2287672594
 31
0.0
 11
135.139034797
 21
152.1743884372
 31
0.0
 11
134.8866530138
 21
152.1323522918
 31
0.0
 11
134.6216858699
 21
152.1037638481
 31
0.0
 11
134.3490399892
 21
152.0892926857
 31
0.0
 11
134.0735763193
 21
152.0892926746
 31
0.0
 11
133.8009319983
 21
152.1037636893
 31
0.0
 11
133.5359699554
 21
152.1323513243
 31
0.0
 11
133.2835851175
 21
152.174387639
 31
0.0
 11
133.0490096146
 21
152.2287665688
 31
0.0
 11
132.8363079437
 21
152.294258053
 31
0.0
  0
SPLINE
  5
30A
100
AcDbEntity
  8
0
100
AcDbSpline
 62
7
  6
CONTINUOUS
 70
0
 71
3
 72
13
 73
9
 74
7
 42
0.0000001
 43
0.0000001
 44
0.0000000001
 12
-1.1536988022
 22
0.7332420595
 32
0.0
 13
-1.3025727421
 23
0.2921039151
 33
0.0
 40
0.0
 40
0.0
 40
0.0
 40
0.0
 40
0.0716415743
 40
0.195759357
 40
0.3582622632
 40
0.5537726328
 40
0.7724321283
 40
1.0
 40
1.0
 40
1.0
 40
1.0
 10
177.89309034
 20
130.0710822803
 30
0.0
 10
177.8655394071
 20
130.0885924855
 30
0.0
 10
177.7907762025
 20
130.1289437605
 30
0.0
 10
177.640310797
 20
130.1868646198
 30
0.0
 10
177.4367842483
 20
130.252661501
 30
0.0
 10
177.1893902039
 20
130.3218479838
 30
0.0
 10
176.9125679745
 20
130.3916446917
 30
0.0
 10
176.7191264493
 20
130.436497177
 30
0.0
 10
176.620318547
 20
130.458654999
 30
0.0
 11
177.89309034
 21
130.0710822803
 31
0.0
 11
177.809819377
 21
130.1169614511
 31
0.0
 11
177.656316337
 21
130.1793043497
 31
0.0
 11
177.4502117836
 21
130.2469402155
 31
0.0
 11
177.1991033347
 21
130.3180357749
 31
0.0
 11
176.9161813308
 21
130.3897921375
 31
0.0
 11
176.620318547
 21
130.458654999
 31
0.0
  0
LINE
  5
30B
100
AcDbEntity
  8
0
100
AcDbLine
 62
7
  6
CONTINUOUS
 10
176.620318547
 20
130.458654999
 11
176.6057014402
 21
130.46192746
  0
SPLINE
  5
30C
100
AcDbEntity
  8
0
100
AcDbSpline
 62
7
  6
CONTINUOUS
 70
0
 71
3
 72
10
 73
6
 74
4
 42
0.0000001
 43
0.0000001
 44
0.0000000001
 12
-1.1408544359
 22
0.2549905121
 32
0.0
 13
-1.1505254771
 23
0.2067452838
 33
0.0
 40
0.0
 40
0.0
 40
0.0
 40
0.0
 40
0.2994681109
 40
0.6308494425
 40
1.0
 40
1.0
 40
1.0
 40
1.0
 10
176.6057014402
 20
130.46192746
 30
0.0
 10
176.4918182659
 20
130.4873813023
 30
0.0
 10
176.2514914677
 20
130.539031338
 30
0.0
 10
175.8694338351
 20
130.6156500073
 30
0.0
 10
175.6010975746
 20
130.6657473021
 30
0.0
 10
175.4595252009
 20
130.6911873477
 30
0.0
 11
176.6057014402
 21
130.46192746
 31
0.0
 11
176.2634926465
 21
130.5356714169
 31
0.0
 11
175.88370885
 21
130.6119558631
 31
0.0
 11
175.4595252009
 21
130.6911873477
 31
0.0
  0
SPLINE
  5
30D
100
AcDbEntity
  8
0
100
AcDbSpline
 62
7
  6
CONTINUOUS
 70
0
 71
3
 72
19
 73
15
 74
13
 42
0.0000001
 43
0.0000001
 44
0.0000000001
 12
-3.7212041546
 22
-0.8480229192
 32
0.0
 13
-3.7298353468
 23
-0.8040012595
 33
0.0
 40
0.0
 40
0.0
 40
0.0
 40
0.0
 40
0.0240221207
 40
0.0791467382
 40
0.1488798814
 40
0.2293911488
 40
0.3176320669
 40
0.411484424
 40
0.510957649
 40
0.6177039724
 40
0.733275803
 40
0.8553766675
 40
0.9632114659
 40
1.0
 40
1.0
 40
1.0
 40
1.0
 10
178.9253158884
 20
129.6778756313
 30
0.0
 10
178.8955188167
 20
129.671085195
 30
0.0
 10
178.7956078579
 20
129.6517619399
 30
0.0
 10
178.608786048
 20
129.6259685946
 30
0.0
 10
178.3485500795
 20
129.6001635446
 30
0.0
 10
178.0463255023
 20
129.5764381369
 30
0.0
 10
177.7131489933
 20
129.5535270449
 30
0.0
 10
177.3558936362
 20
129.5300103362
 30
0.0
 10
176.9752103319
 20
129.5039382866
 30
0.0
 10
176.567224978
 20
129.4724701235
 30
0.0
 10
176.131114667
 20
129.4319366418
 30
0.0
 10
175.6947912105
 20
129.3797844296
 30
0.0
 10
175.3597783587
 20
129.326101844
 30
0.0
 10
175.1794546386
 20
129.2897076432
 30
0.0
 10
175.133716247
 20
129.2798483006
 30
0.0
 11
178.9253158884
 21
129.6778756313
 31
0.0
 11
178.8349248187
 21
129.6598723498
 31
0.0
 11
178.6268178683
 21
129.6296579101
 31
0.0
 11
178.3622043412
 21
129.6023647871
 31
0.0
 11
178.0560645064
 21
129.5776771986
 31
0.0
 11
177.7202652408
 21
129.5541758865
 31
0.0
 11
177.3630333582
 21
129.5303264796
 31
0.0
 11
176.9844748755
 21
129.5040469891
 31
0.0
 11
176.5784983351
 21
129.4723134197
 31
0.0
 11
176.1395713712
 21
129.4308360134
 31
0.0
 11
175.6772175862
 21
129.374368235
 31
0.0
 11
175.2712801396
 21
129.3077517018
 31
0.0
 11
175.133716247
 21
129.2798483006
 31
0.0
  0
SPLINE
  5
30E
100
AcDbEntity
  8
BEZUGSACHSEN
100
AcDbSpline
 62
7
  6
CONTINUOUS
 70
0
 71
3
 72
19
 73
15
 74
13
 42
0.0000001
 43
0.0000001
 44
0.0000000001
 12
0.0
 22
-0.9454467273
 32
0.0
 13
-0.8917727118
 23
-0.3140237962
 33
0.0
 40
0.0
 40
0.0
 40
0.0
 40
0.0
 40
0.047873423
 40
0.1037430719
 40
0.1656609112
 40
0.2324172006
 40
0.3038749881
 40
0.3804962067
 40
0.4630222427
 40
0.5525621842
 40
0.6502812608
 40
0.7582912515
 40
0.8782443008
 40
1.0
 40
1.0
 40
1.0
 40
1.0
 10
136.0863079437
 20
153.0396013359
 30
0.0
 10
136.0863079437
 20
153.0245140789
 30
0.0
 10
136.08464747
 20
152.9918098364
 30
0.0
 10
136.0776165553
 20
152.9400250474
 30
0.0
 10
136.0654359232
 20
152.8831025741
 30
0.0
 10
136.047931855
 20
152.8224577495
 30
0.0
 10
136.0247546059
 20
152.758787241
 30
0.0
 10
135.9951811727
 20
152.6923339944
 30
0.0
 10
135.958040923
 20
152.62322958
 30
0.0
 10
135.9116615977
 20
152.5518384065
 30
0.0
 10
135.8536147172
 20
152.4788963415
 30
0.0
 10
135.7806326816
 20
152.4063167994
 30
0.0
 10
135.6916245068
 20
152.3405308322
 30
0.0
 10
135.6225007471
 20
152.307002782
 30
0.0
 10
135.5863079437
 20
152.294258053
 30
0.0
 11
136.0863079437
 21
153.0396013359
 31
0.0
 11
136.0841914382
 21
152.9943890773
 31
0.0
 11
136.0772488362
 21
152.9420255368
 31
0.0
 11
136.065115925
 21
152.8847566427
 31
0.0
 11
136.0476846263
 21
152.8240970031
 31
0.0
 11
136.0246096168
 21
152.7606002772
 31
0.0
 11
135.9951599707
 21
152.6944152528
 31
0.0
 11
135.9581951958
 21
152.6257032058
 31
0.0
 11
135.9120111278
 21
152.5547557441
 31
0.0
 11
135.8543613813
 21
152.4825609885
 31
0.0
 11
135.7817520404
 21
152.4107563459
 31
0.0
 11
135.6902101619
 21
152.343810583
 31
0.0
 11
135.5863079437
 21
152.294258053
 31
0.0
  0
SPLINE
  5
30F
100
AcDbEntity
  8
BEZUGSACHSEN
100
AcDbSpline
 62
7
  6
CONTINUOUS
 70
0
 71
3
 72
11
 73
7
 74
5
 42
0.0000001
 43
0.0000001
 44
0.0000000001
 12
-0.1677273634
 22
0.4339454723
 32
0.0
 13
0.0
 23
0.465232352
 33
0.0
 40
0.0
 40
0.0
 40
0.0
 40
0.0
 40
0.3644252763
 40
0.6433856054
 40
0.8512211786
 40
1.0
 40
1.0
 40
1.0
 40
1.0
 10
132.3363079437
 20
153.2722911271
 30
0.0
 10
132.3159332468
 20
153.3250046933
 30
0.0
 10
132.2814048123
 20
153.4186349398
 30
0.0
 10
132.2416136713
 20
153.5446116882
 30
0.0
 10
132.2184902494
 20
153.6404428512
 30
0.0
 10
132.2113079437
 20
153.6956122081
 30
0.0
 10
132.2113079437
 20
153.7186844484
 30
0.0
 11
132.3363079437
 21
153.2722911271
 31
0.0
 11
132.2782467619
 21
153.4315818494
 31
0.0
 11
132.2399456654
 21
153.5555827769
 31
0.0
 11
132.2183089543
 21
153.6498227005
 31
0.0
 11
132.2113079437
 21
153.7186844484
 31
0.0
  0
SPLINE
  5
310
100
AcDbEntity
  8
BEZUGSACHSEN
100
AcDbSpline
 62
7
  6
CONTINUOUS
 70
0
 71
3
 72
11
 73
7
 74
5
 42
0.0000001
 43
0.0000001
 44
0.0000000001
 12
0.0
 22
-0.4652323723
 32
0.0
 13
-0.1677273707
 23
-0.4339454912
 33
0.0
 40
0.0
 40
0.0
 40
0.0
 40
0.0
 40
0.1487474517
 40
0.3565861977
 40
0.635557531
 40
1.0
 40
1.0
 40
1.0
 40
1.0
 10
136.2113079437
 20
153.7186844484
 30
0.0
 10
136.2113079437
 20
153.6956170718
 30
0.0
 10
136.2041274303
 20
153.6404520115
 30
0.0
 10
136.1810055668
 20
153.5446231171
 30
0.0
 10
136.1412135062
 20
153.4186415671
 30
0.0
 10
136.1066836027
 20
153.3250071825
 30
0.0
 10
136.0863079437
 20
153.2722911271
 30
0.0
 11
136.2113079437
 21
153.7186844484
 31
0.0
 11
136.2043094416
 21
153.6498371119
 31
0.0
 11
136.1826736787
 21
153.5555954517
 31
0.0
 11
136.1443716923
 21
153.4315894351
 31
0.0
 11
136.0863079437
 21
153.2722911271
 31
0.0
  0
SPLINE
  5
311
100
AcDbEntity
  8
0
100
AcDbSpline
 62
7
  6
CONTINUOUS
 70
0
 71
3
 72
99
 73
95
 74
93
 42
0.0000001
 43
0.0000001
 44
0.0000000001
 12
-24.79297487
 22
-20.3722272199
 32
0.0
 13
29.7943326807
 23
-12.4683389368
 33
0.0
 40
0.0
 40
0.0
 40
0.0
 40
0.0
 40
0.0171420715
 40
0.033336714
 40
0.0486129151
 40
0.0629863082
 40
0.0764790953
 40
0.0890805012
 40
0.1007884634
 40
0.1116154145
 40
0.1215270429
 40
0.1308499919
 40
0.1399279622
 40
0.1491387573
 40
0.1591060571
 40
0.1703212033
 40
0.1829823361
 40
0.1968866654
 40
0.2120497309
 40
0.2287087206
 40
0.246287059
 40
0.2634314799
 40
0.2795431817
 40
0.2945844353
 40
0.3085672793
 40
0.3215305933
 40
0.3334712834
 40
0.3443243743
 40
0.3541637066
 40
0.3630959088
 40
0.3714046967
 40
0.3793745291
 40
0.3872710801
 40
0.3956424751
 40
0.4050791266
 40
0.4159676083
 40
0.428713545
 40
0.4433569582
 40
0.4591071666
 40
0.475142795
 40
0.4914126673
 40
0.507904591
 40
0.5241398815
 40
0.5396435592
 40
0.5542165279
 40
0.5677575963
 40
0.5803211842
 40
0.5919523287
 40
0.6022408136
 40
0.6108220492
 40
0.618026245
 40
0.6244445506
 40
0.6307368247
 40
0.6373541745
 40
0.6446575509
 40
0.6530901598
 40
0.6629480444
 40
0.6743375004
 40
0.6876930068
 40
0.7026195896
 40
0.7174479769
 40
0.7316668354
 40
0.7455378477
 40
0.7591380435
 40
0.77227364
 40
0.7840140389
 40
0.7935420509
 40
0.8009438311
 40
0.8066774612
 40
0.8112362482
 40
0.8152634014
 40
0.8194720804
 40
0.82439168
 40
0.830385624
 40
0.8376368657
 40
0.8461650292
 40
0.8559334909
 40
0.8667626157
 40
0.8782908783
 40
0.8900191743
 40
0.901862591
 40
0.913813551
 40
0.9258331841
 40
0.9378662694
 40
0.9498258463
 40
0.961372902
 40
0.9719177797
 40
0.9808787521
 40
0.9877595966
 40
0.992596961
 40
0.9957431551
 40
0.9976048872
 40
0.9990038664
 40
1.0
 40
1.0
 40
1.0
 40
1.0
 10
176.6255579434
 20
109.9392494516
 30
0.0
 10
176.4838902941
 20
109.8228420598
 30
0.0
 10
176.2088050672
 20
109.5959407528
 30
0.0
 10
175.8133666446
 20
109.2582175058
 30
0.0
 10
175.4500690303
 20
108.9286952501
 30
0.0
 10
175.1223102003
 20
108.6035558898
 30
0.0
 10
174.8333969744
 20
108.2807929432
 30
0.0
 10
174.587154724
 20
107.9594551688
 30
0.0
 10
174.3884777576
 20
107.6394985045
 30
0.0
 10
174.2437426628
 20
107.3228275415
 30
0.0
 10
174.1541659998
 20
107.0126687113
 30
0.0
 10
174.1180578789
 20
106.7105533901
 30
0.0
 10
174.1340424576
 20
106.4141292544
 30
0.0
 10
174.202372569
 20
106.1183080729
 30
0.0
 10
174.3246439998
 20
105.8157946971
 30
0.0
 10
174.506863554
 20
105.5017490916
 30
0.0
 10
174.7520191738
 20
105.17938135
 30
0.0
 10
175.0572551562
 20
104.8529403606
 30
0.0
 10
175.4174510436
 20
104.5215635912
 30
0.0
 10
175.8259743231
 20
104.1861016254
 30
0.0
 10
176.2640100148
 20
103.8540355223
 30
0.0
 10
176.7037804712
 20
103.5342396234
 30
0.0
 10
177.1227048411
 20
103.2319392987
 30
0.0
 10
177.5110785031
 20
102.9451021845
 30
0.0
 10
177.8657466947
 20
102.6694606858
 30
0.0
 10
178.1839529972
 20
102.401334801
 30
0.0
 10
178.4615474558
 20
102.1377700232
 30
0.0
 10
178.6944861268
 20
101.8771368744
 30
0.0
 10
178.8800562185
 20
101.6193724648
 30
0.0
 10
179.0167241409
 20
101.3627248047
 30
0.0
 10
179.1017616014
 20
101.1051730371
 30
0.0
 10
179.1333233445
 20
100.8467544946
 30
0.0
 10
179.1130642331
 20
100.5866719207
 30
0.0
 10
179.0402984621
 20
100.3199771492
 30
0.0
 10
178.9093860246
 20
100.0409301423
 30
0.0
 10
178.7149458759
 20
99.7443306552
 30
0.0
 10
178.4535174832
 20
99.4283792362
 30
0.0
 10
178.1295375313
 20
99.0991989593
 30
0.0
 10
177.7594652211
 20
98.7677017189
 30
0.0
 10
177.3632826529
 20
98.4400806331
 30
0.0
 10
176.9533001892
 20
98.1170034363
 30
0.0
 10
176.5380453066
 20
97.7972574214
 30
0.0
 10
176.1293706277
 20
97.4823983203
 30
0.0
 10
175.7403956008
 20
97.1756183968
 30
0.0
 10
175.3808604815
 20
96.8781832611
 30
0.0
 10
175.0557241652
 20
96.588845109
 30
0.0
 10
174.7680345505
 20
96.3053925898
 30
0.0
 10
174.5245129957
 20
96.027724845
 30
0.0
 10
174.3361874966
 20
95.7603067274
 30
0.0
 10
174.2082254841
 20
95.5112412344
 30
0.0
 10
174.1372590193
 20
95.2831121355
 30
0.0
 10
174.1175783642
 20
95.0691601485
 30
0.0
 10
174.1493894697
 20
94.8627222913
 30
0.0
 10
174.2339765213
 20
94.6615954178
 30
0.0
 10
174.3735397159
 20
94.4654537176
 30
0.0
 10
174.5713801501
 20
94.2744668639
 30
0.0
 10
174.8296081998
 20
94.0884401598
 30
0.0
 10
175.1513354648
 20
93.9044673346
 30
0.0
 10
175.535568668
 20
93.7235759908
 30
0.0
 10
175.9637973323
 20
93.5520490228
 30
0.0
 10
176.4066495956
 20
93.3933883106
 30
0.0
 10
176.8418436759
 20
93.2472276036
 30
0.0
 10
177.2655313919
 20
93.108143076
 30
0.0
 10
177.6775021448
 20
92.9705079004
 30
0.0
 10
178.065187361
 20
92.8322064483
 30
0.0
 10
178.4062559901
 20
92.6934858559
 30
0.0
 10
178.6815154058
 20
92.5574012038
 30
0.0
 10
178.8862281365
 20
92.426189578
 30
0.0
 10
179.026416635
 20
92.2968953919
 30
0.0
 10
179.1085190877
 20
92.1644137903
 30
0.0
 10
179.1336670895
 20
92.0261978715
 30
0.0
 10
179.1014168038
 20
91.8858837324
 30
0.0
 10
179.0166617118
 20
91.7460457811
 30
0.0
 10
178.8835657686
 20
91.6033772794
 30
0.0
 10
178.7031758288
 20
91.4553536289
 30
0.0
 10
178.4768169051
 20
91.3017947989
 30
0.0
 10
178.2080667302
 20
91.1439170881
 30
0.0
 10
177.904127118
 20
90.9834231517
 30
0.0
 10
177.5763863475
 20
90.8235879941
 30
0.0
 10
177.2352387615
 20
90.6667649496
 30
0.0
 10
176.8874333326
 20
90.5137495795
 30
0.0
 10
176.5350704317
 20
90.3634307968
 30
0.0
 10
176.1797965315
 20
90.214800912
 30
0.0
 10
175.8239830449
 20
90.0672209027
 30
0.0
 10
175.4730340246
 20
89.9211424559
 30
0.0
 10
175.1375716153
 20
89.7791602389
 30
0.0
 10
174.8334401346
 20
89.6459005259
 30
0.0
 10
174.5773705577
 20
89.5262308192
 30
0.0
 10
174.3816565438
 20
89.4249793026
 30
0.0
 10
174.2438091763
 20
89.341202719
 30
0.0
 10
174.1641912627
 20
89.2783370696
 30
0.0
 10
174.1156215919
 20
89.2173540375
 30
0.0
 10
174.1402546941
 20
89.1707407837
 30
0.0
 10
174.162238747
 20
89.157530496
 30
0.0
 10
174.1721317925
 20
89.1533904521
 30
0.0
 11
176.6255579434
 21
109.9392494516
 31
0.0
 11
176.2020210029
 21
109.588250743
 31
0.0
 11
175.8076442354
 21
109.2498312226
 31
0.0
 11
175.4454920047
 21
108.9194625893
 31
0.0
 11
175.1190139198
 21
108.5936615453
 31
0.0
 11
174.8313963945
 21
108.2700228467
 31
0.0
 11
174.5869494236
 21
107.9479042482
 31
0.0
 11
174.3907574293
 21
107.6274999933
 31
0.0
 11
174.2480305762
 21
107.3107418981
 31
0.0
 11
174.1611172609
 21
107.0047907869
 31
0.0
 11
174.1265040408
 21
106.7076335516
 31
0.0
 11
174.142253668
 21
106.4167544658
 31
0.0
 11
174.2076420725
 21
106.1285107375
 31
0.0
 11
174.3260080001
 21
105.8313759318
 31
0.0
 11
174.5048979489
 21
105.5191004748
 31
0.0
 11
174.7489357566
 21
105.1942713602
 31
0.0
 11
175.0517883097
 21
104.8666185886
 31
0.0
 11
175.4085027503
 21
104.5357011238
 31
0.0
 11
175.8204425705
 21
104.1950029228
 31
0.0
 11
176.2688296696
 21
103.8527600595
 31
0.0
 11
176.7129162786
 21
103.5280237591
 31
0.0
 11
177.1314123454
 21
103.224440653
 31
0.0
 11
177.5189575939
 21
102.9367400213
 31
0.0
 11
177.8724421249
 21
102.6603719393
 31
0.0
 11
178.1894900403
 21
102.3910721534
 31
0.0
 11
178.4660798964
 21
102.1259014463
 31
0.0
 11
178.6967469493
 21
101.864974427
 31
0.0
 11
178.8794604789
 21
101.6074760369
 31
0.0
 11
179.0121251319
 21
101.353398385
 31
0.0
 11
179.0941368186
 21
101.0997022366
 31
0.0
 11
179.1248463357
 21
100.8458068486
 31
0.0
 11
179.1058142446
 21
100.5931282884
 31
0.0
 11
179.0365015617
 21
100.3335926678
 31
0.0
 11
178.9102368499
 21
100.0583579951
 31
0.0
 11
178.7210996754
 21
99.7645729577
 31
0.0
 11
178.462441715
 21
99.4477400083
 31
0.0
 11
178.1345998392
 21
99.1111067678
 31
0.0
 11
177.7596052146
 21
98.7722549994
 31
0.0
 11
177.3639602588
 21
98.443243608
 31
0.0
 11
176.9545729897
 21
98.1192409045
 31
0.0
 11
176.5358852434
 21
97.795563186
 31
0.0
 11
176.1237882842
 21
97.4768245947
 31
0.0
 11
175.7338264909
 21
97.1678953789
 31
0.0
 11
175.3742421461
 21
96.8689270999
 31
0.0
 11
175.0505045617
 21
96.5790929278
 31
0.0
 11
174.7645906198
 21
96.2948607075
 31
0.0
 11
174.5205091781
 21
96.0124987112
 31
0.0
 11
174.3327523525
 21
95.7409362584
 31
0.0
 11
174.2094514936
 21
95.4947189632
 31
0.0
 11
174.1431591078
 21
95.2732506861
 31
0.0
 11
174.1259908808
 21
95.0680089448
 31
0.0
 11
174.1566410984
 21
94.8684345387
 31
0.0
 11
174.2375816058
 21
94.6721201518
 31
0.0
 11
174.3715279974
 21
94.4798108317
 31
0.0
 11
174.564135561
 21
94.2897463125
 31
0.0
 11
174.8190146791
 21
94.1023894946
 31
0.0
 11
175.1350878586
 21
93.9188884715
 31
0.0
 11
175.521915842
 21
93.7344035937
 31
0.0
 11
175.9658025429
 21
93.5544341384
 31
0.0
 11
176.4133122854
 21
93.3927220519
 31
0.0
 11
176.8455344531
 21
93.2465425327
 31
0.0
 11
177.2681615315
 21
93.1068662426
 31
0.0
 11
177.6817356444
 21
92.9675148633
 31
0.0
 11
178.0781192813
 21
92.8241559322
 31
0.0
 11
178.4261619719
 21
92.6799350498
 31
0.0
 11
178.698882495
 21
92.5417159094
 31
0.0
 11
178.8966668882
 21
92.4102020565
 31
0.0
 11
179.0287321074
 21
92.2820993717
 31
0.0
 11
179.1024465227
 21
92.1557412905
 31
0.0
 11
179.1246123728
 21
92.0284281956
 31
0.0
 11
179.097040999
 21
91.8962192167
 31
0.0
 11
179.0188632185
 21
91.7590697574
 31
0.0
 11
178.8901802697
 21
91.6161159282
 31
0.0
 11
178.7118379896
 21
91.4666596115
 31
0.0
 11
178.4863471594
 21
91.3115953509
 31
0.0
 11
178.2167711954
 21
91.1516342923
 31
0.0
 11
177.9099322636
 21
90.9885239375
 31
0.0
 11
177.5777147784
 21
90.8257907427
 31
0.0
 11
177.2359388314
 21
90.6682150502
 31
0.0
 11
176.8882056633
 21
90.5148632448
 31
0.0
 11
176.5355731601
 21
90.3641302786
 31
0.0
 11
176.1798534588
 21
90.215037486
 31
0.0
 11
175.8232899113
 21
90.0668457811
 31
0.0
 11
175.4691017531
 21
89.9190857871
 31
0.0
 11
175.128046413
 21
89.7742467361
 31
0.0
 11
174.8184374993
 21
89.6377132936
 31
0.0
 11
174.5584014618
 21
89.5149667559
 31
0.0
 11
174.3630867107
 21
89.4119849257
 31
0.0
 11
174.2316042596
 21
89.3294749722
 31
0.0
 11
174.1548042308
 21
89.2639427668
 31
0.0
 11
174.1263228628
 21
89.2114273755
 31
0.0
 11
174.1453575885
 21
89.1707704363
 31
0.0
 11
174.1721317925
 21
89.1533904521
 31
0.0
  0
SPLINE
  5
312
100
AcDbEntity
  8
0
100
AcDbSpline
 62
7
  6
CONTINUOUS
 70
0
 71
3
 72
9
 73
5
 74
3
 42
0.0000001
 43
0.0000001
 44
0.0000000001
 12
0.042740779
 22
-0.0178861706
 32
0.0
 13
0.0462701744
 23
-0.0089843738
 33
0.0
 40
0.0
 40
0.0
 40
0.0
 40
0.0
 40
0.8920955617
 40
1.0
 40
1.0
 40
1.0
 40
1.0
 10
174.1721317925
 20
89.1533904521
 30
0.0
 10
174.1848414122
 20
89.1480717276
 30
0.0
 10
174.2004755774
 20
89.1446149734
 30
0.0
 10
174.2159184008
 20
89.1415755869
 30
0.0
 10
174.2175826532
 20
89.1412524356
 30
0.0
 11
174.1721317925
 21
89.1533904521
 31
0.0
 11
174.2125834745
 21
89.142236373
 31
0.0
 11
174.2175826532
 21
89.1412524356
 31
0.0
  0
SPLINE
  5
313
100
AcDbEntity
  8
0
100
AcDbSpline
 62
7
  6
CONTINUOUS
 70
0
 71
3
 72
101
 73
97
 74
95
 42
0.0000001
 43
0.0000001
 44
0.0000000001
 12
24.6746146102
 22
20.4817754177
 32
0.0
 13
-27.8262534633
 23
18.6824981871
 33
0.0
 40
0.0
 40
0.0
 40
0.0
 40
0.0
 40
0.0167729508
 40
0.032822071
 40
0.0477985063
 40
0.0613750679
 40
0.0733006829
 40
0.0836449141
 40
0.0926306002
 40
0.1005997618
 40
0.1079176483
 40
0.114990027
 40
0.1221762255
 40
0.1294722266
 40
0.1367667096
 40
0.1439315155
 40
0.1511186919
 40
0.1588783255
 40
0.1676658164
 40
0.177608425
 40
0.1886238566
 40
0.2006919222
 40
0.2140504949
 40
0.2288610729
 40
0.2447366646
 40
0.2610027604
 40
0.2773518176
 40
0.2937923632
 40
0.3101839318
 40
0.326170697
 40
0.3411674558
 40
0.3543755199
 40
0.3656619918
 40
0.3754687486
 40
0.3843691368
 40
0.392698529
 40
0.4009022815
 40
0.4096216079
 40
0.4193789405
 40
0.4305489177
 40
0.4436009601
 40
0.4582246404
 40
0.4733331679
 40
0.4884078703
 40
0.5034978495
 40
0.5183933072
 40
0.5326913133
 40
0.5461596227
 40
0.5586881626
 40
0.5702836749
 40
0.5810382615
 40
0.590819995
 40
0.59918421
 40
0.6061965888
 40
0.6124301989
 40
0.6185843836
 40
0.6252427023
 40
0.6327267296
 40
0.6413847747
 40
0.6515347766
 40
0.6633266242
 40
0.6768394087
 40
0.6924329723
 40
0.7088710475
 40
0.7249250252
 40
0.7407252529
 40
0.7565153171
 40
0.7722069174
 40
0.787104961
 40
0.7998270962
 40
0.8099341919
 40
0.8178286458
 40
0.8239869659
 40
0.8288372645
 40
0.8330038483
 40
0.8371426803
 40
0.8419156303
 40
0.8478549246
 40
0.8551315885
 40
0.8638893631
 40
0.8742991692
 40
0.8864630812
 40
0.900156222
 40
0.9134810981
 40
0.9260549453
 40
0.9379826518
 40
0.9493935631
 40
0.96028025
 40
0.9703238933
 40
0.9791112551
 40
0.9861253201
 40
0.9911821442
 40
0.9945225947
 40
0.9965188803
 40
0.9978881258
 40
1.0
 40
1.0
 40
1.0
 40
1.0
 10
175.4595252009
 20
109.9392494516
 30
0.0
 10
175.5974805666
 20
110.0537627222
 30
0.0
 10
175.8677916183
 20
110.2774202033
 30
0.0
 10
176.2582765305
 20
110.6069514112
 30
0.0
 10
176.6155966106
 20
110.9226882489
 30
0.0
 10
176.929149028
 20
111.2210552551
 30
0.0
 10
177.1932026437
 20
111.4989896096
 30
0.0
 10
177.4083241344
 20
111.7549322959
 30
0.0
 10
177.5797849764
 20
111.991402011
 30
0.0
 10
177.7143737283
 20
112.2136241315
 30
0.0
 10
177.8181508867
 20
112.4293735946
 30
0.0
 10
177.8954855902
 20
112.6471772275
 30
0.0
 10
177.9456929936
 20
112.8727152027
 30
0.0
 10
177.9646476215
 20
113.1055214518
 30
0.0
 10
177.9496177211
 20
113.3384240041
 30
0.0
 10
177.9019652998
 20
113.565556338
 30
0.0
 10
177.8250173947
 20
113.7895724029
 30
0.0
 10
177.7170128146
 20
114.0196185232
 30
0.0
 10
177.5721303541
 20
114.2633685826
 30
0.0
 10
177.3863233728
 20
114.5218193365
 30
0.0
 10
177.1592953036
 20
114.7924983323
 30
0.0
 10
176.8919206386
 20
115.0760119727
 30
0.0
 10
176.5829048186
 20
115.3753363508
 30
0.0
 10
176.23372401
 20
115.691233482
 30
0.0
 10
175.8537195577
 20
116.0191180317
 30
0.0
 10
175.4576095487
 20
116.3534260452
 30
0.0
 10
175.0571874484
 20
116.6919918148
 30
0.0
 10
174.6602090105
 20
117.0366807096
 30
0.0
 10
174.2751312203
 20
117.3889947955
 30
0.0
 10
173.9158109598
 20
117.7461313735
 30
0.0
 10
173.6018311982
 20
118.0996503449
 30
0.0
 10
173.3497900329
 20
118.4391334226
 30
0.0
 10
173.1638984325
 20
118.756151494
 30
0.0
 10
173.0387342445
 20
119.052525664
 30
0.0
 10
172.9696937108
 20
119.3346011255
 30
0.0
 10
172.9528439914
 20
119.6074604104
 30
0.0
 10
172.9865885323
 20
119.8768454328
 30
0.0
 10
173.0751149541
 20
120.1497385154
 30
0.0
 10
173.2278129715
 20
120.4292992773
 30
0.0
 10
173.4516810784
 20
120.7169251839
 30
0.0
 10
173.7480031885
 20
121.0091678161
 30
0.0
 10
174.1055542373
 20
121.2952772159
 30
0.0
 10
174.5005216023
 20
121.5666572422
 30
0.0
 10
174.9118440427
 20
121.8218236673
 30
0.0
 10
175.3283649086
 20
122.0637724499
 30
0.0
 10
175.7410907001
 20
122.2955608207
 30
0.0
 10
176.1388154529
 20
122.5186551804
 30
0.0
 10
176.5116452383
 20
122.7343985178
 30
0.0
 10
176.8534493812
 20
122.9458503795
 30
0.0
 10
177.1613627497
 20
123.1563939326
 30
0.0
 10
177.4312928237
 20
123.3693869651
 30
0.0
 10
177.6532976234
 20
123.5854180343
 30
0.0
 10
177.816047413
 20
123.8012345495
 30
0.0
 10
177.9175954523
 20
124.0106136401
 30
0.0
 10
177.963952734
 20
124.2147902414
 30
0.0
 10
177.9582205624
 20
124.4203902703
 30
0.0
 10
177.9005731694
 20
124.6313695073
 30
0.0
 10
177.7906840965
 20
124.850304123
 30
0.0
 10
177.6262952574
 20
125.0793640279
 30
0.0
 10
177.4039184914
 20
125.3200702797
 30
0.0
 10
177.1221871737
 20
125.5741056049
 30
0.0
 10
176.7788586038
 20
125.8451026797
 30
0.0
 10
176.3823958942
 20
126.1278742903
 30
0.0
 10
175.95432951
 20
126.4124886728
 30
0.0
 10
175.5194170135
 20
126.6905754014
 30
0.0
 10
175.0884828084
 20
126.9619831589
 30
0.0
 10
174.6616351268
 20
127.2326160249
 30
0.0
 10
174.2465884323
 20
127.5038118636
 30
0.0
 10
173.86633626
 20
127.7681128493
 30
0.0
 10
173.546925947
 20
128.0147098167
 30
0.0
 10
173.3019199369
 20
128.2339832739
 30
0.0
 10
173.1278535626
 20
128.4256543112
 30
0.0
 10
173.0163489849
 20
128.5955831326
 30
0.0
 10
172.9600127097
 20
128.7498127677
 30
0.0
 10
172.9563423866
 20
128.8935848612
 30
0.0
 10
173.0090955617
 20
129.0269913422
 30
0.0
 10
173.1184530483
 20
129.1455762763
 30
0.0
 10
173.2805971264
 20
129.2511340435
 30
0.0
 10
173.4962919964
 20
129.345856296
 30
0.0
 10
173.7665376563
 20
129.430080616
 30
0.0
 10
174.0934147913
 20
129.5040993389
 30
0.0
 10
174.4758125497
 20
129.5686242168
 30
0.0
 10
174.8913493507
 20
129.6216545714
 30
0.0
 10
175.312491088
 20
129.6637296646
 30
0.0
 10
175.7154641035
 20
129.6970297214
 30
0.0
 10
176.0983405062
 20
129.724805924
 30
0.0
 10
176.4633207366
 20
129.7497694358
 30
0.0
 10
176.8082143455
 20
129.773904939
 30
0.0
 10
177.1248035035
 20
129.7987111713
 30
0.0
 10
177.4001419204
 20
129.8252565776
 30
0.0
 10
177.6203507932
 20
129.8548369348
 30
0.0
 10
177.784213171
 20
129.8862865024
 30
0.0
 10
177.8863424575
 20
129.920291322
 30
0.0
 10
177.9570579621
 20
129.9563670309
 30
0.0
 10
177.9605189403
 20
130.0238049999
 30
0.0
 10
177.9278925308
 20
130.0479907251
 30
0.0
 10
177.9083040155
 20
130.0611424202
 30
0.0
 11
175.4595252009
 21
109.9392494516
 31
0.0
 11
175.8731849493
 21
110.2830377021
 31
0.0
 11
176.265727047
 21
110.6158808273
 31
0.0
 11
176.6247285074
 21
110.9348917752
 31
0.0
 11
176.9391918295
 21
111.2359889536
 31
0.0
 11
177.2017632536
 21
111.5140303617
 31
0.0
 11
177.4143429905
 21
111.7686779898
 31
0.0
 11
177.5826647221
 21
112.0025552442
 31
0.0
 11
177.7142313536
 21
112.2216386635
 31
0.0
 11
177.8153565095
 21
112.4333998514
 31
0.0
 11
177.8906754916
 21
112.6473229758
 31
0.0
 11
177.9402349801
 21
112.8723758822
 31
0.0
 11
177.958952832
 21
113.1055921843
 31
0.0
 11
177.9439694434
 21
113.3390293755
 31
0.0
 11
177.8974412909
 21
113.5640279982
 31
0.0
 11
177.8233096126
 21
113.782257008
 31
0.0
 11
177.7183467622
 21
114.0078697391
 31
0.0
 11
177.5752440386
 21
114.25062476
 31
0.0
 11
177.3900643029
 21
114.5101733472
 31
0.0
 11
177.1640987032
 21
114.7816839664
 31
0.0
 11
176.8994251607
 21
115.0640197056
 31
0.0
 11
176.5924848288
 21
115.3628446773
 31
0.0
 11
176.2409838621
 21
115.6822452125
 31
0.0
 11
175.8562891896
 21
116.0156923749
 31
0.0
 11
175.4583373305
 21
116.3529140865
 31
0.0
 11
175.0586747718
 21
116.6922317601
 31
0.0
 11
174.6613273948
 21
117.038738022
 31
0.0
 11
174.2744550777
 21
117.3945859541
 31
0.0
 11
173.9122584203
 21
117.7573988762
 31
0.0
 11
173.594885895
 21
118.1187174888
 31
0.0
 11
173.3443833702
 21
118.4602513684
 31
0.0
 11
173.1634061422
 21
118.7736867402
 31
0.0
 11
173.0432773317
 21
119.0643188945
 31
0.0
 11
172.9769302805
 21
119.3419156618
 31
0.0
 11
172.9611483537
 21
119.6085537715
 31
0.0
 11
172.9937807944
 21
119.8695978043
 31
0.0
 11
173.0792113719
 21
120.1358361238
 31
0.0
 11
173.2270778459
 21
120.4115880862
 31
0.0
 11
173.4446375369
 21
120.6961440097
 31
0.0
 11
173.7405010661
 21
120.9921987701
 31
0.0
 11
174.1047951405
 21
121.2874992294
 31
0.0
 11
174.5028652014
 21
121.5636819097
 31
0.0
 11
174.9128980103
 21
121.8197285039
 31
0.0
 11
175.3307433815
 21
122.0637897377
 31
0.0
 11
175.7466791474
 21
122.2986513258
 31
0.0
 11
176.1460336284
 21
122.5239124066
 31
0.0
 11
176.5192229781
 21
122.7413193088
 31
0.0
 11
176.86021349
 21
122.9537766188
 31
0.0
 11
177.1662151805
 21
123.1650331371
 31
0.0
 11
177.4354159297
 21
123.3806019089
 31
0.0
 11
177.6577922719
 21
123.6018318412
 31
0.0
 11
177.8167396171
 21
123.8178838801
 31
0.0
 11
177.9126811435
 21
124.0212609743
 31
0.0
 11
177.9557030185
 21
124.2164742834
 31
0.0
 11
177.9508660847
 21
124.4137657723
 31
0.0
 11
177.8967135432
 21
124.6203017308
 31
0.0
 11
177.7913708099
 21
124.8359424033
 31
0.0
 11
177.6315788594
 21
125.0629945404
 31
0.0
 11
177.412662061
 21
125.3038629799
 31
0.0
 11
177.1333978788
 21
125.5588134867
 31
0.0
 11
176.7943797937
 21
125.8286963968
 31
0.0
 11
176.3882503227
 21
126.1204311115
 31
0.0
 11
175.9500480863
 21
126.4134273669
 31
0.0
 11
175.5168163257
 21
126.6915360621
 31
0.0
 11
175.088526078
 21
126.9622565658
 31
0.0
 11
174.6613705702
 21
127.2341575318
 31
0.0
 11
174.2408510918
 21
127.5105045544
 31
0.0
 11
173.8497492389
 21
127.78487856
 31
0.0
 11
173.5282729496
 21
128.0360609273
 31
0.0
 11
173.2886431933
 21
128.2542946606
 31
0.0
 11
173.1211371526
 21
128.4441112267
 31
0.0
 11
173.0161653538
 21
128.6113852813
 31
0.0
 11
172.9664323664
 21
128.75875804
 31
0.0
 11
172.9653490948
 21
128.892366562
 31
0.0
 11
173.0129385564
 21
129.0162642233
 31
0.0
 11
173.1133733955
 21
129.1317609936
 31
0.0
 11
173.2706845802
 21
129.2391299753
 31
0.0
 11
173.4830855586
 21
129.3357542287
 31
0.0
 11
173.7505087604
 21
129.4215275634
 31
0.0
 11
174.0756479592
 21
129.4971554151
 31
0.0
 11
174.4600392375
 21
129.5634673222
 31
0.0
 11
174.8954753264
 21
129.620135441
 31
0.0
 11
175.3205904576
 21
129.6632774508
 31
0.0
 11
175.7224002728
 21
129.6969087708
 31
0.0
 11
176.1038665132
 21
129.724937084
 31
0.0
 11
176.4689120136
 21
129.7502504221
 31
0.0
 11
176.8171425436
 21
129.7750349564
 31
0.0
 11
177.1381880175
 21
129.8007903122
 31
0.0
 11
177.4185643614
 21
129.8289889585
 31
0.0
 11
177.6413205996
 21
129.8601497951
 31
0.0
 11
177.800007073
 21
129.8935378521
 31
0.0
 11
177.9010537158
 21
129.9290964956
 31
0.0
 11
177.9519317882
 21
129.9679489903
 31
0.0
 11
177.9546616893
 21
130.0117726509
 31
0.0
 11
177.9083040155
 21
130.0611424202
 31
0.0
  0
SPLINE
  5
314
100
AcDbEntity
  8
0
100
AcDbSpline
 62
7
  6
CONTINUOUS
 70
0
 71
3
 72
20
 73
16
 74
14
 42
0.0000001
 43
0.0000001
 44
0.0000000001
 12
-2.7235662496
 22
-0.4894150442
 32
0.0
 13
2.3103782479
 23
1.5039453431
 33
0.0
 40
0.0
 40
0.0
 40
0.0
 40
0.0
 40
0.1772370954
 40
0.3358407285
 40
0.4750765196
 40
0.5945555708
 40
0.6955350199
 40
0.7772928753
 40
0.8388775475
 40
0.8811540969
 40
0.9069024505
 40
0.9231649993
 40
0.9458007816
 40
0.9838695429
 40
1.0
 40
1.0
 40
1.0
 40
1.0
 10
175.4595252009
 20
89.1873115556
 30
0.0
 10
175.2986195438
 20
89.1583973886
 30
0.0
 10
174.9932957906
 20
89.1059457545
 30
0.0
 10
174.5602730528
 20
89.038665103
 30
0.0
 10
174.178876393
 20
88.9862271767
 30
0.0
 10
173.8493444955
 20
88.9481048389
 30
0.0
 10
173.5713842912
 20
88.9235316861
 30
0.0
 10
173.3468073668
 20
88.9129793937
 30
0.0
 10
173.1739707114
 20
88.9138629786
 30
0.0
 10
173.0580693907
 20
88.9303794809
 30
0.0
 10
172.9774085815
 20
88.9515886452
 30
0.0
 10
172.9506377028
 20
89.0150554185
 30
0.0
 10
173.0025836247
 20
89.0756432858
 30
0.0
 10
173.0563444227
 20
89.1179886588
 30
0.0
 10
173.0973882228
 20
89.145721742
 30
0.0
 10
173.1098107085
 20
89.1538081839
 30
0.0
 11
175.4595252009
 21
89.1873115556
 31
0.0
 11
174.9761359389
 21
89.1043973999
 31
0.0
 11
174.542413378
 21
89.0372707004
 31
0.0
 11
174.160653759
 21
88.9852185416
 31
0.0
 11
173.8321634199
 21
88.9477419575
 31
0.0
 11
173.5537363989
 21
88.9240958836
 31
0.0
 11
173.3277071493
 21
88.9143441301
 31
0.0
 11
173.1573397591
 21
88.9184344884
 31
0.0
 11
173.0416408972
 21
88.935748883
 31
0.0
 11
172.9768978804
 21
88.9654976255
 31
0.0
 11
172.9606812039
 21
89.0074757142
 31
0.0
 11
172.9923769029
 21
89.0615020061
 31
0.0
 11
173.0732342332
 21
89.129024919
 31
0.0
 11
173.1098107085
 21
89.1538081839
 31
0.0
  0
SPLINE
  5
315
100
AcDbEntity
  8
BEZUGSACHSEN
100
AcDbSpline
 62
7
  6
CONTINUOUS
 70
0
 71
3
 72
18
 73
14
 74
12
 42
0.0000001
 43
0.0000001
 44
0.0000000001
 12
2.6649574597
 22
0.7874059599
 32
0.0
 13
2.6649574596
 23
-0.7874059599
 33
0.0
 40
0.0
 40
0.0
 40
0.0
 40
0.0
 40
0.0790030876
 40
0.1649075646
 40
0.2565359497
 40
0.3522353799
 40
0.4504356668
 40
0.549564288
 40
0.6477639409
 40
0.74346143
 40
0.8350907668
 40
0.9209958145
 40
1.0
 40
1.0
 40
1.0
 40
1.0
 10
132.8363079437
 20
153.2877367924
 30
0.0
 10
132.9064878996
 20
153.3084726264
 30
0.0
 10
133.054760986
 20
153.3458124017
 30
0.0
 10
133.2884770725
 20
153.3893685707
 30
0.0
 10
133.5394975789
 20
153.4225041725
 30
0.0
 10
133.8031220628
 20
153.4448119543
 30
0.0
 10
134.0743974421
 20
153.4560320851
 30
0.0
 10
134.3482177313
 20
153.4560320877
 30
0.0
 10
134.6194907279
 20
153.4448120969
 30
0.0
 10
134.8831137246
 20
153.4225046376
 30
0.0
 10
135.1341338875
 20
153.3893693822
 30
0.0
 10
135.3678524017
 20
153.3458129875
 30
0.0
 10
135.5161270125
 20
153.3084729146
 30
0.0
 10
135.5863079437
 20
153.2877367924
 30
0.0
 11
132.8363079437
 21
153.2877367924
 31
0.0
 11
133.0490068151
 21
153.3421058951
 31
0.0
 11
133.2835807833
 21
153.3863801652
 31
0.0
 11
133.5359627503
 21
153.4200767925
 31
0.0
 11
133.8009300792
 21
153.4427349213
 31
0.0
 11
134.0735761041
 21
153.4541253269
 31
0.0
 11
134.3490396568
 21
153.4541253296
 31
0.0
 11
134.6216839232
 21
153.4427350405
 31
0.0
 11
134.8866458959
 21
153.4200775802
 31
0.0
 11
135.1390305233
 21
153.386380898
 31
0.0
 11
135.3736060913
 21
153.3421065518
 31
0.0
 11
135.5863079437
 21
153.2877367924
 31
0.0
  0
SPLINE
  5
316
100
AcDbEntity
  8
0
100
AcDbSpline
 62
7
  6
CONTINUOUS
 70
0
 71
3
 72
17
 73
13
 74
11
 42
0.0000001
 43
0.0000001
 44
0.0000000001
 12
-1.7939020719
 22
0.0
 32
0.0
 13
0.0
 23
1.7939020719
 33
0.0
 40
0.0
 40
0.0
 40
0.0
 40
0.0
 40
0.0802012574
 40
0.1609973583
 40
0.2439098089
 40
0.3308257498
 40
0.4251753441
 40
0.5272795566
 40
0.6355099003
 40
0.7499299364
 40
0.8718553184
 40
1.0
 40
1.0
 40
1.0
 40
1.0
 10
127.2863079437
 20
71.5131840793
 30
0.0
 10
127.2383502098
 20
71.5131840793
 30
0.0
 10
127.1418530527
 20
71.5220472407
 30
0.0
 10
127.0006781862
 20
71.5614801898
 30
0.0
 10
126.8648410412
 20
71.6265053073
 30
0.0
 10
126.7350908541
 20
71.7178256609
 30
0.0
 10
126.6134610943
 20
71.8368281477
 30
0.0
 10
126.5042270655
 20
71.9835379737
 30
0.0
 10
126.412413439
 20
72.1554339234
 30
0.0
 10
126.3419581745
 20
72.3497864352
 30
0.0
 10
126.2967121496
 20
72.5636752541
 30
0.0
 10
126.2863079437
 20
72.7134306608
 30
0.0
 10
126.2863079437
 20
72.7900569974
 30
0.0
 11
127.2863079437
 21
71.5131840793
 31
0.0
 11
127.1430314707
 21
71.5262741702
 31
0.0
 11
127.003370748
 21
71.5650371812
 31
0.0
 11
126.8690691786
 21
71.62895689
 31
0.0
 11
126.7413224548
 21
71.7183515839
 31
0.0
 11
126.6199936718
 21
71.836360991
 31
0.0
 11
126.5101803545
 21
71.9829571619
 31
0.0
 11
126.4182800234
 21
72.1539845063
 31
0.0
 11
126.3479427778
 21
72.346815152
 31
0.0
 11
126.3023903035
 21
72.5607412394
 31
0.0
 11
126.2863079437
 21
72.7900569974
 31
0.0
  0
SPLINE
  5
317
100
AcDbEntity
  8
0
100
AcDbSpline
 62
7
  6
CONTINUOUS
 70
0
 71
3
 72
15
 73
11
 74
9
 42
0.0000001
 43
0.0000001
 44
0.0000000001
 12
-0.9144692773
 22
0.0
 32
0.0
 13
-0.0
 23
-0.9144692773
 33
0.0
 40
0.0
 40
0.0
 40
0.0
 40
0.0
 40
0.0949364413
 40
0.1983365165
 40
0.3075814933
 40
0.4254811708
 40
0.5538247985
 40
0.6914622192
 40
0.8393286337
 40
1.0
 40
1.0
 40
1.0
 40
1.0
 10
132.8363079437
 20
75.5642494516
 30
0.0
 10
132.8073691241
 20
75.5642494516
 30
0.0
 10
132.7466974706
 20
75.5571828307
 30
0.0
 10
132.6578640974
 20
75.5246907886
 30
0.0
 10
132.5727409856
 20
75.4693043723
 30
0.0
 10
132.4955852455
 20
75.3922034977
 30
0.0
 10
132.4296628645
 20
75.2947269543
 30
0.0
 10
132.3781980052
 20
75.1788734646
 30
0.0
 10
132.3442771944
 20
75.0465642413
 30
0.0
 10
132.3363079437
 20
74.9523067255
 30
0.0
 10
132.3363079437
 20
74.9033303827
 30
0.0
 11
132.8363079437
 21
75.5642494516
 31
0.0
 11
132.7500631372
 21
75.5543030516
 31
0.0
 11
132.6611253441
 21
75.5221947597
 31
0.0
 11
132.577096759
 21
75.4681629018
 31
0.0
 11
132.5004100515
 21
75.3923779456
 31
0.0
 11
132.4341924014
 21
75.2954755605
 31
0.0
 11
132.3826769842
 21
75.1806356349
 31
0.0
 11
132.3488078791
 21
75.0497267315
 31
0.0
 11
132.3363079437
 21
74.9033303827
 31
0.0
  0
SPLINE
  5
318
100
AcDbEntity
  8
0
100
AcDbSpline
 62
7
  6
CONTINUOUS
 70
0
 71
3
 72
15
 73
11
 74
9
 42
0.0000001
 43
0.0000001
 44
0.0000000001
 12
0.0
 22
0.9144691594
 32
0.0
 13
-0.9144691594
 23
0.0
 33
0.0
 40
0.0
 40
0.0
 40
0.0
 40
0.0
 40
0.1608656922
 40
0.3087309879
 40
0.446232513
 40
0.5744646131
 40
0.6922955283
 40
0.8013450674
 40
0.904866844
 40
1.0
 40
1.0
 40
1.0
 40
1.0
 10
136.0863079437
 20
74.9033303827
 30
0.0
 10
136.0863079437
 20
74.9523659542
 30
0.0
 10
136.0783240572
 20
75.0466831334
 30
0.0
 10
136.0443702211
 20
75.1790020455
 30
0.0
 10
135.9929180943
 20
75.2947766854
 30
0.0
 10
135.927049958
 20
75.3921713542
 30
0.0
 10
135.8499872289
 20
75.4692013066
 30
0.0
 10
135.764927696
 20
75.5245978494
 30
0.0
 10
135.6760766623
 20
75.5571563732
 30
0.0
 10
135.6153067228
 20
75.5642494516
 30
0.0
 10
135.5863079437
 20
75.5642494516
 30
0.0
 11
136.0863079437
 21
74.9033303827
 31
0.0
 11
136.073777621
 21
75.0499024688
 31
0.0
 11
136.0398801639
 21
75.1808029588
 31
0.0
 11
135.9883978209
 21
75.2955214983
 31
0.0
 11
135.9222377094
 21
75.3923396572
 31
0.0
 11
135.8456072561
 21
75.4680920576
 31
0.0
 11
135.7617529354
 21
75.5220644393
 31
0.0
 11
135.6727290874
 21
75.5542620285
 31
0.0
 11
135.5863079437
 21
75.5642494516
 31
0.0
  0
SPLINE
  5
319
100
AcDbEntity
  8
0
100
AcDbSpline
 62
7
  6
CONTINUOUS
 70
0
 71
3
 72
82
 73
78
 74
76
 42
0.0000001
 43
0.0000001
 44
0.0000000001
 12
23.3758252834
 22
14.2856861433
 32
0.0
 13
21.0765353181
 23
17.4951005232
 33
0.0
 40
0.0
 40
0.0
 40
0.0
 40
0.0
 40
0.0055913346
 40
0.0154370605
 40
0.0236922219
 40
0.0304715087
 40
0.0360903201
 40
0.0409907564
 40
0.0458369764
 40
0.0514943312
 40
0.0587073086
 40
0.0680634486
 40
0.0798969152
 40
0.094001207
 40
0.1093302827
 40
0.1250660786
 40
0.1411010144
 40
0.1575267416
 40
0.1745238667
 40
0.1914851697
 40
0.2070028242
 40
0.2204797366
 40
0.2320437695
 40
0.2418774079
 40
0.2503992861
 40
0.2581613214
 40
0.2656086572
 40
0.2733426413
 40
0.2821408966
 40
0.2926654676
 40
0.3051808849
 40
0.3191976051
 40
0.3343030076
 40
0.3503576218
 40
0.3672636361
 40
0.3849314361
 40
0.4032789025
 40
0.4222313293
 40
0.4416574014
 40
0.4612036598
 40
0.4802456487
 40
0.4975232325
 40
0.512210976
 40
0.5247687071
 40
0.5356998297
 40
0.5454959941
 40
0.554866821
 40
0.5643982231
 40
0.5743980578
 40
0.5852376642
 40
0.5971031432
 40
0.6100601349
 40
0.6241970413
 40
0.6395009753
 40
0.655944067
 40
0.6734369876
 40
0.6919277922
 40
0.7113858345
 40
0.7312654721
 40
0.750483109
 40
0.7684245829
 40
0.7849358495
 40
0.7998763302
 40
0.8130822261
 40
0.824849707
 40
0.8357703765
 40
0.8465636574
 40
0.8576666206
 40
0.8694999719
 40
0.8824393625
 40
0.8964535677
 40
0.9115242762
 40
0.9274592774
 40
0.9441615019
 40
0.9617325186
 40
0.9802978581
 40
1.0
 40
1.0
 40
1.0
 40
1.0
 10
177.2365180735
 20
91.0660609151
 30
0.0
 10
177.2800854272
 20
91.0926862655
 30
0.0
 10
177.3992603601
 20
91.1680054667
 30
0.0
 10
177.5761715844
 20
91.2929192156
 30
0.0
 10
177.7482453115
 20
91.4420247494
 30
0.0
 10
177.8720587374
 20
91.5855127871
 30
0.0
 10
177.9466941381
 20
91.7270816767
 30
0.0
 10
177.9672491277
 20
91.8693838065
 30
0.0
 10
177.9295650886
 20
92.0085428606
 30
0.0
 10
177.8344899294
 20
92.1424067537
 30
0.0
 10
177.678758691
 20
92.2745356523
 30
0.0
 10
177.456434483
 20
92.4092976459
 30
0.0
 10
177.1651092028
 20
92.5478563344
 30
0.0
 10
176.8148487344
 20
92.6871547748
 30
0.0
 10
176.4261811094
 20
92.825207452
 30
0.0
 10
176.0186179826
 20
92.9624477732
 30
0.0
 10
175.6011765033
 20
93.1017092227
 30
0.0
 10
175.1740713461
 20
93.2483897937
 30
0.0
 10
174.7422932022
 20
93.4073103434
 30
0.0
 10
174.3245494919
 20
93.5797237665
 30
0.0
 10
173.9467955594
 20
93.7632175493
 30
0.0
 10
173.6278035405
 20
93.952395141
 30
0.0
 10
173.3729638497
 20
94.1448135894
 30
0.0
 10
173.181525014
 20
94.341580495
 30
0.0
 10
173.0499494455
 20
94.5425321695
 30
0.0
 10
172.9741119012
 20
94.7476905035
 30
0.0
 10
172.9512510572
 20
94.9580450063
 30
0.0
 10
172.9800420465
 20
95.1768768806
 30
0.0
 10
173.0611600614
 20
95.4116560491
 30
0.0
 10
173.2007947774
 20
95.6678535971
 30
0.0
 10
173.4011018216
 20
95.9414916836
 30
0.0
 10
173.6555024647
 20
96.2245803568
 30
0.0
 10
173.9515716889
 20
96.5120875462
 30
0.0
 10
174.2806356893
 20
96.8026428483
 30
0.0
 10
174.637124784
 20
97.0970103175
 30
0.0
 10
175.0159664685
 20
97.39697024
 30
0.0
 10
175.4123889362
 20
97.7047639471
 30
0.0
 10
175.8212499755
 20
98.0227164753
 30
0.0
 10
176.234822989
 20
98.3524199534
 30
0.0
 10
176.6405350529
 20
98.6931228253
 30
0.0
 10
177.0166807864
 20
99.0380381846
 30
0.0
 10
177.3378742471
 20
99.3759848519
 30
0.0
 10
177.5901947872
 20
99.6956207562
 30
0.0
 10
177.773439981
 20
99.9933137209
 30
0.0
 10
177.8932335443
 20
100.2740920735
 30
0.0
 10
177.9554763945
 20
100.5433435689
 30
0.0
 10
177.9650750694
 20
100.8068541919
 30
0.0
 10
177.9221116256
 20
101.0689980502
 30
0.0
 10
177.825064027
 20
101.3303489083
 30
0.0
 10
177.6768602895
 20
101.5907645018
 30
0.0
 10
177.4807380494
 20
101.8515324159
 30
0.0
 10
177.2396214322
 20
102.1136689749
 30
0.0
 10
176.9563524412
 20
102.3779142756
 30
0.0
 10
176.6349024197
 20
102.646791559
 30
0.0
 10
176.2798245948
 20
102.9226554759
 30
0.0
 10
175.8954940928
 20
103.2080399755
 30
0.0
 10
175.4864676775
 20
103.5062789649
 30
0.0
 10
175.0614809278
 20
103.8196244583
 30
0.0
 10
174.6377257085
 20
104.1457398982
 30
0.0
 10
174.2374435509
 20
104.4792115863
 30
0.0
 10
173.8789769664
 20
104.8138392285
 30
0.0
 10
173.5734368074
 20
105.1463729425
 30
0.0
 10
173.329563319
 20
105.4742878641
 30
0.0
 10
173.1498562965
 20
105.7925923992
 30
0.0
 10
173.0304041585
 20
106.0990782653
 30
0.0
 10
172.9651821809
 20
106.3991696284
 30
0.0
 10
172.95282286
 20
106.7000656018
 30
0.0
 10
172.9929482781
 20
107.0068329599
 30
0.0
 10
173.0871069066
 20
107.3219096061
 30
0.0
 10
173.2372094401
 20
107.643893852
 30
0.0
 10
173.4417701876
 20
107.9694399932
 30
0.0
 10
173.6932023474
 20
108.2952349814
 30
0.0
 10
173.9844173655
 20
108.6195917652
 30
0.0
 10
174.3098143687
 20
108.942767322
 30
0.0
 10
174.6663373704
 20
109.2679410597
 30
0.0
 10
175.0526610286
 20
109.600695573
 30
0.0
 10
175.3211075708
 20
109.8243524671
 30
0.0
 10
175.4595252009
 20
109.9392494516
 30
0.0
 11
177.2365180735
 21
91.0660609151
 31
0.0
 11
177.3659038697
 21
91.1480441813
 31
0.0
 11
177.5850977814
 21
91.3051643295
 31
0.0
 11
177.7542768508
 21
91.4551962546
 31
0.0
 11
177.8727868528
 21
91.5981583568
 31
0.0
 11
177.9408594068
 21
91.7361940208
 31
0.0
 11
177.9579981658
 21
91.8693260871
 31
0.0
 11
177.9250201697
 21
91.9979101371
 31
0.0
 11
177.8387595349
 21
92.126645974
 31
0.0
 11
177.6911968365
 21
92.2580274134
 31
0.0
 11
177.4740634124
 21
92.3941606423
 31
0.0
 11
177.1825929668
 21
92.5359704887
 31
0.0
 11
176.8244534806
 21
92.6808630321
 31
0.0
 11
176.4293141929
 21
92.8228862594
 31
0.0
 11
176.0211436168
 21
92.9613862358
 31
0.0
 11
175.604763202
 21
93.1011845676
 31
0.0
 11
175.1795388239
 21
93.2482160417
 31
0.0
 11
174.7430613505
 21
93.4102359729
 31
0.0
 11
174.3143392218
 21
93.5892546096
 31
0.0
 11
173.9329687339
 21
93.7769424413
 31
0.0
 11
173.6168035427
 21
93.9675053762
 31
0.0
 11
173.3659993504
 21
94.1609798396
 31
0.0
 11
173.1802998499
 21
94.3560950153
 31
0.0
 11
173.0543369963
 21
94.552619496
 31
0.0
 11
172.9818182707
 21
94.7524842874
 31
0.0
 11
172.959563287
 21
94.9552610136
 31
0.0
 11
172.9852673802
 21
95.1655419219
 31
0.0
 11
173.0615436987
 21
95.3941508262
 31
0.0
 11
173.1969655348
 21
95.6486483277
 31
0.0
 11
173.3971455578
 21
95.9269494737
 31
0.0
 11
173.6518440376
 21
96.2142450351
 31
0.0
 11
173.9474928634
 21
96.5037098114
 31
0.0
 11
174.2763333954
 21
96.7956925496
 31
0.0
 11
174.6327305732
 21
97.0913722192
 31
0.0
 11
175.0115632272
 21
97.3925241499
 31
0.0
 11
175.4079875185
 21
97.701426294
 31
0.0
 11
175.8172013528
 21
98.0208746591
 31
0.0
 11
176.232546089
 21
98.3534866673
 31
0.0
 11
176.6414844791
 21
98.6990669696
 31
0.0
 11
177.0242076257
 21
99.0534387738
 31
0.0
 11
177.3483007883
 21
99.3983141409
 31
0.0
 11
177.5953990557
 21
99.7158110385
 31
0.0
 11
177.7731850615
 21
100.0102795897
 31
0.0
 11
177.8884921742
 21
100.28660741
 31
0.0
 11
177.9476765898
 21
100.5483315307
 31
0.0
 11
177.9565617724
 21
100.8048594955
 31
0.0
 11
177.9148591708
 21
101.0625875792
 31
0.0
 11
177.8213361534
 21
101.3200382597
 31
0.0
 11
177.6765001664
 21
101.5792301852
 31
0.0
 11
177.4828302508
 21
101.8402402196
 31
0.0
 11
177.2438734257
 21
102.1026569459
 31
0.0
 11
176.9619467651
 21
102.3681116177
 31
0.0
 11
176.6413673303
 21
102.6382164589
 31
0.0
 11
176.2864420112
 21
102.9155074172
 31
0.0
 11
175.9024115135
 21
103.2020623701
 31
0.0
 11
175.4938602993
 21
103.501429177
 31
0.0
 11
175.0656596887
 21
103.8187916807
 31
0.0
 11
174.6351497344
 21
104.1522272662
 31
0.0
 11
174.2318539063
 21
104.4905333903
 31
0.0
 11
173.8740322839
 21
104.8274046714
 31
0.0
 11
173.5700036459
 21
105.1622397273
 31
0.0
 11
173.3276929962
 21
105.4920362348
 31
0.0
 11
173.1515815969
 21
105.8080008922
 31
0.0
 11
173.0360080833
 21
106.108898474
 31
0.0
 11
172.9735646813
 21
106.4014428872
 31
0.0
 11
172.9612723534
 21
106.6968322956
 31
0.0
 11
172.9997918648
 21
106.9985108268
 31
0.0
 11
173.0912433439
 21
107.309476469
 31
0.0
 11
173.2392477398
 21
107.6315255514
 31
0.0
 11
173.4414706346
 21
107.9578123312
 31
0.0
 11
173.6921787339
 21
108.2857727311
 31
0.0
 11
173.982665928
 21
108.6115583655
 31
0.0
 11
174.3063525324
 21
108.9348749124
 31
0.0
 11
174.6610908882
 21
109.2601570137
 31
0.0
 11
175.0456643556
 21
109.5928883436
 31
0.0
 11
175.4595252009
 21
109.9392494516
 31
0.0
  0
SPLINE
  5
31A
100
AcDbEntity
  8
BEZUGSACHSEN
100
AcDbSpline
 62
7
  6
CONTINUOUS
 70
0
 71
3
 72
11
 73
7
 74
5
 42
0.0000001
 43
0.0000001
 44
0.0000000001
 12
0.1466530525
 22
0.1091609716
 32
0.0
 13
-0.0
 23
-0.1828202274
 33
0.0
 40
0.0
 40
0.0
 40
0.0
 40
0.0
 40
0.3685909
 40
0.5790694852
 40
0.7481480551
 40
1.0
 40
1.0
 40
1.0
 40
1.0
 10
136.0863079437
 20
153.7483630185
 30
0.0
 10
136.1043262706
 20
153.7617749321
 30
0.0
 10
136.1324047264
 20
153.7812689013
 30
0.0
 10
136.1823859966
 20
153.7936139447
 30
0.0
 10
136.2111434214
 20
153.7606005796
 30
0.0
 10
136.2113079437
 20
153.734032325
 30
0.0
 10
136.2113079437
 20
153.7186844484
 30
0.0
 11
136.0863079437
 21
153.7483630185
 31
0.0
 11
136.1443690646
 21
153.7825648021
 31
0.0
 11
136.1826701515
 21
153.786268496
 31
0.0
 11
136.2043068815
 21
153.7641927001
 31
0.0
 11
136.2113079437
 21
153.7186844484
 31
0.0
  0
SPLINE
  5
31B
100
AcDbEntity
  8
0
100
AcDbSpline
 62
7
  6
CONTINUOUS
 70
0
 71
3
 72
18
 73
14
 74
12
 42
0.0000001
 43
0.0000001
 44
0.0000000001
 12
0.0
 22
-1.7941659861
 32
0.0
 13
-1.7941659861
 23
-0.0
 33
0.0
 40
0.0
 40
0.0
 40
0.0
 40
0.0
 40
0.0988973863
 40
0.1990179389
 40
0.298142237
 40
0.3942602123
 40
0.4873724753
 40
0.5773889771
 40
0.66404199
 40
0.7481240866
 40
0.8323737182
 40
0.9166587544
 40
1.0
 40
1.0
 40
1.0
 40
1.0
 10
142.1363079437
 20
72.7900569974
 30
0.0
 10
142.1363079437
 20
72.7309108886
 30
0.0
 10
142.1299162318
 20
72.611786562
 30
0.0
 10
142.1008562787
 20
72.435501689
 30
0.0
 10
142.0523314757
 20
72.265230624
 30
0.0
 10
141.9855552628
 20
72.1057730451
 30
0.0
 10
141.9021713566
 20
71.9605459308
 30
0.0
 10
141.8037881468
 20
71.8320356991
 30
0.0
 10
141.6921373176
 20
71.7223762522
 30
0.0
 10
141.5680141409
 20
71.6327310893
 30
0.0
 10
141.4320698653
 20
71.5651148545
 30
0.0
 10
141.2866532574
 20
71.522782567
 30
0.0
 10
141.1861506197
 20
71.5131840793
 30
0.0
 10
141.1363079437
 20
71.5131840793
 30
0.0
 11
142.1363079437
 21
72.7900569974
 31
0.0
 11
142.1267437153
 21
72.6128766225
 31
0.0
 11
142.0973974859
 21
72.435657058
 31
0.0
 11
142.0484512827
 21
72.2646796584
 31
0.0
 11
141.981586833
 21
72.1057183413
 31
0.0
 11
141.8981188
 21
71.9610056999
 31
0.0
 11
141.7996485987
 21
71.8329926626
 31
0.0
 11
141.6884593944
 21
71.7243287449
 31
0.0
 11
141.565938715
 21
71.636314034
 31
0.0
 11
141.4304383933
 21
71.5693188819
 31
0.0
 11
141.285166297
 21
71.527319915
 31
0.0
 11
141.1363079437
 21
71.5131840793
 31
0.0
  0
SPLINE
  5
31C
100
AcDbEntity
  8
BEZUGSACHSEN
100
AcDbSpline
 62
7
  6
CONTINUOUS
 70
0
 71
3
 72
11
 73
7
 74
5
 42
0.0000001
 43
0.0000001
 44
0.0000000001
 12
0.0
 22
0.1828196579
 32
0.0
 13
0.1466525957
 23
-0.1091606316
 33
0.0
 40
0.0
 40
0.0
 40
0.0
 40
0.0
 40
0.2517066641
 40
0.420851872
 40
0.6313447066
 40
1.0
 40
1.0
 40
1.0
 40
1.0
 10
132.2113079437
 20
153.7186844484
 30
0.0
 10
132.2113079437
 20
153.7340234238
 30
0.0
 10
132.2114736552
 20
153.760580998
 30
0.0
 10
132.240207735
 20
153.7936122111
 30
0.0
 10
132.2902060942
 20
153.7812760533
 30
0.0
 10
132.3182865251
 20
153.7617772334
 30
0.0
 10
132.3363079437
 20
153.7483630185
 30
0.0
 11
132.2113079437
 21
153.7186844484
 31
0.0
 11
132.2182984702
 21
153.7641673027
 31
0.0
 11
132.2399314041
 21
153.7862637362
 31
0.0
 11
132.2782358483
 21
153.7825689527
 31
0.0
 11
132.3363079437
 21
153.7483630185
 31
0.0
  0
SPLINE
  5
31D
100
AcDbEntity
  8
0
100
AcDbSpline
 62
7
  6
CONTINUOUS
 70
0
 71
3
 72
87
 73
83
 74
81
 42
0.0000001
 43
0.0000001
 44
0.0000000001
 12
-27.16521825
 22
-5.8557195311
 32
0.0
 13
-21.4666113374
 23
-17.6389758026
 33
0.0
 40
0.0
 40
0.0
 40
0.0
 40
0.0
 40
0.0072608679
 40
0.017429843
 40
0.0258344935
 40
0.0327266056
 40
0.038261908
 40
0.0429928564
 40
0.047654875
 40
0.0529764029
 40
0.0596836666
 40
0.0683091125
 40
0.0793205274
 40
0.0930498103
 40
0.1092134991
 40
0.1265344837
 40
0.1441316821
 40
0.1619252749
 40
0.1800783411
 40
0.1988526001
 40
0.2174101517
 40
0.2340503401
 40
0.2484037766
 40
0.2606699431
 40
0.2710311978
 40
0.279878039
 40
0.2876775885
 40
0.2947699867
 40
0.3016934037
 40
0.3092279611
 40
0.3180541588
 40
0.3285361225
 40
0.3403567786
 40
0.3531457596
 40
0.3668140777
 40
0.3812950835
 40
0.3965163687
 40
0.4124130757
 40
0.4289790193
 40
0.446201528
 40
0.4637977612
 40
0.4812529744
 40
0.4974352593
 40
0.5113341035
 40
0.5232764226
 40
0.5338111348
 40
0.5433852434
 40
0.5526212343
 40
0.5622018771
 40
0.5725606865
 40
0.5841507079
 40
0.5975396232
 40
0.6130218084
 40
0.6301393423
 40
0.6480163187
 40
0.6664342291
 40
0.6854721061
 40
0.7048713233
 40
0.7241583158
 40
0.7425958464
 40
0.7593193428
 40
0.7741677865
 40
0.7875577951
 40
0.7997986827
 40
0.8107983427
 40
0.8204551213
 40
0.8290290143
 40
0.8370997731
 40
0.8452613423
 40
0.8535317372
 40
0.8617821958
 40
0.869864013
 40
0.8778810896
 40
0.8862919406
 40
0.8955627352
 40
0.9061137251
 40
0.9181954033
 40
0.931889074
 40
0.9471547898
 40
0.9637674293
 40
0.9814728195
 40
1.0
 40
1.0
 40
1.0
 40
1.0
 10
175.133716247
 20
129.2798483006
 30
0.0
 10
175.0679685602
 20
129.2656757653
 30
0.0
 10
174.9107919512
 20
129.2286703784
 30
0.0
 10
174.6812999602
 20
129.1599034566
 30
0.0
 10
174.4633235836
 20
129.0681925868
 30
0.0
 10
174.2982985464
 20
128.9662072241
 30
0.0
 10
174.1846504059
 20
128.851859223
 30
0.0
 10
174.1258766279
 20
128.7228414607
 30
0.0
 10
174.1226864073
 20
128.5833590942
 30
0.0
 10
174.1710331116
 20
128.4343667922
 30
0.0
 10
174.2723713587
 20
128.2706763588
 30
0.0
 10
174.4337758788
 20
128.0867615519
 30
0.0
 10
174.6619564823
 20
127.8777933317
 30
0.0
 10
174.9600844703
 20
127.6436479112
 30
0.0
 10
175.3178220128
 20
127.3919867983
 30
0.0
 10
175.7133329086
 20
127.1323356322
 30
0.0
 10
176.1258091127
 20
126.8712009485
 30
0.0
 10
176.5463441749
 20
126.6084213369
 30
0.0
 10
176.9751866152
 20
126.3383607976
 30
0.0
 10
177.4062511984
 20
126.0585931452
 30
0.0
 10
177.8180970815
 20
125.7751538909
 30
0.0
 10
178.1845893849
 20
125.4986255575
 30
0.0
 10
178.4895107219
 20
125.2382556408
 30
0.0
 10
178.7310953422
 20
124.9947228731
 30
0.0
 10
178.9120371369
 20
124.7651728232
 30
0.0
 10
179.0373900197
 20
124.5474633365
 30
0.0
 10
179.1108670796
 20
124.3386241596
 30
0.0
 10
179.1337389494
 20
124.1358816055
 30
0.0
 10
179.1055801458
 20
123.9362479318
 30
0.0
 10
179.025420172
 20
123.7341607187
 30
0.0
 10
178.8874993381
 20
123.525576428
 30
0.0
 10
178.6899378554
 20
123.3142307052
 30
0.0
 10
178.4405522748
 20
123.1050428567
 30
0.0
 10
178.1515743223
 20
122.8993001515
 30
0.0
 10
177.8314050075
 20
122.6960050932
 30
0.0
 10
177.4849341376
 20
122.492698639
 30
0.0
 10
177.1165483771
 20
122.286197063
 30
0.0
 10
176.7300078828
 20
122.0726327652
 30
0.0
 10
176.3286113529
 20
121.8476261037
 30
0.0
 10
175.918055615
 20
121.6068623096
 30
0.0
 10
175.5091789559
 20
121.3473553427
 30
0.0
 10
175.123152103
 20
121.0707841602
 30
0.0
 10
174.7880228253
 20
120.784122649
 30
0.0
 10
174.5222671052
 20
120.4983912866
 30
0.0
 10
174.3288516009
 20
120.2208879364
 30
0.0
 10
174.2025473653
 20
119.9504449688
 30
0.0
 10
174.1351663874
 20
119.6854970874
 30
0.0
 10
174.1191314266
 20
119.4215527225
 30
0.0
 10
174.1524568088
 20
119.151942477
 30
0.0
 10
174.2382642072
 20
118.8714782093
 30
0.0
 10
174.380089379
 20
118.5754335274
 30
0.0
 10
174.5825116097
 20
118.2591808702
 30
0.0
 10
174.8474143486
 20
117.92492205
 30
0.0
 10
175.1660930456
 20
117.5824235349
 30
0.0
 10
175.5224286607
 20
117.2390908546
 30
0.0
 10
175.9043037067
 20
116.8972489834
 30
0.0
 10
176.30472367
 20
116.5552753423
 30
0.0
 10
176.7149936165
 20
116.2125264551
 30
0.0
 10
177.1204050136
 20
115.8726299163
 30
0.0
 10
177.5020768983
 20
115.5430209903
 30
0.0
 10
177.8443341758
 20
115.230858318
 30
0.0
 10
178.1413772994
 20
114.9388582514
 30
0.0
 10
178.3957702253
 20
114.66323788
 30
0.0
 10
178.6100340948
 20
114.3998510851
 30
0.0
 10
178.7833263289
 20
114.148813677
 30
0.0
 10
178.9166617533
 20
113.9127473084
 30
0.0
 10
179.0148041304
 20
113.6893257196
 30
0.0
 10
179.0833897864
 20
113.4695047556
 30
0.0
 10
179.1225788167
 20
113.2452436122
 30
0.0
 10
179.1290440936
 20
113.0159117084
 30
0.0
 10
179.1024014164
 20
112.788853927
 30
0.0
 10
179.0461605312
 20
112.5698532121
 30
0.0
 10
178.9640254853
 20
112.357756391
 30
0.0
 10
178.8552688028
 20
112.1456239331
 30
0.0
 10
178.7146362319
 20
111.9248067963
 30
0.0
 10
178.5362795762
 20
111.6889025941
 30
0.0
 10
178.3151685378
 20
111.4350381088
 30
0.0
 10
178.0492450247
 20
111.1632126816
 30
0.0
 10
177.7401578743
 20
110.8756461765
 30
0.0
 10
177.3936046016
 20
110.5742752762
 30
0.0
 10
177.0177184889
 20
110.260821316
 30
0.0
 10
176.7581298712
 20
110.0481829479
 30
0.0
 10
176.6255579434
 20
109.9392494516
 30
0.0
 11
175.133716247
 21
129.2798483006
 31
0.0
 11
174.9374231631
 21
129.2332151219
 31
0.0
 11
174.6674286326
 21
129.1499763975
 31
0.0
 11
174.4533226413
 21
129.0567687556
 31
0.0
 11
174.2925124289
 21
128.9528044333
 31
0.0
 11
174.1873403412
 21
128.8405947393
 31
0.0
 11
174.1344700312
 21
128.7202519315
 31
0.0
 11
174.1296073708
 21
128.5908138624
 31
0.0
 11
174.1717507505
 21
128.4490940963
 31
0.0
 11
174.266540597
 21
128.2886483181
 31
0.0
 11
174.4218548098
 21
128.1061402574
 31
0.0
 11
174.645573881
 21
127.8974549722
 31
0.0
 11
174.9441608984
 21
127.6600672867
 31
0.0
 11
175.3103464453
 21
127.4000841356
 31
0.0
 11
175.7119025813
 21
127.1348482531
 31
0.0
 11
176.1245252185
 21
126.8725786982
 31
0.0
 11
176.5433699957
 21
126.6099434232
 31
0.0
 11
176.9697128601
 21
126.3404716918
 31
0.0
 11
177.4066288996
 21
126.0555237051
 31
0.0
 11
177.8304336226
 21
125.7618650408
 31
0.0
 11
178.198397037
 21
125.4819500921
 31
0.0
 11
178.5002301728
 21
125.2213075343
 31
0.0
 11
178.7383276619
 21
124.9774712806
 31
0.0
 11
178.9145534353
 21
124.7498366824
 31
0.0
 11
179.0349813315
 21
124.5355589783
 31
0.0
 11
179.1046947753
 21
124.3303761825
 31
0.0
 11
179.1254638417
 21
124.134418778
 31
0.0
 11
179.0992969364
 21
123.9438468453
 31
0.0
 11
179.023983974
 21
123.7485236477
 31
0.0
 11
178.8911310911
 21
123.5424016166
 31
0.0
 11
178.6946892969
 21
123.3273996393
 31
0.0
 11
178.4449199897
 21
123.1141437007
 31
0.0
 11
178.1565355876
 21
122.9065554595
 31
0.0
 11
177.8366469683
 21
122.7018874042
 31
0.0
 11
177.4902111043
 21
122.4972914468
 31
0.0
 11
177.1218002957
 21
122.2896273024
 31
0.0
 11
176.7356470153
 21
122.0752416449
 31
0.0
 11
176.3346381064
 21
121.8493253778
 31
0.0
 11
175.9224731344
 21
121.6062379446
 31
0.0
 11
175.5106127463
 21
121.3428227599
 31
0.0
 11
175.1179510956
 21
121.058186751
 31
0.0
 11
174.778244498
 21
120.7636585565
 31
0.0
 11
174.5174208604
 21
120.4788876519
 31
0.0
 11
174.3301007288
 21
120.2050159059
 31
0.0
 11
174.2078380282
 21
119.9390782389
 31
0.0
 11
174.1428272255
 21
119.681137989
 31
0.0
 11
174.1270647807
 21
119.4250100752
 31
0.0
 11
174.1588378633
 21
119.1607248749
 31
0.0
 11
174.2412294958
 21
118.8849613176
 31
0.0
 11
174.378190678
 21
118.5935227426
 31
0.0
 11
174.5767413412
 21
118.278944382
 31
0.0
 11
174.8420620285
 21
117.9403597153
 31
0.0
 11
175.1642960817
 21
117.59056845
 31
0.0
 11
175.5208453281
 21
117.2447695099
 31
0.0
 11
175.9013056425
 21
116.9025561295
 31
0.0
 11
176.302787991
 21
116.5581760195
 31
0.0
 11
176.7156904953
 21
116.2117387926
 31
0.0
 11
177.1255735234
 21
115.8665552434
 31
0.0
 11
177.5124871807
 21
115.5308230936
 31
0.0
 11
177.8550646273
 21
115.2169190476
 31
0.0
 11
178.1484981986
 21
114.9269308522
 31
0.0
 11
178.3999476515
 21
114.6527453573
 31
0.0
 11
178.6135443385
 21
114.3880856591
 31
0.0
 11
178.7862641389
 21
114.1359588878
 31
0.0
 11
178.9173552782
 21
113.9018607264
 31
0.0
 11
179.0124125758
 21
113.6834314744
 31
0.0
 11
179.0784618556
 21
113.4691418561
 31
0.0
 11
179.1169831214
 21
113.2456769542
 31
0.0
 11
179.1234813572
 21
113.0159844717
 31
0.0
 11
179.0971055762
 21
112.7882764788
 31
0.0
 11
179.0417859961
 21
112.5706525413
 31
0.0
 11
178.9618987064
 21
112.3627249356
 31
0.0
 11
178.8559105311
 21
112.1544557976
 31
0.0
 11
178.71837119
 21
111.9366712527
 31
0.0
 11
178.5423958237
 21
111.7022173487
 31
0.0
 11
178.3227567965
 21
111.4483714906
 31
0.0
 11
178.0574694397
 21
111.1756521134
 31
0.0
 11
177.7477809847
 21
110.8858424689
 31
0.0
 11
177.4002472321
 21
110.5820949134
 31
0.0
 11
177.0231178882
 21
110.2662395034
 31
0.0
 11
176.6255579434
 21
109.9392494516
 31
0.0
  0
SPLINE
  5
31E
100
AcDbEntity
  8
BEZUGSACHSEN
100
AcDbSpline
 62
7
  6
CONTINUOUS
 70
0
 71
3
 72
15
 73
11
 74
9
 42
0.0000001
 43
0.0000001
 44
0.0000000001
 12
0.4760561224
 22
-0.1406586911
 32
0.0
 13
0.2770248016
 23
0.4127213128
 33
0.0
 40
0.0
 40
0.0
 40
0.0
 40
0.0
 40
0.2137265981
 40
0.3975143666
 40
0.545023092
 40
0.6636222032
 40
0.763049392
 40
0.8489419241
 40
0.9264410501
 40
1.0
 40
1.0
 40
1.0
 40
1.0
 10
135.5863079437
 20
153.2877367924
 30
0.0
 10
135.6202232289
 20
153.2777159579
 30
0.0
 10
135.6846717482
 20
153.2633194147
 30
0.0
 10
135.7748417698
 20
153.256033671
 30
0.0
 10
135.8494004151
 20
153.2603682641
 30
0.0
 10
135.9088919862
 20
153.2723657284
 30
0.0
 10
135.9563486875
 20
153.2896079337
 30
0.0
 10
135.9944304047
 20
153.3110447229
 30
0.0
 10
136.0247747774
 20
153.3362286114
 30
0.0
 10
136.0407199028
 20
153.3556773357
 30
0.0
 10
136.047512454
 20
153.3657971179
 30
0.0
 11
135.5863079437
 21
153.2877367924
 31
0.0
 11
135.6899064875
 21
153.2648607142
 31
0.0
 11
135.7808725947
 21
153.2578939567
 31
0.0
 11
135.8539484068
 21
153.2625427278
 31
0.0
 11
135.911586284
 21
153.2745375946
 31
0.0
 11
135.9578618803
 21
153.2917004398
 31
0.0
 11
135.9948864364
 21
153.3128454253
 31
0.0
 11
136.0243845286
 21
153.3375406689
 31
0.0
 11
136.047512454
 21
153.3657971179
 31
0.0
  0
SPLINE
  5
31F
100
AcDbEntity
  8
BEZUGSACHSEN
100
AcDbSpline
 62
7
  6
CONTINUOUS
 70
0
 71
3
 72
11
 73
7
 74
5
 42
0.0000001
 43
0.0000001
 44
0.0000000001
 12
0.0876048963
 22
0.1305168621
 32
0.0
 13
0.0
 23
0.1569794057
 33
0.0
 40
0.0
 40
0.0
 40
0.0
 40
0.0
 40
0.2327766658
 40
0.4766746357
 40
0.7353603662
 40
1.0
 40
1.0
 40
1.0
 40
1.0
 10
136.047512454
 20
153.3657971179
 30
0.0
 10
136.0543099125
 20
153.3759242112
 30
0.0
 10
136.0662361581
 20
153.3979933061
 30
0.0
 10
136.0783355888
 20
153.4347057125
 30
0.0
 10
136.0850297055
 20
153.4744130831
 30
0.0
 10
136.0863079437
 20
153.5018255698
 30
0.0
 10
136.0863079437
 20
153.5156732273
 30
0.0
 11
136.047512454
 21
153.3657971179
 31
0.0
 11
136.0649841923
 21
153.3978906291
 31
0.0
 11
136.0771775087
 21
153.434184075
 31
0.0
 11
136.0841743938
 21
153.4741850781
 31
0.0
 11
136.0863079437
 21
153.5156732273
 31
0.0
  0
SPLINE
  5
320
100
AcDbEntity
  8
0
100
AcDbSpline
 62
7
  6
CONTINUOUS
 70
0
 71
3
 72
21
 73
17
 74
15
 42
0.0000001
 43
0.0000001
 44
0.0000000001
 12
2.814697263
 22
-0.505790959
 32
0.0
 13
-2.7896228121
 23
-0.6357254218
 33
0.0
 40
0.0
 40
0.0
 40
0.0
 40
0.0
 40
0.1499160013
 40
0.284486904
 40
0.4060690988
 40
0.5167292535
 40
0.6180508654
 40
0.7088894349
 40
0.784818485
 40
0.8433146188
 40
0.8838199727
 40
0.908431476
 40
0.9236571773
 40
0.9442978411
 40
0.9791200982
 40
1.0
 40
1.0
 40
1.0
 40
1.0
 10
176.6255579434
 20
130.4816554641
 30
0.0
 10
176.7662139962
 20
130.4563800781
 30
0.0
 10
177.0328125817
 20
130.4066376722
 30
0.0
 10
177.4123833171
 20
130.3306518019
 30
0.0
 10
177.7542952653
 20
130.2573827434
 30
0.0
 10
178.0641880859
 20
130.1860041754
 30
0.0
 10
178.344158682
 20
130.115844228
 30
0.0
 10
178.5906653363
 20
130.0475839582
 30
0.0
 10
178.7947888281
 20
129.9823689269
 30
0.0
 10
178.9522436784
 20
129.9233411352
 30
0.0
 10
179.0542124259
 20
129.8685637635
 30
0.0
 10
179.1214370678
 20
129.8227400285
 30
0.0
 10
179.1280045578
 20
129.756438798
 30
0.0
 10
179.0623469804
 20
129.717702739
 30
0.0
 10
178.9959303502
 20
129.6951523728
 30
0.0
 10
178.9447315719
 20
129.6823002594
 30
0.0
 10
178.9253158884
 20
129.6778756313
 30
0.0
 11
176.6255579434
 21
130.4816554641
 31
0.0
 11
177.0470050408
 21
130.402984776
 31
0.0
 11
177.4243385232
 21
130.3273291278
 31
0.0
 11
177.7642798905
 21
130.2542945677
 31
0.0
 11
178.0726044275
 21
130.1829833156
 31
0.0
 11
178.3535809831
 21
130.1121904384
 31
0.0
 11
178.6037144253
 21
130.0420615006
 31
0.0
 11
178.8103260782
 21
129.9752663706
 31
0.0
 11
178.9658381563
 21
129.9136170713
 31
0.0
 11
179.0676211811
 21
129.8583152319
 31
0.0
 11
179.1182191335
 21
129.8093899392
 31
0.0
 11
179.1207111641
 21
129.7659191447
 31
0.0
 11
179.0759712925
 21
129.7274143198
 31
0.0
 11
178.9827303255
 21
129.6924414973
 31
0.0
 11
178.9253158884
 21
129.6778756313
 31
0.0
  0
SPLINE
  5
321
100
AcDbEntity
  8
BEZUGSACHSEN
100
AcDbSpline
 62
7
  6
CONTINUOUS
 70
0
 71
3
 72
11
 73
7
 74
5
 42
0.0000001
 43
0.0000001
 44
0.0000000001
 12
0.0
 22
-0.1569848984
 32
0.0
 13
0.0876116328
 23
-0.1305188905
 33
0.0
 40
0.0
 40
0.0
 40
0.0
 40
0.0
 40
0.2646560432
 40
0.523346692
 40
0.7672555686
 40
1.0
 40
1.0
 40
1.0
 40
1.0
 10
132.3363079437
 20
153.5156732273
 30
0.0
 10
132.3363079437
 20
153.5018242266
 30
0.0
 10
132.3375864012
 20
153.4744096549
 30
0.0
 10
132.3442816968
 20
153.4346993205
 30
0.0
 10
132.356382502
 20
153.3979867967
 30
0.0
 10
132.3683094623
 20
153.3759183941
 30
0.0
 10
132.3751065022
 20
153.3657925457
 30
0.0
 11
132.3363079437
 21
153.5156732273
 31
0.0
 11
132.3384419267
 21
153.4741810654
 31
0.0
 11
132.3454398906
 21
153.4341780248
 31
0.0
 11
132.3576353938
 21
153.3978820941
 31
0.0
 11
132.3751065022
 21
153.3657925457
 31
0.0
  0
SPLINE
  5
322
100
AcDbEntity
  8
BEZUGSACHSEN
100
AcDbSpline
 62
7
  6
CONTINUOUS
 70
0
 71
3
 72
15
 73
11
 74
9
 42
0.0000001
 43
0.0000001
 44
0.0000000001
 12
0.2770333121
 22
-0.4127086709
 32
0.0
 13
0.4760507987
 23
0.1406571181
 33
0.0
 40
0.0
 40
0.0
 40
0.0
 40
0.0
 40
0.073545129
 40
0.1510249789
 40
0.2368856766
 40
0.3362842815
 40
0.4548586083
 40
0.6022718549
 40
0.7861492982
 40
1.0
 40
1.0
 40
1.0
 40
1.0
 10
132.3751065022
 20
153.3657925457
 30
0.0
 10
132.3818979858
 20
153.3556749749
 30
0.0
 10
132.3978395849
 20
153.3362309321
 30
0.0
 10
132.4281743496
 20
153.3110532473
 30
0.0
 10
132.4662421969
 20
153.2896200849
 30
0.0
 10
132.513683062
 20
153.2723775204
 30
0.0
 10
132.5731483147
 20
153.2603779082
 30
0.0
 10
132.6477001356
 20
153.2560321689
 30
0.0
 10
132.7378900659
 20
153.2633085036
 30
0.0
 10
132.8023733446
 20
153.2777102512
 30
0.0
 10
132.8363079437
 20
153.2877367924
 30
0.0
 11
132.3751065022
 21
153.3657925457
 31
0.0
 11
132.3982300964
 21
153.3375419451
 31
0.0
 11
132.4277197333
 21
153.3128521781
 31
0.0
 11
132.4647284869
 21
153.2917123488
 31
0.0
 11
132.5109883498
 21
153.2745494741
 31
0.0
 11
132.5686120959
 21
153.2625503216
 31
0.0
 11
132.6416390886
 21
153.2578935829
 31
0.0
 11
132.7326494575
 21
153.264851969
 31
0.0
 11
132.8363079437
 21
153.2877367924
 31
0.0
  0
ENDSEC
  0
SECTION
  2
OBJECTS
  0
DICTIONARY
  5
C
100
AcDbDictionary
280
0
281
1
  3
ACAD_GROUP
350
D
  3
ACAD_MLINESTYLE
350
17
  3
ACAD_LAYOUT
350
1A
  3
ACAD_PLOTSETTINGS
350
19
  3
ACAD_PLOTSTYLENAME
350
E
  0
DICTIONARY
  5
D
102
{ACAD_REACTORS
330
C
102
}
100
AcDbDictionary
280
0
281
1
  0
ACDBDICTIONARYWDFLT
  5
E
102
{ACAD_REACTORS
330
C
102
}
100
AcDbDictionary
281
1
  3
Normal
350
F
100
AcDbDictionaryWithDefault
340
F
  0
DICTIONARY
  5
17
102
{ACAD_REACTORS
330
C
102
}
100
AcDbDictionary
280
0
281
1
  3
Standard
350
18
  0
DICTIONARY
  5
19
102
{ACAD_REACTORS
330
C
102
}
100
AcDbDictionary
281
1
  0
DICTIONARY
  5
1A
102
{ACAD_REACTORS
330
C
102
}
100
AcDbDictionary
281
1
  3
Model
350
323
  3
Layout1
350
324
  0
ACDBPLACEHOLDER
  5
F
102
{ACAD_REACTORS
330
E
102
}
  0
MLINESTYLE
  5
18
102
{ACAD_REACTORS
330
17
102
}
100
AcDbMlineStyle
  2
STANDARD
 70
0
  3

 62
256
 51
90.0
 52
90.0
 71
2
 49
0.5
 62
256
  6
BYLAYER
 49
-0.5
 62
256
  6
BYLAYER
  0
LAYOUT
  5
323
102
{ACAD_REACTORS
330
1A
102
}
100
AcDbPlotSettings
  1

  2
none_device
  4
ISO_A4_(297.00_x_210.00_MM)
  6

 40
0.0
 41
0.0
 42
0.0
 43
0.0
 44
297.0
 45
210.0
 46
0.0
 47
0.0
 48
0.0
 49
0.0
140
0.0
141
0.0
142
1.0
143
1.0
 70
1024
 72
1
 73
0
 74
0
  7

 75
0
147
1.0
148
0.0
149
0.0
100
AcDbLayout
  1
Model
 70
0
 71
0
 10
0.0
 20
0.0
 11
297.0
 21
210.0
 12
0.0
 22
0.0
 32
0.0
 14
0.0
 24
0.0
 34
0.0
 15
0.0
 25
0.0
 35
0.0
146
0.0
 13
0.0
 23
0.0
 33
0.0
 16
1.0
 26
0.0
 36
0.0
 17
0.0
 27
1.0
 37
0.0
 76
0
330
217
345
0
346
0
  0
LAYOUT
  5
324
102
{ACAD_REACTORS
330
1A
102
}
100
AcDbPlotSettings
  1

  2
none_device
  4
ISO_A4_(297.00_x_210.00_MM)
  6

 40
0.0
 41
0.0
 42
0.0
 43
0.0
 44
297.0
 45
210.0
 46
0.0
 47
0.0
 48
0.0
 49
0.0
140
0.0
141
0.0
142
1.0
143
1.0
 70
0
 72
1
 73
0
 74
0
  7

 75
0
147
1.0
148
0.0
149
0.0
100
AcDbLayout
  1
Layout1
 70
0
 71
1
 10
0.0
 20
0.0
 11
297.0
 21
210.0
 12
0.0
 22
0.0
 32
0.0
 14
0.0
 24
0.0
 34
0.0
 15
0.0
 25
0.0
 35
0.0
146
0.0
 13
0.0
 23
0.0
 33
0.0
 16
1.0
 26
0.0
 36
0.0
 17
0.0
 27
1.0
 37
0.0
 76
0
330
218
345
0
346
0
  0
ENDSEC
  0
EOF
