999
DXF file: 50-484-06-8.dxf
999
Pro/ENGINEER 2009220 by Parametric Technology Corporation
  0
SECTION
  2
HEADER
  9
$ACADVER
  1
AC1021
  9
$DWGCODEPAGE
  3
ANSI_1252
  9
$EXTMAX
 10
297.0
 20
210.0
 30
0.0
  9
$EXTMIN
 10
0.0
 20
0.0
 30
0.0
  9
$LIMMIN
 10
0.0
 20
0.0
  9
$LIMMAX
 10
297.0
 20
210.0
  9
$VIEWCTR
 10
148.5
 20
105.0
  9
$VIEWSIZE
 40
210.0
  9
$CLAYER
  8
0
  9
$LTSCALE
 40
16.335
  9
$CELTYPE
  6
BYLAYER
  9
$DIMSCALE
 40
1.0
  9
$DIMASZ
 40
3.5
  9
$DIMEXO
 40
1.85625
  9
$DIMDLI
 40
11.286
  9
$DIMEXE
 40
5.346
  9
$DIMCEN
 40
2.673
  9
$DIMLFAC
 40
1.0
  9
$DIMBLK
  1
_FILLED
  9
$DIMTXT
 40
3.5
  9
$DIMTOL
 70
1
  9
$DIMLIM
 70
0
  9
$DIMTFAC
 40
1.0
  9
$DIMTP
 40
0.005
  9
$DIMTM
 40
0.005
  9
$PDMODE
 70
3
  9
$PDSIZE
 40
0.3125
  9
$HANDSEED
  5
324
  9
$TILEMODE
 70
1
  9
$MEASUREMENT
 70
1
  9
$INSUNITS
 70
4
  0
ENDSEC
  0
SECTION
  2
CLASSES
  0
CLASS
  1
ACDBDICTIONARYWDFLT
  2
AcDbDictionaryWithDefault
  3
AutoCAD 2000
 90
0
 91
1
280
0
281
0
  0
CLASS
  1
ACDBPLACEHOLDER
  2
AcDbPlaceHolder
  3
AutoCAD 2000
 90
0
 91
1
280
0
281
0
  0
CLASS
  1
LAYOUT
  2
AcDbLayout
  3
AutoCAD 2000
 90
0
 91
0
280
0
281
0
  0
ENDSEC
  0
SECTION
  2
TABLES
  0
TABLE
  2
VPORT
  5
8
100
AcDbSymbolTable
 70
2
  0
VPORT
  5
1F4
100
AcDbSymbolTableRecord
100
AcDbViewportTableRecord
  2
*ACTIVE
 70
0
 10
0.0
 20
0.0
 11
1.0
 21
1.0
 12
148.5
 22
105.0
 13
0.0
 23
0.0
 14
1.0
 24
1.0
 15
0.0
 25
0.0
 16
0.0
 26
0.0
 36
1.0
 17
0.0
 27
0.0
 37
0.0
 40
210.0
 41
1.4142857143
 42
50.0
 43
0.0
 44
0.0
 50
0.0
 51
0.0
 71
0
 72
100
 73
1
 74
1
 75
0
 76
0
 77
0
 78
0
  0
ENDTAB
  0
TABLE
  2
LTYPE
  5
5
100
AcDbSymbolTable
 70
6
  0
LTYPE
  5
14
100
AcDbSymbolTableRecord
100
AcDbLinetypeTableRecord
  2
BYBLOCK
 70
0
  3

 72
65
 73
0
 40
0.0
  0
LTYPE
  5
15
100
AcDbSymbolTableRecord
100
AcDbLinetypeTableRecord
  2
BYLAYER
 70
0
  3

 72
65
 73
0
 40
0.0
  0
LTYPE
  5
16
100
AcDbSymbolTableRecord
100
AcDbLinetypeTableRecord
  2
CONTINUOUS
 70
64
  3
Solid line
 72
65
 73
0
 40
0.0
  0
LTYPE
  5
1F5
100
AcDbSymbolTableRecord
100
AcDbLinetypeTableRecord
  2
CENTER
 70
64
  3
____ _ ____ _ ____ _ ____ _ ____ _ ____ _ ____
 72
65
 73
4
 40
0.6
 49
0.375
 74
0
 49
-0.075
 74
0
 49
0.075
 74
0
 49
-0.075
 74
0
  0
LTYPE
  5
1F6
100
AcDbSymbolTableRecord
100
AcDbLinetypeTableRecord
  2
HIDDEN
 70
64
  3
- - - - - - - - - - - - - - - - - - - -
 72
65
 73
2
 40
0.2
 49
0.1
 74
0
 49
-0.1
 74
0
  0
LTYPE
  5
1F7
100
AcDbSymbolTableRecord
100
AcDbLinetypeTableRecord
  2
PHANTOM
 70
64
  3
_____ _ _ _____ _ _ _____ _ _ _____
 72
65
 73
6
 40
0.8
 49
0.45
 74
0
 49
-0.05
 74
0
 49
0.1
 74
0
 49
-0.05
 74
0
 49
0.1
 74
0
 49
-0.05
 74
0
  0
LTYPE
  5
1F8
100
AcDbSymbolTableRecord
100
AcDbLinetypeTableRecord
  2
DOT
 70
64
  3
. . . . . . . . . . . . . . . . . . . .
 72
65
 73
2
 40
0.2
 49
0.1
 74
0
 49
-0.1
 74
0
  0
LTYPE
  5
1F9
100
AcDbSymbolTableRecord
100
AcDbLinetypeTableRecord
  2
DASHED
 70
64
  3
- - - - - - - - - - - - - - - - - - - -
 72
65
 73
2
 40
0.2
 49
0.1
 74
0
 49
-0.1
 74
0
  0
ENDTAB
  0
TABLE
  2
LAYER
  5
2
100
AcDbSymbolTable
 70
36
  0
LAYER
  5
10
100
AcDbSymbolTableRecord
100
AcDbLayerTableRecord
  2
0
 70
0
 62
7
  6
CONTINUOUS
370
-3
390
F
  0
LAYER
  5
1FA
100
AcDbSymbolTableRecord
100
AcDbLayerTableRecord
  2
DEFAULT_1
 70
0
 62
7
  6
CENTER
370
-3
390
F
  0
LAYER
  5
1FB
100
AcDbSymbolTableRecord
100
AcDbLayerTableRecord
  2
DEFAULT_2
 70
0
 62
8
  6
HIDDEN
370
-3
390
F
  0
LAYER
  5
1FC
100
AcDbSymbolTableRecord
100
AcDbLayerTableRecord
  2
DEFAULT_3
 70
0
 62
7
  6
PHANTOM
370
-3
390
F
  0
LAYER
  5
1FD
100
AcDbSymbolTableRecord
100
AcDbLayerTableRecord
  2
ANALYSEN
 70
0
 62
7
  6
CONTINUOUS
370
-3
390
F
  0
LAYER
  5
1FE
100
AcDbSymbolTableRecord
100
AcDbLayerTableRecord
  2
AUSSENKONTUR
 70
0
 62
7
  6
CONTINUOUS
370
-3
390
F
  0
LAYER
  5
1FF
100
AcDbSymbolTableRecord
100
AcDbLayerTableRecord
  2
BEZUGSACHSEN
 70
0
 62
7
  6
CONTINUOUS
370
-3
390
F
  0
LAYER
  5
200
100
AcDbSymbolTableRecord
100
AcDbLayerTableRecord
  2
BEZUGSACHSENKENNZEICHEN
 70
0
 62
7
  6
CONTINUOUS
370
-3
390
F
  0
LAYER
  5
201
100
AcDbSymbolTableRecord
100
AcDbLayerTableRecord
  2
BEZUGSEBENEN
 70
0
 62
7
  6
CONTINUOUS
370
-3
390
F
  0
LAYER
  5
202
100
AcDbSymbolTableRecord
100
AcDbLayerTableRecord
  2
BEZUGSPUNKTE
 70
0
 62
7
  6
CONTINUOUS
370
-3
390
F
  0
LAYER
  5
203
100
AcDbSymbolTableRecord
100
AcDbLayerTableRecord
  2
BOHRUNGEN
 70
0
 62
7
  6
CONTINUOUS
370
-3
390
F
  0
LAYER
  5
204
100
AcDbSymbolTableRecord
100
AcDbLayerTableRecord
  2
FASEN
 70
0
 62
7
  6
CONTINUOUS
370
-3
390
F
  0
LAYER
  5
205
100
AcDbSymbolTableRecord
100
AcDbLayerTableRecord
  2
FLAECHEN
 70
0
 62
7
  6
CONTINUOUS
370
-3
390
F
  0
LAYER
  5
206
100
AcDbSymbolTableRecord
100
AcDbLayerTableRecord
  2
GEWINDE
 70
0
 62
7
  6
CONTINUOUS
370
-3
390
F
  0
LAYER
  5
207
100
AcDbSymbolTableRecord
100
AcDbLayerTableRecord
  2
HILFEN
 70
0
 62
7
  6
CONTINUOUS
370
-3
390
F
  0
LAYER
  5
208
100
AcDbSymbolTableRecord
100
AcDbLayerTableRecord
  2
INNENKONTUR
 70
0
 62
7
  6
CONTINUOUS
370
-3
390
F
  0
LAYER
  5
209
100
AcDbSymbolTableRecord
100
AcDbLayerTableRecord
  2
KURVEN
 70
0
 62
7
  6
CONTINUOUS
370
-3
390
F
  0
LAYER
  5
20A
100
AcDbSymbolTableRecord
100
AcDbLayerTableRecord
  2
MAKINO
 70
0
 62
7
  6
CONTINUOUS
370
-3
390
F
  0
LAYER
  5
20B
100
AcDbSymbolTableRecord
100
AcDbLayerTableRecord
  2
OELVERDR_RILLE
 70
0
 62
7
  6
CONTINUOUS
370
-3
390
F
  0
LAYER
  5
20C
100
AcDbSymbolTableRecord
100
AcDbLayerTableRecord
  2
PLATZIERUNG
 70
0
 62
7
  6
CONTINUOUS
370
-3
390
F
  0
LAYER
  5
20D
100
AcDbSymbolTableRecord
100
AcDbLayerTableRecord
  2
PUNKTE
 70
0
 62
7
  6
CONTINUOUS
370
-3
390
F
  0
LAYER
  5
20E
100
AcDbSymbolTableRecord
100
AcDbLayerTableRecord
  2
RUNDUNGEN
 70
0
 62
7
  6
CONTINUOUS
370
-3
390
F
  0
LAYER
  5
20F
100
AcDbSymbolTableRecord
100
AcDbLayerTableRecord
  2
TEIL_STARTBEZUEGE
 70
0
 62
7
  6
CONTINUOUS
370
-3
390
F
  0
LAYER
  5
210
100
AcDbSymbolTableRecord
100
AcDbLayerTableRecord
  2
VERERBUNG
 70
0
 62
7
  6
CONTINUOUS
370
-3
390
F
  0
LAYER
  5
211
100
AcDbSymbolTableRecord
100
AcDbLayerTableRecord
  2
VOLUMEN
 70
0
 62
7
  6
CONTINUOUS
370
-3
390
F
  0
LAYER
  5
212
100
AcDbSymbolTableRecord
100
AcDbLayerTableRecord
  2
ZEICHNUNG
 70
0
 62
7
  6
CONTINUOUS
370
-3
390
F
  0
LAYER
  5
213
100
AcDbSymbolTableRecord
100
AcDbLayerTableRecord
  2
ZEICHNUNGSBEMASSUNGEN
 70
0
 62
7
  6
CONTINUOUS
370
-3
390
F
  0
ENDTAB
  0
TABLE
  2
STYLE
  5
3
100
AcDbSymbolTable
 70
1
  0
STYLE
  5
11
100
AcDbSymbolTableRecord
100
AcDbTextStyleTableRecord
  2
STANDARD
 70
0
 40
0.0
 41
0.7
 50
0.0
 71
0
 42
0.2
  3
txt
  4

  0
STYLE
  5
214
100
AcDbSymbolTableRecord
100
AcDbTextStyleTableRecord
  2
TEXTSTYLE_1
 70
0
 40
0.0
 41
0.8
 50
0.0
 71
0
 42
0.2
  3
gdt
  4

  0
STYLE
  5
215
100
AcDbSymbolTableRecord
100
AcDbTextStyleTableRecord
  2
TEXTSTYLE_2
 70
0
 40
0.0
 41
0.7
 50
0.0
 71
0
 42
0.2
  3
gdt
  4

  0
ENDTAB
  0
TABLE
  2
VIEW
  5
6
100
AcDbSymbolTable
 70
0
  0
ENDTAB
  0
TABLE
  2
UCS
  5
7
100
AcDbSymbolTable
 70
0
  0
ENDTAB
  0
TABLE
  2
APPID
  5
9
100
AcDbSymbolTable
 70
1
  0
APPID
  5
216
100
AcDbSymbolTableRecord
100
AcDbRegAppTableRecord
  2
ACAD
 70
0
  0
ENDTAB
  0
TABLE
  2
BLOCK_RECORD
  5
1
100
AcDbSymbolTable
 70
0
  0
BLOCK_RECORD
  5
217
100
AcDbSymbolTableRecord
100
AcDbBlockTableRecord
  2
*Model_Space
  0
BLOCK_RECORD
  5
218
100
AcDbSymbolTableRecord
100
AcDbBlockTableRecord
  2
*Paper_Space
  0
BLOCK_RECORD
  5
219
100
AcDbSymbolTableRecord
100
AcDbBlockTableRecord
  2
_FILLED
  0
BLOCK_RECORD
  5
21A
100
AcDbSymbolTableRecord
100
AcDbBlockTableRecord
  2
*D0
  0
BLOCK_RECORD
  5
21B
100
AcDbSymbolTableRecord
100
AcDbBlockTableRecord
  2
*D1
  0
BLOCK_RECORD
  5
21C
100
AcDbSymbolTableRecord
100
AcDbBlockTableRecord
  2
*D2
  0
BLOCK_RECORD
  5
21D
100
AcDbSymbolTableRecord
100
AcDbBlockTableRecord
  2
*D3
  0
BLOCK_RECORD
  5
21E
100
AcDbSymbolTableRecord
100
AcDbBlockTableRecord
  2
*D4
  0
BLOCK_RECORD
  5
21F
100
AcDbSymbolTableRecord
100
AcDbBlockTableRecord
  2
*D5
  0
ENDTAB
  0
TABLE
  2
DIMSTYLE
  5
A
100
AcDbSymbolTable
 70
1
100
AcDbDimStyleTable
 71
0
  0
DIMSTYLE
105
220
100
AcDbSymbolTableRecord
100
AcDbDimStyleTableRecord
  2
STANDARD
 70
0
  3

  4

 40
1.0
 41
3.5
 42
0.0625
 43
0.38
 44
0.18
 45
0.0
 46
0.0
 47
0.005
 48
0.005
140
3.5
141
0.09
142
0.0
143
25.4
144
1.0
145
0.0
146
1.0
147
0.09
 71
1.0
 72
0.0
 73
0
 74
0
 75
0
 76
0
 77
1
 78
8
170
0
171
2
172
0
173
0
174
0
175
0
176
0
177
0
178
5
270
2
271
3
272
3
273
2
274
2
275
0
280
0
281
0
282
0
283
1
284
8
285
0
286
0
287
3
288
0
340
11
341
219
342
219
343
219
344
219
  0
DIMSTYLE
105
221
100
AcDbSymbolTableRecord
100
AcDbDimStyleTableRecord
  2
DIMSTYLE_1
 70
0
  3

  4

 40
1.0
 41
3.5
 42
0.0625
 43
0.38
 44
0.18
 45
0.0
 46
0.0
 47
0.5
 48
0.5
140
3.5
141
0.09
142
0.0
143
25.4
144
1.0
145
0.0
146
1.0
147
0.09
 71
0.0
 72
0.0
 73
0
 74
0
 75
0
 76
0
 77
1
 78
8
170
0
171
2
172
0
173
0
174
0
175
0
176
0
177
0
178
5
270
2
271
3
272
3
273
2
274
2
275
0
280
0
281
0
282
0
283
1
284
8
285
0
286
0
287
3
288
0
340
11
341
219
342
219
343
219
344
219
  0
DIMSTYLE
105
222
100
AcDbSymbolTableRecord
100
AcDbDimStyleTableRecord
  2
DIMSTYLE_2
 70
0
  3

  4

 40
1.0
 41
3.5
 42
0.0625
 43
0.38
 44
0.18
 45
0.0
 46
0.0
 47
0.5
 48
0.5
140
3.5
141
0.09
142
0.0
143
25.4
144
1.0
145
0.0
146
1.0
147
0.09
 71
0.0
 72
0.0
 73
0
 74
0
 75
0
 76
0
 77
1
 78
8
170
0
171
2
172
0
173
0
174
0
175
0
176
0
177
0
178
5
270
2
271
2
272
2
273
2
274
2
275
0
280
0
281
0
282
0
283
1
284
8
285
0
286
0
287
3
288
0
340
11
341
219
342
219
343
219
344
219
  0
DIMSTYLE
105
223
100
AcDbSymbolTableRecord
100
AcDbDimStyleTableRecord
  2
DIMSTYLE_3
 70
0
  3

  4

 40
1.0
 41
3.5
 42
0.0625
 43
0.38
 44
0.18
 45
0.0
 46
0.0
 47
0.3
 48
0.3
140
3.5
141
0.09
142
0.0
143
25.4
144
1.0
145
0.0
146
1.0
147
0.09
 71
0.0
 72
0.0
 73
0
 74
0
 75
0
 76
0
 77
1
 78
8
170
0
171
2
172
0
173
0
174
0
175
0
176
0
177
0
178
5
270
2
271
2
272
2
273
2
274
2
275
0
280
0
281
0
282
0
283
1
284
8
285
0
286
0
287
3
288
0
340
11
341
219
342
219
343
219
344
219
  0
DIMSTYLE
105
224
100
AcDbSymbolTableRecord
100
AcDbDimStyleTableRecord
  2
DIMSTYLE_4
 70
0
  3

  4

 40
1.0
 41
3.5
 42
0.0625
 43
0.38
 44
0.18
 45
0.0
 46
0.0
 47
0.1
 48
0.0
140
3.5
141
0.09
142
0.0
143
25.4
144
1.0
145
0.0
146
1.0
147
0.09
 71
0.0
 72
0.0
 73
0
 74
0
 75
0
 76
0
 77
1
 78
8
170
0
171
2
172
0
173
0
174
0
175
0
176
0
177
0
178
5
270
2
271
2
272
2
273
2
274
2
275
0
280
0
281
0
282
0
283
1
284
8
285
0
286
0
287
3
288
0
340
11
341
219
342
219
343
219
344
219
  0
DIMSTYLE
105
225
100
AcDbSymbolTableRecord
100
AcDbDimStyleTableRecord
  2
DIMSTYLE_5
 70
0
  3

  4

 40
1.0
 41
3.5
 42
0.0625
 43
0.38
 44
0.18
 45
0.0
 46
0.0
 47
0.0
 48
0.0
140
3.5
141
0.09
142
0.0
143
25.4
144
1.0
145
0.0
146
1.0
147
0.09
 71
0.0
 72
0.0
 73
0
 74
0
 75
0
 76
0
 77
1
 78
8
170
0
171
2
172
0
173
0
174
0
175
0
176
0
177
0
178
5
270
2
271
0
272
0
273
2
274
2
275
0
280
0
281
0
282
0
283
1
284
8
285
0
286
0
287
3
288
0
340
11
341
219
342
219
343
219
344
219
  0
DIMSTYLE
105
226
100
AcDbSymbolTableRecord
100
AcDbDimStyleTableRecord
  2
DIMSTYLE_6
 70
0
  3

  4

 40
1.0
 41
3.5
 42
0.0625
 43
0.38
 44
0.18
 45
0.0
 46
0.0
 47
0.1
 48
0.1
140
3.5
141
0.09
142
0.0
143
25.4
144
1.0
145
0.0
146
1.0
147
0.09
 71
0.0
 72
0.0
 73
0
 74
0
 75
0
 76
0
 77
1
 78
8
170
0
171
2
172
0
173
0
174
0
175
0
176
0
177
0
178
5
270
2
271
2
272
2
273
2
274
2
275
0
280
0
281
0
282
0
283
1
284
8
285
0
286
0
287
3
288
0
340
11
341
219
342
219
343
219
344
219
  0
ENDTAB
  0
ENDSEC
  0
SECTION
  2
BLOCKS
  0
BLOCK
  5
20
100
AcDbEntity
  8
0
100
AcDbBlockBegin
  2
*Model_Space
 70
0
 10
0.0
 20
0.0
 30
0.0
  3
*Model_Space
  1

  0
ENDBLK
  5
21
100
AcDbEntity
  8
0
100
AcDbBlockEnd
  0
BLOCK
  5
1C
100
AcDbEntity
  8
0
100
AcDbBlockBegin
  2
*Paper_Space
 70
0
 10
0.0
 20
0.0
 30
0.0
  3
*Paper_Space
  1

  0
ENDBLK
  5
1D
100
AcDbEntity
  8
0
100
AcDbBlockEnd
  0
BLOCK
  5
227
100
AcDbEntity
  8
0
100
AcDbBlockBegin
  2
_FILLED
 70
64
 10
0.0
 20
0.0
  3
_FILLED
  1

  0
SOLID
  5
228
100
AcDbEntity
  8
0
  6
BYBLOCK
 62
0
100
AcDbTrace
 10
0.0
 20
0.0
 11
-1.0
 21
0.125
 12
-1.0
 22
-0.125
 13
-1.0
 23
-0.125
  0
ENDBLK
  5
229
100
AcDbEntity
  8
0
  6
BYBLOCK
 62
0
100
AcDbBlockEnd
  0
BLOCK
  5
22A
100
AcDbEntity
  8
0
100
AcDbBlockBegin
 62
2
  6
CONTINUOUS
  2
*D0
 70
65
 10
0.0
 20
0.0
  3
*D0
  1

  0
MTEXT
  5
22B
100
AcDbEntity
  8
0
100
AcDbMText
 62
5
  6
CONTINUOUS
  7
STANDARD
 71
2
 72
1
 10
206.8794321362
 20
186.6949935899
 30
0.0
 11
1.0
 21
0.0
 31
0.0
 44
0.9
  1
130
 40
3.5
 41
8.490234375
  0
LINE
  5
22C
100
AcDbEntity
  8
0
100
AcDbLine
 62
2
  6
CONTINUOUS
 10
262.3335436757
 20
121.0745472398
 11
262.3335436757
 21
183.8199935899
  0
LINE
  5
22D
100
AcDbEntity
  8
0
100
AcDbLine
 62
2
  6
CONTINUOUS
 10
132.3335436757
 20
153.637851341
 11
132.3335436757
 21
183.8199935899
  0
LINE
  5
22E
100
AcDbEntity
  8
0
100
AcDbLine
 62
2
  6
CONTINUOUS
 10
262.3335436757
 20
182.3199935899
 11
197.3335436757
 21
182.3199935899
  0
LINE
  5
22F
100
AcDbEntity
  8
0
100
AcDbLine
 62
2
  6
CONTINUOUS
 10
132.3335436757
 20
182.3199935899
 11
197.3335436757
 21
182.3199935899
  0
INSERT
  5
230
100
AcDbEntity
  8
0
100
AcDbBlockReference
 62
2
  6
CONTINUOUS
  2
_FILLED
 10
262.3335436757
 20
182.3199935899
 41
3.5
 42
3.5
 43
3.5
  0
INSERT
  5
231
100
AcDbEntity
  8
0
100
AcDbBlockReference
 62
2
  6
CONTINUOUS
  2
_FILLED
 10
132.3335436757
 20
182.3199935899
 41
3.5
 42
3.5
 43
3.5
 50
180.0
  0
ENDBLK
  5
232
100
AcDbEntity
  8
0
  6
BYBLOCK
 62
0
100
AcDbBlockEnd
  0
BLOCK
  5
233
100
AcDbEntity
  8
0
100
AcDbBlockBegin
 62
2
  6
CONTINUOUS
  2
*D1
 70
65
 10
0.0
 20
0.0
  3
*D1
  1

  0
MTEXT
  5
234
100
AcDbEntity
  8
0
100
AcDbMText
 62
5
  6
CONTINUOUS
  7
STANDARD
 71
2
 72
1
 10
168.4713130674
 20
193.3745749616
 30
0.0
 11
1.0
 21
0.0
 31
0.0
 44
0.9
  1
231.75
 40
3.5
 41
15.572265625
  0
LINE
  5
235
100
AcDbEntity
  8
0
100
AcDbLine
 62
2
  6
CONTINUOUS
 10
30.5835436757
 20
133.7440044833
 11
30.5835436757
 21
190.4995749616
  0
LINE
  5
236
100
AcDbEntity
  8
0
100
AcDbLine
 62
2
  6
CONTINUOUS
 10
262.3335436757
 20
123.5745472398
 11
262.3335436757
 21
190.4995749616
  0
LINE
  5
237
100
AcDbEntity
  8
0
100
AcDbLine
 62
2
  6
CONTINUOUS
 10
30.5835436757
 20
188.9995749616
 11
146.4585436757
 21
188.9995749616
  0
LINE
  5
238
100
AcDbEntity
  8
0
100
AcDbLine
 62
2
  6
CONTINUOUS
 10
262.3335436757
 20
188.9995749616
 11
146.4585436757
 21
188.9995749616
  0
INSERT
  5
239
100
AcDbEntity
  8
0
100
AcDbBlockReference
 62
2
  6
CONTINUOUS
  2
_FILLED
 10
30.5835436757
 20
188.9995749616
 41
3.5
 42
3.5
 43
3.5
 50
180.0
  0
INSERT
  5
23A
100
AcDbEntity
  8
0
100
AcDbBlockReference
 62
2
  6
CONTINUOUS
  2
_FILLED
 10
262.3335436757
 20
188.9995749616
 41
3.5
 42
3.5
 43
3.5
  0
ENDBLK
  5
23B
100
AcDbEntity
  8
0
  6
BYBLOCK
 62
0
100
AcDbBlockEnd
  0
BLOCK
  5
23C
100
AcDbEntity
  8
0
100
AcDbBlockBegin
 62
2
  6
CONTINUOUS
  2
*D2
 70
65
 10
0.0
 20
0.0
  3
*D2
  1

  0
MTEXT
  5
23D
100
AcDbEntity
  8
0
100
AcDbMText
 62
5
  6
CONTINUOUS
  7
STANDARD
 71
2
 72
1
 10
214.4324016533
 20
179.2701964193
 30
0.0
 11
1.0
 21
0.0
 31
0.0
 44
0.9
  1
110.9
 40
3.5
 41
12.7421875
  0
LINE
  5
23E
100
AcDbEntity
  8
0
100
AcDbLine
 62
2
  6
CONTINUOUS
 10
262.3335436757
 20
123.5745472398
 11
262.3335436757
 21
176.3951964193
  0
LINE
  5
23F
100
AcDbEntity
  8
0
100
AcDbLine
 62
2
  6
CONTINUOUS
 10
151.4335436757
 20
169.4116856729
 11
151.4335436757
 21
176.3951964193
  0
LINE
  5
240
100
AcDbEntity
  8
0
100
AcDbLine
 62
2
  6
CONTINUOUS
 10
262.3335436757
 20
174.8951964193
 11
206.8835436757
 21
174.8951964193
  0
LINE
  5
241
100
AcDbEntity
  8
0
100
AcDbLine
 62
2
  6
CONTINUOUS
 10
151.4335436757
 20
174.8951964193
 11
206.8835436757
 21
174.8951964193
  0
INSERT
  5
242
100
AcDbEntity
  8
0
100
AcDbBlockReference
 62
2
  6
CONTINUOUS
  2
_FILLED
 10
262.3335436757
 20
174.8951964193
 41
3.5
 42
3.5
 43
3.5
  0
INSERT
  5
243
100
AcDbEntity
  8
0
100
AcDbBlockReference
 62
2
  6
CONTINUOUS
  2
_FILLED
 10
151.4335436757
 20
174.8951964193
 41
3.5
 42
3.5
 43
3.5
 50
180.0
  0
ENDBLK
  5
244
100
AcDbEntity
  8
0
  6
BYBLOCK
 62
0
100
AcDbBlockEnd
  0
BLOCK
  5
245
100
AcDbEntity
  8
0
100
AcDbBlockBegin
 62
2
  6
CONTINUOUS
  2
*D3
 70
65
 10
0.0
 20
0.0
  3
*D3
  1

  0
MTEXT
  5
246
100
AcDbEntity
  8
0
100
AcDbMText
 62
5
  6
CONTINUOUS
  7
TEXTSTYLE_2
 71
1
 72
1
 10
283.6306263122
 20
131.8413275343
 30
0.0
 11
0.0
 21
1.0
 31
0.0
 44
0.9
  1
{\Fgdt;n}\Ftxt;12
 40
3.5
 41
10.3268229167
  0
LINE
  5
247
100
AcDbEntity
  8
0
100
AcDbLine
 62
2
  6
CONTINUOUS
 10
262.3335436757
 20
117.5745472398
 11
289.5056263122
 21
117.5745472398
  0
LINE
  5
248
100
AcDbEntity
  8
0
100
AcDbLine
 62
2
  6
CONTINUOUS
 10
262.3335436757
 20
129.5745472398
 11
289.5056263122
 21
129.5745472398
  0
LINE
  5
249
100
AcDbEntity
  8
0
100
AcDbLine
 62
2
  6
CONTINUOUS
 10
288.0056263122
 20
117.5745472398
 11
288.0056263122
 21
123.5745472398
  0
LINE
  5
24A
100
AcDbEntity
  8
0
100
AcDbLine
 62
2
  6
CONTINUOUS
 10
288.0056263122
 20
129.5745472398
 11
288.0056263122
 21
123.5745472398
  0
LINE
  5
24B
100
AcDbEntity
  8
0
100
AcDbLine
 62
2
  6
CONTINUOUS
 10
288.0056263122
 20
123.5745472398
 11
288.0056263122
 21
142.168150451
  0
INSERT
  5
24C
100
AcDbEntity
  8
0
100
AcDbBlockReference
 62
2
  6
CONTINUOUS
  2
_FILLED
 10
288.0056263122
 20
117.5745472398
 41
3.5
 42
3.5
 43
3.5
 50
270.0
  0
INSERT
  5
24D
100
AcDbEntity
  8
0
100
AcDbBlockReference
 62
2
  6
CONTINUOUS
  2
_FILLED
 10
288.0056263122
 20
129.5745472398
 41
3.5
 42
3.5
 43
3.5
 50
90.0
  0
ENDBLK
  5
24E
100
AcDbEntity
  8
0
  6
BYBLOCK
 62
0
100
AcDbBlockEnd
  0
BLOCK
  5
24F
100
AcDbEntity
  8
0
100
AcDbBlockBegin
 62
2
  6
CONTINUOUS
  2
*D4
 70
65
 10
0.0
 20
0.0
  3
*D4
  1

  0
MTEXT
  5
250
100
AcDbEntity
  8
0
100
AcDbMText
 62
5
  6
CONTINUOUS
  7
STANDARD
 71
2
 72
1
 10
231.0602650835
 20
146.0230409802
 30
0.0
 11
0.1522152487
 21
0.9883473671
 31
0.0
 44
0.9
  1
3\Fgdt;{\Fgdt;~}
 40
3.5
 41
5.1634114583
  0
LINE
  5
251
100
AcDbEntity
  8
0
100
AcDbLine
 62
2
  6
CONTINUOUS
 10
241.2171684073
 20
130.6812095741
 11
235.0363277015
 21
131.0051337096
  0
LINE
  5
252
100
AcDbEntity
  8
0
100
AcDbLine
 62
2
  6
CONTINUOUS
 10
244.2690326242
 20
123.5745472398
 11
234.841750947
 21
123.5745472398
  0
ARC
  5
253
100
AcDbEntity
  8
0
100
AcDbCircle
 62
2
  6
CONTINUOUS
 10
376.8203638021
 20
123.5745472398
 40
140.4786128551
100
AcDbArc
 50
171.2446746466
 51
180.0
  0
SOLID
  5
254
100
AcDbEntity
  8
0
100
AcDbTrace
 62
2
  6
CONTINUOUS
 10
236.8318021842
 20
127.4119630711
 11
236.5342720036
 21
130.9266297753
 12
235.9574986822
 22
127.4468684637
 13
235.9574986822
 23
127.4468684637
  0
SOLID
  5
255
100
AcDbEntity
  8
0
100
AcDbTrace
 62
2
  6
CONTINUOUS
 10
235.9478847091
 20
127.0797256428
 11
236.341750947
 21
123.5745472398
 12
236.8228168156
 22
127.0688256889
 13
236.8228168156
 23
127.0688256889
  0
ENDBLK
  5
256
100
AcDbEntity
  8
0
  6
BYBLOCK
 62
0
100
AcDbBlockEnd
  0
BLOCK
  5
257
100
AcDbEntity
  8
0
100
AcDbBlockBegin
 62
2
  6
CONTINUOUS
  2
*D5
 70
65
 10
0.0
 20
0.0
  3
*D5
  1

  0
MTEXT
  5
258
100
AcDbEntity
  8
0
100
AcDbMText
 62
5
  6
CONTINUOUS
  7
TEXTSTYLE_2
 71
1
 72
1
 10
270.2943426314
 20
132.503502472
 30
0.0
 11
0.0
 21
1.0
 31
0.0
 44
0.9
  1
{\Fgdt;n}\Ftxt;6
 40
3.5
 41
7.4967447917
  0
LINE
  5
259
100
AcDbEntity
  8
0
100
AcDbLine
 62
2
  6
CONTINUOUS
 10
262.3335436757
 20
120.5745472398
 11
276.1693426314
 21
120.5745472398
  0
LINE
  5
25A
100
AcDbEntity
  8
0
100
AcDbLine
 62
2
  6
CONTINUOUS
 10
262.3335436757
 20
126.5745472398
 11
276.1693426314
 21
126.5745472398
  0
LINE
  5
25B
100
AcDbEntity
  8
0
100
AcDbLine
 62
2
  6
CONTINUOUS
 10
274.6693426314
 20
120.5745472398
 11
274.6693426314
 21
114.5745472398
  0
LINE
  5
25C
100
AcDbEntity
  8
0
100
AcDbLine
 62
2
  6
CONTINUOUS
 10
274.6693426314
 20
114.5745472398
 11
274.6693426314
 21
123.5745472398
  0
LINE
  5
25D
100
AcDbEntity
  8
0
100
AcDbLine
 62
2
  6
CONTINUOUS
 10
274.6693426314
 20
126.5745472398
 11
274.6693426314
 21
140.0002472637
  0
LINE
  5
25E
100
AcDbEntity
  8
0
100
AcDbLine
 62
2
  6
CONTINUOUS
 10
274.6693426314
 20
140.0002472637
 11
274.6693426314
 21
123.5745472398
  0
INSERT
  5
25F
100
AcDbEntity
  8
0
100
AcDbBlockReference
 62
2
  6
CONTINUOUS
  2
_FILLED
 10
274.6693426314
 20
120.5745472398
 41
3.5
 42
3.5
 43
3.5
 50
90.0
  0
INSERT
  5
260
100
AcDbEntity
  8
0
100
AcDbBlockReference
 62
2
  6
CONTINUOUS
  2
_FILLED
 10
274.6693426314
 20
126.5745472398
 41
3.5
 42
3.5
 43
3.5
 50
270.0
  0
ENDBLK
  5
261
100
AcDbEntity
  8
0
  6
BYBLOCK
 62
0
100
AcDbBlockEnd
  0
ENDSEC
  0
SECTION
  2
ENTITIES
  0
DIMENSION
  5
262
100
AcDbEntity
  8
0
100
AcDbDimension
 62
2
  6
CONTINUOUS
  2
*D0
 10
132.3335436757
 20
182.3199935899
 11
202.6343149487
 21
184.9449935899
 70
160
 71
2
 42
130.0
  3
DIMSTYLE_1
100
AcDbAlignedDimension
 13
262.3335436757
 23
121.0745472398
 14
132.3335436757
 24
153.637851341
 50
180.0
100
AcDbRotatedDimension
  0
DIMENSION
  5
263
100
AcDbEntity
  8
0
100
AcDbDimension
 62
2
  6
CONTINUOUS
  2
*D1
 10
262.3335436757
 20
188.9995749616
 11
160.6851802549
 21
191.6245749616
 70
160
 71
2
 42
231.75
  3
DIMSTYLE_2
100
AcDbAlignedDimension
 13
30.5835436757
 23
133.7440044833
 14
262.3335436757
 24
123.5745472398
100
AcDbRotatedDimension
  0
DIMENSION
  5
264
100
AcDbEntity
  8
0
100
AcDbDimension
 62
2
  6
CONTINUOUS
  2
*D2
 10
151.4335436757
 20
174.8951964193
 11
208.0613079033
 21
177.5201964193
 70
160
 71
2
 42
110.9
  3
DIMSTYLE_3
100
AcDbAlignedDimension
 13
262.3335436757
 23
123.5745472398
 14
151.4335436757
 24
169.4116856729
 50
180.0
100
AcDbRotatedDimension
  0
DIMENSION
  5
265
100
AcDbEntity
  8
0
100
AcDbDimension
 62
2
  6
CONTINUOUS
  2
*D3
 10
288.0056263122
 20
129.5745472398
 11
285.3806263122
 21
137.0047389927
 70
160
 71
1
 42
12.0
  1
%%c<>
  3
DIMSTYLE_4
100
AcDbAlignedDimension
 13
262.3335436757
 23
117.5745472398
 14
262.3335436757
 24
129.5745472398
 50
90.0
100
AcDbRotatedDimension
  0
DIMENSION
  5
266
100
AcDbEntity
  8
0
100
AcDbDimension
 62
2
  6
CONTINUOUS
  2
*D4
 10
234.841750947
 20
123.5745472398
 11
231.6201823921
 21
146.3026725879
 70
162
 71
2
 42
0.0523598776
  3
DIMSTYLE_5
100
AcDb2LineAngularDimension
 13
235.0363277015
 23
131.0051337096
 14
241.2171684073
 24
130.6812095741
 15
244.2690326242
 25
123.5745472398
 16
236.3898894591
 26
127.2518486269
  0
DIMENSION
  5
267
100
AcDbEntity
  8
0
100
AcDbDimension
 62
2
  6
CONTINUOUS
  2
*D5
 10
274.6693426314
 20
126.5745472398
 11
272.0443426314
 21
136.2518748678
 70
160
 71
1
 42
6.0
  1
%%c<>
  3
DIMSTYLE_6
100
AcDbAlignedDimension
 13
262.3335436757
 23
120.5745472398
 14
262.3335436757
 24
126.5745472398
 50
90.0
100
AcDbRotatedDimension
  0
MTEXT
  5
268
100
AcDbEntity
  8
0
100
AcDbMText
 62
5
  6
CONTINUOUS
  7
STANDARD
 71
1
 72
1
 10
13.4098988669
 20
91.2811131601
 30
0.0
 11
1.0
 21
0.0
 31
0.0
 44
0.9
  3
Für diese Unterlage behalten wir das Ur-\Pheberrecht. Sie darf nur für den von uns \Pbestimmten Zweck benutzt und ohne unsere \PZustimmung weder vervielfältigt noch\PDritten zugänglich gemacht werden\P \PWe own the copyright of this document. It \Pde
  1
termined and may neither be copied or \Pmade accessible to outsiders without our\Ppermission.\P \PCe plan reste notre propriété. Il ne peut\Pêtre utilisé, copié ou reproduit sans notre\Paccord.\P \P 
 40
3.5
 41
99.162109375
  0
LINE
  5
269
100
AcDbEntity
  8
0
100
AcDbLine
 62
7
  6
CONTINUOUS
 10
0.0
 20
0.0
 11
0.0
 21
210.0
  0
LINE
  5
26A
100
AcDbEntity
  8
0
100
AcDbLine
 62
7
  6
CONTINUOUS
 10
0.0
 20
0.0
 11
297.0
 21
0.0
  0
LINE
  5
26B
100
AcDbEntity
  8
0
100
AcDbLine
 62
7
  6
CONTINUOUS
 10
0.0
 20
210.0
 11
297.0
 21
210.0
  0
LINE
  5
26C
100
AcDbEntity
  8
0
100
AcDbLine
 62
7
  6
CONTINUOUS
 10
297.0
 20
0.0
 11
297.0
 21
210.0
  0
LINE
  5
26D
100
AcDbEntity
  8
BEZUGSACHSEN
100
AcDbLine
 62
7
  6
CONTINUOUS
 10
30.5835436757
 20
141.6009325937
 11
30.5835436757
 21
105.548161886
  0
LINE
  5
26E
100
AcDbEntity
  8
BEZUGSACHSEN
100
AcDbLine
 62
9
  6
CONTINUOUS
 10
32.7227470028
 20
144.0747607528
 11
32.7227470028
 21
103.0743337268
  0
LINE
  5
26F
100
AcDbEntity
  8
BEZUGSACHSEN
100
AcDbLine
 62
7
  6
CONTINUOUS
 10
136.5835436757
 20
74.8245472398
 11
140.2609484115
 21
74.8245472398
  0
LINE
  5
270
100
AcDbEntity
  8
BEZUGSACHSEN
100
AcDbLine
 62
7
  6
CONTINUOUS
 10
146.7561389399
 20
74.8245472398
 11
150.4335436757
 21
74.8245472398
  0
LINE
  5
271
100
AcDbEntity
  8
BEZUGSACHSEN
100
AcDbLine
 62
7
  6
CONTINUOUS
 10
142.1335436757
 20
77.9495472398
 11
144.8835436757
 21
77.9495472398
  0
LINE
  5
272
100
AcDbEntity
  8
0
100
AcDbLine
 62
7
  6
CONTINUOUS
 10
136.5835436757
 20
85.1484818675
 11
140.2609484115
 21
85.1484818675
  0
LINE
  5
273
100
AcDbEntity
  8
0
100
AcDbLine
 62
7
  6
CONTINUOUS
 10
146.7561389399
 20
85.1484818675
 11
150.4335436757
 21
85.1484818675
  0
LINE
  5
274
100
AcDbEntity
  8
BEZUGSACHSEN
100
AcDbLine
 62
7
  6
CONTINUOUS
 10
132.9335436757
 20
88.9995472398
 11
134.5835436757
 21
88.9995472398
  0
LINE
  5
275
100
AcDbEntity
  8
0
100
AcDbLine
 62
7
  6
CONTINUOUS
 10
142.1335436757
 20
89.1995472398
 11
144.8835436757
 21
89.1995472398
  0
LINE
  5
276
100
AcDbEntity
  8
BEZUGSACHSEN
100
AcDbLine
 62
7
  6
CONTINUOUS
 10
32.7227470028
 20
103.0743337268
 11
131.627325893
 21
88.6495472398
  0
LINE
  5
277
100
AcDbEntity
  8
BEZUGSACHSEN
100
AcDbLine
 62
7
  6
CONTINUOUS
 10
145.3835436757
 20
169.947142504
 11
146.7561389399
 21
172.3245472398
  0
LINE
  5
278
100
AcDbEntity
  8
BEZUGSACHSEN
100
AcDbLine
 62
7
  6
CONTINUOUS
 10
131.627325893
 20
88.6495472398
 11
132.9335436757
 21
88.9995472398
  0
LINE
  5
279
100
AcDbEntity
  8
BEZUGSACHSEN
100
AcDbLine
 62
7
  6
CONTINUOUS
 10
152.2518212213
 20
96.950764431
 11
183.7476807324
 21
102.7711800517
  0
LINE
  5
27A
100
AcDbEntity
  8
BEZUGSACHSEN
100
AcDbLine
 62
7
  6
CONTINUOUS
 10
184.9183026137
 20
102.9875102611
 11
193.1432801233
 21
104.5074810865
  0
LINE
  5
27B
100
AcDbEntity
  8
FASEN
100
AcDbLine
 62
7
  6
CONTINUOUS
 10
135.5835436757
 20
93.1745472398
 11
151.4335436757
 21
93.1745472398
  0
LINE
  5
27C
100
AcDbEntity
  8
0
100
AcDbLine
 62
7
  6
CONTINUOUS
 10
135.5835436757
 20
93.5745472398
 11
151.4335436757
 21
93.5745472398
  0
LINE
  5
27D
100
AcDbEntity
  8
BEZUGSACHSEN
100
AcDbLine
 62
7
  6
CONTINUOUS
 10
145.3835436757
 20
77.2019519756
 11
146.7561389399
 21
74.8245472398
  0
LINE
  5
27E
100
AcDbEntity
  8
BEZUGSACHSEN
100
AcDbLine
 62
7
  6
CONTINUOUS
 10
131.627325893
 20
158.4995472398
 11
131.627325893
 21
88.6495472398
  0
LINE
  5
27F
100
AcDbEntity
  8
BEZUGSACHSEN
100
AcDbLine
 62
7
  6
CONTINUOUS
 10
194.545423891
 20
105.5745472398
 11
195.8335436757
 21
105.5745472398
  0
LINE
  5
280
100
AcDbEntity
  8
BEZUGSACHSEN
100
AcDbLine
 62
7
  6
CONTINUOUS
 10
200.8335436757
 20
105.5745472398
 11
202.5397190775
 21
105.5745472398
  0
LWPOLYLINE
  5
281
100
AcDbEntity
  8
0
100
AcDbPolyline
 62
7
  6
CONTINUOUS
 90
10
 70
0
 10
182.3908197192
 20
102.7402958903
 10
182.3829491051
 20
102.7403898609
 10
182.3781433401
 20
102.7405170603
 10
182.3798039264
 20
102.7404236119
 10
182.3881027834
 20
102.7398180172
 10
182.4034712794
 20
102.7383196456
 10
182.4253136736
 20
102.7355845827
 10
182.4533803364
 20
102.7312180307
 10
182.4865972569
 20
102.7249619349
 10
182.5094856787
 20
102.7200135137
  0
LINE
  5
282
100
AcDbEntity
  8
BEZUGSACHSEN
100
AcDbLine
 62
7
  6
CENTER
 10
132.3335436757
 20
84.030735824
 11
132.3335436757
 21
160.7288772137
  0
LINE
  5
283
100
AcDbEntity
  8
BEZUGSACHSEN
100
AcDbLine
 62
7
  6
CONTINUOUS
 10
132.9335436757
 20
158.1495472398
 11
132.9335436757
 21
88.9995472398
  0
LINE
  5
284
100
AcDbEntity
  8
BEZUGSACHSEN
100
AcDbLine
 62
9
  6
CONTINUOUS
 10
134.5835436757
 20
158.1495472398
 11
134.5835436757
 21
88.9995472398
  0
LINE
  5
285
100
AcDbEntity
  8
BEZUGSACHSEN
100
AcDbLine
 62
7
  6
CONTINUOUS
 10
135.5835436757
 20
171.2849423826
 11
135.5835436757
 21
136.5245472398
  0
LINE
  5
286
100
AcDbEntity
  8
BEZUGSACHSEN
100
AcDbLine
 62
7
  6
CONTINUOUS
 10
135.5835436757
 20
110.6245472398
 11
135.5835436757
 21
93.5745472398
  0
LINE
  5
287
100
AcDbEntity
  8
BEZUGSACHSEN
100
AcDbLine
 62
7
  6
CONTINUOUS
 10
135.5835436757
 20
86.4253547856
 11
135.5835436757
 21
75.8287675242
  0
LINE
  5
288
100
AcDbEntity
  8
0
100
AcDbLine
 62
7
  6
CONTINUOUS
 10
135.5835436757
 20
75.8245479627
 11
135.5835436757
 21
86.4253547856
  0
LINE
  5
289
100
AcDbEntity
  8
FASEN
100
AcDbLine
 62
7
  6
CONTINUOUS
 10
135.5835436757
 20
86.4253547856
 11
135.5835436757
 21
93.5745472398
  0
LINE
  5
28A
100
AcDbEntity
  8
0
100
AcDbLine
 62
7
  6
CONTINUOUS
 10
135.5835436757
 20
93.5745472398
 11
135.5835436757
 21
110.6245472398
  0
LINE
  5
28B
100
AcDbEntity
  8
FASEN
100
AcDbLine
 62
7
  6
CONTINUOUS
 10
135.5835436757
 20
110.6245472398
 11
135.5835436757
 21
136.5245472398
  0
LINE
  5
28C
100
AcDbEntity
  8
0
100
AcDbLine
 62
7
  6
CONTINUOUS
 10
135.5835436757
 20
136.5245472398
 11
135.5835436757
 21
171.324547149
  0
LINE
  5
28D
100
AcDbEntity
  8
0
100
AcDbLine
 62
9
  6
CONTINUOUS
 10
136.5835436757
 20
172.3245472398
 11
136.5835436757
 21
136.5245472398
  0
LINE
  5
28E
100
AcDbEntity
  8
0
100
AcDbLine
 62
9
  6
CONTINUOUS
 10
136.5835436757
 20
110.6245472398
 11
136.5835436757
 21
93.5745472398
  0
LINE
  5
28F
100
AcDbEntity
  8
0
100
AcDbLine
 62
9
  6
CONTINUOUS
 10
136.5835436757
 20
85.1484818675
 11
136.5835436757
 21
74.8245472398
  0
LINE
  5
290
100
AcDbEntity
  8
BEZUGSACHSEN
100
AcDbLine
 62
7
  6
CONTINUOUS
 10
213.1002196011
 20
114.9943380583
 11
262.0492444626
 21
117.5596477494
  0
LINE
  5
291
100
AcDbEntity
  8
0
100
AcDbLine
 62
7
  6
CONTINUOUS
 10
135.5835436757
 20
110.6245472398
 11
151.4335436757
 21
110.6245472398
  0
LINE
  5
292
100
AcDbEntity
  8
FASEN
100
AcDbLine
 62
7
  6
CONTINUOUS
 10
151.4335436757
 20
111.0245472398
 11
135.5835436757
 21
111.0245472398
  0
LINE
  5
293
100
AcDbEntity
  8
0
100
AcDbLine
 62
7
  6
CONTINUOUS
 10
140.2609484115
 20
74.8245472398
 11
140.2609484115
 21
85.1484818675
  0
LINE
  5
294
100
AcDbEntity
  8
0
100
AcDbLine
 62
7
  6
CONTINUOUS
 10
140.2609484115
 20
93.5745472398
 11
140.2609484115
 21
110.6245472398
  0
LINE
  5
295
100
AcDbEntity
  8
0
100
AcDbLine
 62
7
  6
CONTINUOUS
 10
140.2609484115
 20
136.5245472398
 11
140.2609484115
 21
172.3245472398
  0
LINE
  5
296
100
AcDbEntity
  8
0
100
AcDbLine
 62
7
  6
CONTINUOUS
 10
141.6335436757
 20
169.9471264165
 11
141.6335436757
 21
167.3836608067
  0
LINE
  5
297
100
AcDbEntity
  8
BEZUGSACHSEN
100
AcDbLine
 62
7
  6
CONTINUOUS
 10
141.6335436757
 20
167.3836608067
 11
141.6335436757
 21
167.1509710155
  0
LINE
  5
298
100
AcDbEntity
  8
0
100
AcDbLine
 62
7
  6
CONTINUOUS
 10
141.6335436757
 20
166.9075889153
 11
141.6335436757
 21
136.5245472398
  0
LINE
  5
299
100
AcDbEntity
  8
0
100
AcDbLine
 62
7
  6
CONTINUOUS
 10
141.6335436757
 20
110.6245472398
 11
141.6335436757
 21
93.5745472398
  0
LINE
  5
29A
100
AcDbEntity
  8
0
100
AcDbLine
 62
7
  6
CONTINUOUS
 10
141.6335436757
 20
77.2019595116
 11
141.6335436757
 21
88.5386281709
  0
LINE
  5
29B
100
AcDbEntity
  8
0
100
AcDbLine
 62
9
  6
CONTINUOUS
 10
142.1335436757
 20
77.9495472398
 11
142.1335436757
 21
89.1995472398
  0
LINE
  5
29C
100
AcDbEntity
  8
0
100
AcDbLine
 62
9
  6
CONTINUOUS
 10
142.1335436757
 20
93.5745472398
 11
142.1335436757
 21
110.6245472398
  0
LINE
  5
29D
100
AcDbEntity
  8
0
100
AcDbLine
 62
9
  6
CONTINUOUS
 10
142.1335436757
 20
136.5245472398
 11
142.1335436757
 21
165.9295558412
  0
LINE
  5
29E
100
AcDbEntity
  8
0
100
AcDbLine
 62
9
  6
CONTINUOUS
 10
142.1335436757
 20
166.9230345806
 11
142.1335436757
 21
169.1995472398
  0
LINE
  5
29F
100
AcDbEntity
  8
0
100
AcDbLine
 62
9
  6
CONTINUOUS
 10
144.8835436757
 20
77.9495472398
 11
144.8835436757
 21
89.1995472398
  0
LINE
  5
2A0
100
AcDbEntity
  8
0
100
AcDbLine
 62
9
  6
CONTINUOUS
 10
144.8835436757
 20
93.5745472398
 11
144.8835436757
 21
110.6245472398
  0
LINE
  5
2A1
100
AcDbEntity
  8
0
100
AcDbLine
 62
9
  6
CONTINUOUS
 10
144.8835436757
 20
136.5245472398
 11
144.8835436757
 21
165.9295558412
  0
LINE
  5
2A2
100
AcDbEntity
  8
0
100
AcDbLine
 62
9
  6
CONTINUOUS
 10
144.8835436757
 20
166.9230345806
 11
144.8835436757
 21
169.1995472398
  0
LINE
  5
2A3
100
AcDbEntity
  8
BEZUGSACHSEN
100
AcDbLine
 62
7
  6
CONTINUOUS
 10
145.3835436757
 20
167.3836608067
 11
145.3835436757
 21
167.1509710155
  0
LINE
  5
2A4
100
AcDbEntity
  8
0
100
AcDbLine
 62
7
  6
CONTINUOUS
 10
145.3835436757
 20
166.9075889153
 11
145.3835436757
 21
136.5245472398
  0
LINE
  5
2A5
100
AcDbEntity
  8
0
100
AcDbLine
 62
7
  6
CONTINUOUS
 10
145.3835436757
 20
77.2019595116
 11
145.3835436757
 21
88.5386281709
  0
LINE
  5
2A6
100
AcDbEntity
  8
0
100
AcDbLine
 62
7
  6
CONTINUOUS
 10
145.3835436757
 20
93.5745472398
 11
145.3835436757
 21
110.6245472398
  0
LINE
  5
2A7
100
AcDbEntity
  8
0
100
AcDbLine
 62
7
  6
CONTINUOUS
 10
145.3835436757
 20
167.3836608067
 11
145.3835436757
 21
169.9471264165
  0
LINE
  5
2A8
100
AcDbEntity
  8
0
100
AcDbLine
 62
7
  6
CONTINUOUS
 10
146.7561389399
 20
172.3245472398
 11
146.7561389399
 21
136.5245472398
  0
LINE
  5
2A9
100
AcDbEntity
  8
0
100
AcDbLine
 62
7
  6
CONTINUOUS
 10
146.7561389399
 20
110.6245472398
 11
146.7561389399
 21
93.5745472398
  0
LINE
  5
2AA
100
AcDbEntity
  8
0
100
AcDbLine
 62
7
  6
CONTINUOUS
 10
146.7561389399
 20
85.1484818675
 11
146.7561389399
 21
74.8245472398
  0
LINE
  5
2AB
100
AcDbEntity
  8
DEFAULT_2
100
AcDbLine
 62
8
  6
HIDDEN
 10
260.3335436757
 20
120.5745472398
 11
238.3437588305
 21
120.5745472398
  0
LINE
  5
2AC
100
AcDbEntity
  8
DEFAULT_1
100
AcDbLine
 62
7
  6
CENTER
 10
198.3335436757
 20
123.5745472398
 11
192.8335436757
 21
123.5745472398
  0
LINE
  5
2AD
100
AcDbEntity
  8
BEZUGSACHSEN
100
AcDbLine
 62
7
  6
CENTER
 10
267.3335436757
 20
123.5745472398
 11
27.5835436757
 21
123.5745472398
  0
LINE
  5
2AE
100
AcDbEntity
  8
0
100
AcDbLine
 62
9
  6
CONTINUOUS
 10
183.748005127
 20
123.5745472398
 11
184.9186270084
 21
123.5745472398
  0
LINE
  5
2AF
100
AcDbEntity
  8
DEFAULT_1
100
AcDbLine
 62
7
  6
CENTER
 10
198.3335436757
 20
123.5745472398
 11
203.8335436757
 21
123.5745472398
  0
LINE
  5
2B0
100
AcDbEntity
  8
0
100
AcDbLine
 62
9
  6
CONTINUOUS
 10
150.4335436757
 20
74.8245472398
 11
150.4335436757
 21
85.1484818675
  0
LINE
  5
2B1
100
AcDbEntity
  8
0
100
AcDbLine
 62
9
  6
CONTINUOUS
 10
150.4335436757
 20
93.5745472398
 11
150.4335436757
 21
110.6245472398
  0
LINE
  5
2B2
100
AcDbEntity
  8
0
100
AcDbLine
 62
9
  6
CONTINUOUS
 10
150.4335436757
 20
136.5245472398
 11
150.4335436757
 21
172.3245472398
  0
LINE
  5
2B3
100
AcDbEntity
  8
0
100
AcDbLine
 62
7
  6
CONTINUOUS
 10
151.4335436757
 20
171.324547149
 11
151.4335436757
 21
136.5245472398
  0
LINE
  5
2B4
100
AcDbEntity
  8
BEZUGSACHSEN
100
AcDbLine
 62
7
  6
CONTINUOUS
 10
151.4335436757
 20
171.2849423826
 11
151.4335436757
 21
136.5245472398
  0
LINE
  5
2B5
100
AcDbEntity
  8
0
100
AcDbLine
 62
7
  6
CONTINUOUS
 10
151.4335436757
 20
110.6245472398
 11
151.4335436757
 21
93.5745472398
  0
LINE
  5
2B6
100
AcDbEntity
  8
0
100
AcDbLine
 62
7
  6
CONTINUOUS
 10
151.4335436757
 20
86.4253547856
 11
151.4335436757
 21
75.8245479627
  0
LINE
  5
2B7
100
AcDbEntity
  8
BEZUGSACHSEN
100
AcDbLine
 62
7
  6
CONTINUOUS
 10
151.4335436757
 20
86.4253547856
 11
151.4335436757
 21
75.8287675242
  0
LINE
  5
2B8
100
AcDbEntity
  8
FASEN
100
AcDbLine
 62
7
  6
CONTINUOUS
 10
151.4335436757
 20
86.4253547856
 11
151.4335436757
 21
93.5745472398
  0
LINE
  5
2B9
100
AcDbEntity
  8
FASEN
100
AcDbLine
 62
7
  6
CONTINUOUS
 10
151.4335436757
 20
110.6245472398
 11
151.4335436757
 21
136.5245472398
  0
LINE
  5
2BA
100
AcDbEntity
  8
BEZUGSACHSEN
100
AcDbLine
 62
9
  6
CONTINUOUS
 10
152.2518212213
 20
150.1983300486
 11
152.2518212213
 21
96.950764431
  0
LINE
  5
2BB
100
AcDbEntity
  8
DEFAULT_2
100
AcDbLine
 62
8
  6
HIDDEN
 10
260.3335436757
 20
126.5745472398
 11
238.3437588305
 21
126.5745472398
  0
LINE
  5
2BC
100
AcDbEntity
  8
FASEN
100
AcDbLine
 62
7
  6
CONTINUOUS
 10
135.5835436757
 20
136.1245472398
 11
151.4335436757
 21
136.1245472398
  0
LINE
  5
2BD
100
AcDbEntity
  8
0
100
AcDbLine
 62
7
  6
CONTINUOUS
 10
135.5835436757
 20
136.5245472398
 11
151.4335436757
 21
136.5245472398
  0
LINE
  5
2BE
100
AcDbEntity
  8
BEZUGSACHSEN
100
AcDbLine
 62
7
  6
CONTINUOUS
 10
194.545423891
 20
141.5745472398
 11
195.8335436757
 21
141.5745472398
  0
LINE
  5
2BF
100
AcDbEntity
  8
BEZUGSACHSEN
100
AcDbLine
 62
7
  6
CONTINUOUS
 10
200.8335436757
 20
141.5745472398
 11
202.5397190775
 21
141.5745472398
  0
LINE
  5
2C0
100
AcDbEntity
  8
BEZUGSACHSEN
100
AcDbLine
 62
7
  6
CONTINUOUS
 10
213.1002196011
 20
132.1547564213
 11
262.0492444626
 21
129.5894467302
  0
LINE
  5
2C1
100
AcDbEntity
  8
BEZUGSACHSEN
100
AcDbLine
 62
7
  6
CONTINUOUS
 10
140.2609484115
 20
74.8245472398
 11
141.6335436757
 21
77.2019519756
  0
LINE
  5
2C2
100
AcDbEntity
  8
BEZUGSACHSEN
100
AcDbLine
 62
7
  6
CONTINUOUS
 10
140.2609484115
 20
172.3245472398
 11
141.6335436757
 21
169.947142504
  0
LINE
  5
2C3
100
AcDbEntity
  8
BEZUGSACHSEN
100
AcDbLine
 62
7
  6
CONTINUOUS
 10
132.9335436757
 20
158.1495472398
 11
134.5835436757
 21
158.1495472398
  0
LINE
  5
2C4
100
AcDbEntity
  8
BEZUGSACHSEN
100
AcDbLine
 62
7
  6
CONTINUOUS
 10
152.2518212213
 20
150.1983300486
 11
183.7476807324
 21
144.3779144279
  0
LINE
  5
2C5
100
AcDbEntity
  8
BEZUGSACHSEN
100
AcDbLine
 62
7
  6
CONTINUOUS
 10
184.9183026137
 20
144.1615842185
 11
193.1432801233
 21
142.6416133931
  0
LINE
  5
2C6
100
AcDbEntity
  8
BEZUGSACHSEN
100
AcDbLine
 62
7
  6
CONTINUOUS
 10
131.627325893
 20
158.4995472398
 11
132.9335436757
 21
158.1495472398
  0
LWPOLYLINE
  5
2C7
100
AcDbEntity
  8
0
100
AcDbPolyline
 62
7
  6
CONTINUOUS
 90
10
 70
0
 10
186.2776166137
 20
143.6877279895
 10
186.2863423424
 20
143.6843267273
 10
186.2920404425
 20
143.6820028869
 10
186.2914804833
 20
143.6822600604
 10
186.2845174276
 20
143.685502302
 10
186.2708810054
 20
143.692285716
 10
186.2513312714
 20
143.7027190056
 10
186.2262118322
 20
143.7171401095
 10
186.1970357657
 20
143.7351890618
 10
186.1817468632
 20
143.7451826299
  0
LINE
  5
2C8
100
AcDbEntity
  8
BEZUGSACHSEN
100
AcDbLine
 62
7
  6
CONTINUOUS
 10
32.7227470028
 20
144.0747607528
 11
131.627325893
 21
158.4995472398
  0
LINE
  5
2C9
100
AcDbEntity
  8
BEZUGSACHSEN
100
AcDbLine
 62
9
  6
CONTINUOUS
 10
193.1432801233
 20
142.6416133931
 11
193.1432801233
 21
104.5074810865
  0
LINE
  5
2CA
100
AcDbEntity
  8
BEZUGSACHSEN
100
AcDbLine
 62
9
  6
CONTINUOUS
 10
193.6907224828
 20
142.2549335041
 11
193.6907224828
 21
104.8941609755
  0
LINE
  5
2CB
100
AcDbEntity
  8
BEZUGSACHSEN
100
AcDbLine
 62
9
  6
CONTINUOUS
 10
193.852603568
 20
141.9745472398
 11
193.852603568
 21
105.1745472398
  0
LINE
  5
2CC
100
AcDbEntity
  8
BEZUGSACHSEN
100
AcDbLine
 62
9
  6
CONTINUOUS
 10
194.545423891
 20
141.5745472398
 11
194.545423891
 21
105.5745472398
  0
LINE
  5
2CD
100
AcDbEntity
  8
DEFAULT_1
100
AcDbLine
 62
7
  6
CENTER
 10
198.3335436757
 20
123.5745472398
 11
198.3335436757
 21
101.7006662645
  0
LINE
  5
2CE
100
AcDbEntity
  8
DEFAULT_1
100
AcDbLine
 62
7
  6
CENTER
 10
198.3335436757
 20
123.5745472398
 11
198.3335436757
 21
143.4228414872
  0
LINE
  5
2CF
100
AcDbEntity
  8
BEZUGSACHSEN
100
AcDbLine
 62
7
  6
CONTINUOUS
 10
193.6907224828
 20
104.8941609755
 11
193.852603568
 21
105.1745472398
  0
LINE
  5
2D0
100
AcDbEntity
  8
BEZUGSACHSEN
100
AcDbLine
 62
7
  6
CONTINUOUS
 10
142.1335436757
 20
169.1995472398
 11
144.8835436757
 21
169.1995472398
  0
LINE
  5
2D1
100
AcDbEntity
  8
BEZUGSACHSEN
100
AcDbLine
 62
7
  6
CONTINUOUS
 10
136.5835436757
 20
172.3245472398
 11
140.2609484115
 21
172.3245472398
  0
LINE
  5
2D2
100
AcDbEntity
  8
BEZUGSACHSEN
100
AcDbLine
 62
7
  6
CONTINUOUS
 10
146.7561389399
 20
172.3245472398
 11
150.4335436757
 21
172.3245472398
  0
LINE
  5
2D3
100
AcDbEntity
  8
BEZUGSACHSEN
100
AcDbLine
 62
7
  6
CONTINUOUS
 10
193.6907224828
 20
142.2549335041
 11
193.852603568
 21
141.9745472398
  0
LINE
  5
2D4
100
AcDbEntity
  8
BEZUGSACHSEN
100
AcDbLine
 62
9
  6
CONTINUOUS
 10
202.5397190775
 20
141.5745472398
 11
202.5397190775
 21
105.5745472398
  0
LINE
  5
2D5
100
AcDbEntity
  8
BEZUGSACHSEN
100
AcDbLine
 62
9
  6
CONTINUOUS
 10
203.2468258587
 20
141.281654021
 11
203.2468258587
 21
105.8674404586
  0
LINE
  5
2D6
100
AcDbEntity
  8
BEZUGSACHSEN
100
AcDbLine
 62
7
  6
CONTINUOUS
 10
203.2468258587
 20
105.8674404586
 11
211.7906779512
 21
114.4112925512
  0
LINE
  5
2D7
100
AcDbEntity
  8
BEZUGSACHSEN
100
AcDbLine
 62
7
  6
CONTINUOUS
 10
203.2468258587
 20
141.281654021
 11
211.7906779512
 21
132.7378019284
  0
LINE
  5
2D8
100
AcDbEntity
  8
BEZUGSACHSEN
100
AcDbLine
 62
9
  6
CONTINUOUS
 10
211.7906779512
 20
132.7378019284
 11
211.7906779512
 21
114.4112925512
  0
LINE
  5
2D9
100
AcDbEntity
  8
BEZUGSACHSEN
100
AcDbLine
 62
9
  6
CONTINUOUS
 10
213.1002196011
 20
132.1547564213
 11
213.1002196011
 21
114.9943380583
  0
LINE
  5
2DA
100
AcDbEntity
  8
DEFAULT_2
100
AcDbLine
 62
8
  6
HIDDEN
 10
238.1935436757
 20
126.8245472398
 11
238.1935436757
 21
120.3245472398
  0
LINE
  5
2DB
100
AcDbEntity
  8
BEZUGSACHSEN
100
AcDbLine
 62
9
  6
CONTINUOUS
 10
262.0492444626
 20
129.5894467302
 11
262.0492444626
 21
117.5596477494
  0
LINE
  5
2DC
100
AcDbEntity
  8
BEZUGSACHSEN
100
AcDbLine
 62
7
  6
CONTINUOUS
 10
262.3335436757
 20
129.2898578698
 11
262.3335436757
 21
117.8592366098
  0
CIRCLE
  5
2DD
100
AcDbEntity
  8
BEZUGSACHSEN
100
AcDbCircle
 62
7
  6
CONTINUOUS
 10
143.4335436757
 20
123.5745472398
 40
5.0
  0
CIRCLE
  5
2DE
100
AcDbEntity
  8
BEZUGSACHSEN
100
AcDbCircle
 62
7
  6
CONTINUOUS
 10
143.4335436757
 20
123.5745472398
 40
4.7
  0
ARC
  5
2DF
100
AcDbEntity
  8
BEZUGSACHSEN
100
AcDbCircle
 62
7
  6
CONTINUOUS
 10
33.0835436757
 20
105.548161886
 40
2.5
100
AcDbArc
 50
180.0
 51
261.7021731718
  0
CIRCLE
  5
2E0
100
AcDbEntity
  8
BEZUGSACHSEN
100
AcDbCircle
 62
7
  6
CONTINUOUS
 10
143.4335436757
 20
123.5745472398
 40
2.0
  0
ARC
  5
2E1
100
AcDbEntity
  8
BEZUGSACHSEN
100
AcDbCircle
 62
7
  6
CONTINUOUS
 10
136.5835436757
 20
75.8245472398
 40
1.0
100
AcDbArc
 50
180.0
 51
270.0
  0
ARC
  5
2E2
100
AcDbEntity
  8
BEZUGSACHSEN
100
AcDbCircle
 62
7
  6
CONTINUOUS
 10
134.5835436757
 20
87.9995472398
 40
1.0
100
AcDbArc
 50
0.0
 51
90.0
  0
ARC
  5
2E3
100
AcDbEntity
  8
BEZUGSACHSEN
100
AcDbCircle
 62
7
  6
CONTINUOUS
 10
142.1335436757
 20
77.4495472398
 40
0.5
100
AcDbArc
 50
90.0
 51
180.0
  0
ARC
  5
2E4
100
AcDbEntity
  8
0
100
AcDbCircle
 62
7
  6
CONTINUOUS
 10
-109.5238989066
 20
198.8579477514
 40
274.4491153919
100
AcDbArc
 50
335.5235651904
 51
336.2246380453
  0
ARC
  5
2E5
100
AcDbEntity
  8
BEZUGSACHSEN
100
AcDbCircle
 62
7
  6
CONTINUOUS
 10
33.0835436757
 20
141.6009325937
 40
2.5
100
AcDbArc
 50
98.2978268282
 51
180.0
  0
ARC
  5
2E6
100
AcDbEntity
  8
BEZUGSACHSEN
100
AcDbCircle
 62
7
  6
CONTINUOUS
 10
136.5835436757
 20
171.3245472398
 40
1.0
100
AcDbArc
 50
90.0
 51
180.0
  0
ARC
  5
2E7
100
AcDbEntity
  8
BEZUGSACHSEN
100
AcDbCircle
 62
7
  6
CONTINUOUS
 10
134.5835436757
 20
159.1495472398
 40
1.0
100
AcDbArc
 50
270.0
 51
360.0
  0
ARC
  5
2E8
100
AcDbEntity
  8
BEZUGSACHSEN
100
AcDbCircle
 62
7
  6
CONTINUOUS
 10
142.1335436757
 20
169.6995472398
 40
0.5
100
AcDbArc
 50
180.0
 51
270.0
  0
ARC
  5
2E9
100
AcDbEntity
  8
0
100
AcDbCircle
 62
7
  6
CONTINUOUS
 10
178.1690431943
 20
132.9874552953
 40
30.726934217
100
AcDbArc
 50
280.4603643289
 51
281.5682657147
  0
ARC
  5
2EA
100
AcDbEntity
  8
0
100
AcDbCircle
 62
7
  6
CONTINUOUS
 10
179.4317760031
 20
114.5195507343
 40
30.145515808
100
AcDbArc
 50
79.5136415285
 51
80.6471270369
  0
ARC
  5
2EB
100
AcDbEntity
  8
0
100
AcDbCircle
 62
7
  6
CONTINUOUS
 10
180.2777407876
 20
123.9626444502
 40
20.7013487791
100
AcDbArc
 50
76.8091023163
 51
77.3197445562
  0
ARC
  5
2EC
100
AcDbEntity
  8
GEWINDE
100
AcDbCircle
 62
7
  6
CONTINUOUS
 10
198.3335436761
 20
87.7488008927
 40
18.0000000014
100
AcDbArc
 50
82.016533546
 51
97.9834664563
  0
ARC
  5
2ED
100
AcDbEntity
  8
0
100
AcDbCircle
 62
2
  6
CONTINUOUS
 10
198.3335436692
 20
123.5745472398
 40
2.9999999935
100
AcDbArc
 50
180.1482124767
 51
180.0000000002
  0
CIRCLE
  5
2EE
100
AcDbEntity
  8
GEWINDE
100
AcDbCircle
 62
7
  6
CONTINUOUS
 10
198.3335436757
 20
123.5745472398
 40
2.5
  0
ARC
  5
2EF
100
AcDbEntity
  8
BEZUGSACHSEN
100
AcDbCircle
 62
7
  6
CONTINUOUS
 10
213.2048915136
 20
134.1520154908
 40
2.0
100
AcDbArc
 50
225.0
 51
267.0
  0
ARC
  5
2F0
100
AcDbEntity
  8
BEZUGSACHSEN
100
AcDbCircle
 62
7
  6
CONTINUOUS
 10
213.2048915136
 20
112.9970789888
 40
2.0
100
AcDbArc
 50
93.0
 51
135.0
  0
ARC
  5
2F1
100
AcDbEntity
  8
BEZUGSACHSEN
100
AcDbCircle
 62
7
  6
CONTINUOUS
 10
152.4335436757
 20
95.9674145697
 40
1.0
100
AcDbArc
 50
100.470103999
 51
180.0
  0
ARC
  5
2F2
100
AcDbEntity
  8
BEZUGSACHSEN
100
AcDbCircle
 62
7
  6
CONTINUOUS
 10
202.5397190775
 20
106.5745472398
 40
1.0
100
AcDbArc
 50
270.0
 51
315.0
  0
ARC
  5
2F3
100
AcDbEntity
  8
BEZUGSACHSEN
100
AcDbCircle
 62
7
  6
CONTINUOUS
 10
150.4335436757
 20
75.8245472398
 40
1.0
100
AcDbArc
 50
270.0
 51
360.0
  0
ARC
  5
2F4
100
AcDbEntity
  8
BEZUGSACHSEN
100
AcDbCircle
 62
7
  6
CONTINUOUS
 10
192.9979021598
 20
105.2941609755
 40
0.8
100
AcDbArc
 50
280.470103999
 51
330.0
  0
ARC
  5
2F5
100
AcDbEntity
  8
BEZUGSACHSEN
100
AcDbCircle
 62
7
  6
CONTINUOUS
 10
194.5454238911
 20
104.7745472398
 40
0.8
100
AcDbArc
 50
90.0
 51
150.0
  0
ARC
  5
2F6
100
AcDbEntity
  8
BEZUGSACHSEN
100
AcDbCircle
 62
7
  6
CONTINUOUS
 10
144.8835436757
 20
77.4495472398
 40
0.5
100
AcDbArc
 50
0.0
 51
90.0
  0
ARC
  5
2F7
100
AcDbEntity
  8
BEZUGSACHSEN
100
AcDbCircle
 62
7
  6
CONTINUOUS
 10
262.0335436757
 20
129.2898578698
 40
0.3
100
AcDbArc
 50
0.0
 51
87.0
  0
ARC
  5
2F8
100
AcDbEntity
  8
BEZUGSACHSEN
100
AcDbCircle
 62
7
  6
CONTINUOUS
 10
262.0335436757
 20
117.8592366098
 40
0.3
100
AcDbArc
 50
273.0
 51
360.0
  0
ARC
  5
2F9
100
AcDbEntity
  8
0
100
AcDbCircle
 62
7
  6
CONTINUOUS
 10
396.5409862577
 20
198.8579477512
 40
274.4491153915
100
AcDbArc
 50
203.7753619547
 51
204.4764348096
  0
ARC
  5
2FA
100
AcDbEntity
  8
GEWINDE
100
AcDbCircle
 62
7
  6
CONTINUOUS
 10
198.3335436754
 20
159.400293587
 40
18.0000000011
100
AcDbArc
 50
262.0165335459
 51
277.9834664561
  0
ARC
  5
2FB
100
AcDbEntity
  8
BEZUGSACHSEN
100
AcDbCircle
 62
7
  6
CONTINUOUS
 10
152.4335436757
 20
151.1816799099
 40
1.0
100
AcDbArc
 50
180.0
 51
259.529896001
  0
ARC
  5
2FC
100
AcDbEntity
  8
BEZUGSACHSEN
100
AcDbCircle
 62
7
  6
CONTINUOUS
 10
202.5397190775
 20
140.5745472398
 40
1.0
100
AcDbArc
 50
45.0
 51
90.0
  0
ARC
  5
2FD
100
AcDbEntity
  8
BEZUGSACHSEN
100
AcDbCircle
 62
7
  6
CONTINUOUS
 10
150.4335436757
 20
171.3245472398
 40
1.0
100
AcDbArc
 50
0.0
 51
90.0
  0
ARC
  5
2FE
100
AcDbEntity
  8
BEZUGSACHSEN
100
AcDbCircle
 62
7
  6
CONTINUOUS
 10
192.9979021598
 20
141.8549335041
 40
0.8
100
AcDbArc
 50
30.0
 51
79.529896001
  0
ARC
  5
2FF
100
AcDbEntity
  8
BEZUGSACHSEN
100
AcDbCircle
 62
7
  6
CONTINUOUS
 10
194.5454238911
 20
142.3745472398
 40
0.8
100
AcDbArc
 50
210.0
 51
270.0
  0
ARC
  5
300
100
AcDbEntity
  8
BEZUGSACHSEN
100
AcDbCircle
 62
7
  6
CONTINUOUS
 10
144.8835436757
 20
169.6995472398
 40
0.5
100
AcDbArc
 50
270.0
 51
360.0
  0
SPLINE
  5
301
100
AcDbEntity
  8
0
100
AcDbSpline
 62
2
  6
CONTINUOUS
 70
0
 71
3
 72
31
 73
27
 74
25
 42
0.0000001
 43
0.0000001
 44
0.0000000001
 12
-0.022423587
 22
0.0037372538
 32
0.0
 13
-0.0228378658
 23
-0.0038062997
 33
0.0
 40
0.0
 40
0.0
 40
0.0
 40
0.0
 40
0.0416666667
 40
0.0833333333
 40
0.125
 40
0.1666666667
 40
0.2083333333
 40
0.25
 40
0.2916666667
 40
0.3333333333
 40
0.375
 40
0.4166666667
 40
0.4583333333
 40
0.5
 40
0.5416666667
 40
0.5833333333
 40
0.625
 40
0.6666666667
 40
0.7083333333
 40
0.75
 40
0.7916666667
 40
0.8333333333
 40
0.875
 40
0.9166666667
 40
0.9583333333
 40
1.0
 40
1.0
 40
1.0
 40
1.0
 10
201.3335348487
 20
105.5745486612
 30
0.0
 10
201.33322341
 20
105.5746005675
 30
0.0
 10
201.3161085522
 20
105.5774642463
 30
0.0
 10
201.2411873555
 20
105.5897944237
 30
0.0
 10
201.1185349831
 20
105.6093210288
 30
0.0
 10
200.9503125314
 20
105.6347629967
 30
0.0
 10
200.7393923995
 20
105.664481376
 30
0.0
 10
200.4851722518
 20
105.6970512925
 30
0.0
 10
200.1931749466
 20
105.730025681
 30
0.0
 10
199.8703395327
 20
105.7609508247
 30
0.0
 10
199.5183327454
 20
105.78806921
 30
0.0
 10
199.1359105334
 20
105.8096321414
 30
0.0
 10
198.7362526287
 20
105.8232613157
 30
0.0
 10
198.3334443427
 20
105.82783239
 30
0.0
 10
197.9306084926
 20
105.8232564656
 30
0.0
 10
197.5309453854
 20
105.8096212886
 30
0.0
 10
197.1486367973
 20
105.7880603229
 30
0.0
 10
196.7967630681
 20
105.7609516318
 30
0.0
 10
196.4739527803
 20
105.7300299262
 30
0.0
 10
196.1819560858
 20
105.6970561325
 30
0.0
 10
195.9277707071
 20
105.6644913802
 30
0.0
 10
195.716873466
 20
105.6347774232
 30
0.0
 10
195.5486159201
 20
105.6093309837
 30
0.0
 10
195.4259388504
 20
105.5898007375
 30
0.0
 10
195.3509958022
 20
105.5774670846
 30
0.0
 10
195.3338700247
 20
105.5746015795
 30
0.0
 10
195.3335528321
 20
105.5745487142
 30
0.0
 11
201.3335348487
 21
105.5745486612
 31
0.0
 11
201.3079004005
 21
105.5788033561
 31
0.0
 11
201.2332321595
 21
105.5909938283
 31
0.0
 11
201.1109399699
 21
105.6103069226
 31
0.0
 11
200.9431962513
 21
105.6354757319
 31
0.0
 11
200.7321757302
 21
105.6649566322
 31
0.0
 11
200.4788760589
 21
105.6971187045
 31
0.0
 11
200.1880352619
 21
105.7296841402
 31
0.0
 11
199.8654776371
 21
105.760316365
 31
0.0
 11
199.5132635079
 21
105.787143301
 31
0.0
 11
199.1330379179
 21
105.8083098485
 31
0.0
 11
198.7357275651
 21
105.8217516323
 31
0.0
 11
198.3334397487
 21
105.8263078902
 31
0.0
 11
197.9311372831
 21
105.8217465902
 31
0.0
 11
197.5338378053
 21
105.8083003238
 31
0.0
 11
197.1537092738
 21
105.787135702
 31
0.0
 11
196.801606975
 21
105.7603161294
 31
0.0
 11
196.4790883792
 21
105.7296879115
 31
0.0
 11
196.1882579718
 21
105.6971243061
 31
0.0
 11
195.9349853967
 21
105.6649665128
 31
0.0
 11
195.7239800818
 21
105.6354886761
 31
0.0
 11
195.5562126661
 21
105.6103170159
 31
0.0
 11
195.4338945207
 21
105.5910001697
 31
0.0
 11
195.3592048659
 21
105.5788063171
 31
0.0
 11
195.3335528321
 21
105.5745487142
 31
0.0
  0
SPLINE
  5
302
100
AcDbEntity
  8
0
100
AcDbSpline
 62
2
  6
CONTINUOUS
 70
0
 71
3
 72
31
 73
27
 74
25
 42
0.0000001
 43
0.0000001
 44
0.0000000001
 12
0.0227513231
 22
-0.003791876
 32
0.0
 13
0.0228539263
 23
0.0038089764
 33
0.0
 40
0.0
 40
0.0
 40
0.0
 40
0.0
 40
0.0416666667
 40
0.0833333333
 40
0.125
 40
0.1666666667
 40
0.2083333333
 40
0.25
 40
0.2916666667
 40
0.3333333333
 40
0.375
 40
0.4166666667
 40
0.4583333333
 40
0.5
 40
0.5416666667
 40
0.5833333333
 40
0.625
 40
0.6666666667
 40
0.7083333333
 40
0.75
 40
0.7916666667
 40
0.8333333333
 40
0.875
 40
0.9166666667
 40
0.9583333333
 40
1.0
 40
1.0
 40
1.0
 40
1.0
 10
195.3335527912
 20
141.574545772
 30
0.0
 10
195.3338687818
 20
141.574493107
 30
0.0
 10
195.3509405143
 20
141.5716366827
 30
0.0
 10
195.4256695985
 20
141.559337719
 30
0.0
 10
195.5480208385
 20
141.5398568348
 30
0.0
 10
195.7157797651
 20
141.514478511
 30
0.0
 10
195.9260645175
 20
141.4848353017
 30
0.0
 10
196.1794935109
 20
141.4523388659
 30
0.0
 10
196.4707311984
 20
141.4194046436
 30
0.0
 10
196.7929637305
 20
141.388473566
 30
0.0
 10
197.1446508002
 20
141.361300239
 30
0.0
 10
197.5270888679
 20
141.3396461133
 30
0.0
 10
197.9270649347
 20
141.3259160028
 30
0.0
 10
198.3302965026
 20
141.321259376
 30
0.0
 10
198.7334877071
 20
141.3257678176
 30
0.0
 10
199.1334977009
 20
141.3393512043
 30
0.0
 10
199.5161897475
 20
141.3608809667
 30
0.0
 10
199.8684520587
 20
141.3879790401
 30
0.0
 10
200.1916302439
 20
141.4189057707
 30
0.0
 10
200.4839864011
 20
141.4518987993
 30
0.0
 10
200.7385126356
 20
141.484493758
 30
0.0
 10
200.949698755
 20
141.5142410513
 30
0.0
 10
201.1181794391
 20
141.539717729
 30
0.0
 10
201.2410222714
 20
141.5592731014
 30
0.0
 10
201.3160675669
 20
141.5716233678
 30
0.0
 10
201.3332171037
 20
141.5744928629
 30
0.0
 10
201.3335345193
 20
141.5745457654
 30
0.0
 11
195.3335527912
 21
141.574545772
 31
0.0
 11
195.3591274285
 21
141.5703009615
 31
0.0
 11
195.4336066245
 21
141.5581407322
 31
0.0
 11
195.5555887863
 21
141.5388739282
 31
0.0
 11
195.7228674028
 21
141.5137676967
 31
0.0
 11
195.9332552244
 21
141.4843597639
 31
0.0
 11
196.1857949599
 21
141.4522659015
 31
0.0
 11
196.4758970059
 21
141.419738501
 31
0.0
 11
196.7978728201
 21
141.3890998577
 31
0.0
 11
197.1497759666
 21
141.3622201058
 31
0.0
 11
197.5300118678
 21
141.3409667825
 31
0.0
 11
197.9276075182
 21
141.3274282501
 31
0.0
 11
198.3302897753
 21
141.3227868874
 31
0.0
 11
198.7329575053
 21
141.3272803085
 31
0.0
 11
199.1306113764
 21
141.3406756002
 31
0.0
 11
199.511118125
 21
141.3618090185
 31
0.0
 11
199.8636047043
 21
141.3886171496
 31
0.0
 11
200.1864932392
 21
141.4192501537
 31
0.0
 11
200.477681414
 21
141.4518324543
 31
0.0
 11
200.7312892831
 21
141.4840191471
 31
0.0
 11
200.9425811824
 21
141.513529282
 31
0.0
 11
201.1105731304
 21
141.5387308448
 31
0.0
 11
201.2330560153
 21
141.5580722504
 31
0.0
 11
201.3078474019
 21
141.5702823639
 31
0.0
 11
201.3335345193
 21
141.5745457654
 31
0.0
  0
SPLINE
  5
303
100
AcDbEntity
  8
0
100
AcDbSpline
 62
7
  6
CONTINUOUS
 70
0
 71
3
 72
13
 73
9
 74
7
 42
0.0000001
 43
0.0000001
 44
0.0000000001
 12
1.2010115981
 22
-0.2663878524
 32
0.0
 13
1.229885337
 23
0.1703216782
 33
0.0
 40
0.0
 40
0.0
 40
0.0
 40
0.0
 40
0.0364283342
 40
0.1562984971
 40
0.319871047
 40
0.522531211
 40
0.7539963612
 40
1.0
 40
1.0
 40
1.0
 40
1.0
 10
182.5092789474
 20
102.7192069098
 30
0.0
 10
182.5238625647
 20
102.7159722212
 30
0.0
 10
182.5866052353
 20
102.7072656942
 30
0.0
 10
182.7203068758
 20
102.6996175745
 30
0.0
 10
182.9208996357
 20
102.706726085
 30
0.0
 10
183.1677965181
 20
102.7255294631
 30
0.0
 10
183.4475954307
 20
102.7559379552
 30
0.0
 10
183.6435654688
 20
102.7814678143
 30
0.0
 10
183.7444175582
 20
102.7954343985
 30
0.0
 11
182.5092789474
 21
102.7192069098
 31
0.0
 11
182.5532498865
 21
102.7121837232
 31
0.0
 11
182.7017696314
 21
102.7026159166
 31
0.0
 11
182.9048009724
 21
102.7073844962
 31
0.0
 11
183.1557379927
 21
102.7258768268
 31
0.0
 11
183.441507191
 21
102.7562708073
 31
0.0
 11
183.7444175582
 21
102.7954343985
 31
0.0
  0
LINE
  5
304
100
AcDbEntity
  8
0
100
AcDbLine
 62
7
  6
CONTINUOUS
 10
183.7444175582
 20
102.7954343985
 11
183.7556290483
 21
102.7969904314
  0
SPLINE
  5
305
100
AcDbEntity
  8
0
100
AcDbSpline
 62
7
  6
CONTINUOUS
 70
0
 71
3
 72
10
 73
6
 74
4
 42
0.0000001
 43
0.0000001
 44
0.0000000001
 12
1.1670707064
 22
0.1623291647
 32
0.0
 13
1.1586444047
 23
0.214116779
 33
0.0
 40
0.0
 40
0.0
 40
0.0
 40
0.0
 40
0.2971135279
 40
0.6281951324
 40
1.0
 40
1.0
 40
1.0
 40
1.0
 10
183.7556290483
 20
102.7969904314
 30
0.0
 10
183.8712132132
 20
102.8130671617
 30
0.0
 10
184.1152728552
 20
102.8492861662
 30
0.0
 10
184.5028959979
 20
102.9126514905
 30
0.0
 10
184.7747060705
 20
102.9609737076
 30
0.0
 10
184.9183026137
 20
102.9875102611
 30
0.0
 11
183.7556290483
 21
102.7969904314
 31
0.0
 11
184.1019514178
 21
102.8481300589
 31
0.0
 11
184.4869676142
 21
102.9109105146
 31
0.0
 11
184.9183026137
 21
102.9875102611
 31
0.0
  0
SPLINE
  5
306
100
AcDbEntity
  8
BEZUGSACHSEN
100
AcDbSpline
 62
7
  6
CONTINUOUS
 70
0
 71
3
 72
19
 73
15
 74
13
 42
0.0000001
 43
0.0000001
 44
0.0000000001
 12
-0.8917749806
 22
0.3140245951
 32
0.0
 13
0.0
 23
0.9454491326
 33
0.0
 40
0.0
 40
0.0
 40
0.0
 40
0.0
 40
0.1214133986
 40
0.2405443248
 40
0.349104296
 40
0.4467037493
 40
0.5363127997
 40
0.6188635833
 40
0.6954987707
 40
0.7669978011
 40
0.833763553
 40
0.8958113366
 40
0.9519236155
 40
1.0
 40
1.0
 40
1.0
 40
1.0
 10
142.1335436757
 20
165.9295558412
 30
0.0
 10
142.097452532
 20
165.9422647723
 30
0.0
 10
142.0286536333
 20
165.9756085055
 30
0.0
 10
141.9397346795
 20
166.0411768558
 30
0.0
 10
141.8667608796
 20
166.113596467
 30
0.0
 10
141.8085631252
 20
166.1866191896
 30
0.0
 10
141.7621383487
 20
166.257971948
 30
0.0
 10
141.7249391813
 20
166.3270835631
 30
0.0
 10
141.6953161171
 20
166.3935425409
 30
0.0
 10
141.6720949317
 20
166.4572189675
 30
0.0
 10
141.6545389042
 20
166.5179081572
 30
0.0
 10
141.642298658
 20
166.5749413096
 30
0.0
 10
141.6352182369
 20
166.6269030358
 30
0.0
 10
141.6335436757
 20
166.6597478654
 30
0.0
 10
141.6335436757
 20
166.6748991241
 30
0.0
 11
142.1335436757
 21
165.9295558412
 31
0.0
 11
142.0299194191
 21
165.9789400666
 31
0.0
 11
141.9389352852
 21
166.0453321353
 31
0.0
 11
141.8658779146
 21
166.1174235038
 31
0.0
 11
141.8082461892
 21
166.1894881873
 31
0.0
 11
141.7619767922
 21
166.2604582986
 31
0.0
 11
141.7249581371
 21
166.3291681366
 31
0.0
 11
141.6954636696
 21
166.3953478601
 31
0.0
 11
141.6723381964
 21
166.458867906
 31
0.0
 11
141.6548678043
 21
166.5195257751
 31
0.0
 11
141.6426746498
 21
166.57690763
 31
0.0
 11
141.6356774067
 21
166.6294954575
 31
0.0
 11
141.6335436757
 21
166.6748991241
 31
0.0
  0
SPLINE
  5
307
100
AcDbEntity
  8
0
100
AcDbSpline
 62
7
  6
CONTINUOUS
 70
0
 71
3
 72
20
 73
16
 74
14
 42
0.0000001
 43
0.0000001
 44
0.0000000001
 12
3.803815536
 22
2.5147172566
 32
0.0
 13
3.8940977072
 23
2.4136191213
 33
0.0
 40
0.0
 40
0.0
 40
0.0
 40
0.0
 40
0.0261076005
 40
0.0761174677
 40
0.140367092
 40
0.2148968387
 40
0.2964198852
 40
0.3829017805
 40
0.4744955729
 40
0.5730265093
 40
0.6802158731
 40
0.7938625512
 40
0.8941859927
 40
0.9786605256
 40
1.0
 40
1.0
 40
1.0
 40
1.0
 10
181.394424257
 20
102.7241873667
 30
0.0
 10
181.4275270891
 20
102.7460717779
 30
0.0
 10
181.5284564916
 20
102.8064119488
 30
0.0
 10
181.717683943
 20
102.9053228377
 30
0.0
 10
181.9784956335
 20
103.0289887045
 30
0.0
 10
182.285697316
 20
103.1657068408
 30
0.0
 10
182.6258912397
 20
103.3120651982
 30
0.0
 10
182.9908315123
 20
103.4666811157
 30
0.0
 10
183.3797830352
 20
103.631223679
 30
0.0
 10
183.797096907
 20
103.809857501
 30
0.0
 10
184.2433835416
 20
104.0063332155
 30
0.0
 10
184.6884183642
 20
104.2123195571
 30
0.0
 10
185.0959873112
 20
104.4162973202
 30
0.0
 10
185.3713781863
 20
104.5689030388
 30
0.0
 10
185.5095546059
 20
104.6527073834
 30
0.0
 10
185.5372539387
 20
104.6698758379
 30
0.0
 11
181.394424257
 21
102.7241873667
 31
0.0
 11
181.4969609118
 21
102.7866754405
 31
0.0
 11
181.6992187001
 21
102.8942027414
 31
0.0
 11
181.9646791121
 21
103.0212298922
 31
0.0
 11
182.2762375863
 21
103.1607567623
 31
0.0
 11
182.6190592815
 21
103.3087619348
 31
0.0
 11
182.9836607356
 21
103.4636056403
 31
0.0
 11
183.3699162082
 21
103.6273602086
 31
0.0
 11
183.7846511079
 21
103.8053338403
 31
0.0
 11
184.2337514471
 21
104.0037227203
 31
0.0
 11
184.7056691168
 21
104.223405234
 31
0.0
 11
185.1160144669
 21
104.4302253477
 31
0.0
 11
185.4536930231
 21
104.6191282297
 31
0.0
 11
185.5372539387
 21
104.6698758379
 31
0.0
  0
SPLINE
  5
308
100
AcDbEntity
  8
BEZUGSACHSEN
100
AcDbSpline
 62
7
  6
CONTINUOUS
 70
0
 71
3
 72
18
 73
14
 74
12
 42
0.0000001
 43
0.0000001
 44
0.0000000001
 12
-2.6343875959
 22
-0.92765834
 32
0.0
 13
-2.6343875959
 23
0.92765834
 33
0.0
 40
0.0
 40
0.0
 40
0.0
 40
0.0
 40
0.0796840474
 40
0.1658993179
 40
0.2575081596
 40
0.3529288858
 40
0.4506857492
 40
0.5493141003
 40
0.6470704032
 40
0.7424892824
 40
0.834099213
 40
0.9203149986
 40
1.0
 40
1.0
 40
1.0
 40
1.0
 10
144.8835436757
 20
165.9295558412
 30
0.0
 10
144.813570787
 20
165.9049159842
 30
0.0
 10
144.6656444157
 20
165.8598829754
 30
0.0
 10
144.4318388801
 20
165.8061922042
 30
0.0
 10
144.1807024504
 20
165.7647092908
 30
0.0
 10
143.916945269
 20
165.7364658568
 30
0.0
 10
143.6455273343
 20
165.7221625387
 30
0.0
 10
143.3715609604
 20
165.7221625277
 30
0.0
 10
143.1001452625
 20
165.7364656647
 30
0.0
 10
142.8363892832
 20
165.764708724
 30
0.0
 10
142.5852530182
 20
165.8061912687
 30
0.0
 10
142.3514451098
 20
165.8598823548
 30
0.0
 10
142.2035174021
 20
165.9049156892
 30
0.0
 10
142.1335436757
 20
165.9295558412
 30
0.0
 11
144.8835436757
 21
165.9295558412
 31
0.0
 11
144.67084458
 21
165.8640650476
 31
0.0
 11
144.436270529
 21
165.8096862254
 31
0.0
 11
144.1838887458
 21
165.76765008
 31
0.0
 11
143.9189216019
 21
165.7390616363
 31
0.0
 11
143.6462757212
 21
165.7245904739
 31
0.0
 11
143.3708120513
 21
165.7245904628
 31
0.0
 11
143.0981677302
 21
165.7390614775
 31
0.0
 11
142.8332056874
 21
165.7676491125
 31
0.0
 11
142.5808208495
 21
165.8096854272
 31
0.0
 11
142.3462453466
 21
165.864064357
 31
0.0
 11
142.1335436757
 21
165.9295558412
 31
0.0
  0
SPLINE
  5
309
100
AcDbEntity
  8
0
100
AcDbSpline
 62
7
  6
CONTINUOUS
 70
0
 71
3
 72
13
 73
9
 74
7
 42
0.0000001
 43
0.0000001
 44
0.0000000001
 12
-1.0256042627
 22
0.6883665062
 32
0.0
 13
-1.2091631421
 23
0.2835249744
 33
0.0
 40
0.0
 40
0.0
 40
0.0
 40
0.0
 40
0.0407241546
 40
0.1536454495
 40
0.3072573319
 40
0.5012611727
 40
0.732047811
 40
1.0
 40
1.0
 40
1.0
 40
1.0
 10
186.1819350397
 20
143.7453875193
 30
0.0
 10
186.1680127508
 20
143.7547319006
 30
0.0
 10
186.1140916721
 20
143.7852855522
 30
0.0
 10
185.9962563321
 20
143.8375438419
 30
0.0
 10
185.8168204021
 20
143.9001961331
 30
0.0
 10
185.587305722
 20
143.9694778735
 30
0.0
 10
185.3103383536
 20
144.0436109153
 30
0.0
 10
185.1097092017
 20
144.0924678996
 30
0.0
 10
185.0017098981
 20
144.1177916121
 30
0.0
 11
186.1819350397
 21
143.7453875193
 31
0.0
 11
186.1390774088
 21
143.7706179274
 31
0.0
 11
186.0115688503
 21
143.828994776
 31
0.0
 11
185.8320703385
 21
143.8935973474
 31
0.0
 11
185.6016351989
 21
143.9639407622
 31
0.0
 11
185.3249348801
 21
144.0386669039
 31
0.0
 11
185.0017098981
 21
144.1177916121
 31
0.0
  0
SPLINE
  5
30A
100
AcDbEntity
  8
0
100
AcDbSpline
 62
7
  6
CONTINUOUS
 70
0
 71
3
 72
10
 73
6
 74
4
 42
0.0000001
 43
0.0000001
 44
0.0000000001
 12
-1.0695761325
 22
0.2407587226
 32
0.0
 13
-1.0780775749
 23
0.1992280781
 33
0.0
 40
0.0
 40
0.0
 40
0.0
 40
0.0
 40
0.179097087
 40
0.5690784666
 40
1.0
 40
1.0
 40
1.0
 40
1.0
 10
184.8218941639
 20
144.1590924391
 30
0.0
 10
184.7580415073
 20
144.173465501
 30
0.0
 10
184.5549499911
 20
144.2182344708
 30
0.0
 10
184.1971364223
 20
144.2925980746
 30
0.0
 10
183.9025363463
 20
144.349297205
 30
0.0
 10
183.7476807324
 20
144.3779144279
 30
0.0
 11
184.8218941639
 21
144.1590924391
 31
0.0
 11
184.6301571906
 21
144.2014016795
 31
0.0
 11
184.2115890464
 21
144.2885727489
 31
0.0
 11
183.7476807324
 21
144.3779144279
 31
0.0
  0
SPLINE
  5
30B
100
AcDbEntity
  8
0
100
AcDbSpline
 62
7
  6
CONTINUOUS
 70
0
 71
3
 72
19
 73
15
 74
13
 42
0.0000001
 43
0.0000001
 44
0.0000000001
 12
-3.7267473058
 22
-0.8389012737
 32
0.0
 13
-3.7371862311
 23
-0.7950192667
 33
0.0
 40
0.0
 40
0.0
 40
0.0
 40
0.0
 40
0.024316813
 40
0.0786069477
 40
0.1473319398
 40
0.2270202339
 40
0.3146693744
 40
0.4081426068
 40
0.5074582115
 40
0.6144622904
 40
0.7308056689
 40
0.8542129165
 40
0.9632343774
 40
1.0
 40
1.0
 40
1.0
 40
1.0
 10
187.2220427067
 20
143.3460206321
 30
0.0
 10
187.1918351677
 20
143.3392208303
 30
0.0
 10
187.0924637636
 20
143.3203548332
 30
0.0
 10
186.9071648554
 20
143.2955513081
 30
0.0
 10
186.6498888842
 20
143.2708966477
 30
0.0
 10
186.350207639
 20
143.2486659575
 30
0.0
 10
186.0187498284
 20
143.2273335169
 30
0.0
 10
185.6623306447
 20
143.2053923354
 30
0.0
 10
185.2813603343
 20
143.1809466607
 30
0.0
 10
184.8715528619
 20
143.1512802602
 30
0.0
 10
184.4316779308
 20
143.1125397258
 30
0.0
 10
183.9903732893
 20
143.0618604537
 30
0.0
 10
183.6515935545
 20
143.0087319646
 30
0.0
 10
183.4694733038
 20
142.9724670661
 30
0.0
 10
183.4236733109
 20
142.96272394
 30
0.0
 11
187.2220427067
 21
143.3460206321
 31
0.0
 11
187.1304032871
 21
143.3280875528
 31
0.0
 11
186.9250433484
 21
143.2991008874
 31
0.0
 11
186.6637949716
 21
143.2731038786
 31
0.0
 11
186.3602617452
 21
143.2498854616
 31
0.0
 11
186.0261488739
 21
143.2279606233
 31
0.0
 11
185.6697631607
 21
143.2056997488
 31
0.0
 11
185.291164124
 21
143.1810763742
 31
0.0
 11
184.8834929849
 21
143.1511248768
 31
0.0
 11
184.440821615
 21
143.1114328161
 31
0.0
 11
183.9726173181
 21
143.0563594109
 31
0.0
 11
183.5614160512
 21
142.9902816543
 31
0.0
 11
183.4236733109
 21
142.96272394
 31
0.0
  0
SPLINE
  5
30C
100
AcDbEntity
  8
BEZUGSACHSEN
100
AcDbSpline
 62
7
  6
CONTINUOUS
 70
0
 71
3
 72
19
 73
15
 74
13
 42
0.0000001
 43
0.0000001
 44
0.0000000001
 12
0.0
 22
-0.9454467273
 32
0.0
 13
-0.8917727118
 23
-0.3140237962
 33
0.0
 40
0.0
 40
0.0
 40
0.0
 40
0.0
 40
0.047873423
 40
0.1037430719
 40
0.1656609112
 40
0.2324172006
 40
0.3038749881
 40
0.3804962067
 40
0.4630222427
 40
0.5525621842
 40
0.6502812608
 40
0.7582912515
 40
0.8782443008
 40
1.0
 40
1.0
 40
1.0
 40
1.0
 10
145.3835436757
 20
166.6748991241
 30
0.0
 10
145.3835436757
 20
166.6598118671
 30
0.0
 10
145.381883202
 20
166.6271076246
 30
0.0
 10
145.3748522873
 20
166.5753228356
 30
0.0
 10
145.3626716552
 20
166.5184003623
 30
0.0
 10
145.3451675869
 20
166.4577555377
 30
0.0
 10
145.3219903379
 20
166.3940850292
 30
0.0
 10
145.2924169047
 20
166.3276317826
 30
0.0
 10
145.255276655
 20
166.2585273682
 30
0.0
 10
145.2088973297
 20
166.1871361947
 30
0.0
 10
145.1508504492
 20
166.1141941297
 30
0.0
 10
145.0778684136
 20
166.0416145876
 30
0.0
 10
144.9888602387
 20
165.9758286204
 30
0.0
 10
144.919736479
 20
165.9423005702
 30
0.0
 10
144.8835436757
 20
165.9295558412
 30
0.0
 11
145.3835436757
 21
166.6748991241
 31
0.0
 11
145.3814271702
 21
166.6296868655
 31
0.0
 11
145.3744845682
 21
166.577323325
 31
0.0
 11
145.362351657
 21
166.5200544309
 31
0.0
 11
145.3449203583
 21
166.4593947913
 31
0.0
 11
145.3218453488
 21
166.3958980653
 31
0.0
 11
145.2923957027
 21
166.329713041
 31
0.0
 11
145.2554309277
 21
166.261000994
 31
0.0
 11
145.2092468598
 21
166.1900535323
 31
0.0
 11
145.1515971133
 21
166.1178587766
 31
0.0
 11
145.0789877724
 21
166.0460541341
 31
0.0
 11
144.9874458939
 21
165.9791083712
 31
0.0
 11
144.8835436757
 21
165.9295558412
 31
0.0
  0
SPLINE
  5
30D
100
AcDbEntity
  8
BEZUGSACHSEN
100
AcDbSpline
 62
7
  6
CONTINUOUS
 70
0
 71
3
 72
11
 73
7
 74
5
 42
0.0000001
 43
0.0000001
 44
0.0000000001
 12
-0.1677273634
 22
0.4339454723
 32
0.0
 13
0.0
 23
0.465232352
 33
0.0
 40
0.0
 40
0.0
 40
0.0
 40
0.0
 40
0.3644252763
 40
0.6433856054
 40
0.8512211786
 40
1.0
 40
1.0
 40
1.0
 40
1.0
 10
141.6335436757
 20
166.9075889153
 30
0.0
 10
141.6131689788
 20
166.9603024815
 30
0.0
 10
141.5786405443
 20
167.053932728
 30
0.0
 10
141.5388494033
 20
167.1799094764
 30
0.0
 10
141.5157259814
 20
167.2757406393
 30
0.0
 10
141.5085436757
 20
167.3309099963
 30
0.0
 10
141.5085436757
 20
167.3539822366
 30
0.0
 11
141.6335436757
 21
166.9075889153
 31
0.0
 11
141.5754824939
 21
167.0668796376
 31
0.0
 11
141.5371813974
 21
167.1908805651
 31
0.0
 11
141.5155446863
 21
167.2851204887
 31
0.0
 11
141.5085436757
 21
167.3539822366
 31
0.0
  0
SPLINE
  5
30E
100
AcDbEntity
  8
BEZUGSACHSEN
100
AcDbSpline
 62
7
  6
CONTINUOUS
 70
0
 71
3
 72
11
 73
7
 74
5
 42
0.0000001
 43
0.0000001
 44
0.0000000001
 12
0.0
 22
-0.4652323723
 32
0.0
 13
-0.1677273707
 23
-0.4339454912
 33
0.0
 40
0.0
 40
0.0
 40
0.0
 40
0.0
 40
0.1487474517
 40
0.3565861977
 40
0.635557531
 40
1.0
 40
1.0
 40
1.0
 40
1.0
 10
145.5085436757
 20
167.3539822366
 30
0.0
 10
145.5085436757
 20
167.33091486
 30
0.0
 10
145.5013631623
 20
167.2757497997
 30
0.0
 10
145.4782412988
 20
167.1799209053
 30
0.0
 10
145.4384492382
 20
167.0539393553
 30
0.0
 10
145.4039193347
 20
166.9603049707
 30
0.0
 10
145.3835436757
 20
166.9075889153
 30
0.0
 11
145.5085436757
 21
167.3539822366
 31
0.0
 11
145.5015451736
 21
167.2851349001
 31
0.0
 11
145.4799094106
 21
167.1908932399
 31
0.0
 11
145.4416074243
 21
167.0668872233
 31
0.0
 11
145.3835436757
 21
166.9075889153
 31
0.0
  0
SPLINE
  5
30F
100
AcDbEntity
  8
0
100
AcDbSpline
 62
7
  6
CONTINUOUS
 70
0
 71
3
 72
98
 73
94
 74
92
 42
0.0000001
 43
0.0000001
 44
0.0000000001
 12
-24.7979765722
 22
-20.4205477833
 32
0.0
 13
31.1462362267
 23
-14.9022670979
 33
0.0
 40
0.0
 40
0.0
 40
0.0
 40
0.0
 40
0.0171751269
 40
0.0334060073
 40
0.0487172392
 40
0.0631205971
 40
0.0766346081
 40
0.0892490686
 40
0.1009666778
 40
0.1117975555
 40
0.1217074702
 40
0.131017005
 40
0.1400464413
 40
0.149158238
 40
0.1590250274
 40
0.17023234
 40
0.182840584
 40
0.1962988054
 40
0.2102936196
 40
0.2248513777
 40
0.2399219252
 40
0.2552974742
 40
0.270767505
 40
0.2861567319
 40
0.3012938318
 40
0.3160134682
 40
0.3300324616
 40
0.3426921342
 40
0.3535911017
 40
0.3629989682
 40
0.3714585924
 40
0.3794042075
 40
0.3872341168
 40
0.3955571998
 40
0.4049437405
 40
0.4157841218
 40
0.4284868772
 40
0.4430965138
 40
0.4588340109
 40
0.474890378
 40
0.4911959717
 40
0.5077367216
 40
0.5240404658
 40
0.5396255335
 40
0.5542563606
 40
0.5677890998
 40
0.5802449821
 40
0.5916875157
 40
0.6018553216
 40
0.6104732018
 40
0.6178204521
 40
0.6243995193
 40
0.6308043583
 40
0.6374465219
 40
0.6446626397
 40
0.6528964113
 40
0.6624757732
 40
0.6735889247
 40
0.6866668858
 40
0.7014363787
 40
0.7162615494
 40
0.7304964019
 40
0.7443586702
 40
0.7579168143
 40
0.7710007529
 40
0.7828054098
 40
0.7924878293
 40
0.8000378403
 40
0.8058851717
 40
0.8105207721
 40
0.8145272424
 40
0.8186483128
 40
0.8235225194
 40
0.8296391684
 40
0.8374746349
 40
0.8472848096
 40
0.8586684373
 40
0.8708015141
 40
0.882913707
 40
0.8947183459
 40
0.9066267355
 40
0.9186454543
 40
0.9307229377
 40
0.942792357
 40
0.9547071106
 40
0.9659692381
 40
0.9759784643
 40
0.9841583421
 40
0.9901951192
 40
0.994299025
 40
0.9968403603
 40
0.9983372319
 40
1.0
 40
1.0
 40
1.0
 40
1.0
 10
184.9186270083
 20
123.5745472398
 30
0.0
 10
184.7766575439
 20
123.4576387402
 30
0.0
 10
184.5009599213
 20
123.2297103472
 30
0.0
 10
184.1046805907
 20
122.8903884433
 30
0.0
 10
183.7406731794
 20
122.5592484711
 30
0.0
 10
183.4124594721
 20
122.2325450045
 30
0.0
 10
183.1235528342
 20
121.9082198158
 30
0.0
 10
182.8776486621
 20
121.5854792964
 30
0.0
 10
182.6794287947
 20
121.2644398933
 30
0.0
 10
182.5351285281
 20
120.9470069848
 30
0.0
 10
182.446569591
 20
120.6362999846
 30
0.0
 10
182.4114248365
 20
120.3344678153
 30
0.0
 10
182.4272629447
 20
120.0395033516
 30
0.0
 10
182.4944265076
 20
119.7458254854
 30
0.0
 10
182.6154965912
 20
119.4448483701
 30
0.0
 10
182.7963382006
 20
119.1315770651
 30
0.0
 10
183.0371659311
 20
118.8122268349
 30
0.0
 10
183.3290055363
 20
118.4970863992
 30
0.0
 10
183.6584222599
 20
118.1903259257
 30
0.0
 10
184.016707127
 20
117.8903786677
 30
0.0
 10
184.3975533566
 20
117.5949944214
 30
0.0
 10
184.793162298
 20
117.3030161329
 30
0.0
 10
185.1945507022
 20
117.0132067041
 30
0.0
 10
185.5931532836
 20
116.7238930977
 30
0.0
 10
185.9803066586
 20
116.4325341443
 30
0.0
 10
186.345997972
 20
116.1373541641
 30
0.0
 10
186.6755011665
 20
115.840327361
 30
0.0
 10
186.9512550255
 20
115.5463452544
 30
0.0
 10
187.1614175151
 20
115.2614619644
 30
0.0
 10
187.3073928082
 20
114.9888006256
 30
0.0
 10
187.3948979731
 20
114.7249575487
 30
0.0
 10
187.4270082661
 20
114.465622337
 30
0.0
 10
187.4059009277
 20
114.2067850379
 30
0.0
 10
187.3332315682
 20
113.9417063335
 30
0.0
 10
187.2044118768
 20
113.6631192153
 30
0.0
 10
187.0118411046
 20
113.3665823239
 30
0.0
 10
186.7513250272
 20
113.0510294427
 30
0.0
 10
186.4286038422
 20
112.7213143114
 30
0.0
 10
186.0599597004
 20
112.3878401517
 30
0.0
 10
185.6639721846
 20
112.0583658803
 30
0.0
 10
185.2534748356
 20
111.7332175543
 30
0.0
 10
184.8373471332
 20
111.4109977441
 30
0.0
 10
184.4275399919
 20
111.0932159922
 30
0.0
 10
184.0374014383
 20
110.7834631938
 30
0.0
 10
183.6771018685
 20
110.4839765562
 30
0.0
 10
183.3524894266
 20
110.1942798808
 30
0.0
 10
183.0676151981
 20
109.9119826486
 30
0.0
 10
182.8272183388
 20
109.6370725005
 30
0.0
 10
182.6385878543
 20
109.3731657868
 30
0.0
 10
182.5074510621
 20
109.1246792641
 30
0.0
 10
182.4336334981
 20
108.8932807376
 30
0.0
 10
182.4115988822
 20
108.6749100417
 30
0.0
 10
182.4404472726
 20
108.4646099961
 30
0.0
 10
182.5228653436
 20
108.2615582353
 30
0.0
 10
182.6604695929
 20
108.0670868535
 30
0.0
 10
182.8529107845
 20
107.8789732517
 30
0.0
 10
183.1031528603
 20
107.6951118164
 30
0.0
 10
183.4165753564
 20
107.5136852313
 30
0.0
 10
183.793979834
 20
107.3350873206
 30
0.0
 10
184.2179203438
 20
107.1641339836
 30
0.0
 10
184.6596997936
 20
107.0055232314
 30
0.0
 10
185.0956313698
 20
106.8598592741
 30
0.0
 10
185.5198760866
 20
106.7221352532
 30
0.0
 10
185.9318534215
 20
106.5865173663
 30
0.0
 10
186.3202445474
 20
106.4498375888
 30
0.0
 10
186.6644451724
 20
106.313161138
 30
0.0
 10
186.9454901139
 20
106.1793455028
 30
0.0
 10
187.1565775519
 20
106.0494253435
 30
0.0
 10
187.3029211313
 20
105.9215662216
 30
0.0
 10
187.3927569074
 20
105.7922882041
 30
0.0
 10
187.427681154
 20
105.6564325003
 30
0.0
 10
187.4036226413
 20
105.5157081408
 30
0.0
 10
187.3243571584
 20
105.3723845669
 30
0.0
 10
187.1901352815
 20
105.2206402847
 30
0.0
 10
186.9945816471
 20
105.056825497
 30
0.0
 10
186.736557115
 20
104.8828286915
 30
0.0
 10
186.4274794488
 20
104.7040839488
 30
0.0
 10
186.0888401895
 20
104.5281882679
 30
0.0
 10
185.7409736438
 20
104.3607647254
 30
0.0
 10
185.3919299728
 20
104.2015741907
 30
0.0
 10
185.0416259415
 20
104.0476711559
 30
0.0
 10
184.6872194661
 20
103.8958964428
 30
0.0
 10
184.3304165329
 20
103.7453578042
 30
0.0
 10
183.9744308557
 20
103.5957519333
 30
0.0
 10
183.6268844885
 20
103.4485882451
 30
0.0
 10
183.3008662339
 20
103.3072126543
 30
0.0
 10
183.0136346179
 20
103.1768744283
 30
0.0
 10
182.7810896898
 20
103.0619290806
 30
0.0
 10
182.608725903
 20
102.9677640847
 30
0.0
 10
182.4972416279
 20
102.8897157147
 30
0.0
 10
182.430420334
 20
102.8336963563
 30
0.0
 10
182.4111535765
 20
102.7652487767
 30
0.0
 10
182.4441442959
 20
102.7436450505
 30
0.0
 10
182.4614072854
 20
102.735385379
 30
0.0
 11
184.9186270083
 21
123.5745472398
 31
0.0
 11
184.4942149402
 21
123.2220125162
 31
0.0
 11
184.0989678553
 21
122.8819608661
 31
0.0
 11
183.7360846599
 21
122.5499412085
 31
0.0
 11
183.4091597129
 21
122.2225230707
 31
0.0
 11
183.1215473015
 21
121.8973454894
 31
0.0
 11
182.8774475021
 21
121.5738921123
 31
0.0
 11
182.6816853053
 21
121.2523882257
 31
0.0
 11
182.5395105803
 21
120.934833683
 31
0.0
 11
182.453501686
 21
120.6283284863
 31
0.0
 11
182.4196825125
 21
120.3311892544
 31
0.0
 11
182.4353996164
 21
120.0415556002
 31
0.0
 11
182.4996714953
 21
119.7559936152
 31
0.0
 11
182.6163943911
 21
119.4613096917
 31
0.0
 11
182.7945758809
 21
119.148472992
 31
0.0
 11
183.0366980555
 21
118.8237856811
 31
0.0
 11
183.3287675129
 21
118.5050319226
 31
0.0
 11
183.6565594348
 21
118.1973590878
 31
0.0
 11
184.0142789741
 21
117.8961387257
 31
0.0
 11
184.3961164509
 21
117.5985224588
 31
0.0
 11
184.79285115
 21
117.3043123857
 31
0.0
 11
185.1951315264
 21
117.012531801
 31
0.0
 11
185.5944900789
 21
116.7211472203
 31
0.0
 11
185.9821755469
 21
116.4276342278
 31
0.0
 11
186.3490076516
 21
116.1292688069
 31
0.0
 11
186.6817450702
 21
115.8257973696
 31
0.0
 11
186.9576228531
 21
115.5270040591
 31
0.0
 11
187.1633156844
 21
115.2436812125
 31
0.0
 11
187.3038601386
 21
114.9761330618
 31
0.0
 11
187.3876321886
 21
114.7176119513
 31
0.0
 11
187.418354003
 21
114.464224241
 31
0.0
 11
187.3988578185
 21
114.2134545426
 31
0.0
 11
187.3297379432
 21
113.9551743735
 31
0.0
 11
187.2051527606
 21
113.6805843509
 31
0.0
 11
187.017839087
 21
113.387018921
 31
0.0
 11
186.7603979009
 21
113.0704156771
 31
0.0
 11
186.4339087622
 21
112.7332757897
 31
0.0
 11
186.0602465984
 21
112.3927533217
 31
0.0
 11
185.6647375647
 21
112.0616740667
 31
0.0
 11
185.2548635017
 21
111.7355342466
 31
0.0
 11
184.8353784161
 21
111.409394852
 31
0.0
 11
184.4220870015
 21
111.0876932829
 31
0.0
 11
184.030611363
 21
110.7756054458
 31
0.0
 11
183.6699138682
 21
110.4742830397
 31
0.0
 11
183.3465680109
 21
110.183712001
 31
0.0
 11
183.0634987023
 21
109.9009117483
 31
0.0
 11
182.8231701106
 21
109.6227831989
 31
0.0
 11
182.6356418912
 21
109.3553521375
 31
0.0
 11
182.509186519
 21
109.1090821718
 31
0.0
 11
182.4396093999
 21
108.8835489936
 31
0.0
 11
182.4199232198
 21
108.6731232201
 31
0.0
 11
182.4482653769
 21
108.4693369078
 31
0.0
 11
182.5274113703
 21
108.2711871707
 31
0.0
 11
182.6590516609
 21
108.0803828259
 31
0.0
 11
182.8462277148
 21
107.8934994795
 31
0.0
 11
183.0926775501
 21
107.7092239929
 31
0.0
 11
183.4004120597
 21
107.5282652413
 31
0.0
 11
183.7791167872
 21
107.3463907766
 31
0.0
 11
184.2184343382
 21
107.1672121229
 31
0.0
 11
184.6662307655
 21
107.0050897861
 31
0.0
 11
185.0996199899
 21
106.8592250554
 31
0.0
 11
185.5228790688
 21
106.7208357553
 31
0.0
 11
185.93619967
 21
106.5835026693
 31
0.0
 11
186.332165622
 21
106.4425490155
 31
0.0
 11
186.6837751571
 21
106.3005233977
 31
0.0
 11
186.9632305833
 21
106.1639653047
 31
0.0
 11
187.1677650683
 21
106.0336238863
 31
0.0
 11
187.3065079604
 21
105.9069995977
 31
0.0
 11
187.3880448107
 21
105.7823928137
 31
0.0
 11
187.4183088033
 21
105.657298591
 31
0.0
 11
187.3986067752
 21
105.5263884384
 31
0.0
 11
187.3268010413
 21
105.3872460087
 31
0.0
 11
187.1994395774
 21
105.2376218898
 31
0.0
 11
187.0085403296
 21
105.0735705024
 31
0.0
 11
186.7487912062
 21
104.8951225896
 31
0.0
 11
186.4331597938
 21
104.7104537157
 31
0.0
 11
186.0877615432
 21
104.5298621718
 31
0.0
 11
185.7374331017
 21
104.3605673622
 31
0.0
 11
185.3925837534
 21
104.2028364903
 31
0.0
 11
185.0424725877
 21
104.0486901569
 31
0.0
 11
184.6876634159
 21
103.8964615662
 31
0.0
 11
184.3303020564
 21
103.7454079957
 31
0.0
 11
183.9729713437
 21
103.5949482336
 31
0.0
 11
183.6206732511
 21
103.4453439955
 31
0.0
 11
183.288982058
 21
103.3008884908
 31
0.0
 11
182.9966402681
 21
103.1670205511
 31
0.0
 11
182.7614160627
 21
103.0499010151
 31
0.0
 11
182.5927600758
 21
102.9541839451
 31
0.0
 11
182.4849852531
 21
102.8782593862
 31
0.0
 11
182.4295689799
 21
102.818311972
 31
0.0
 11
182.4215151375
 21
102.7709060434
 31
0.0
 11
182.4614072854
 21
102.735385379
 31
0.0
  0
SPLINE
  5
310
100
AcDbEntity
  8
0
100
AcDbSpline
 62
7
  6
CONTINUOUS
 70
0
 71
3
 72
8
 73
4
 74
2
 42
0.0000001
 43
0.0000001
 44
0.0000000001
 12
0.0479931524
 22
-0.0229628637
 32
0.0
 13
0.0478823418
 23
-0.0106204422
 33
0.0
 40
0.0
 40
0.0
 40
0.0
 40
0.0
 40
1.0
 40
1.0
 40
1.0
 40
1.0
 10
182.4614072854
 20
102.735385379
 30
0.0
 10
182.4774050029
 20
102.7277310911
 30
0.0
 10
182.4933181667
 20
102.7227470571
 30
0.0
 10
182.5092789474
 20
102.7192069098
 30
0.0
 11
182.4614072854
 21
102.735385379
 31
0.0
 11
182.5092789474
 21
102.7192069098
 31
0.0
  0
SPLINE
  5
311
100
AcDbEntity
  8
0
100
AcDbSpline
 62
7
  6
CONTINUOUS
 70
0
 71
3
 72
99
 73
95
 74
93
 42
0.0000001
 43
0.0000001
 44
0.0000000001
 12
24.6585516098
 22
20.5191095042
 32
0.0
 13
-25.2663916716
 23
23.125101987
 33
0.0
 40
0.0
 40
0.0
 40
0.0
 40
0.0
 40
0.0169081983
 40
0.0327999793
 40
0.0477095524
 40
0.061668385
 40
0.0747042659
 40
0.0868359723
 40
0.0980905675
 40
0.108503228
 40
0.1180657885
 40
0.1270786361
 40
0.1358467329
 40
0.1446919156
 40
0.1542014663
 40
0.1649960508
 40
0.1772481234
 40
0.190532384
 40
0.2045000034
 40
0.2191511978
 40
0.2344617237
 40
0.2502755139
 40
0.2664169566
 40
0.2827695738
 40
0.2992192605
 40
0.3155381312
 40
0.3313707232
 40
0.3459945261
 40
0.3586752039
 40
0.3695075686
 40
0.3789866182
 40
0.3876211213
 40
0.3957458557
 40
0.403905545
 40
0.4127136311
 40
0.4226440383
 40
0.4340837073
 40
0.4474098709
 40
0.462057939
 40
0.4770113957
 40
0.491962472
 40
0.5069345623
 40
0.5216432431
 40
0.5356983403
 40
0.5489099552
 40
0.561179049
 40
0.5725146825
 40
0.5829857555
 40
0.5924459175
 40
0.6005638644
 40
0.6074850961
 40
0.6137044428
 40
0.6198426434
 40
0.6265464751
 40
0.6343340758
 40
0.6434050402
 40
0.6532881322
 40
0.663496689
 40
0.6736429881
 40
0.6845345864
 40
0.6967013239
 40
0.7097628498
 40
0.723486487
 40
0.7380796632
 40
0.7536323517
 40
0.7694813765
 40
0.7846510692
 40
0.7979081874
 40
0.8085958555
 40
0.8169479277
 40
0.8234759957
 40
0.8286026654
 40
0.8328827629
 40
0.8369722236
 40
0.8415382197
 40
0.8471825996
 40
0.85417481
 40
0.8626469516
 40
0.8727489662
 40
0.8845879211
 40
0.8981891072
 40
0.9117286311
 40
0.9244669942
 40
0.9364795284
 40
0.9479077068
 40
0.958823945
 40
0.968969598
 40
0.9779682631
 40
0.9853440082
 40
0.9908127209
 40
0.9945383869
 40
0.9968435065
 40
0.9982561104
 40
1.0
 40
1.0
 40
1.0
 40
1.0
 10
183.748005127
 20
123.5745472398
 30
0.0
 10
183.8869823542
 20
123.6901942976
 30
0.0
 10
184.1569442066
 20
123.91410045
 30
0.0
 10
184.5464515451
 20
124.2435986361
 30
0.0
 10
184.9048820534
 20
124.5608857939
 30
0.0
 10
185.2293206802
 20
124.8701667298
 30
0.0
 10
185.5163472845
 20
125.1749335642
 30
0.0
 10
185.7627355463
 20
125.4771029875
 30
0.0
 10
185.9641965707
 20
125.778006513
 30
0.0
 10
186.1144752072
 20
126.0774557704
 30
0.0
 10
186.2101934811
 20
126.3736869094
 30
0.0
 10
186.2526852778
 20
126.6644247146
 30
0.0
 10
186.2441892081
 20
126.9504636732
 30
0.0
 10
186.1857821227
 20
127.2359073268
 30
0.0
 10
186.0753621066
 20
127.5285842475
 30
0.0
 10
185.9092306788
 20
127.8355232696
 30
0.0
 10
185.6864143513
 20
128.1546015613
 30
0.0
 10
185.4138942046
 20
128.4779168632
 30
0.0
 10
185.1029036167
 20
128.800795806
 30
0.0
 10
184.7619171891
 20
129.1240346242
 30
0.0
 10
184.3964866026
 20
129.449762515
 30
0.0
 10
184.0129522569
 20
129.7789429994
 30
0.0
 10
183.6185743562
 20
130.1125570485
 30
0.0
 10
183.2205032827
 20
130.4523390218
 30
0.0
 10
182.8267568907
 20
130.8000571289
 30
0.0
 10
182.4481268495
 20
131.1562278123
 30
0.0
 10
182.1002831604
 20
131.5160023056
 30
0.0
 10
181.8027048797
 20
131.8691206611
 30
0.0
 10
181.5703812316
 20
132.2052286382
 30
0.0
 10
181.4049938716
 20
132.5179310749
 30
0.0
 10
181.2989845346
 20
132.8099270717
 30
0.0
 10
181.2465604263
 20
133.087007231
 30
0.0
 10
181.2459099525
 20
133.3550204646
 30
0.0
 10
181.2955070638
 20
133.6202567478
 30
0.0
 10
181.3994480721
 20
133.8900675837
 30
0.0
 10
181.5661419298
 20
134.1680933891
 30
0.0
 10
181.8047420772
 20
134.4538082391
 30
0.0
 10
182.1136524597
 20
134.7417278585
 30
0.0
 10
182.4775004797
 20
135.0223762216
 30
0.0
 10
182.8734780051
 20
135.2876710152
 30
0.0
 10
183.2834845069
 20
135.5371757651
 30
0.0
 10
183.697433238
 20
135.7747435745
 30
0.0
 10
184.10564923
 20
136.0029436413
 30
0.0
 10
184.4969318119
 20
136.2228627387
 30
0.0
 10
184.8622479839
 20
136.435693297
 30
0.0
 10
185.1963311922
 20
136.6441399962
 30
0.0
 10
185.4955443924
 20
136.8524805825
 30
0.0
 10
185.7551121838
 20
137.0639101247
 30
0.0
 10
185.9665966887
 20
137.2777122062
 30
0.0
 10
186.1214625568
 20
137.4907365345
 30
0.0
 10
186.2156465907
 20
137.6997391865
 30
0.0
 10
186.2538530661
 20
137.9043644308
 30
0.0
 10
186.2419543951
 20
138.1097207243
 30
0.0
 10
186.1790260165
 20
138.3229541051
 30
0.0
 10
186.0599802934
 20
138.5465631677
 30
0.0
 10
185.8875724666
 20
138.7757276846
 30
0.0
 10
185.6734329452
 20
139.003013701
 30
0.0
 10
185.4339042257
 20
139.2205458351
 30
0.0
 10
185.174417599
 20
139.4312142529
 30
0.0
 10
184.889852812
 20
139.6436785825
 30
0.0
 10
184.5734427966
 20
139.865251069
 30
0.0
 10
184.2270050687
 20
140.0965202601
 30
0.0
 10
183.8554375768
 20
140.3367649741
 30
0.0
 10
183.4596234111
 20
140.5885315514
 30
0.0
 10
183.0448075567
 20
140.852770616
 30
0.0
 10
182.6277436037
 20
141.1249410362
 30
0.0
 10
182.2379897156
 20
141.393879572
 30
0.0
 10
181.9041200593
 20
141.6461170154
 30
0.0
 10
181.6424083464
 20
141.8720153079
 30
0.0
 10
181.4536433423
 20
142.0706274413
 30
0.0
 10
181.328854275
 20
142.2456025027
 30
0.0
 10
181.2588909362
 20
142.4026569156
 30
0.0
 10
181.2400366236
 20
142.5486982292
 30
0.0
 10
181.2779695781
 20
142.6856702845
 30
0.0
 10
181.3734292217
 20
142.8088317762
 30
0.0
 10
181.5229581811
 20
142.9185341385
 30
0.0
 10
181.7273489899
 20
143.0163347169
 30
0.0
 10
181.9873381511
 20
143.1023589738
 30
0.0
 10
182.3038679099
 20
143.1781172771
 30
0.0
 10
182.6782926911
 20
143.2442504931
 30
0.0
 10
183.0916597796
 20
143.2985034869
 30
0.0
 10
183.5160005937
 20
143.3410631065
 30
0.0
 10
183.9241139936
 20
143.3741963433
 30
0.0
 10
184.3100428532
 20
143.4011731941
 30
0.0
 10
184.6766524174
 20
143.4249264027
 30
0.0
 10
185.0233585807
 20
143.4473604886
 30
0.0
 10
185.343950625
 20
143.4702044046
 30
0.0
 10
185.6266271828
 20
143.4945473335
 30
0.0
 10
185.8582817981
 20
143.522334171
 30
0.0
 10
186.0339614132
 20
143.5511001705
 30
0.0
 10
186.151108151
 20
143.5852183231
 30
0.0
 10
186.2274447046
 20
143.6152881843
 30
0.0
 10
186.2571824284
 20
143.6758552033
 30
0.0
 10
186.2314509798
 20
143.704714216
 30
0.0
 10
186.2167637143
 20
143.7181567573
 30
0.0
 11
183.748005127
 21
123.5745472398
 31
0.0
 11
184.1647310265
 21
123.9217355596
 31
0.0
 11
184.5531885522
 21
124.2518765465
 31
0.0
 11
184.9104515452
 21
124.5698740825
 31
0.0
 11
185.2335324082
 21
124.8799282473
 31
0.0
 11
185.51912413
 21
125.1853998694
 31
0.0
 11
185.7636077902
 21
125.4881963257
 31
0.0
 11
185.9625006382
 21
125.7895113478
 31
0.0
 11
186.1103695861
 21
126.0890293135
 31
0.0
 11
186.2034036692
 21
126.3813411195
 31
0.0
 11
186.2445085076
 21
126.6675296306
 31
0.0
 11
186.2362071605
 21
126.9486810383
 31
0.0
 11
186.1802450634
 21
127.2268545172
 31
0.0
 11
186.0743738722
 21
127.5129531308
 31
0.0
 11
185.9114601838
 21
127.8185189077
 31
0.0
 11
185.6882442867
 21
128.1420199794
 31
0.0
 11
185.4152209463
 21
128.4692221792
 31
0.0
 11
185.1056557504
 21
128.7931615874
 31
0.0
 11
184.7654520836
 21
129.1174466151
 31
0.0
 11
184.3995151763
 21
129.4450418333
 31
0.0
 11
184.0152241814
 21
129.7762035853
 31
0.0
 11
183.6205437952
 21
130.1113897019
 31
0.0
 11
183.2222499825
 21
130.4527777899
 31
0.0
 11
182.8275684227
 21
130.8030447519
 31
0.0
 11
182.4472711705
 21
131.1627990831
 31
0.0
 11
182.0957224536
 21
131.5293689732
 31
0.0
 11
181.7956177951
 21
131.8899397746
 31
0.0
 11
181.5664999356
 21
132.2260652453
 31
0.0
 11
181.4060123604
 21
132.5342792653
 31
0.0
 11
181.30414742
 21
132.8207904229
 31
0.0
 11
181.2543140295
 21
133.0932590994
 31
0.0
 11
181.2540289988
 21
133.3538942966
 31
0.0
 11
181.30163256
 21
133.611285943
 31
0.0
 11
181.4019815959
 21
133.8754230199
 31
0.0
 11
181.5640495431
 21
134.1496755256
 31
0.0
 11
181.7968458119
 21
134.4333606483
 31
0.0
 11
182.1073435619
 21
134.7272001482
 31
0.0
 11
182.4778986455
 21
135.0161533992
 31
0.0
 11
182.8753568232
 21
135.2847327785
 31
0.0
 11
183.2843266594
 21
135.535288759
 31
0.0
 11
183.7003213395
 21
135.7753515553
 31
0.0
 11
184.1116596584
 21
136.0065159352
 31
0.0
 11
184.5042034797
 21
136.2283251942
 31
0.0
 11
184.8698211389
 21
136.4426753071
 31
0.0
 11
185.202929977
 21
136.652309028
 31
0.0
 11
185.500312685
 21
136.8615852546
 31
0.0
 11
185.7593131019
 21
137.0754786086
 31
0.0
 11
185.9705127452
 21
137.2934045218
 31
0.0
 11
186.120741796
 21
137.5061216239
 31
0.0
 11
186.2098298738
 21
137.7094924702
 31
0.0
 11
186.2458568002
 21
137.9057246783
 31
0.0
 11
186.2351893217
 21
138.1023443596
 31
0.0
 11
186.176123341
 21
138.3091277602
 31
0.0
 11
186.0614466699
 21
138.5310725104
 31
0.0
 11
185.8889196538
 21
138.7654001325
 31
0.0
 11
185.673010372
 21
138.9975614983
 31
0.0
 11
185.4314498613
 21
139.2186802609
 31
0.0
 11
185.1793076561
 21
139.4245083422
 31
0.0
 11
184.8998034747
 21
139.6341598694
 31
0.0
 11
184.580494961
 21
139.8586058079
 31
0.0
 11
184.2323475761
 21
140.0917531213
 31
0.0
 11
183.862961309
 21
140.3312703534
 31
0.0
 11
183.4683074764
 21
140.5830671453
 31
0.0
 11
183.0479682938
 21
140.8518322086
 31
0.0
 11
182.6228949513
 21
141.1307737738
 31
0.0
 11
182.2233162382
 21
141.4085287933
 31
0.0
 11
181.885361649
 21
141.6666922571
 31
0.0
 11
181.6278042155
 21
141.8929927024
 31
0.0
 11
181.4455473082
 21
142.0893798945
 31
0.0
 11
181.3268659122
 21
142.2619185216
 31
0.0
 11
181.2635381341
 21
142.4136965997
 31
0.0
 11
181.2492466031
 21
142.550253085
 31
0.0
 11
181.2838044464
 21
142.6768063767
 31
0.0
 11
181.3703481607
 21
142.7949788512
 31
0.0
 11
181.5137398008
 21
142.9055422248
 31
0.0
 11
181.7145570187
 21
143.0054677232
 31
0.0
 11
181.9716852697
 21
143.0934983179
 31
0.0
 11
182.2863810632
 21
143.1708590895
 31
0.0
 11
182.6601139339
 21
143.2383883044
 31
0.0
 11
183.0925590885
 21
143.2963767456
 31
0.0
 11
183.5246488276
 21
143.3405096122
 31
0.0
 11
183.9319079432
 21
143.374039887
 31
0.0
 11
184.3162973644
 21
143.4012747553
 31
0.0
 11
184.6821182525
 21
143.4252752266
 31
0.0
 11
185.0315461384
 21
143.4482854454
 31
0.0
 11
185.3561513629
 21
143.4719254342
 31
0.0
 11
185.6436608206
 21
143.4977886535
 31
0.0
 11
185.878493094
 21
143.5267249623
 31
0.0
 11
186.0510914052
 21
143.5581299414
 31
0.0
 11
186.1657370847
 21
143.5919023472
 31
0.0
 11
186.2297222038
 21
143.6289697066
 31
0.0
 11
186.2467831135
 21
143.6709506443
 31
0.0
 11
186.2167637143
 21
143.7181567573
 31
0.0
  0
SPLINE
  5
312
100
AcDbEntity
  8
0
100
AcDbSpline
 62
7
  6
CONTINUOUS
 70
0
 71
3
 72
8
 73
4
 74
2
 42
0.0000001
 43
0.0000001
 44
0.0000000001
 12
-0.0339982838
 22
0.0311169791
 32
0.0
 13
-0.0356477712
 23
0.023926121
 33
0.0
 40
0.0
 40
0.0
 40
0.0
 40
0.0
 40
1.0
 40
1.0
 40
1.0
 40
1.0
 10
186.2167637143
 20
143.7181567573
 30
0.0
 10
186.205430953
 20
143.7285290837
 30
0.0
 10
186.1938176301
 20
143.7374121456
 30
0.0
 10
186.1819350397
 20
143.7453875193
 30
0.0
 11
186.2167637143
 21
143.7181567573
 31
0.0
 11
186.1819350397
 21
143.7453875193
 31
0.0
  0
SPLINE
  5
313
100
AcDbEntity
  8
0
100
AcDbSpline
 62
7
  6
CONTINUOUS
 70
0
 71
3
 72
20
 73
16
 74
14
 42
0.0000001
 43
0.0000001
 44
0.0000000001
 12
-2.7185475537
 22
-0.5023859292
 32
0.0
 13
2.2958690371
 23
1.5178079567
 33
0.0
 40
0.0
 40
0.0
 40
0.0
 40
0.0
 40
0.1773587756
 40
0.3360400535
 40
0.4752729444
 40
0.5946487886
 40
0.6954678527
 40
0.7772072592
 40
0.839085993
 40
0.8817400722
 40
0.9077437193
 40
0.9240811109
 40
0.94662536
 40
0.9847207456
 40
1.0
 40
1.0
 40
1.0
 40
1.0
 10
183.7476807324
 20
102.7711800517
 30
0.0
 10
183.5869613105
 20
102.7414792006
 30
0.0
 10
183.2820076522
 20
102.6875381014
 30
0.0
 10
182.8495520808
 20
102.6181548807
 30
0.0
 10
182.468805736
 20
102.563888559
 30
0.0
 10
182.1400154686
 20
102.5242234782
 30
0.0
 10
181.8627106308
 20
102.498327443
 30
0.0
 10
181.6382715292
 20
102.4866544343
 30
0.0
 10
181.4650564448
 20
102.4864180086
 30
0.0
 10
181.3481904042
 20
102.5020752248
 30
0.0
 10
181.2669383153
 20
102.5224620799
 30
0.0
 10
181.2385832788
 20
102.5854533153
 30
0.0
 10
181.2896725034
 20
102.6469088858
 30
0.0
 10
181.3425445016
 20
102.6889349534
 30
0.0
 10
181.3827312013
 20
102.7164570421
 30
0.0
 10
181.394424257
 20
102.7241873667
 30
0.0
 11
183.7476807324
 21
102.7711800517
 31
0.0
 11
183.2648316338
 21
102.6859004763
 31
0.0
 11
182.831643124
 21
102.6166630594
 31
0.0
 11
182.4505126813
 21
102.5627821391
 31
0.0
 11
182.122803114
 21
102.5237669802
 31
0.0
 11
181.8452007376
 21
102.4988074934
 31
0.0
 11
181.6194906789
 21
102.4878685647
 31
0.0
 11
181.4484477807
 21
102.4908336227
 31
0.0
 11
181.3316755406
 21
102.5072499803
 31
0.0
 11
181.2659855638
 21
102.536453949
 31
0.0
 11
181.2488516337
 21
102.5782438477
 31
0.0
 11
181.2796256479
 21
102.6324417066
 31
0.0
 11
181.3599702479
 21
102.700533976
 31
0.0
 11
181.394424257
 21
102.7241873667
 31
0.0
  0
SPLINE
  5
314
100
AcDbEntity
  8
BEZUGSACHSEN
100
AcDbSpline
 62
7
  6
CONTINUOUS
 70
0
 71
3
 72
18
 73
14
 74
12
 42
0.0000001
 43
0.0000001
 44
0.0000000001
 12
2.6649574597
 22
0.7874059599
 32
0.0
 13
2.6649574596
 23
-0.7874059599
 33
0.0
 40
0.0
 40
0.0
 40
0.0
 40
0.0
 40
0.0790030876
 40
0.1649075646
 40
0.2565359497
 40
0.3522353799
 40
0.4504356668
 40
0.549564288
 40
0.6477639409
 40
0.74346143
 40
0.8350907668
 40
0.9209958145
 40
1.0
 40
1.0
 40
1.0
 40
1.0
 10
142.1335436757
 20
166.9230345806
 30
0.0
 10
142.2037236316
 20
166.9437704146
 30
0.0
 10
142.351996718
 20
166.9811101899
 30
0.0
 10
142.5857128045
 20
167.0246663589
 30
0.0
 10
142.8367333109
 20
167.0578019607
 30
0.0
 10
143.1003577948
 20
167.0801097425
 30
0.0
 10
143.3716331741
 20
167.0913298733
 30
0.0
 10
143.6454534633
 20
167.0913298759
 30
0.0
 10
143.9167264599
 20
167.0801098851
 30
0.0
 10
144.1803494565
 20
167.0578024258
 30
0.0
 10
144.4313696195
 20
167.0246671704
 30
0.0
 10
144.6650881337
 20
166.9811107757
 30
0.0
 10
144.8133627445
 20
166.9437707028
 30
0.0
 10
144.8835436757
 20
166.9230345806
 30
0.0
 11
142.1335436757
 21
166.9230345806
 31
0.0
 11
142.3462425471
 21
166.9774036833
 31
0.0
 11
142.5808165153
 21
167.0216779534
 31
0.0
 11
142.8331984823
 21
167.0553745807
 31
0.0
 11
143.0981658112
 21
167.0780327095
 31
0.0
 11
143.3708118361
 21
167.0894231151
 31
0.0
 11
143.6462753888
 21
167.0894231178
 31
0.0
 11
143.9189196552
 21
167.0780328287
 31
0.0
 11
144.1838816279
 21
167.0553753684
 31
0.0
 11
144.4362662553
 21
167.0216786862
 31
0.0
 11
144.6708418233
 21
166.97740434
 31
0.0
 11
144.8835436757
 21
166.9230345806
 31
0.0
  0
SPLINE
  5
315
100
AcDbEntity
  8
0
100
AcDbSpline
 62
7
  6
CONTINUOUS
 70
0
 71
3
 72
17
 73
13
 74
11
 42
0.0000001
 43
0.0000001
 44
0.0000000001
 12
-1.7939020719
 22
0.0
 32
0.0
 13
0.0
 23
1.7939020719
 33
0.0
 40
0.0
 40
0.0
 40
0.0
 40
0.0
 40
0.0802012574
 40
0.1609973583
 40
0.2439098089
 40
0.3308257498
 40
0.4251753441
 40
0.5272795566
 40
0.6355099003
 40
0.7499299364
 40
0.8718553184
 40
1.0
 40
1.0
 40
1.0
 40
1.0
 10
136.5835436757
 20
85.1484818675
 30
0.0
 10
136.5355859418
 20
85.1484818675
 30
0.0
 10
136.4390887847
 20
85.1573450289
 30
0.0
 10
136.2979139182
 20
85.196777978
 30
0.0
 10
136.1620767732
 20
85.2618030955
 30
0.0
 10
136.0323265861
 20
85.3531234491
 30
0.0
 10
135.9106968263
 20
85.4721259359
 30
0.0
 10
135.8014627975
 20
85.6188357619
 30
0.0
 10
135.709649171
 20
85.7907317116
 30
0.0
 10
135.6391939065
 20
85.9850842234
 30
0.0
 10
135.5939478816
 20
86.1989730423
 30
0.0
 10
135.5835436757
 20
86.348728449
 30
0.0
 10
135.5835436757
 20
86.4253547856
 30
0.0
 11
136.5835436757
 21
85.1484818675
 31
0.0
 11
136.4402672027
 21
85.1615719584
 31
0.0
 11
136.30060648
 21
85.2003349694
 31
0.0
 11
136.1663049106
 21
85.2642546782
 31
0.0
 11
136.0385581868
 21
85.3536493721
 31
0.0
 11
135.9172294038
 21
85.4716587792
 31
0.0
 11
135.8074160865
 21
85.6182549501
 31
0.0
 11
135.7155157553
 21
85.7892822945
 31
0.0
 11
135.6451785097
 21
85.9821129402
 31
0.0
 11
135.5996260355
 21
86.1960390276
 31
0.0
 11
135.5835436757
 21
86.4253547856
 31
0.0
  0
SPLINE
  5
316
100
AcDbEntity
  8
0
100
AcDbSpline
 62
7
  6
CONTINUOUS
 70
0
 71
3
 72
15
 73
11
 74
9
 42
0.0000001
 43
0.0000001
 44
0.0000000001
 12
-0.9144692773
 22
0.0
 32
0.0
 13
0.0
 23
-0.9144692773
 33
0.0
 40
0.0
 40
0.0
 40
0.0
 40
0.0
 40
0.0949364413
 40
0.1983365165
 40
0.3075814933
 40
0.4254811708
 40
0.5538247985
 40
0.6914622192
 40
0.8393286337
 40
1.0
 40
1.0
 40
1.0
 40
1.0
 10
142.1335436757
 20
89.1995472398
 30
0.0
 10
142.1046048561
 20
89.1995472398
 30
0.0
 10
142.0439332026
 20
89.1924806189
 30
0.0
 10
141.9550998293
 20
89.1599885768
 30
0.0
 10
141.8699767175
 20
89.1046021605
 30
0.0
 10
141.7928209774
 20
89.0275012859
 30
0.0
 10
141.7268985965
 20
88.9300247425
 30
0.0
 10
141.6754337372
 20
88.8141712528
 30
0.0
 10
141.6415129263
 20
88.6818620294
 30
0.0
 10
141.6335436757
 20
88.5876045137
 30
0.0
 10
141.6335436757
 20
88.5386281709
 30
0.0
 11
142.1335436757
 21
89.1995472398
 31
0.0
 11
142.0472988692
 21
89.1896008398
 31
0.0
 11
141.9583610761
 21
89.1574925479
 31
0.0
 11
141.874332491
 21
89.10346069
 31
0.0
 11
141.7976457835
 21
89.0276757338
 31
0.0
 11
141.7314281334
 21
88.9307733487
 31
0.0
 11
141.6799127162
 21
88.8159334231
 31
0.0
 11
141.6460436111
 21
88.6850245197
 31
0.0
 11
141.6335436757
 21
88.5386281709
 31
0.0
  0
SPLINE
  5
317
100
AcDbEntity
  8
0
100
AcDbSpline
 62
7
  6
CONTINUOUS
 70
0
 71
3
 72
15
 73
11
 74
9
 42
0.0000001
 43
0.0000001
 44
0.0000000001
 12
0.0
 22
0.9144691594
 32
0.0
 13
-0.9144691594
 23
0.0
 33
0.0
 40
0.0
 40
0.0
 40
0.0
 40
0.0
 40
0.1608656922
 40
0.3087309879
 40
0.446232513
 40
0.5744646131
 40
0.6922955283
 40
0.8013450674
 40
0.904866844
 40
1.0
 40
1.0
 40
1.0
 40
1.0
 10
145.3835436757
 20
88.5386281709
 30
0.0
 10
145.3835436757
 20
88.5876637424
 30
0.0
 10
145.3755597892
 20
88.6819809216
 30
0.0
 10
145.3416059531
 20
88.8142998337
 30
0.0
 10
145.2901538263
 20
88.9300744736
 30
0.0
 10
145.22428569
 20
89.0274691424
 30
0.0
 10
145.1472229609
 20
89.1044990948
 30
0.0
 10
145.062163428
 20
89.1598956376
 30
0.0
 10
144.9733123942
 20
89.1924541614
 30
0.0
 10
144.9125424548
 20
89.1995472398
 30
0.0
 10
144.8835436757
 20
89.1995472398
 30
0.0
 11
145.3835436757
 21
88.5386281709
 31
0.0
 11
145.371013353
 21
88.685200257
 31
0.0
 11
145.3371158959
 21
88.816100747
 31
0.0
 11
145.2856335529
 21
88.9308192865
 31
0.0
 11
145.2194734414
 21
89.0276374454
 31
0.0
 11
145.1428429881
 21
89.1033898458
 31
0.0
 11
145.0589886673
 21
89.1573622275
 31
0.0
 11
144.9699648193
 21
89.1895598167
 31
0.0
 11
144.8835436757
 21
89.1995472398
 31
0.0
  0
SPLINE
  5
318
100
AcDbEntity
  8
0
100
AcDbSpline
 62
7
  6
CONTINUOUS
 70
0
 71
3
 72
82
 73
78
 74
76
 42
0.0000001
 43
0.0000001
 44
0.0000000001
 12
23.3041220918
 22
14.4442381562
 32
0.0
 13
21.0702905708
 23
17.5332114539
 33
0.0
 40
0.0
 40
0.0
 40
0.0
 40
0.0
 40
0.0083179709
 40
0.0183181812
 40
0.026518254
 40
0.0329698801
 40
0.0381878044
 40
0.042878195
 40
0.047932251
 40
0.0541619529
 40
0.0621724251
 40
0.0724917096
 40
0.0852529115
 40
0.0998746048
 40
0.1153118276
 40
0.1311245736
 40
0.1472767555
 40
0.1639242089
 40
0.1810732483
 40
0.1975600514
 40
0.2120899007
 40
0.2245594304
 40
0.2351919957
 40
0.2443390124
 40
0.2525083021
 40
0.2602021959
 40
0.2678303136
 40
0.276026561
 40
0.2854345838
 40
0.2965683144
 40
0.3094359899
 40
0.3236332834
 40
0.3389916901
 40
0.3553540256
 40
0.3725952164
 40
0.3905763205
 40
0.4091960083
 40
0.4283752749
 40
0.4479111341
 40
0.467384057
 40
0.4859619198
 40
0.5023867184
 40
0.5162587266
 40
0.5281911489
 40
0.5386346171
 40
0.5481812342
 40
0.5575647034
 40
0.5672717596
 40
0.5775982191
 40
0.5888903539
 40
0.6011974118
 40
0.6145883198
 40
0.6290900427
 40
0.6447188959
 40
0.6615865399
 40
0.6797066724
 40
0.6984580706
 40
0.7170414412
 40
0.7350763171
 40
0.7523878804
 40
0.768996906
 40
0.7849990759
 40
0.7999721463
 40
0.8132081807
 40
0.8248313907
 40
0.83561463
 40
0.84635247
 40
0.8574509335
 40
0.869291308
 40
0.8822396097
 40
0.8962661071
 40
0.911354791
 40
0.9273169864
 40
0.9440540219
 40
0.9616628909
 40
0.9802654973
 40
1.0
 40
1.0
 40
1.0
 40
1.0
 10
185.5372539387
 20
104.6698758379
 30
0.0
 10
185.6018682752
 20
104.7099247555
 30
0.0
 10
185.742167502
 20
104.801329667
 30
0.0
 10
185.9356016623
 20
104.9479081934
 30
0.0
 10
186.0975567647
 20
105.1056784561
 30
0.0
 10
186.203000331
 20
105.2551964258
 30
0.0
 10
186.2533921291
 20
105.399046367
 30
0.0
 10
186.2451870307
 20
105.5392662394
 30
0.0
 10
186.1799043237
 20
105.6731057436
 30
0.0
 10
186.0588878923
 20
105.8035648646
 30
0.0
 10
185.8759384899
 20
105.935164505
 30
0.0
 10
185.6248612055
 20
106.069146424
 30
0.0
 10
185.3085100172
 20
106.2060510903
 30
0.0
 10
184.9420240808
 20
106.3433018988
 30
0.0
 10
184.5454826667
 20
106.479110887
 30
0.0
 10
184.1341881863
 20
106.6148503189
 30
0.0
 10
183.7127312671
 20
106.7550909396
 30
0.0
 10
183.2818400871
 20
106.9055821958
 30
0.0
 10
182.8525597172
 20
107.0695915239
 30
0.0
 10
182.4490065637
 20
107.2457546039
 30
0.0
 10
182.0962690627
 20
107.429617052
 30
0.0
 10
181.8075513791
 20
107.6176275176
 30
0.0
 10
181.5818744641
 20
107.8085790581
 30
0.0
 10
181.4148552153
 20
108.0036024187
 30
0.0
 10
181.3040399119
 20
108.2057188899
 30
0.0
 10
181.2487729166
 20
108.4154095595
 30
0.0
 10
181.2457915065
 20
108.632215723
 30
0.0
 10
181.2937881275
 20
108.8593814024
 30
0.0
 10
181.396561818
 20
109.1024526919
 30
0.0
 10
181.5582239932
 20
109.3624855181
 30
0.0
 10
181.7754339704
 20
109.6363692467
 30
0.0
 10
182.0410015458
 20
109.9191765979
 30
0.0
 10
182.3465283129
 20
110.2069822311
 30
0.0
 10
182.6849763284
 20
110.4996717634
 30
0.0
 10
183.0499096943
 20
110.7980169025
 30
0.0
 10
183.4358511128
 20
111.1031068342
 30
0.0
 10
183.8377443622
 20
111.4165379013
 30
0.0
 10
184.2495806032
 20
111.7403237623
 30
0.0
 10
184.6622884591
 20
112.0755689108
 30
0.0
 10
185.0599893322
 20
112.4203045412
 30
0.0
 10
185.4190623433
 20
112.7654648407
 30
0.0
 10
185.7178069618
 20
113.0981185706
 30
0.0
 10
185.9464041264
 20
113.4099973741
 30
0.0
 10
186.1064735417
 20
113.7012237519
 30
0.0
 10
186.2065311413
 20
113.9765979365
 30
0.0
 10
186.2528333836
 20
114.2425197439
 30
0.0
 10
186.2464027664
 20
114.5059127921
 30
0.0
 10
186.1850637608
 20
114.7693646856
 30
0.0
 10
186.0707116858
 20
115.0331539652
 30
0.0
 10
185.9056568535
 20
115.2966546625
 30
0.0
 10
185.6926300714
 20
115.5598703834
 30
0.0
 10
185.4355111981
 20
115.8227132984
 30
0.0
 10
185.1390477163
 20
116.0880378936
 30
0.0
 10
184.805946439
 20
116.3592204211
 30
0.0
 10
184.4382015154
 20
116.6397529932
 30
0.0
 10
184.0425455292
 20
116.9305470589
 30
0.0
 10
183.6332632081
 20
117.2292520874
 30
0.0
 10
183.2277137654
 20
117.5317471428
 30
0.0
 10
182.839982854
 20
117.8359721568
 30
0.0
 10
182.4778277308
 20
118.1431430945
 30
0.0
 10
182.1461230721
 20
118.4566927149
 30
0.0
 10
181.8532500217
 20
118.778808252
 30
0.0
 10
181.6131103164
 20
119.1047585664
 30
0.0
 10
181.4347680133
 20
119.4232631933
 30
0.0
 10
181.3170791787
 20
119.7282149679
 30
0.0
 10
181.2536079152
 20
120.025722966
 30
0.0
 10
181.2416494061
 20
120.3249770989
 30
0.0
 10
181.2811163792
 20
120.631529194
 30
0.0
 10
181.3745779675
 20
120.947185021
 30
0.0
 10
181.524493413
 20
121.2698265984
 30
0.0
 10
181.7286517608
 20
121.5963530823
 30
0.0
 10
181.979759622
 20
121.923434994
 30
0.0
 10
182.2709300311
 20
122.2492373811
 30
0.0
 10
182.5966677948
 20
122.5738337002
 30
0.0
 10
182.9536836468
 20
122.9004684119
 30
0.0
 10
183.340560193
 20
123.2346440872
 30
0.0
 10
183.6094012249
 20
123.4592108368
 30
0.0
 10
183.748005127
 20
123.5745472398
 30
0.0
 11
185.5372539387
 21
104.6698758379
 31
0.0
 11
185.7279059524
 21
104.7949661339
 31
0.0
 11
185.9447505719
 21
104.9626522565
 31
0.0
 11
186.1032476314
 21
105.1220314973
 31
0.0
 11
186.2016054464
 21
105.2690022432
 31
0.0
 11
186.2450461886
 21
105.4052750247
 31
0.0
 11
186.2373979344
 21
105.5336162926
 31
0.0
 11
186.1797617815
 21
105.6595952454
 31
0.0
 11
186.0668492089
 21
105.7877000246
 31
0.0
 11
185.8909447858
 21
105.9191204713
 31
0.0
 11
185.6431267351
 21
106.0554945725
 31
0.0
 11
185.3231222674
 21
106.1967622344
 31
0.0
 11
184.9483933647
 21
106.3389477585
 31
0.0
 11
184.5484839537
 21
106.4772589503
 31
0.0
 11
184.13718782
 21
106.6140449641
 31
0.0
 11
183.7173676937
 21
106.7546806185
 31
0.0
 11
183.2869005572
 21
106.9061110682
 31
0.0
 11
182.8482944944
 21
107.0752115718
 31
0.0
 11
182.4349497797
 21
107.2579127371
 31
0.0
 11
182.082992156
 21
107.4443331975
 31
0.0
 11
181.7979957579
 21
107.6330315093
 31
0.0
 11
181.5773202453
 21
107.8234149543
 31
0.0
 11
181.4164778626
 21
108.0157566882
 31
0.0
 11
181.3106764028
 21
108.2131154878
 31
0.0
 11
181.2572178003
 21
108.417126064
 31
0.0
 11
181.253324244
 21
108.6261852211
 31
0.0
 11
181.2978713254
 21
108.8463930521
 31
0.0
 11
181.3958305707
 21
109.0849480207
 31
0.0
 11
181.5542108269
 21
109.3458226442
 31
0.0
 11
181.7713825876
 21
109.6237546104
 31
0.0
 11
182.0364187276
 21
109.9087185991
 31
0.0
 11
182.3417723912
 21
110.1985339562
 31
0.0
 11
182.6801918466
 21
110.4928700707
 31
0.0
 11
183.0454649717
 21
110.7927483379
 31
0.0
 11
183.4315998963
 21
111.0990701579
 31
0.0
 11
183.8335112182
 21
111.4136525222
 31
0.0
 11
184.2461607719
 21
111.7393943387
 31
0.0
 11
184.6609099283
 21
112.0781325745
 31
0.0
 11
185.0630347767
 21
112.4291473802
 31
0.0
 11
185.4285312114
 21
112.7837431426
 31
0.0
 11
185.7271847019
 21
113.120650202
 31
0.0
 11
185.949466508
 21
113.4291611637
 31
0.0
 11
186.1048937754
 21
113.7169537087
 31
0.0
 11
186.2008414038
 21
113.9866629305
 31
0.0
 11
186.2444203198
 21
114.2446924241
 31
0.0
 11
186.2378939488
 21
114.5018212089
 31
0.0
 11
186.1789931054
 21
114.7613015497
 31
0.0
 11
186.0682448802
 21
115.0217968774
 31
0.0
 11
185.905765071
 21
115.285253357
 31
0.0
 11
185.6951173946
 21
115.5487546221
 31
0.0
 11
185.4399426164
 21
115.8126086066
 31
0.0
 11
185.1448017286
 21
116.0788886835
 31
0.0
 11
184.8133902001
 21
116.3503605654
 31
0.0
 11
184.4465105863
 21
116.6317453252
 31
0.0
 11
184.0470335799
 21
116.9269106387
 31
0.0
 11
183.6325509917
 21
117.2308799211
 31
0.0
 11
183.2249681519
 21
117.5364217654
 31
0.0
 11
182.8367983071
 21
117.8425468144
 31
0.0
 11
182.4758121083
 21
118.1505523361
 31
0.0
 11
182.1462318473
 21
118.4646379225
 31
0.0
 11
181.8528946355
 21
118.7907611253
 31
0.0
 11
181.611259794
 21
119.1225208586
 31
0.0
 11
181.4358303737
 21
119.4401040793
 31
0.0
 11
181.3226680941
 21
119.7379357918
 31
0.0
 11
181.2618869318
 21
120.0271998828
 31
0.0
 11
181.2499055117
 21
120.3212923673
 31
0.0
 11
181.2879384428
 21
120.6231271652
 31
0.0
 11
181.3788071265
 21
120.9347052302
 31
0.0
 11
181.5264903313
 21
121.2574487205
 31
0.0
 11
181.7283415355
 21
121.5846836944
 31
0.0
 11
181.9787237557
 21
121.9138828511
 31
0.0
 11
182.2691845964
 21
122.2411067669
 31
0.0
 11
182.5932073369
 21
122.5658982222
 31
0.0
 11
182.9484601072
 21
122.892662157
 31
0.0
 11
183.3336118798
 21
123.2268404889
 31
0.0
 11
183.748005127
 21
123.5745472398
 31
0.0
  0
SPLINE
  5
319
100
AcDbEntity
  8
BEZUGSACHSEN
100
AcDbSpline
 62
7
  6
CONTINUOUS
 70
0
 71
3
 72
11
 73
7
 74
5
 42
0.0000001
 43
0.0000001
 44
0.0000000001
 12
0.1466530525
 22
0.1091609716
 32
0.0
 13
0.0
 23
-0.1828202274
 33
0.0
 40
0.0
 40
0.0
 40
0.0
 40
0.0
 40
0.3685909
 40
0.5790694852
 40
0.7481480551
 40
1.0
 40
1.0
 40
1.0
 40
1.0
 10
145.3835436757
 20
167.3836608067
 30
0.0
 10
145.4015620026
 20
167.3970727202
 30
0.0
 10
145.4296404584
 20
167.4165666895
 30
0.0
 10
145.4796217286
 20
167.4289117329
 30
0.0
 10
145.5083791534
 20
167.3958983678
 30
0.0
 10
145.5085436757
 20
167.3693301132
 30
0.0
 10
145.5085436757
 20
167.3539822366
 30
0.0
 11
145.3835436757
 21
167.3836608067
 31
0.0
 11
145.4416047966
 21
167.4178625903
 31
0.0
 11
145.4799058835
 21
167.4215662841
 31
0.0
 11
145.5015426135
 21
167.3994904883
 31
0.0
 11
145.5085436757
 21
167.3539822366
 31
0.0
  0
SPLINE
  5
31A
100
AcDbEntity
  8
0
100
AcDbSpline
 62
7
  6
CONTINUOUS
 70
0
 71
3
 72
18
 73
14
 74
12
 42
0.0000001
 43
0.0000001
 44
0.0000000001
 12
0.0
 22
-1.7941659861
 32
0.0
 13
-1.7941659861
 23
0.0
 33
0.0
 40
0.0
 40
0.0
 40
0.0
 40
0.0
 40
0.0988973863
 40
0.1990179389
 40
0.298142237
 40
0.3942602123
 40
0.4873724753
 40
0.5773889771
 40
0.66404199
 40
0.7481240866
 40
0.8323737182
 40
0.9166587544
 40
1.0
 40
1.0
 40
1.0
 40
1.0
 10
151.4335436757
 20
86.4253547856
 30
0.0
 10
151.4335436757
 20
86.3662086768
 30
0.0
 10
151.4271519637
 20
86.2470843502
 30
0.0
 10
151.3980920107
 20
86.0707994772
 30
0.0
 10
151.3495672076
 20
85.9005284122
 30
0.0
 10
151.2827909948
 20
85.7410708333
 30
0.0
 10
151.1994070886
 20
85.595843719
 30
0.0
 10
151.1010238788
 20
85.4673334873
 30
0.0
 10
150.9893730495
 20
85.3576740404
 30
0.0
 10
150.8652498729
 20
85.2680288775
 30
0.0
 10
150.7293055973
 20
85.2004126427
 30
0.0
 10
150.5838889894
 20
85.1580803552
 30
0.0
 10
150.4833863517
 20
85.1484818675
 30
0.0
 10
150.4335436757
 20
85.1484818675
 30
0.0
 11
151.4335436757
 21
86.4253547856
 31
0.0
 11
151.4239794472
 21
86.2481744107
 31
0.0
 11
151.3946332179
 21
86.0709548462
 31
0.0
 11
151.3456870147
 21
85.8999774466
 31
0.0
 11
151.278822565
 21
85.7410161295
 31
0.0
 11
151.195354532
 21
85.5963034881
 31
0.0
 11
151.0968843306
 21
85.4682904508
 31
0.0
 11
150.9856951264
 21
85.3596265331
 31
0.0
 11
150.863174447
 21
85.2716118222
 31
0.0
 11
150.7276741253
 21
85.2046166701
 31
0.0
 11
150.582402029
 21
85.1626177032
 31
0.0
 11
150.4335436757
 21
85.1484818675
 31
0.0
  0
SPLINE
  5
31B
100
AcDbEntity
  8
0
100
AcDbSpline
 62
7
  6
CONTINUOUS
 70
0
 71
3
 72
88
 73
84
 74
82
 42
0.0000001
 43
0.0000001
 44
0.0000000001
 12
-27.2126661014
 22
-5.7890060891
 32
0.0
 13
-21.4730783407
 23
-17.68257265
 33
0.0
 40
0.0
 40
0.0
 40
0.0
 40
0.0
 40
0.0073863151
 40
0.0176586013
 40
0.0261111222
 40
0.0329918209
 40
0.0385002737
 40
0.0432384339
 40
0.0479629492
 40
0.0534234792
 40
0.0603214177
 40
0.0691799589
 40
0.0805203896
 40
0.094599584
 40
0.1110146512
 40
0.1285391369
 40
0.1462521183
 40
0.1636689005
 40
0.1804814626
 40
0.1964881016
 40
0.2113295302
 40
0.2244912485
 40
0.2361820761
 40
0.2479488484
 40
0.2594860249
 40
0.270212795
 40
0.2795118744
 40
0.2874131126
 40
0.2944935294
 40
0.3014641145
 40
0.3090637224
 40
0.317867108
 40
0.3282153682
 40
0.3398798499
 40
0.3525637942
 40
0.3661721099
 40
0.3806039
 40
0.3957828968
 40
0.4116455712
 40
0.4281737425
 40
0.4453439599
 40
0.4628713345
 40
0.4802478099
 40
0.496420275
 40
0.5103608043
 40
0.5222978657
 40
0.5328076356
 40
0.5423358479
 40
0.5514923537
 40
0.5609899943
 40
0.5713130654
 40
0.5829011067
 40
0.5963339133
 40
0.611906743
 40
0.6291700474
 40
0.6471934544
 40
0.6657054857
 40
0.6847873524
 40
0.704214472
 40
0.7235458983
 40
0.742057327
 40
0.7588683826
 40
0.7737864764
 40
0.7872280545
 40
0.7995154369
 40
0.8105654254
 40
0.8202675973
 40
0.8288723755
 40
0.8369618875
 40
0.8451425941
 40
0.8534413517
 40
0.8617208784
 40
0.8698261011
 40
0.8778535306
 40
0.8862657942
 40
0.8955333186
 40
0.9060807008
 40
0.9181613105
 40
0.9318562497
 40
0.9471256556
 40
0.9637446213
 40
0.9814597082
 40
1.0
 40
1.0
 40
1.0
 40
1.0
 10
183.4236733109
 20
142.96272394
 30
0.0
 10
183.356672869
 20
142.948470799
 30
0.0
 10
183.1971505188
 20
142.9113381392
 30
0.0
 10
182.9647144801
 20
142.8424193229
 30
0.0
 10
182.7454498273
 20
142.7495162012
 30
0.0
 10
182.5813332461
 20
142.6451439073
 30
0.0
 10
182.4706155684
 20
142.5279551363
 30
0.0
 10
182.4156114996
 20
142.3964440091
 30
0.0
 10
182.4185924279
 20
142.2547600685
 30
0.0
 10
182.473006904
 20
142.1040448082
 30
0.0
 10
182.5797852248
 20
141.9375162582
 30
0.0
 10
182.7470191108
 20
141.7490766295
 30
0.0
 10
182.9832351966
 20
141.5357877566
 30
0.0
 10
183.2895164795
 20
141.2974054974
 30
0.0
 10
183.653774103
 20
141.0411727963
 30
0.0
 10
184.0538007444
 20
140.7777479183
 30
0.0
 10
184.4657320018
 20
140.5156818403
 30
0.0
 10
184.8732436336
 20
140.2589880841
 30
0.0
 10
185.2662796049
 20
140.008996147
 30
0.0
 10
185.6361821
 20
139.7671650929
 30
0.0
 10
185.9731313816
 20
139.5369085912
 30
0.0
 10
186.2709818029
 20
139.320585682
 30
0.0
 10
186.5380982145
 20
139.1108124482
 30
0.0
 10
186.78294165
 20
138.897596962
 30
0.0
 10
187.0058738258
 20
138.673762076
 30
0.0
 10
187.1907782251
 20
138.4460167501
 30
0.0
 10
187.3242919514
 20
138.2226992305
 30
0.0
 10
187.4011739372
 20
138.009338362
 30
0.0
 10
187.4260584211
 20
137.8054622408
 30
0.0
 10
187.4016173177
 20
137.6042141638
 30
0.0
 10
187.3237330653
 20
137.3998386338
 30
0.0
 10
187.1863485166
 20
137.1914627234
 30
0.0
 10
186.9914078666
 20
136.9813090602
 30
0.0
 10
186.7459143226
 20
136.772580423
 30
0.0
 10
186.459624615
 20
136.567416195
 30
0.0
 10
186.1405681022
 20
136.3652268963
 30
0.0
 10
185.794794063
 20
136.1625843556
 30
0.0
 10
185.4269482977
 20
135.9564813963
 30
0.0
 10
185.0406981383
 20
135.7435051438
 30
0.0
 10
184.6394323024
 20
135.519515571
 30
0.0
 10
184.2290121584
 20
135.2803413043
 30
0.0
 10
183.8204027441
 20
135.0227997509
 30
0.0
 10
183.434509791
 20
134.7476067616
 30
0.0
 10
183.0977022596
 20
134.4629179235
 30
0.0
 10
182.828904152
 20
134.1790235436
 30
0.0
 10
182.6336491812
 20
133.9022050222
 30
0.0
 10
182.5044556406
 20
133.6336964324
 30
0.0
 10
182.4322258458
 20
133.3712517554
 30
0.0
 10
182.4106975266
 20
133.1092834461
 30
0.0
 10
182.4396428333
 20
132.8406440749
 30
0.0
 10
182.5208324966
 20
132.5596493832
 30
0.0
 10
182.6579814805
 20
132.2608945015
 30
0.0
 10
182.8575440058
 20
131.9407447906
 30
0.0
 10
183.1223360168
 20
131.6023988484
 30
0.0
 10
183.441656514
 20
131.2549154355
 30
0.0
 10
183.7992610831
 20
130.9068812958
 30
0.0
 10
184.1824109702
 20
130.5615970175
 30
0.0
 10
184.5837471705
 20
130.217370718
 30
0.0
 10
184.9946152938
 20
129.8726770889
 30
0.0
 10
185.4009296241
 20
129.5307786148
 30
0.0
 10
185.7839670772
 20
129.1989283518
 30
0.0
 10
186.1281097455
 20
128.8848499818
 30
0.0
 10
186.4269321997
 20
128.5912037467
 30
0.0
 10
186.6827649961
 20
128.3141851029
 30
0.0
 10
186.8979619323
 20
128.0492715296
 30
0.0
 10
187.0724610899
 20
127.7970458126
 30
0.0
 10
187.2070279208
 20
127.5599651039
 30
0.0
 10
187.3061849482
 20
127.3357118264
 30
0.0
 10
187.3754014337
 20
127.1151176352
 30
0.0
 10
187.4148141204
 20
126.8900066339
 30
0.0
 10
187.4219396981
 20
126.6597340371
 30
0.0
 10
187.3959167803
 20
126.431573272
 30
0.0
 10
187.3400901725
 20
126.2115836206
 30
0.0
 10
187.2581346665
 20
125.9987657851
 30
0.0
 10
187.1492691308
 20
125.7862808806
 30
0.0
 10
187.008719633
 20
125.5651144426
 30
0.0
 10
186.8305053349
 20
125.3287592411
 30
0.0
 10
186.6094910232
 20
125.0743265279
 30
0.0
 10
186.3435103726
 20
124.8018774239
 30
0.0
 10
186.0342098882
 20
124.5136573939
 30
0.0
 10
185.6873967322
 20
124.2114846851
 30
0.0
 10
185.3111683562
 20
123.8971204672
 30
0.0
 10
185.0513327213
 20
123.6838272588
 30
0.0
 10
184.9186270083
 20
123.5745472398
 30
0.0
 11
183.4236733109
 21
142.96272394
 31
0.0
 11
183.2236289731
 21
142.9157488103
 31
0.0
 11
182.9504235031
 21
142.8320439457
 31
0.0
 11
182.7351992077
 21
142.7373849147
 31
0.0
 11
182.5759159525
 21
142.6312620795
 31
0.0
 11
182.4738991916
 21
142.5169335337
 31
0.0
 11
182.424751851
 21
142.3946399444
 31
0.0
 11
182.4249883963
 21
142.2632199301
 31
0.0
 11
182.4728854945
 21
142.1190756886
 31
0.0
 11
182.5733577723
 21
141.9556060151
 31
0.0
 11
182.7344967612
 21
141.769180202
 31
0.0
 11
182.9665378297
 21
141.5554807273
 31
0.0
 11
183.2741344386
 21
141.3130695283
 31
0.0
 11
183.6466193494
 21
141.0489676628
 31
0.0
 11
184.0530273025
 21
140.7797797383
 31
0.0
 11
184.4682469961
 21
140.5145221093
 31
0.0
 11
184.8777919784
 21
140.2556967675
 31
0.0
 11
185.2720456657
 21
140.004144392
 31
0.0
 11
185.6443539126
 21
139.759941188
 31
0.0
 11
185.9847915716
 21
139.5264070508
 31
0.0
 11
186.2805602931
 21
139.3106269056
 31
0.0
 11
186.5358088722
 21
139.1091249363
 31
0.0
 11
186.7819002057
 21
138.8933185739
 31
0.0
 11
187.0070416699
 21
138.6646165369
 31
0.0
 11
187.1929511715
 21
138.4312284257
 31
0.0
 11
187.3228584176
 21
138.2075457943
 31
0.0
 11
187.3953021359
 21
138.0000420284
 31
0.0
 11
187.4181107308
 21
137.8044136513
 31
0.0
 11
187.3949799194
 21
137.6118998892
 31
0.0
 11
187.3213942748
 21
137.4137249863
 31
0.0
 11
187.1894657223
 21
137.2074207259
 31
0.0
 11
186.9960881185
 21
136.9941954065
 31
0.0
 11
186.7505172242
 21
136.7821253615
 31
0.0
 11
186.4648095266
 21
136.5751071184
 31
0.0
 11
186.1459240716
 21
136.3711390279
 31
0.0
 11
185.8001478357
 21
136.1671875197
 31
0.0
 11
185.4322530694
 21
135.9599901773
 31
0.0
 11
185.0462823554
 21
135.7461557519
 31
0.0
 11
184.6453148084
 21
135.5212048792
 31
0.0
 11
184.2332781237
 21
135.2796582164
 31
0.0
 11
183.8217841111
 21
135.0181613867
 31
0.0
 11
183.4295799385
 21
134.7356575794
 31
0.0
 11
183.0879520087
 21
134.4429667577
 31
0.0
 11
182.8238049234
 21
134.1590674409
 31
0.0
 11
182.6344050411
 21
133.8863325412
 31
0.0
 11
182.5091239398
 21
133.6221901069
 31
0.0
 11
182.4396158532
 21
133.3664237476
 31
0.0
 11
182.4188810376
 21
133.1125657473
 31
0.0
 11
182.4460364633
 21
132.8497724377
 31
0.0
 11
182.5238632356
 21
132.5733668751
 31
0.0
 11
182.6563813849
 21
132.2795261162
 31
0.0
 11
182.8520423787
 21
131.9611938624
 31
0.0
 11
183.1167649482
 21
131.6183084478
 31
0.0
 11
183.4399973414
 21
131.2631746677
 31
0.0
 11
183.7981644722
 21
130.9123626348
 31
0.0
 11
184.1798467817
 21
130.5666969734
 31
0.0
 11
184.581932576
 21
130.2201871869
 31
0.0
 11
184.9952097458
 21
129.8720040654
 31
0.0
 11
185.4058950483
 21
129.5248769425
 31
0.0
 11
185.7943461246
 21
129.1868612124
 31
0.0
 11
186.1389876951
 21
128.8707954579
 31
0.0
 11
186.4341778315
 21
128.579137883
 31
0.0
 11
186.6869192298
 21
128.3035969006
 31
0.0
 11
186.9015172653
 21
128.0375691513
 31
0.0
 11
187.0754744213
 21
127.7841573674
 31
0.0
 11
187.2078039583
 21
127.5489443023
 31
0.0
 11
187.3038011917
 21
127.3296821086
 31
0.0
 11
187.3704080214
 21
127.1147426618
 31
0.0
 11
187.4092789115
 21
126.8905272064
 31
0.0
 11
187.4163700537
 21
126.6597924444
 31
0.0
 11
187.3905761843
 21
126.4309326556
 31
0.0
 11
187.3356276864
 21
126.2122708864
 31
0.0
 11
187.2559082207
 21
126.0036899028
 31
0.0
 11
187.1499114155
 21
125.7950726129
 31
0.0
 11
187.0124560575
 21
125.576984299
 31
0.0
 11
186.8366274235
 21
125.3421147618
 31
0.0
 11
186.6170742917
 21
125.0877119809
 31
0.0
 11
186.3517372811
 21
124.8143674657
 31
0.0
 11
186.041858616
 21
124.523880726
 31
0.0
 11
185.6940645818
 21
124.2193386299
 31
0.0
 11
185.316596088
 21
123.902567012
 31
0.0
 11
184.9186270083
 21
123.5745472398
 31
0.0
  0
SPLINE
  5
31C
100
AcDbEntity
  8
BEZUGSACHSEN
100
AcDbSpline
 62
7
  6
CONTINUOUS
 70
0
 71
3
 72
11
 73
7
 74
5
 42
0.0000001
 43
0.0000001
 44
0.0000000001
 12
0.0
 22
0.1828196579
 32
0.0
 13
0.1466525957
 23
-0.1091606316
 33
0.0
 40
0.0
 40
0.0
 40
0.0
 40
0.0
 40
0.2517066641
 40
0.420851872
 40
0.6313447066
 40
1.0
 40
1.0
 40
1.0
 40
1.0
 10
141.5085436757
 20
167.3539822366
 30
0.0
 10
141.5085436757
 20
167.369321212
 30
0.0
 10
141.5087093871
 20
167.3958787862
 30
0.0
 10
141.537443467
 20
167.4289099993
 30
0.0
 10
141.5874418262
 20
167.4165738415
 30
0.0
 10
141.6155222571
 20
167.3970750215
 30
0.0
 10
141.6335436757
 20
167.3836608067
 30
0.0
 11
141.5085436757
 21
167.3539822366
 31
0.0
 11
141.5155342022
 21
167.3994650909
 31
0.0
 11
141.5371671361
 21
167.4215615243
 31
0.0
 11
141.5754715803
 21
167.4178667409
 31
0.0
 11
141.6335436757
 21
167.3836608067
 31
0.0
  0
SPLINE
  5
31D
100
AcDbEntity
  8
BEZUGSACHSEN
100
AcDbSpline
 62
7
  6
CONTINUOUS
 70
0
 71
3
 72
15
 73
11
 74
9
 42
0.0000001
 43
0.0000001
 44
0.0000000001
 12
0.4760561224
 22
-0.1406586911
 32
0.0
 13
0.2770248016
 23
0.4127213128
 33
0.0
 40
0.0
 40
0.0
 40
0.0
 40
0.0
 40
0.2137265981
 40
0.3975143666
 40
0.545023092
 40
0.6636222032
 40
0.763049392
 40
0.8489419241
 40
0.9264410501
 40
1.0
 40
1.0
 40
1.0
 40
1.0
 10
144.8835436757
 20
166.9230345806
 30
0.0
 10
144.9174589609
 20
166.9130137461
 30
0.0
 10
144.9819074802
 20
166.8986172029
 30
0.0
 10
145.0720775018
 20
166.8913314592
 30
0.0
 10
145.1466361471
 20
166.8956660523
 30
0.0
 10
145.2061277182
 20
166.9076635166
 30
0.0
 10
145.2535844195
 20
166.9249057219
 30
0.0
 10
145.2916661367
 20
166.9463425111
 30
0.0
 10
145.3220105094
 20
166.9715263995
 30
0.0
 10
145.3379556348
 20
166.9909751239
 30
0.0
 10
145.3447481859
 20
167.0010949061
 30
0.0
 11
144.8835436757
 21
166.9230345806
 31
0.0
 11
144.9871422195
 21
166.9001585024
 31
0.0
 11
145.0781083267
 21
166.8931917449
 31
0.0
 11
145.1511841388
 21
166.897840516
 31
0.0
 11
145.208822016
 21
166.9098353828
 31
0.0
 11
145.2550976123
 21
166.926998228
 31
0.0
 11
145.2921221683
 21
166.9481432135
 31
0.0
 11
145.3216202606
 21
166.9728384571
 31
0.0
 11
145.3447481859
 21
167.0010949061
 31
0.0
  0
SPLINE
  5
31E
100
AcDbEntity
  8
BEZUGSACHSEN
100
AcDbSpline
 62
7
  6
CONTINUOUS
 70
0
 71
3
 72
11
 73
7
 74
5
 42
0.0000001
 43
0.0000001
 44
0.0000000001
 12
0.0876048963
 22
0.1305168621
 32
0.0
 13
-0.0
 23
0.1569794057
 33
0.0
 40
0.0
 40
0.0
 40
0.0
 40
0.0
 40
0.2327766658
 40
0.4766746357
 40
0.7353603662
 40
1.0
 40
1.0
 40
1.0
 40
1.0
 10
145.3447481859
 20
167.0010949061
 30
0.0
 10
145.3515456445
 20
167.0112219994
 30
0.0
 10
145.3634718901
 20
167.0332910943
 30
0.0
 10
145.3755713207
 20
167.0700035007
 30
0.0
 10
145.3822654375
 20
167.1097108713
 30
0.0
 10
145.3835436757
 20
167.137123358
 30
0.0
 10
145.3835436757
 20
167.1509710155
 30
0.0
 11
145.3447481859
 21
167.0010949061
 31
0.0
 11
145.3622199243
 21
167.0331884173
 31
0.0
 11
145.3744132407
 21
167.0694818632
 31
0.0
 11
145.3814101258
 21
167.1094828663
 31
0.0
 11
145.3835436757
 21
167.1509710155
 31
0.0
  0
SPLINE
  5
31F
100
AcDbEntity
  8
0
100
AcDbSpline
 62
7
  6
CONTINUOUS
 70
0
 71
3
 72
21
 73
17
 74
15
 42
0.0000001
 43
0.0000001
 44
0.0000000001
 12
2.8111458766
 22
-0.5194980428
 32
0.0
 13
-2.7888597087
 23
-0.6277801444
 33
0.0
 40
0.0
 40
0.0
 40
0.0
 40
0.0
 40
0.1502382626
 40
0.2850808003
 40
0.4069492646
 40
0.5179507189
 40
0.6195941883
 40
0.7107146879
 40
0.7868686929
 40
0.8454601252
 40
0.8857995713
 40
0.9101725086
 40
0.9253433716
 40
0.9457473844
 40
0.9801868219
 40
1.0
 40
1.0
 40
1.0
 40
1.0
 10
184.9183026137
 20
144.1615842185
 30
0.0
 10
185.0590831711
 20
144.1355680574
 30
0.0
 10
185.3258916281
 20
144.0844186507
 30
0.0
 10
185.7057650455
 20
144.0064106564
 30
0.0
 10
186.0480226841
 20
143.9312907948
 30
0.0
 10
186.3583307419
 20
143.858214938
 30
0.0
 10
186.6387241917
 20
143.7864807198
 30
0.0
 10
186.8855521565
 20
143.716780179
 30
0.0
 10
187.0898086823
 20
143.6503562196
 30
0.0
 10
187.2469790988
 20
143.5903277976
 30
0.0
 10
187.3483248717
 20
143.5350701626
 30
0.0
 10
187.4144478475
 20
143.4884411572
 30
0.0
 10
187.4200150671
 20
143.4228429373
 30
0.0
 10
187.3556065731
 20
143.3841631019
 30
0.0
 10
187.2903534518
 20
143.3625006706
 30
0.0
 10
187.2404614314
 20
143.3501667387
 30
0.0
 10
187.2220427067
 20
143.3460206321
 30
0.0
 11
184.9183026137
 21
144.1615842185
 31
0.0
 11
185.3401074963
 21
144.0806849295
 31
0.0
 11
185.7176853002
 21
144.0030312212
 31
0.0
 11
186.0579374822
 21
143.9281673952
 31
0.0
 11
186.3667461447
 21
143.8551452937
 31
0.0
 11
186.6481586451
 21
143.78276093
 31
0.0
 11
186.89861768
 21
143.7111688642
 31
0.0
 11
187.1054049741
 21
143.6430923685
 31
0.0
 11
187.2607345796
 21
143.5804164627
 31
0.0
 11
187.3615945544
 21
143.5245057678
 31
0.0
 11
187.4110252478
 21
143.4754002578
 31
0.0
 11
187.4129766625
 21
143.4320745626
 31
0.0
 11
187.3688665838
 21
143.3939081754
 31
0.0
 11
187.2765729733
 21
143.3596300397
 31
0.0
 11
187.2220427067
 21
143.3460206321
 31
0.0
  0
SPLINE
  5
320
100
AcDbEntity
  8
BEZUGSACHSEN
100
AcDbSpline
 62
7
  6
CONTINUOUS
 70
0
 71
3
 72
11
 73
7
 74
5
 42
0.0000001
 43
0.0000001
 44
0.0000000001
 12
0.0
 22
-0.1569848984
 32
0.0
 13
0.0876116328
 23
-0.1305188905
 33
0.0
 40
0.0
 40
0.0
 40
0.0
 40
0.0
 40
0.2646560432
 40
0.523346692
 40
0.7672555686
 40
1.0
 40
1.0
 40
1.0
 40
1.0
 10
141.6335436757
 20
167.1509710155
 30
0.0
 10
141.6335436757
 20
167.1371220148
 30
0.0
 10
141.6348221332
 20
167.109707443
 30
0.0
 10
141.6415174287
 20
167.0699971087
 30
0.0
 10
141.653618234
 20
167.0332845849
 30
0.0
 10
141.6655451943
 20
167.0112161823
 30
0.0
 10
141.6723422342
 20
167.0010903339
 30
0.0
 11
141.6335436757
 21
167.1509710155
 31
0.0
 11
141.6356776587
 21
167.1094788536
 31
0.0
 11
141.6426756226
 21
167.069475813
 31
0.0
 11
141.6548711258
 21
167.0331798823
 31
0.0
 11
141.6723422342
 21
167.0010903339
 31
0.0
  0
SPLINE
  5
321
100
AcDbEntity
  8
BEZUGSACHSEN
100
AcDbSpline
 62
7
  6
CONTINUOUS
 70
0
 71
3
 72
15
 73
11
 74
9
 42
0.0000001
 43
0.0000001
 44
0.0000000001
 12
0.2770333121
 22
-0.4127086709
 32
0.0
 13
0.4760507987
 23
0.1406571181
 33
0.0
 40
0.0
 40
0.0
 40
0.0
 40
0.0
 40
0.073545129
 40
0.1510249789
 40
0.2368856766
 40
0.3362842815
 40
0.4548586083
 40
0.6022718549
 40
0.7861492982
 40
1.0
 40
1.0
 40
1.0
 40
1.0
 10
141.6723422342
 20
167.0010903339
 30
0.0
 10
141.6791337178
 20
166.9909727631
 30
0.0
 10
141.6950753169
 20
166.9715287203
 30
0.0
 10
141.7254100815
 20
166.9463510355
 30
0.0
 10
141.7634779288
 20
166.9249178731
 30
0.0
 10
141.810918794
 20
166.9076753085
 30
0.0
 10
141.8703840467
 20
166.8956756964
 30
0.0
 10
141.9449358676
 20
166.8913299571
 30
0.0
 10
142.0351257979
 20
166.8986062917
 30
0.0
 10
142.0996090766
 20
166.9130080394
 30
0.0
 10
142.1335436757
 20
166.9230345806
 30
0.0
 11
141.6723422342
 21
167.0010903339
 31
0.0
 11
141.6954658284
 21
166.9728397333
 31
0.0
 11
141.7249554653
 21
166.9481499663
 31
0.0
 11
141.7619642189
 21
166.927010137
 31
0.0
 11
141.8082240818
 21
166.9098472623
 31
0.0
 11
141.8658478279
 21
166.8978481098
 31
0.0
 11
141.9388748206
 21
166.8931913711
 31
0.0
 11
142.0298851895
 21
166.9001497572
 31
0.0
 11
142.1335436757
 21
166.9230345806
 31
0.0
  0
ENDSEC
  0
SECTION
  2
OBJECTS
  0
DICTIONARY
  5
C
100
AcDbDictionary
280
0
281
1
  3
ACAD_GROUP
350
D
  3
ACAD_MLINESTYLE
350
17
  3
ACAD_LAYOUT
350
1A
  3
ACAD_PLOTSETTINGS
350
19
  3
ACAD_PLOTSTYLENAME
350
E
  0
DICTIONARY
  5
D
102
{ACAD_REACTORS
330
C
102
}
100
AcDbDictionary
280
0
281
1
  0
ACDBDICTIONARYWDFLT
  5
E
102
{ACAD_REACTORS
330
C
102
}
100
AcDbDictionary
281
1
  3
Normal
350
F
100
AcDbDictionaryWithDefault
340
F
  0
DICTIONARY
  5
17
102
{ACAD_REACTORS
330
C
102
}
100
AcDbDictionary
280
0
281
1
  3
Standard
350
18
  0
DICTIONARY
  5
19
102
{ACAD_REACTORS
330
C
102
}
100
AcDbDictionary
281
1
  0
DICTIONARY
  5
1A
102
{ACAD_REACTORS
330
C
102
}
100
AcDbDictionary
281
1
  3
Model
350
322
  3
Layout1
350
323
  0
ACDBPLACEHOLDER
  5
F
102
{ACAD_REACTORS
330
E
102
}
  0
MLINESTYLE
  5
18
102
{ACAD_REACTORS
330
17
102
}
100
AcDbMlineStyle
  2
STANDARD
 70
0
  3

 62
256
 51
90.0
 52
90.0
 71
2
 49
0.5
 62
256
  6
BYLAYER
 49
-0.5
 62
256
  6
BYLAYER
  0
LAYOUT
  5
322
102
{ACAD_REACTORS
330
1A
102
}
100
AcDbPlotSettings
  1

  2
none_device
  4
ISO_A4_(297.00_x_210.00_MM)
  6

 40
0.0
 41
0.0
 42
0.0
 43
0.0
 44
297.0
 45
210.0
 46
0.0
 47
0.0
 48
0.0
 49
0.0
140
0.0
141
0.0
142
1.0
143
1.0
 70
1024
 72
1
 73
0
 74
0
  7

 75
0
147
1.0
148
0.0
149
0.0
100
AcDbLayout
  1
Model
 70
0
 71
0
 10
0.0
 20
0.0
 11
297.0
 21
210.0
 12
0.0
 22
0.0
 32
0.0
 14
0.0
 24
0.0
 34
0.0
 15
0.0
 25
0.0
 35
0.0
146
0.0
 13
0.0
 23
0.0
 33
0.0
 16
1.0
 26
0.0
 36
0.0
 17
0.0
 27
1.0
 37
0.0
 76
0
330
217
345
0
346
0
  0
LAYOUT
  5
323
102
{ACAD_REACTORS
330
1A
102
}
100
AcDbPlotSettings
  1

  2
none_device
  4
ISO_A4_(297.00_x_210.00_MM)
  6

 40
0.0
 41
0.0
 42
0.0
 43
0.0
 44
297.0
 45
210.0
 46
0.0
 47
0.0
 48
0.0
 49
0.0
140
0.0
141
0.0
142
1.0
143
1.0
 70
0
 72
1
 73
0
 74
0
  7

 75
0
147
1.0
148
0.0
149
0.0
100
AcDbLayout
  1
Layout1
 70
0
 71
1
 10
0.0
 20
0.0
 11
297.0
 21
210.0
 12
0.0
 22
0.0
 32
0.0
 14
0.0
 24
0.0
 34
0.0
 15
0.0
 25
0.0
 35
0.0
146
0.0
 13
0.0
 23
0.0
 33
0.0
 16
1.0
 26
0.0
 36
0.0
 17
0.0
 27
1.0
 37
0.0
 76
0
330
218
345
0
346
0
  0
ENDSEC
  0
EOF
