999
DXF file: 40-484-16-8.dxf
999
Pro/ENGINEER 2009220 by Parametric Technology Corporation
  0
SECTION
  2
HEADER
  9
$ACADVER
  1
AC1021
  9
$DWGCODEPAGE
  3
ANSI_1252
  9
$EXTMAX
 10
297.0
 20
210.0
 30
0.0
  9
$EXTMIN
 10
0.0
 20
0.0
 30
0.0
  9
$LIMMIN
 10
0.0
 20
0.0
  9
$LIMMAX
 10
297.0
 20
210.0
  9
$VIEWCTR
 10
148.5
 20
105.0
  9
$VIEWSIZE
 40
210.0
  9
$CLAYER
  8
0
  9
$LTSCALE
 40
16.335
  9
$CELTYPE
  6
BYLAYER
  9
$DIMSCALE
 40
1.0
  9
$DIMASZ
 40
3.5
  9
$DIMEXO
 40
1.85625
  9
$DIMDLI
 40
11.286
  9
$DIMEXE
 40
5.346
  9
$DIMCEN
 40
2.673
  9
$DIMLFAC
 40
1.0
  9
$DIMBLK
  1
_FILLED
  9
$DIMTXT
 40
3.5
  9
$DIMTOL
 70
1
  9
$DIMLIM
 70
0
  9
$DIMTFAC
 40
1.0
  9
$DIMTP
 40
0.005
  9
$DIMTM
 40
0.005
  9
$PDMODE
 70
3
  9
$PDSIZE
 40
0.3125
  9
$HANDSEED
  5
332
  9
$TILEMODE
 70
1
  9
$MEASUREMENT
 70
1
  9
$INSUNITS
 70
4
  0
ENDSEC
  0
SECTION
  2
CLASSES
  0
CLASS
  1
ACDBDICTIONARYWDFLT
  2
AcDbDictionaryWithDefault
  3
AutoCAD 2000
 90
0
 91
1
280
0
281
0
  0
CLASS
  1
ACDBPLACEHOLDER
  2
AcDbPlaceHolder
  3
AutoCAD 2000
 90
0
 91
1
280
0
281
0
  0
CLASS
  1
LAYOUT
  2
AcDbLayout
  3
AutoCAD 2000
 90
0
 91
0
280
0
281
0
  0
ENDSEC
  0
SECTION
  2
TABLES
  0
TABLE
  2
VPORT
  5
8
100
AcDbSymbolTable
 70
2
  0
VPORT
  5
1F4
100
AcDbSymbolTableRecord
100
AcDbViewportTableRecord
  2
*ACTIVE
 70
0
 10
0.0
 20
0.0
 11
1.0
 21
1.0
 12
148.5
 22
105.0
 13
0.0
 23
0.0
 14
1.0
 24
1.0
 15
0.0
 25
0.0
 16
0.0
 26
0.0
 36
1.0
 17
0.0
 27
0.0
 37
0.0
 40
210.0
 41
1.4142857143
 42
50.0
 43
0.0
 44
0.0
 50
0.0
 51
0.0
 71
0
 72
100
 73
1
 74
1
 75
0
 76
0
 77
0
 78
0
  0
ENDTAB
  0
TABLE
  2
LTYPE
  5
5
100
AcDbSymbolTable
 70
6
  0
LTYPE
  5
14
100
AcDbSymbolTableRecord
100
AcDbLinetypeTableRecord
  2
BYBLOCK
 70
0
  3

 72
65
 73
0
 40
0.0
  0
LTYPE
  5
15
100
AcDbSymbolTableRecord
100
AcDbLinetypeTableRecord
  2
BYLAYER
 70
0
  3

 72
65
 73
0
 40
0.0
  0
LTYPE
  5
16
100
AcDbSymbolTableRecord
100
AcDbLinetypeTableRecord
  2
CONTINUOUS
 70
64
  3
Solid line
 72
65
 73
0
 40
0.0
  0
LTYPE
  5
1F5
100
AcDbSymbolTableRecord
100
AcDbLinetypeTableRecord
  2
CENTER
 70
64
  3
____ _ ____ _ ____ _ ____ _ ____ _ ____ _ ____
 72
65
 73
4
 40
0.6
 49
0.375
 74
0
 49
-0.075
 74
0
 49
0.075
 74
0
 49
-0.075
 74
0
  0
LTYPE
  5
1F6
100
AcDbSymbolTableRecord
100
AcDbLinetypeTableRecord
  2
HIDDEN
 70
64
  3
- - - - - - - - - - - - - - - - - - - -
 72
65
 73
2
 40
0.2
 49
0.1
 74
0
 49
-0.1
 74
0
  0
LTYPE
  5
1F7
100
AcDbSymbolTableRecord
100
AcDbLinetypeTableRecord
  2
PHANTOM
 70
64
  3
_____ _ _ _____ _ _ _____ _ _ _____
 72
65
 73
6
 40
0.8
 49
0.45
 74
0
 49
-0.05
 74
0
 49
0.1
 74
0
 49
-0.05
 74
0
 49
0.1
 74
0
 49
-0.05
 74
0
  0
LTYPE
  5
1F8
100
AcDbSymbolTableRecord
100
AcDbLinetypeTableRecord
  2
DOT
 70
64
  3
. . . . . . . . . . . . . . . . . . . .
 72
65
 73
2
 40
0.2
 49
0.1
 74
0
 49
-0.1
 74
0
  0
LTYPE
  5
1F9
100
AcDbSymbolTableRecord
100
AcDbLinetypeTableRecord
  2
DASHED
 70
64
  3
- - - - - - - - - - - - - - - - - - - -
 72
65
 73
2
 40
0.2
 49
0.1
 74
0
 49
-0.1
 74
0
  0
ENDTAB
  0
TABLE
  2
LAYER
  5
2
100
AcDbSymbolTable
 70
36
  0
LAYER
  5
10
100
AcDbSymbolTableRecord
100
AcDbLayerTableRecord
  2
0
 70
0
 62
7
  6
CONTINUOUS
370
-3
390
F
  0
LAYER
  5
1FA
100
AcDbSymbolTableRecord
100
AcDbLayerTableRecord
  2
DEFAULT_1
 70
0
 62
7
  6
CENTER
370
-3
390
F
  0
LAYER
  5
1FB
100
AcDbSymbolTableRecord
100
AcDbLayerTableRecord
  2
DEFAULT_2
 70
0
 62
8
  6
HIDDEN
370
-3
390
F
  0
LAYER
  5
1FC
100
AcDbSymbolTableRecord
100
AcDbLayerTableRecord
  2
DEFAULT_3
 70
0
 62
7
  6
PHANTOM
370
-3
390
F
  0
LAYER
  5
1FD
100
AcDbSymbolTableRecord
100
AcDbLayerTableRecord
  2
ANALYSEN
 70
0
 62
7
  6
CONTINUOUS
370
-3
390
F
  0
LAYER
  5
1FE
100
AcDbSymbolTableRecord
100
AcDbLayerTableRecord
  2
AUSSENKONTUR
 70
0
 62
7
  6
CONTINUOUS
370
-3
390
F
  0
LAYER
  5
1FF
100
AcDbSymbolTableRecord
100
AcDbLayerTableRecord
  2
BEZUGSACHSEN
 70
0
 62
7
  6
CONTINUOUS
370
-3
390
F
  0
LAYER
  5
200
100
AcDbSymbolTableRecord
100
AcDbLayerTableRecord
  2
BEZUGSACHSENKENNZEICHEN
 70
0
 62
7
  6
CONTINUOUS
370
-3
390
F
  0
LAYER
  5
201
100
AcDbSymbolTableRecord
100
AcDbLayerTableRecord
  2
BEZUGSEBENEN
 70
0
 62
7
  6
CONTINUOUS
370
-3
390
F
  0
LAYER
  5
202
100
AcDbSymbolTableRecord
100
AcDbLayerTableRecord
  2
BEZUGSPUNKTE
 70
0
 62
7
  6
CONTINUOUS
370
-3
390
F
  0
LAYER
  5
203
100
AcDbSymbolTableRecord
100
AcDbLayerTableRecord
  2
BOHRUNGEN
 70
0
 62
7
  6
CONTINUOUS
370
-3
390
F
  0
LAYER
  5
204
100
AcDbSymbolTableRecord
100
AcDbLayerTableRecord
  2
FASEN
 70
0
 62
7
  6
CONTINUOUS
370
-3
390
F
  0
LAYER
  5
205
100
AcDbSymbolTableRecord
100
AcDbLayerTableRecord
  2
FLAECHEN
 70
0
 62
7
  6
CONTINUOUS
370
-3
390
F
  0
LAYER
  5
206
100
AcDbSymbolTableRecord
100
AcDbLayerTableRecord
  2
GEWINDE
 70
0
 62
7
  6
CONTINUOUS
370
-3
390
F
  0
LAYER
  5
207
100
AcDbSymbolTableRecord
100
AcDbLayerTableRecord
  2
HILFEN
 70
0
 62
7
  6
CONTINUOUS
370
-3
390
F
  0
LAYER
  5
208
100
AcDbSymbolTableRecord
100
AcDbLayerTableRecord
  2
INNENKONTUR
 70
0
 62
7
  6
CONTINUOUS
370
-3
390
F
  0
LAYER
  5
209
100
AcDbSymbolTableRecord
100
AcDbLayerTableRecord
  2
KURVEN
 70
0
 62
7
  6
CONTINUOUS
370
-3
390
F
  0
LAYER
  5
20A
100
AcDbSymbolTableRecord
100
AcDbLayerTableRecord
  2
MAKINO
 70
0
 62
7
  6
CONTINUOUS
370
-3
390
F
  0
LAYER
  5
20B
100
AcDbSymbolTableRecord
100
AcDbLayerTableRecord
  2
OELVERDR_RILLE
 70
0
 62
7
  6
CONTINUOUS
370
-3
390
F
  0
LAYER
  5
20C
100
AcDbSymbolTableRecord
100
AcDbLayerTableRecord
  2
PLATZIERUNG
 70
0
 62
7
  6
CONTINUOUS
370
-3
390
F
  0
LAYER
  5
20D
100
AcDbSymbolTableRecord
100
AcDbLayerTableRecord
  2
PUNKTE
 70
0
 62
7
  6
CONTINUOUS
370
-3
390
F
  0
LAYER
  5
20E
100
AcDbSymbolTableRecord
100
AcDbLayerTableRecord
  2
RUNDUNGEN
 70
0
 62
7
  6
CONTINUOUS
370
-3
390
F
  0
LAYER
  5
20F
100
AcDbSymbolTableRecord
100
AcDbLayerTableRecord
  2
TEIL_STARTBEZUEGE
 70
0
 62
7
  6
CONTINUOUS
370
-3
390
F
  0
LAYER
  5
210
100
AcDbSymbolTableRecord
100
AcDbLayerTableRecord
  2
VERERBUNG
 70
0
 62
7
  6
CONTINUOUS
370
-3
390
F
  0
LAYER
  5
211
100
AcDbSymbolTableRecord
100
AcDbLayerTableRecord
  2
VOLUMEN
 70
0
 62
7
  6
CONTINUOUS
370
-3
390
F
  0
LAYER
  5
212
100
AcDbSymbolTableRecord
100
AcDbLayerTableRecord
  2
ZEICHNUNG
 70
0
 62
7
  6
CONTINUOUS
370
-3
390
F
  0
LAYER
  5
213
100
AcDbSymbolTableRecord
100
AcDbLayerTableRecord
  2
ZEICHNUNGSBEMASSUNGEN
 70
0
 62
7
  6
CONTINUOUS
370
-3
390
F
  0
ENDTAB
  0
TABLE
  2
STYLE
  5
3
100
AcDbSymbolTable
 70
1
  0
STYLE
  5
11
100
AcDbSymbolTableRecord
100
AcDbTextStyleTableRecord
  2
STANDARD
 70
0
 40
0.0
 41
0.7
 50
0.0
 71
0
 42
0.2
  3
txt
  4

  0
STYLE
  5
214
100
AcDbSymbolTableRecord
100
AcDbTextStyleTableRecord
  2
TEXTSTYLE_1
 70
0
 40
0.0
 41
0.8
 50
0.0
 71
0
 42
0.2
  3
gdt
  4

  0
STYLE
  5
215
100
AcDbSymbolTableRecord
100
AcDbTextStyleTableRecord
  2
TEXTSTYLE_2
 70
0
 40
0.0
 41
0.7
 50
0.0
 71
0
 42
0.2
  3
gdt
  4

  0
ENDTAB
  0
TABLE
  2
VIEW
  5
6
100
AcDbSymbolTable
 70
0
  0
ENDTAB
  0
TABLE
  2
UCS
  5
7
100
AcDbSymbolTable
 70
0
  0
ENDTAB
  0
TABLE
  2
APPID
  5
9
100
AcDbSymbolTable
 70
1
  0
APPID
  5
216
100
AcDbSymbolTableRecord
100
AcDbRegAppTableRecord
  2
ACAD
 70
0
  0
ENDTAB
  0
TABLE
  2
BLOCK_RECORD
  5
1
100
AcDbSymbolTable
 70
0
  0
BLOCK_RECORD
  5
217
100
AcDbSymbolTableRecord
100
AcDbBlockTableRecord
  2
*Model_Space
  0
BLOCK_RECORD
  5
218
100
AcDbSymbolTableRecord
100
AcDbBlockTableRecord
  2
*Paper_Space
  0
BLOCK_RECORD
  5
219
100
AcDbSymbolTableRecord
100
AcDbBlockTableRecord
  2
_FILLED
  0
BLOCK_RECORD
  5
21A
100
AcDbSymbolTableRecord
100
AcDbBlockTableRecord
  2
*D0
  0
BLOCK_RECORD
  5
21B
100
AcDbSymbolTableRecord
100
AcDbBlockTableRecord
  2
*D1
  0
BLOCK_RECORD
  5
21C
100
AcDbSymbolTableRecord
100
AcDbBlockTableRecord
  2
*D2
  0
BLOCK_RECORD
  5
21D
100
AcDbSymbolTableRecord
100
AcDbBlockTableRecord
  2
*D3
  0
BLOCK_RECORD
  5
21E
100
AcDbSymbolTableRecord
100
AcDbBlockTableRecord
  2
*D4
  0
BLOCK_RECORD
  5
21F
100
AcDbSymbolTableRecord
100
AcDbBlockTableRecord
  2
*D5
  0
ENDTAB
  0
TABLE
  2
DIMSTYLE
  5
A
100
AcDbSymbolTable
 70
1
100
AcDbDimStyleTable
 71
0
  0
DIMSTYLE
105
220
100
AcDbSymbolTableRecord
100
AcDbDimStyleTableRecord
  2
STANDARD
 70
0
  3

  4

 40
1.0
 41
3.5
 42
0.0625
 43
0.38
 44
0.18
 45
0.0
 46
0.0
 47
0.005
 48
0.005
140
3.5
141
0.09
142
0.0
143
25.4
144
1.0
145
0.0
146
1.0
147
0.09
 71
1.0
 72
0.0
 73
0
 74
0
 75
0
 76
0
 77
1
 78
8
170
0
171
2
172
0
173
0
174
0
175
0
176
0
177
0
178
5
270
2
271
3
272
3
273
2
274
2
275
0
280
0
281
0
282
0
283
1
284
8
285
0
286
0
287
3
288
0
340
11
341
219
342
219
343
219
344
219
  0
DIMSTYLE
105
221
100
AcDbSymbolTableRecord
100
AcDbDimStyleTableRecord
  2
DIMSTYLE_1
 70
0
  3

  4

 40
1.0
 41
3.5
 42
0.0625
 43
0.38
 44
0.18
 45
0.0
 46
0.0
 47
0.5
 48
0.5
140
3.5
141
0.09
142
0.0
143
25.4
144
1.0
145
0.0
146
1.0
147
0.09
 71
0.0
 72
0.0
 73
0
 74
0
 75
0
 76
0
 77
1
 78
8
170
0
171
2
172
0
173
0
174
0
175
0
176
0
177
0
178
5
270
2
271
3
272
3
273
2
274
2
275
0
280
0
281
0
282
0
283
1
284
8
285
0
286
0
287
3
288
0
340
11
341
219
342
219
343
219
344
219
  0
DIMSTYLE
105
222
100
AcDbSymbolTableRecord
100
AcDbDimStyleTableRecord
  2
DIMSTYLE_2
 70
0
  3

  4

 40
1.0
 41
3.5
 42
0.0625
 43
0.38
 44
0.18
 45
0.0
 46
0.0
 47
0.5
 48
0.5
140
3.5
141
0.09
142
0.0
143
25.4
144
1.0
145
0.0
146
1.0
147
0.09
 71
0.0
 72
0.0
 73
0
 74
0
 75
0
 76
0
 77
1
 78
8
170
0
171
2
172
0
173
0
174
0
175
0
176
0
177
0
178
5
270
2
271
2
272
2
273
2
274
2
275
0
280
0
281
0
282
0
283
1
284
8
285
0
286
0
287
3
288
0
340
11
341
219
342
219
343
219
344
219
  0
DIMSTYLE
105
223
100
AcDbSymbolTableRecord
100
AcDbDimStyleTableRecord
  2
DIMSTYLE_3
 70
0
  3

  4

 40
1.0
 41
3.5
 42
0.0625
 43
0.38
 44
0.18
 45
0.0
 46
0.0
 47
0.3
 48
0.3
140
3.5
141
0.09
142
0.0
143
25.4
144
1.0
145
0.0
146
1.0
147
0.09
 71
0.0
 72
0.0
 73
0
 74
0
 75
0
 76
0
 77
1
 78
8
170
0
171
2
172
0
173
0
174
0
175
0
176
0
177
0
178
5
270
2
271
2
272
2
273
2
274
2
275
0
280
0
281
0
282
0
283
1
284
8
285
0
286
0
287
3
288
0
340
11
341
219
342
219
343
219
344
219
  0
DIMSTYLE
105
224
100
AcDbSymbolTableRecord
100
AcDbDimStyleTableRecord
  2
DIMSTYLE_4
 70
0
  3

  4

 40
1.0
 41
3.5
 42
0.0625
 43
0.38
 44
0.18
 45
0.0
 46
0.0
 47
0.1
 48
0.0
140
3.5
141
0.09
142
0.0
143
25.4
144
1.0
145
0.0
146
1.0
147
0.09
 71
0.0
 72
0.0
 73
0
 74
0
 75
0
 76
0
 77
1
 78
8
170
0
171
2
172
0
173
0
174
0
175
0
176
0
177
0
178
5
270
2
271
2
272
2
273
2
274
2
275
0
280
0
281
0
282
0
283
1
284
8
285
0
286
0
287
3
288
0
340
11
341
219
342
219
343
219
344
219
  0
DIMSTYLE
105
225
100
AcDbSymbolTableRecord
100
AcDbDimStyleTableRecord
  2
DIMSTYLE_5
 70
0
  3

  4

 40
1.0
 41
3.5
 42
0.0625
 43
0.38
 44
0.18
 45
0.0
 46
0.0
 47
0.0
 48
0.0
140
3.5
141
0.09
142
0.0
143
25.4
144
1.0
145
0.0
146
1.0
147
0.09
 71
0.0
 72
0.0
 73
0
 74
0
 75
0
 76
0
 77
1
 78
8
170
0
171
2
172
0
173
0
174
0
175
0
176
0
177
0
178
5
270
2
271
0
272
0
273
2
274
2
275
0
280
0
281
0
282
0
283
1
284
8
285
0
286
0
287
3
288
0
340
11
341
219
342
219
343
219
344
219
  0
DIMSTYLE
105
226
100
AcDbSymbolTableRecord
100
AcDbDimStyleTableRecord
  2
DIMSTYLE_6
 70
0
  3

  4

 40
1.0
 41
3.5
 42
0.0625
 43
0.38
 44
0.18
 45
0.0
 46
0.0
 47
0.2
 48
0.2
140
3.5
141
0.09
142
0.0
143
25.4
144
1.0
145
0.0
146
1.0
147
0.09
 71
0.0
 72
0.0
 73
0
 74
0
 75
0
 76
0
 77
1
 78
8
170
0
171
2
172
0
173
0
174
0
175
0
176
0
177
0
178
5
270
2
271
2
272
2
273
2
274
2
275
0
280
0
281
0
282
0
283
1
284
8
285
0
286
0
287
3
288
0
340
11
341
219
342
219
343
219
344
219
  0
ENDTAB
  0
ENDSEC
  0
SECTION
  2
BLOCKS
  0
BLOCK
  5
20
100
AcDbEntity
  8
0
100
AcDbBlockBegin
  2
*Model_Space
 70
0
 10
0.0
 20
0.0
 30
0.0
  3
*Model_Space
  1

  0
ENDBLK
  5
21
100
AcDbEntity
  8
0
100
AcDbBlockEnd
  0
BLOCK
  5
1C
100
AcDbEntity
  8
0
100
AcDbBlockBegin
  2
*Paper_Space
 70
0
 10
0.0
 20
0.0
 30
0.0
  3
*Paper_Space
  1

  0
ENDBLK
  5
1D
100
AcDbEntity
  8
0
100
AcDbBlockEnd
  0
BLOCK
  5
227
100
AcDbEntity
  8
0
100
AcDbBlockBegin
  2
_FILLED
 70
64
 10
0.0
 20
0.0
  3
_FILLED
  1

  0
SOLID
  5
228
100
AcDbEntity
  8
0
  6
BYBLOCK
 62
0
100
AcDbTrace
 10
0.0
 20
0.0
 11
-1.0
 21
0.125
 12
-1.0
 22
-0.125
 13
-1.0
 23
-0.125
  0
ENDBLK
  5
229
100
AcDbEntity
  8
0
  6
BYBLOCK
 62
0
100
AcDbBlockEnd
  0
BLOCK
  5
22A
100
AcDbEntity
  8
0
100
AcDbBlockBegin
 62
2
  6
CONTINUOUS
  2
*D0
 70
65
 10
0.0
 20
0.0
  3
*D0
  1

  0
MTEXT
  5
22B
100
AcDbEntity
  8
0
100
AcDbMText
 62
5
  6
CONTINUOUS
  7
STANDARD
 71
2
 72
1
 10
182.1735879575
 20
169.7531283476
 30
0.0
 11
1.0
 21
0.0
 31
0.0
 44
0.9
  1
130
 40
3.5
 41
8.490234375
  0
LINE
  5
22C
100
AcDbEntity
  8
0
100
AcDbLine
 62
2
  6
CONTINUOUS
 10
247.1735879575
 20
114.5128673695
 11
247.1735879575
 21
166.8781283476
  0
LINE
  5
22D
100
AcDbEntity
  8
0
100
AcDbLine
 62
2
  6
CONTINUOUS
 10
117.1735879575
 20
147.0761714707
 11
117.1735879575
 21
166.8781283476
  0
LINE
  5
22E
100
AcDbEntity
  8
0
100
AcDbLine
 62
2
  6
CONTINUOUS
 10
247.1735879575
 20
165.3781283476
 11
182.1735879575
 21
165.3781283476
  0
LINE
  5
22F
100
AcDbEntity
  8
0
100
AcDbLine
 62
2
  6
CONTINUOUS
 10
117.1735879575
 20
165.3781283476
 11
182.1735879575
 21
165.3781283476
  0
INSERT
  5
230
100
AcDbEntity
  8
0
100
AcDbBlockReference
 62
2
  6
CONTINUOUS
  2
_FILLED
 10
247.1735879575
 20
165.3781283476
 41
3.5
 42
3.5
 43
3.5
  0
INSERT
  5
231
100
AcDbEntity
  8
0
100
AcDbBlockReference
 62
2
  6
CONTINUOUS
  2
_FILLED
 10
117.1735879575
 20
165.3781283476
 41
3.5
 42
3.5
 43
3.5
 50
180.0
  0
ENDBLK
  5
232
100
AcDbEntity
  8
0
  6
BYBLOCK
 62
0
100
AcDbBlockEnd
  0
BLOCK
  5
233
100
AcDbEntity
  8
0
100
AcDbBlockBegin
 62
2
  6
CONTINUOUS
  2
*D1
 70
65
 10
0.0
 20
0.0
  3
*D1
  1

  0
MTEXT
  5
234
100
AcDbEntity
  8
0
100
AcDbMText
 62
5
  6
CONTINUOUS
  7
STANDARD
 71
2
 72
1
 10
155.2134310681
 20
176.4327097193
 30
0.0
 11
1.0
 21
0.0
 31
0.0
 44
0.9
  1
198.4
 40
3.5
 41
12.7421875
  0
LINE
  5
235
100
AcDbEntity
  8
0
100
AcDbLine
 62
2
  6
CONTINUOUS
 10
48.7735879575
 20
125.5569170824
 11
48.7735879575
 21
173.5577097193
  0
LINE
  5
236
100
AcDbEntity
  8
0
100
AcDbLine
 62
2
  6
CONTINUOUS
 10
247.1735879575
 20
117.0128673695
 11
247.1735879575
 21
173.5577097193
  0
LINE
  5
237
100
AcDbEntity
  8
0
100
AcDbLine
 62
2
  6
CONTINUOUS
 10
48.7735879575
 20
172.0577097193
 11
147.9735879575
 21
172.0577097193
  0
LINE
  5
238
100
AcDbEntity
  8
0
100
AcDbLine
 62
2
  6
CONTINUOUS
 10
247.1735879575
 20
172.0577097193
 11
147.9735879575
 21
172.0577097193
  0
INSERT
  5
239
100
AcDbEntity
  8
0
100
AcDbBlockReference
 62
2
  6
CONTINUOUS
  2
_FILLED
 10
48.7735879575
 20
172.0577097193
 41
3.5
 42
3.5
 43
3.5
 50
180.0
  0
INSERT
  5
23A
100
AcDbEntity
  8
0
100
AcDbBlockReference
 62
2
  6
CONTINUOUS
  2
_FILLED
 10
247.1735879575
 20
172.0577097193
 41
3.5
 42
3.5
 43
3.5
  0
ENDBLK
  5
23B
100
AcDbEntity
  8
0
  6
BYBLOCK
 62
0
100
AcDbBlockEnd
  0
BLOCK
  5
23C
100
AcDbEntity
  8
0
100
AcDbBlockBegin
 62
2
  6
CONTINUOUS
  2
*D2
 70
65
 10
0.0
 20
0.0
  3
*D2
  1

  0
MTEXT
  5
23D
100
AcDbEntity
  8
0
100
AcDbMText
 62
5
  6
CONTINUOUS
  7
STANDARD
 71
2
 72
1
 10
191.7235879575
 20
162.328331177
 30
0.0
 11
1.0
 21
0.0
 31
0.0
 44
0.9
  1
110.9
 40
3.5
 41
12.7421875
  0
LINE
  5
23E
100
AcDbEntity
  8
0
100
AcDbLine
 62
2
  6
CONTINUOUS
 10
247.1735879575
 20
117.0128673695
 11
247.1735879575
 21
159.453331177
  0
LINE
  5
23F
100
AcDbEntity
  8
0
100
AcDbLine
 62
2
  6
CONTINUOUS
 10
136.2735879575
 20
147.0761714707
 11
136.2735879575
 21
159.453331177
  0
LINE
  5
240
100
AcDbEntity
  8
0
100
AcDbLine
 62
2
  6
CONTINUOUS
 10
247.1735879575
 20
157.953331177
 11
191.7235879575
 21
157.953331177
  0
LINE
  5
241
100
AcDbEntity
  8
0
100
AcDbLine
 62
2
  6
CONTINUOUS
 10
136.2735879575
 20
157.953331177
 11
191.7235879575
 21
157.953331177
  0
INSERT
  5
242
100
AcDbEntity
  8
0
100
AcDbBlockReference
 62
2
  6
CONTINUOUS
  2
_FILLED
 10
247.1735879575
 20
157.953331177
 41
3.5
 42
3.5
 43
3.5
  0
INSERT
  5
243
100
AcDbEntity
  8
0
100
AcDbBlockReference
 62
2
  6
CONTINUOUS
  2
_FILLED
 10
136.2735879575
 20
157.953331177
 41
3.5
 42
3.5
 43
3.5
 50
180.0
  0
ENDBLK
  5
244
100
AcDbEntity
  8
0
  6
BYBLOCK
 62
0
100
AcDbBlockEnd
  0
BLOCK
  5
245
100
AcDbEntity
  8
0
100
AcDbBlockBegin
 62
2
  6
CONTINUOUS
  2
*D3
 70
65
 10
0.0
 20
0.0
  3
*D3
  1

  0
MTEXT
  5
246
100
AcDbEntity
  8
0
100
AcDbMText
 62
5
  6
CONTINUOUS
  7
TEXTSTYLE_2
 71
2
 72
1
 10
267.0702631097
 20
117.0128673695
 30
0.0
 11
0.0
 21
1.0
 31
0.0
 44
0.9
  1
{\Fgdt;n}\Ftxt;24
 40
3.5
 41
10.3268229167
  0
LINE
  5
247
100
AcDbEntity
  8
0
100
AcDbLine
 62
2
  6
CONTINUOUS
 10
247.1735879575
 20
105.0128673695
 11
272.9452631097
 21
105.0128673695
  0
LINE
  5
248
100
AcDbEntity
  8
0
100
AcDbLine
 62
2
  6
CONTINUOUS
 10
247.1735879575
 20
129.0128673695
 11
272.9452631097
 21
129.0128673695
  0
LINE
  5
249
100
AcDbEntity
  8
0
100
AcDbLine
 62
2
  6
CONTINUOUS
 10
271.4452631097
 20
105.0128673695
 11
271.4452631097
 21
117.0128673695
  0
LINE
  5
24A
100
AcDbEntity
  8
0
100
AcDbLine
 62
2
  6
CONTINUOUS
 10
271.4452631097
 20
129.0128673695
 11
271.4452631097
 21
117.0128673695
  0
INSERT
  5
24B
100
AcDbEntity
  8
0
100
AcDbBlockReference
 62
2
  6
CONTINUOUS
  2
_FILLED
 10
271.4452631097
 20
105.0128673695
 41
3.5
 42
3.5
 43
3.5
 50
270.0
  0
INSERT
  5
24C
100
AcDbEntity
  8
0
100
AcDbBlockReference
 62
2
  6
CONTINUOUS
  2
_FILLED
 10
271.4452631097
 20
129.0128673695
 41
3.5
 42
3.5
 43
3.5
 50
90.0
  0
ENDBLK
  5
24D
100
AcDbEntity
  8
0
  6
BYBLOCK
 62
0
100
AcDbBlockEnd
  0
BLOCK
  5
24E
100
AcDbEntity
  8
0
100
AcDbBlockBegin
 62
2
  6
CONTINUOUS
  2
*D4
 70
65
 10
0.0
 20
0.0
  3
*D4
  1

  0
MTEXT
  5
24F
100
AcDbEntity
  8
0
100
AcDbMText
 62
5
  6
CONTINUOUS
  7
STANDARD
 71
2
 72
1
 10
214.4898265868
 20
136.790080002
 30
0.0
 11
0.0753693946
 21
0.9971556821
 31
0.0
 44
0.9
  1
3\Fgdt;{\Fgdt;~}
 40
3.5
 41
5.1634114583
  0
LINE
  5
250
100
AcDbEntity
  8
0
100
AcDbLine
 62
2
  6
CONTINUOUS
 10
222.5914331538
 20
130.3011635128
 11
220.3992651972
 21
130.4160501672
  0
LINE
  5
251
100
AcDbEntity
  8
0
100
AcDbLine
 62
2
  6
CONTINUOUS
 10
224.1062868758
 20
117.0128673695
 11
219.2434668732
 21
117.0128673695
  0
ARC
  5
252
100
AcDbEntity
  8
0
100
AcDbCircle
 62
2
  6
CONTINUOUS
 10
476.1472282103
 20
117.0128673695
 40
255.4037613371
100
AcDbArc
 50
175.6775528695
 51
180.0
  0
SOLID
  5
253
100
AcDbEntity
  8
0
100
AcDbTrace
 62
2
  6
CONTINUOUS
 10
221.3713129393
 20
126.8633881598
 11
221.0934888517
 21
130.3796674471
 12
220.4972188351
 22
126.9031939009
 13
220.4972188351
 23
126.9031939009
  0
SOLID
  5
254
100
AcDbEntity
  8
0
100
AcDbTrace
 62
2
  6
CONTINUOUS
 10
220.3299585913
 20
120.515782891
 11
220.7434668732
 21
117.0128673695
 12
221.2049380515
 22
120.509787529
 13
221.2049380515
 23
120.509787529
  0
ENDBLK
  5
255
100
AcDbEntity
  8
0
  6
BYBLOCK
 62
0
100
AcDbBlockEnd
  0
BLOCK
  5
256
100
AcDbEntity
  8
0
100
AcDbBlockBegin
 62
2
  6
CONTINUOUS
  2
*D5
 70
65
 10
0.0
 20
0.0
  3
*D5
  1

  0
MTEXT
  5
257
100
AcDbEntity
  8
0
100
AcDbMText
 62
5
  6
CONTINUOUS
  7
TEXTSTYLE_2
 71
2
 72
1
 10
255.6011894081
 20
117.0128673695
 30
0.0
 11
0.0
 21
1.0
 31
0.0
 44
0.9
  1
{\Fgdt;n}\Ftxt;16
 40
3.5
 41
10.3268229167
  0
LINE
  5
258
100
AcDbEntity
  8
0
100
AcDbLine
 62
2
  6
CONTINUOUS
 10
247.1735879575
 20
109.0128673695
 11
261.4761894081
 21
109.0128673695
  0
LINE
  5
259
100
AcDbEntity
  8
0
100
AcDbLine
 62
2
  6
CONTINUOUS
 10
247.1735879575
 20
125.0128673695
 11
261.4761894081
 21
125.0128673695
  0
LINE
  5
25A
100
AcDbEntity
  8
0
100
AcDbLine
 62
2
  6
CONTINUOUS
 10
259.9761894081
 20
109.0128673695
 11
259.9761894081
 21
117.0128673695
  0
LINE
  5
25B
100
AcDbEntity
  8
0
100
AcDbLine
 62
2
  6
CONTINUOUS
 10
259.9761894081
 20
125.0128673695
 11
259.9761894081
 21
117.0128673695
  0
INSERT
  5
25C
100
AcDbEntity
  8
0
100
AcDbBlockReference
 62
2
  6
CONTINUOUS
  2
_FILLED
 10
259.9761894081
 20
109.0128673695
 41
3.5
 42
3.5
 43
3.5
 50
270.0
  0
INSERT
  5
25D
100
AcDbEntity
  8
0
100
AcDbBlockReference
 62
2
  6
CONTINUOUS
  2
_FILLED
 10
259.9761894081
 20
125.0128673695
 41
3.5
 42
3.5
 43
3.5
 50
90.0
  0
ENDBLK
  5
25E
100
AcDbEntity
  8
0
  6
BYBLOCK
 62
0
100
AcDbBlockEnd
  0
ENDSEC
  0
SECTION
  2
ENTITIES
  0
DIMENSION
  5
25F
100
AcDbEntity
  8
0
100
AcDbDimension
 62
2
  6
CONTINUOUS
  2
*D0
 10
117.1735879575
 20
165.3781283476
 11
177.92847077
 21
168.0031283476
 70
160
 71
2
 42
130.0
  3
DIMSTYLE_1
100
AcDbAlignedDimension
 13
247.1735879575
 23
114.5128673695
 14
117.1735879575
 24
147.0761714707
 50
180.0
100
AcDbRotatedDimension
  0
DIMENSION
  5
260
100
AcDbEntity
  8
0
100
AcDbDimension
 62
2
  6
CONTINUOUS
  2
*D1
 10
247.1735879575
 20
172.0577097193
 11
148.8423373181
 21
174.6827097193
 70
160
 71
2
 42
198.4
  3
DIMSTYLE_2
100
AcDbAlignedDimension
 13
48.7735879575
 23
125.5569170824
 14
247.1735879575
 24
117.0128673695
100
AcDbRotatedDimension
  0
DIMENSION
  5
261
100
AcDbEntity
  8
0
100
AcDbDimension
 62
2
  6
CONTINUOUS
  2
*D2
 10
136.2735879575
 20
157.953331177
 11
185.3524942075
 21
160.578331177
 70
160
 71
2
 42
110.9
  3
DIMSTYLE_3
100
AcDbAlignedDimension
 13
247.1735879575
 23
117.0128673695
 14
136.2735879575
 24
147.0761714707
 50
180.0
100
AcDbRotatedDimension
  0
DIMENSION
  5
262
100
AcDbEntity
  8
0
100
AcDbDimension
 62
2
  6
CONTINUOUS
  2
*D3
 10
271.4452631097
 20
129.0128673695
 11
269.9770573315
 21
114.7048310612
 70
160
 71
2
 42
24.0
  1
%%c<>
  3
DIMSTYLE_4
100
AcDbAlignedDimension
 13
247.1735879575
 23
105.0128673695
 14
247.1735879575
 24
129.0128673695
 50
90.0
100
AcDbRotatedDimension
  0
DIMENSION
  5
263
100
AcDbEntity
  8
0
100
AcDbDimension
 62
2
  6
CONTINUOUS
  2
*D4
 10
219.2434668732
 20
117.0128673695
 11
217.0823676155
 21
137.6318433409
 70
162
 71
2
 42
0.0523598776
  3
DIMSTYLE_5
100
AcDb2LineAngularDimension
 13
220.3992651972
 23
130.4160501672
 14
222.5914331538
 24
130.3011635128
 15
224.1062868758
 25
117.0128673695
 16
220.8309873634
 26
123.6985584277
  0
DIMENSION
  5
264
100
AcDbEntity
  8
0
100
AcDbDimension
 62
2
  6
CONTINUOUS
  2
*D5
 10
259.9761894081
 20
125.0128673695
 11
258.5079836299
 21
114.7048310612
 70
160
 71
2
 42
16.0
  1
%%c<>
  3
DIMSTYLE_6
100
AcDbAlignedDimension
 13
247.1735879575
 23
109.0128673695
 14
247.1735879575
 24
125.0128673695
 50
90.0
100
AcDbRotatedDimension
  0
MTEXT
  5
265
100
AcDbEntity
  8
0
100
AcDbMText
 62
5
  6
CONTINUOUS
  7
STANDARD
 71
1
 72
1
 10
16.0042746003
 20
86.8148135759
 30
0.0
 11
1.0
 21
0.0
 31
0.0
 44
0.9
  3
Für diese Unterlage behalten wir das Ur-\Pheberrecht. Sie darf nur für den von uns \Pbestimmten Zweck benutzt und ohne unsere \PZustimmung weder vervielfältigt noch\PDritten zugänglich gemacht werden\P \PWe own the copyright of this document. It \Pde
  1
termined and may neither be copied or \Pmade accessible to outsiders without our\Ppermission.\P \PCe plan reste notre propriété. Il ne peut\Pêtre utilisé, copié ou reproduit sans notre\Paccord.\P 
 40
3.5
 41
99.162109375
  0
LINE
  5
266
100
AcDbEntity
  8
0
100
AcDbLine
 62
7
  6
CONTINUOUS
 10
0.0
 20
0.0
 11
0.0
 21
210.0
  0
LINE
  5
267
100
AcDbEntity
  8
0
100
AcDbLine
 62
7
  6
CONTINUOUS
 10
0.0
 20
0.0
 11
297.0
 21
0.0
  0
LINE
  5
268
100
AcDbEntity
  8
0
100
AcDbLine
 62
7
  6
CONTINUOUS
 10
0.0
 20
210.0
 11
297.0
 21
210.0
  0
LINE
  5
269
100
AcDbEntity
  8
0
100
AcDbLine
 62
7
  6
CONTINUOUS
 10
297.0
 20
0.0
 11
297.0
 21
210.0
  0
LINE
  5
26A
100
AcDbEntity
  8
BEZUGSACHSEN
100
AcDbLine
 62
7
  6
CONTINUOUS
 10
48.7735879575
 20
127.532568044
 11
48.7735879575
 21
106.493166695
  0
LINE
  5
26B
100
AcDbEntity
  8
BEZUGSACHSEN
100
AcDbLine
 62
9
  6
CONTINUOUS
 10
50.4849506192
 20
129.5116305713
 11
50.4849506192
 21
104.5141041677
  0
LINE
  5
26C
100
AcDbEntity
  8
BEZUGSACHSEN
100
AcDbLine
 62
7
  6
CONTINUOUS
 10
116.7162826951
 20
139.1711714607
 11
116.7162826951
 21
94.8545632783
  0
LINE
  5
26D
100
AcDbEntity
  8
BEZUGSACHSEN
100
AcDbLine
 62
7
  6
CENTER
 10
117.1735879575
 20
87.645018186
 11
117.1735879575
 21
143.1068178361
  0
LINE
  5
26E
100
AcDbEntity
  8
BEZUGSACHSEN
100
AcDbLine
 62
7
  6
CONTINUOUS
 10
117.7735879575
 20
138.8878673695
 11
117.7735879575
 21
95.1378673695
  0
LINE
  5
26F
100
AcDbEntity
  8
BEZUGSACHSEN
100
AcDbLine
 62
9
  6
CONTINUOUS
 10
119.4235879575
 20
138.8878673695
 11
119.4235879575
 21
95.1378673695
  0
LINE
  5
270
100
AcDbEntity
  8
BEZUGSACHSEN
100
AcDbLine
 62
7
  6
CONTINUOUS
 10
120.4235879575
 20
147.7699815203
 11
120.4235879575
 21
125.2128673695
  0
LINE
  5
271
100
AcDbEntity
  8
BEZUGSACHSEN
100
AcDbLine
 62
7
  6
CONTINUOUS
 10
120.4235879575
 20
108.8128673695
 11
120.4235879575
 21
98.5128673695
  0
LINE
  5
272
100
AcDbEntity
  8
BEZUGSACHSEN
100
AcDbLine
 62
7
  6
CONTINUOUS
 10
120.4235879575
 20
92.4191562831
 11
120.4235879575
 21
86.2398991534
  0
LINE
  5
273
100
AcDbEntity
  8
0
100
AcDbLine
 62
7
  6
CONTINUOUS
 10
120.4235879575
 20
86.2378698742
 11
120.4235879575
 21
92.4191562831
  0
LINE
  5
274
100
AcDbEntity
  8
FASEN
100
AcDbLine
 62
7
  6
CONTINUOUS
 10
120.4235879575
 20
92.4191562831
 11
120.4235879575
 21
98.5128673695
  0
LINE
  5
275
100
AcDbEntity
  8
0
100
AcDbLine
 62
7
  6
CONTINUOUS
 10
120.4235879575
 20
98.5128673695
 11
120.4235879575
 21
108.8128673695
  0
LINE
  5
276
100
AcDbEntity
  8
FASEN
100
AcDbLine
 62
7
  6
CONTINUOUS
 10
120.4235879575
 20
108.8128673695
 11
120.4235879575
 21
125.2128673695
  0
LINE
  5
277
100
AcDbEntity
  8
0
100
AcDbLine
 62
7
  6
CONTINUOUS
 10
120.4235879575
 20
125.2128673695
 11
120.4235879575
 21
147.7878669279
  0
LINE
  5
278
100
AcDbEntity
  8
0
100
AcDbLine
 62
9
  6
CONTINUOUS
 10
121.4235879575
 20
148.7878673695
 11
121.4235879575
 21
125.2128673695
  0
LINE
  5
279
100
AcDbEntity
  8
0
100
AcDbLine
 62
9
  6
CONTINUOUS
 10
121.4235879575
 20
108.8128673695
 11
121.4235879575
 21
98.5128673695
  0
LINE
  5
27A
100
AcDbEntity
  8
0
100
AcDbLine
 62
9
  6
CONTINUOUS
 10
121.4235879575
 20
91.1787692625
 11
121.4235879575
 21
85.2378673695
  0
LINE
  5
27B
100
AcDbEntity
  8
BEZUGSACHSEN
100
AcDbLine
 62
7
  6
CONTINUOUS
 10
130.2235879575
 20
145.9104626337
 11
131.8848583563
 21
148.7878673695
  0
LINE
  5
27C
100
AcDbEntity
  8
BEZUGSACHSEN
100
AcDbLine
 62
7
  6
CONTINUOUS
 10
121.4235879575
 20
85.2378673695
 11
124.8123175588
 21
85.2378673695
  0
LINE
  5
27D
100
AcDbEntity
  8
BEZUGSACHSEN
100
AcDbLine
 62
7
  6
CONTINUOUS
 10
131.8848583563
 20
85.2378673695
 11
135.2735879575
 21
85.2378673695
  0
LINE
  5
27E
100
AcDbEntity
  8
BEZUGSACHSEN
100
AcDbLine
 62
7
  6
CONTINUOUS
 10
130.2235879575
 20
88.1152721053
 11
131.8848583563
 21
85.2378673695
  0
LINE
  5
27F
100
AcDbEntity
  8
0
100
AcDbLine
 62
7
  6
CONTINUOUS
 10
124.8123175588
 20
85.2378673695
 11
124.8123175588
 21
91.1787692625
  0
LINE
  5
280
100
AcDbEntity
  8
0
100
AcDbLine
 62
7
  6
CONTINUOUS
 10
124.8123175588
 20
98.5128673695
 11
124.8123175588
 21
108.8128673695
  0
LINE
  5
281
100
AcDbEntity
  8
0
100
AcDbLine
 62
7
  6
CONTINUOUS
 10
124.8123175588
 20
125.2128673695
 11
124.8123175588
 21
148.7878673695
  0
LINE
  5
282
100
AcDbEntity
  8
0
100
AcDbLine
 62
7
  6
CONTINUOUS
 10
126.4735879575
 20
145.9104621716
 11
126.4735879575
 21
144.3978837427
  0
LINE
  5
283
100
AcDbEntity
  8
BEZUGSACHSEN
100
AcDbLine
 62
7
  6
CONTINUOUS
 10
126.4735879575
 20
144.3978837427
 11
126.4735879575
 21
144.1416529537
  0
LINE
  5
284
100
AcDbEntity
  8
0
100
AcDbLine
 62
7
  6
CONTINUOUS
 10
126.4735879575
 20
143.9218118514
 11
126.4735879575
 21
125.2128673695
  0
LINE
  5
285
100
AcDbEntity
  8
0
100
AcDbLine
 62
7
  6
CONTINUOUS
 10
126.4735879575
 20
108.8128673695
 11
126.4735879575
 21
98.5128673695
  0
LINE
  5
286
100
AcDbEntity
  8
0
100
AcDbLine
 62
7
  6
CONTINUOUS
 10
126.4735879575
 20
88.1152781459
 11
126.4735879575
 21
95.1693185507
  0
LINE
  5
287
100
AcDbEntity
  8
0
100
AcDbLine
 62
9
  6
CONTINUOUS
 10
126.9735879575
 20
88.8878673695
 11
126.9735879575
 21
95.828778411
  0
LINE
  5
288
100
AcDbEntity
  8
0
100
AcDbLine
 62
9
  6
CONTINUOUS
 10
126.9735879575
 20
98.5128673695
 11
126.9735879575
 21
108.8128673695
  0
LINE
  5
289
100
AcDbEntity
  8
0
100
AcDbLine
 62
9
  6
CONTINUOUS
 10
126.9735879575
 20
125.2128673695
 11
126.9735879575
 21
142.9097209624
  0
LINE
  5
28A
100
AcDbEntity
  8
0
100
AcDbLine
 62
9
  6
CONTINUOUS
 10
126.9735879575
 20
143.9031997018
 11
126.9735879575
 21
145.1378673695
  0
LINE
  5
28B
100
AcDbEntity
  8
BEZUGSACHSEN
100
AcDbLine
 62
7
  6
CONTINUOUS
 10
156.2311378678
 20
93.0128673695
 11
172.7068351501
 21
94.9055307017
  0
LINE
  5
28C
100
AcDbEntity
  8
BEZUGSACHSEN
100
AcDbLine
 62
7
  6
CONTINUOUS
 10
173.8220723366
 20
95.0336447653
 11
181.9461015926
 21
95.9669013079
  0
LINE
  5
28D
100
AcDbEntity
  8
BEZUGSACHSEN
100
AcDbLine
 62
7
  6
CONTINUOUS
 10
126.9735879575
 20
88.8878673695
 11
129.7235879575
 21
88.8878673695
  0
LINE
  5
28E
100
AcDbEntity
  8
0
100
AcDbLine
 62
7
  6
CONTINUOUS
 10
121.4235879575
 20
91.1787692625
 11
124.8123175588
 21
91.1787692625
  0
LINE
  5
28F
100
AcDbEntity
  8
0
100
AcDbLine
 62
7
  6
CONTINUOUS
 10
131.8848583563
 20
91.1787692625
 11
135.2735879575
 21
91.1787692625
  0
LINE
  5
290
100
AcDbEntity
  8
BEZUGSACHSEN
100
AcDbLine
 62
7
  6
CONTINUOUS
 10
154.1878015199
 20
93.0128673695
 11
156.2311378678
 21
93.0128673695
  0
LINE
  5
291
100
AcDbEntity
  8
BEZUGSACHSEN
100
AcDbLine
 62
7
  6
CONTINUOUS
 10
137.2735879575
 20
94.5128673695
 11
151.8593743952
 21
94.5128673695
  0
LINE
  5
292
100
AcDbEntity
  8
BEZUGSACHSEN
100
AcDbLine
 62
7
  6
CONTINUOUS
 10
117.7735879575
 20
95.1378673695
 11
119.4235879575
 21
95.1378673695
  0
LINE
  5
293
100
AcDbEntity
  8
BEZUGSACHSEN
100
AcDbLine
 62
7
  6
CONTINUOUS
 10
50.4849506192
 20
104.5141041677
 11
116.7162826951
 21
94.8545632783
  0
LINE
  5
294
100
AcDbEntity
  8
0
100
AcDbLine
 62
9
  6
CONTINUOUS
 10
129.7235879575
 20
88.8878673695
 11
129.7235879575
 21
95.828778411
  0
LINE
  5
295
100
AcDbEntity
  8
0
100
AcDbLine
 62
9
  6
CONTINUOUS
 10
129.7235879575
 20
98.5128673695
 11
129.7235879575
 21
108.8128673695
  0
LINE
  5
296
100
AcDbEntity
  8
0
100
AcDbLine
 62
9
  6
CONTINUOUS
 10
129.7235879575
 20
125.2128673695
 11
129.7235879575
 21
142.9097209624
  0
LINE
  5
297
100
AcDbEntity
  8
0
100
AcDbLine
 62
9
  6
CONTINUOUS
 10
129.7235879575
 20
143.9031997018
 11
129.7235879575
 21
145.1378673695
  0
LINE
  5
298
100
AcDbEntity
  8
BEZUGSACHSEN
100
AcDbLine
 62
7
  6
CONTINUOUS
 10
130.2235879575
 20
144.3978837427
 11
130.2235879575
 21
144.1416529537
  0
LINE
  5
299
100
AcDbEntity
  8
0
100
AcDbLine
 62
7
  6
CONTINUOUS
 10
130.2235879575
 20
143.9218118514
 11
130.2235879575
 21
125.2128673695
  0
LINE
  5
29A
100
AcDbEntity
  8
0
100
AcDbLine
 62
7
  6
CONTINUOUS
 10
130.2235879575
 20
88.1152781459
 11
130.2235879575
 21
95.1693185507
  0
LINE
  5
29B
100
AcDbEntity
  8
0
100
AcDbLine
 62
7
  6
CONTINUOUS
 10
130.2235879575
 20
98.5128673695
 11
130.2235879575
 21
108.8128673695
  0
LINE
  5
29C
100
AcDbEntity
  8
0
100
AcDbLine
 62
7
  6
CONTINUOUS
 10
130.2235879575
 20
144.3978837427
 11
130.2235879575
 21
145.9104621716
  0
LINE
  5
29D
100
AcDbEntity
  8
0
100
AcDbLine
 62
7
  6
CONTINUOUS
 10
131.8848583563
 20
148.7878673695
 11
131.8848583563
 21
125.2128673695
  0
LINE
  5
29E
100
AcDbEntity
  8
0
100
AcDbLine
 62
7
  6
CONTINUOUS
 10
131.8848583563
 20
108.8128673695
 11
131.8848583563
 21
98.5128673695
  0
LINE
  5
29F
100
AcDbEntity
  8
0
100
AcDbLine
 62
7
  6
CONTINUOUS
 10
131.8848583563
 20
91.1787692625
 11
131.8848583563
 21
85.2378673695
  0
LINE
  5
2A0
100
AcDbEntity
  8
0
100
AcDbLine
 62
9
  6
CONTINUOUS
 10
135.2735879575
 20
85.2378673695
 11
135.2735879575
 21
91.1787692625
  0
LINE
  5
2A1
100
AcDbEntity
  8
0
100
AcDbLine
 62
9
  6
CONTINUOUS
 10
135.2735879575
 20
98.5128673695
 11
135.2735879575
 21
108.8128673695
  0
LINE
  5
2A2
100
AcDbEntity
  8
0
100
AcDbLine
 62
9
  6
CONTINUOUS
 10
135.2735879575
 20
125.2128673695
 11
135.2735879575
 21
148.7878673695
  0
LINE
  5
2A3
100
AcDbEntity
  8
BEZUGSACHSEN
100
AcDbLine
 62
7
  6
CONTINUOUS
 10
152.5664811764
 20
139.8057605883
 11
153.4806947387
 21
140.7199741507
  0
LINE
  5
2A4
100
AcDbEntity
  8
BEZUGSACHSEN
100
AcDbLine
 62
7
  6
CONTINUOUS
 10
197.940263883
 20
102.432658188
 11
246.8892887444
 21
104.9979678791
  0
LINE
  5
2A5
100
AcDbEntity
  8
0
100
AcDbLine
 62
7
  6
CONTINUOUS
 10
126.9735879575
 20
95.828778411
 11
129.7235879575
 21
95.828778411
  0
LINE
  5
2A6
100
AcDbEntity
  8
BEZUGSACHSEN
100
AcDbLine
 62
7
  6
CONTINUOUS
 10
183.3854681729
 20
97.0128673695
 11
184.6735879575
 21
97.0128673695
  0
LINE
  5
2A7
100
AcDbEntity
  8
BEZUGSACHSEN
100
AcDbLine
 62
7
  6
CONTINUOUS
 10
189.6735879575
 20
97.0128673695
 11
191.3797633593
 21
97.0128673695
  0
LINE
  5
2A8
100
AcDbEntity
  8
FASEN
100
AcDbLine
 62
7
  6
CONTINUOUS
 10
120.4235879575
 20
98.1128673695
 11
136.2735879575
 21
98.1128673695
  0
LINE
  5
2A9
100
AcDbEntity
  8
0
100
AcDbLine
 62
7
  6
CONTINUOUS
 10
120.4235879575
 20
98.5128673695
 11
136.2735879575
 21
98.5128673695
  0
LWPOLYLINE
  5
2AA
100
AcDbEntity
  8
0
100
AcDbPolyline
 62
7
  6
CONTINUOUS
 90
8
 70
0
 10
171.3484823876
 20
94.9581321524
 10
171.343561947
 20
94.9586311237
 10
171.3438099612
 20
94.9585862398
 10
171.351584556
 20
94.9574211437
 10
171.3664165703
 20
94.9548055289
 10
171.388312966
 20
94.950292544
 10
171.4156906518
 20
94.9437655577
 10
171.4320729396
 20
94.9394400898
  0
LINE
  5
2AB
100
AcDbEntity
  8
BEZUGSACHSEN
100
AcDbLine
 62
7
  6
CONTINUOUS
 10
136.2735879575
 20
147.7699815203
 11
136.2735879575
 21
125.2128673695
  0
LINE
  5
2AC
100
AcDbEntity
  8
0
100
AcDbLine
 62
7
  6
CONTINUOUS
 10
136.2735879575
 20
147.7878669279
 11
136.2735879575
 21
125.2128673695
  0
LINE
  5
2AD
100
AcDbEntity
  8
0
100
AcDbLine
 62
7
  6
CONTINUOUS
 10
136.2735879575
 20
108.8128673695
 11
136.2735879575
 21
98.5128673695
  0
LINE
  5
2AE
100
AcDbEntity
  8
BEZUGSACHSEN
100
AcDbLine
 62
7
  6
CONTINUOUS
 10
136.2735879575
 20
92.4191562831
 11
136.2735879575
 21
86.2398991534
  0
LINE
  5
2AF
100
AcDbEntity
  8
0
100
AcDbLine
 62
7
  6
CONTINUOUS
 10
136.2735879575
 20
92.4191562831
 11
136.2735879575
 21
86.2378698742
  0
LINE
  5
2B0
100
AcDbEntity
  8
FASEN
100
AcDbLine
 62
7
  6
CONTINUOUS
 10
136.2735879575
 20
92.4191562831
 11
136.2735879575
 21
98.5128673695
  0
LINE
  5
2B1
100
AcDbEntity
  8
FASEN
100
AcDbLine
 62
7
  6
CONTINUOUS
 10
136.2735879575
 20
108.8128673695
 11
136.2735879575
 21
125.2128673695
  0
LINE
  5
2B2
100
AcDbEntity
  8
RUNDUNGEN
100
AcDbLine
 62
9
  6
CONTINUOUS
 10
137.2735879575
 20
139.5128673695
 11
137.2735879575
 21
94.5128673695
  0
LINE
  5
2B3
100
AcDbEntity
  8
BEZUGSACHSEN
100
AcDbLine
 62
7
  6
CONTINUOUS
 10
116.7162826951
 20
94.8545632783
 11
117.7735879575
 21
95.1378673695
  0
LINE
  5
2B4
100
AcDbEntity
  8
0
100
AcDbLine
 62
7
  6
CONTINUOUS
 10
120.4235879575
 20
108.8128673695
 11
136.2735879575
 21
108.8128673695
  0
LINE
  5
2B5
100
AcDbEntity
  8
DEFAULT_2
100
AcDbLine
 62
8
  6
HIDDEN
 10
245.1735879575
 20
109.0128673695
 11
212.1735879575
 21
109.0128673695
  0
LINE
  5
2B6
100
AcDbEntity
  8
FASEN
100
AcDbLine
 62
7
  6
CONTINUOUS
 10
136.2735879575
 20
109.2128673695
 11
120.4235879575
 21
109.2128673695
  0
LINE
  5
2B7
100
AcDbEntity
  8
BEZUGSACHSEN
100
AcDbLine
 62
7
  6
CONTINUOUS
 10
152.5664811764
 20
94.2199741507
 11
153.4806947387
 21
93.3057605883
  0
LINE
  5
2B8
100
AcDbEntity
  8
BEZUGSACHSEN
100
AcDbLine
 62
7
  6
CONTINUOUS
 10
124.8123175588
 20
85.2378673695
 11
126.4735879575
 21
88.1152721053
  0
LINE
  5
2B9
100
AcDbEntity
  8
BEZUGSACHSEN
100
AcDbLine
 62
7
  6
CONTINUOUS
 10
124.8123175588
 20
148.7878673695
 11
126.4735879575
 21
145.9104626337
  0
LINE
  5
2BA
100
AcDbEntity
  8
RUNDUNGEN
100
AcDbLine
 62
9
  6
CONTINUOUS
 10
151.8593743952
 20
139.5128673695
 11
151.8593743952
 21
94.5128673695
  0
LINE
  5
2BB
100
AcDbEntity
  8
RUNDUNGEN
100
AcDbLine
 62
9
  6
CONTINUOUS
 10
152.5664811764
 20
139.8057605883
 11
152.5664811764
 21
94.2199741507
  0
LINE
  5
2BC
100
AcDbEntity
  8
RUNDUNGEN
100
AcDbLine
 62
9
  6
CONTINUOUS
 10
153.4806947387
 20
93.3057605883
 11
153.4806947387
 21
140.7199741507
  0
LINE
  5
2BD
100
AcDbEntity
  8
RUNDUNGEN
100
AcDbLine
 62
9
  6
CONTINUOUS
 10
154.1878015199
 20
93.0128673695
 11
154.1878015199
 21
141.0128673695
  0
LINE
  5
2BE
100
AcDbEntity
  8
BEZUGSACHSEN
100
AcDbLine
 62
7
  6
CONTINUOUS
 10
156.2311378678
 20
141.0128673695
 11
156.2311378678
 21
93.0128673695
  0
LINE
  5
2BF
100
AcDbEntity
  8
DEFAULT_1
100
AcDbLine
 62
7
  6
CENTER
 10
187.1735879575
 20
117.0128673695
 11
173.8220723366
 21
117.0128673695
  0
LINE
  5
2C0
100
AcDbEntity
  8
DEFAULT_1
100
AcDbLine
 62
7
  6
CENTER
 10
172.7068351501
 20
117.0128673695
 11
165.8521933959
 21
117.0128673695
  0
LINE
  5
2C1
100
AcDbEntity
  8
BEZUGSACHSEN
100
AcDbLine
 62
7
  6
CENTER
 10
252.1735879575
 20
117.0128673695
 11
45.7735879575
 21
117.0128673695
  0
LINE
  5
2C2
100
AcDbEntity
  8
0
100
AcDbLine
 62
9
  6
CONTINUOUS
 10
172.7068351501
 20
117.0128673695
 11
173.8220723366
 21
117.0128673695
  0
LINE
  5
2C3
100
AcDbEntity
  8
DEFAULT_1
100
AcDbLine
 62
7
  6
CENTER
 10
187.1735879575
 20
117.0128673695
 11
208.4949825192
 21
117.0128673695
  0
LINE
  5
2C4
100
AcDbEntity
  8
FASEN
100
AcDbLine
 62
7
  6
CONTINUOUS
 10
120.4235879575
 20
124.8128673695
 11
136.2735879575
 21
124.8128673695
  0
LINE
  5
2C5
100
AcDbEntity
  8
DEFAULT_2
100
AcDbLine
 62
8
  6
HIDDEN
 10
245.1735879575
 20
125.0128673695
 11
212.1735879575
 21
125.0128673695
  0
LINE
  5
2C6
100
AcDbEntity
  8
0
100
AcDbLine
 62
7
  6
CONTINUOUS
 10
120.4235879575
 20
125.2128673695
 11
136.2735879575
 21
125.2128673695
  0
LINE
  5
2C7
100
AcDbEntity
  8
BEZUGSACHSEN
100
AcDbLine
 62
7
  6
CONTINUOUS
 10
116.7162826951
 20
139.1711714607
 11
117.7735879575
 21
138.8878673695
  0
LINE
  5
2C8
100
AcDbEntity
  8
BEZUGSACHSEN
100
AcDbLine
 62
7
  6
CONTINUOUS
 10
183.3854681729
 20
137.0128673695
 11
184.6735879575
 21
137.0128673695
  0
LINE
  5
2C9
100
AcDbEntity
  8
BEZUGSACHSEN
100
AcDbLine
 62
7
  6
CONTINUOUS
 10
189.6735879575
 20
137.0128673695
 11
191.3797633593
 21
137.0128673695
  0
LINE
  5
2CA
100
AcDbEntity
  8
BEZUGSACHSEN
100
AcDbLine
 62
7
  6
CONTINUOUS
 10
197.940263883
 20
131.593076551
 11
246.8892887444
 21
129.0277668599
  0
LINE
  5
2CB
100
AcDbEntity
  8
BEZUGSACHSEN
100
AcDbLine
 62
7
  6
CONTINUOUS
 10
50.4849506192
 20
129.5116305713
 11
116.7162826951
 21
139.1711714607
  0
LINE
  5
2CC
100
AcDbEntity
  8
BEZUGSACHSEN
100
AcDbLine
 62
7
  6
CONTINUOUS
 10
117.7735879575
 20
138.8878673695
 11
119.4235879575
 21
138.8878673695
  0
LINE
  5
2CD
100
AcDbEntity
  8
BEZUGSACHSEN
100
AcDbLine
 62
7
  6
CONTINUOUS
 10
137.2735879575
 20
139.5128673695
 11
151.8593743952
 21
139.5128673695
  0
LINE
  5
2CE
100
AcDbEntity
  8
BEZUGSACHSEN
100
AcDbLine
 62
7
  6
CONTINUOUS
 10
154.1878015199
 20
141.0128673695
 11
156.2311378678
 21
141.0128673695
  0
LINE
  5
2CF
100
AcDbEntity
  8
BEZUGSACHSEN
100
AcDbLine
 62
7
  6
CONTINUOUS
 10
156.2311378678
 20
141.0128673695
 11
172.7068351501
 21
139.1202040373
  0
LINE
  5
2D0
100
AcDbEntity
  8
BEZUGSACHSEN
100
AcDbLine
 62
7
  6
CONTINUOUS
 10
173.8220723366
 20
138.9920899737
 11
181.9461015926
 21
138.0588334311
  0
LINE
  5
2D1
100
AcDbEntity
  8
BEZUGSACHSEN
100
AcDbLine
 62
9
  6
CONTINUOUS
 10
181.9461015926
 20
138.0588334311
 11
181.9461015926
 21
95.9669013079
  0
LINE
  5
2D2
100
AcDbEntity
  8
BEZUGSACHSEN
100
AcDbLine
 62
9
  6
CONTINUOUS
 10
182.5476215097
 20
137.6640603592
 11
182.5476215097
 21
96.3616743798
  0
LINE
  5
2D3
100
AcDbEntity
  8
BEZUGSACHSEN
100
AcDbLine
 62
9
  6
CONTINUOUS
 10
182.6926478499
 20
137.4128673695
 11
182.6926478499
 21
96.6128673695
  0
LINE
  5
2D4
100
AcDbEntity
  8
BEZUGSACHSEN
100
AcDbLine
 62
9
  6
CONTINUOUS
 10
183.3854681729
 20
137.0128673695
 11
183.3854681729
 21
97.0128673695
  0
LINE
  5
2D5
100
AcDbEntity
  8
BEZUGSACHSEN
100
AcDbLine
 62
7
  6
CONTINUOUS
 10
126.9735879575
 20
145.1378673695
 11
129.7235879575
 21
145.1378673695
  0
LINE
  5
2D6
100
AcDbEntity
  8
BEZUGSACHSEN
100
AcDbLine
 62
7
  6
CONTINUOUS
 10
121.4235879575
 20
148.7878673695
 11
124.8123175588
 21
148.7878673695
  0
LINE
  5
2D7
100
AcDbEntity
  8
BEZUGSACHSEN
100
AcDbLine
 62
7
  6
CONTINUOUS
 10
131.8848583563
 20
148.7878673695
 11
135.2735879575
 21
148.7878673695
  0
LWPOLYLINE
  5
2D8
100
AcDbEntity
  8
0
100
AcDbPolyline
 62
7
  6
CONTINUOUS
 90
8
 70
0
 10
175.1859869228
 20
138.6248948569
 10
175.1925380037
 20
138.6226954312
 10
175.1941698878
 20
138.6221255399
 10
175.1882040722
 20
138.6244596092
 10
175.1751532073
 20
138.629962314
 10
175.155081271
 20
138.6391403342
 10
175.1296170449
 20
138.65179909
 10
175.1161196198
 20
138.6589280289
  0
LINE
  5
2D9
100
AcDbEntity
  8
DEFAULT_1
100
AcDbLine
 62
7
  6
CENTER
 10
187.1735879575
 20
117.0128673695
 11
187.1735879575
 21
95.6914728078
  0
LINE
  5
2DA
100
AcDbEntity
  8
DEFAULT_1
100
AcDbLine
 62
7
  6
CENTER
 10
187.1735879575
 20
117.0128673695
 11
187.1735879575
 21
138.3342619312
  0
LINE
  5
2DB
100
AcDbEntity
  8
BEZUGSACHSEN
100
AcDbLine
 62
9
  6
CONTINUOUS
 10
191.3797633593
 20
137.0128673695
 11
191.3797633593
 21
97.0128673695
  0
LINE
  5
2DC
100
AcDbEntity
  8
BEZUGSACHSEN
100
AcDbLine
 62
9
  6
CONTINUOUS
 10
192.0868701405
 20
136.7199741507
 11
192.0868701405
 21
97.3057605883
  0
LINE
  5
2DD
100
AcDbEntity
  8
BEZUGSACHSEN
100
AcDbLine
 62
7
  6
CONTINUOUS
 10
182.5476215097
 20
96.3616743798
 11
182.6926478499
 21
96.6128673695
  0
LINE
  5
2DE
100
AcDbEntity
  8
BEZUGSACHSEN
100
AcDbLine
 62
7
  6
CONTINUOUS
 10
182.5476215097
 20
137.6640603592
 11
182.6926478499
 21
137.4128673695
  0
LINE
  5
2DF
100
AcDbEntity
  8
BEZUGSACHSEN
100
AcDbLine
 62
9
  6
CONTINUOUS
 10
196.6307222331
 20
132.1761220581
 11
196.6307222331
 21
101.8496126809
  0
LINE
  5
2E0
100
AcDbEntity
  8
BEZUGSACHSEN
100
AcDbLine
 62
9
  6
CONTINUOUS
 10
197.940263883
 20
131.593076551
 11
197.940263883
 21
102.432658188
  0
LINE
  5
2E1
100
AcDbEntity
  8
BEZUGSACHSEN
100
AcDbLine
 62
7
  6
CONTINUOUS
 10
192.0868701405
 20
97.3057605883
 11
196.6307222331
 21
101.8496126809
  0
LINE
  5
2E2
100
AcDbEntity
  8
BEZUGSACHSEN
100
AcDbLine
 62
7
  6
CONTINUOUS
 10
192.0868701405
 20
136.7199741507
 11
196.6307222331
 21
132.1761220581
  0
LINE
  5
2E3
100
AcDbEntity
  8
DEFAULT_2
100
AcDbLine
 62
8
  6
HIDDEN
 10
212.1735879575
 20
125.0128673695
 11
212.1735879575
 21
109.0128673695
  0
LINE
  5
2E4
100
AcDbEntity
  8
BEZUGSACHSEN
100
AcDbLine
 62
9
  6
CONTINUOUS
 10
246.8892887444
 20
129.0277668599
 11
246.8892887444
 21
104.9979678791
  0
LINE
  5
2E5
100
AcDbEntity
  8
BEZUGSACHSEN
100
AcDbLine
 62
7
  6
CONTINUOUS
 10
247.1735879575
 20
128.7281779995
 11
247.1735879575
 21
105.2975567395
  0
CIRCLE
  5
2E6
100
AcDbEntity
  8
BEZUGSACHSEN
100
AcDbCircle
 62
7
  6
CONTINUOUS
 10
128.2735879575
 20
117.0128673695
 40
5.0
  0
CIRCLE
  5
2E7
100
AcDbEntity
  8
BEZUGSACHSEN
100
AcDbCircle
 62
7
  6
CONTINUOUS
 10
128.2735879575
 20
117.0128673695
 40
4.7
  0
CIRCLE
  5
2E8
100
AcDbEntity
  8
BEZUGSACHSEN
100
AcDbCircle
 62
7
  6
CONTINUOUS
 10
128.2735879575
 20
117.0128673695
 40
2.0
  0
ARC
  5
2E9
100
AcDbEntity
  8
BEZUGSACHSEN
100
AcDbCircle
 62
7
  6
CONTINUOUS
 10
50.7735879575
 20
106.493166695
 40
2.0
100
AcDbArc
 50
180.0
 51
261.7021731718
  0
ARC
  5
2EA
100
AcDbEntity
  8
BEZUGSACHSEN
100
AcDbCircle
 62
7
  6
CONTINUOUS
 10
121.4235879575
 20
86.2378673695
 40
1.0
100
AcDbArc
 50
180.0
 51
270.0
  0
ARC
  5
2EB
100
AcDbEntity
  8
BEZUGSACHSEN
100
AcDbCircle
 62
7
  6
CONTINUOUS
 10
119.4235879575
 20
94.1378673695
 40
1.0
100
AcDbArc
 50
0.0
 51
90.0
  0
ARC
  5
2EC
100
AcDbEntity
  8
BEZUGSACHSEN
100
AcDbCircle
 62
7
  6
CONTINUOUS
 10
126.9735879575
 20
88.3878673695
 40
0.5
100
AcDbArc
 50
90.0
 51
180.0
  0
ARC
  5
2ED
100
AcDbEntity
  8
0
100
AcDbCircle
 62
7
  6
CONTINUOUS
 10
-47.1471186445
 20
171.9802948216
 40
189.9972240794
100
AcDbArc
 50
334.8317727047
 51
336.0368933894
  0
ARC
  5
2EE
100
AcDbEntity
  8
BEZUGSACHSEN
100
AcDbCircle
 62
7
  6
CONTINUOUS
 10
50.7735879575
 20
127.532568044
 40
2.0
100
AcDbArc
 50
98.2978268282
 51
180.0
  0
ARC
  5
2EF
100
AcDbEntity
  8
BEZUGSACHSEN
100
AcDbCircle
 62
7
  6
CONTINUOUS
 10
121.4235879575
 20
147.7878673695
 40
1.0
100
AcDbArc
 50
90.0
 51
180.0
  0
ARC
  5
2F0
100
AcDbEntity
  8
BEZUGSACHSEN
100
AcDbCircle
 62
7
  6
CONTINUOUS
 10
119.4235879575
 20
139.8878673695
 40
1.0
100
AcDbArc
 50
270.0
 51
360.0
  0
ARC
  5
2F1
100
AcDbEntity
  8
BEZUGSACHSEN
100
AcDbCircle
 62
7
  6
CONTINUOUS
 10
126.9735879575
 20
145.6378673695
 40
0.5
100
AcDbArc
 50
180.0
 51
270.0
  0
ARC
  5
2F2
100
AcDbEntity
  8
0
100
AcDbCircle
 62
7
  6
CONTINUOUS
 10
169.4894706056
 20
122.9366570905
 40
28.2151639816
100
AcDbArc
 50
276.5476584209
 51
277.6910026713
  0
ARC
  5
2F3
100
AcDbEntity
  8
0
100
AcDbCircle
 62
7
  6
CONTINUOUS
 10
170.6275741544
 20
111.2193242757
 40
27.9558815662
100
AcDbArc
 50
83.4385206059
 51
84.5854437614
  0
ARC
  5
2F4
100
AcDbEntity
  8
GEWINDE
100
AcDbCircle
 62
7
  6
CONTINUOUS
 10
187.1735895121
 20
77.1688126374
 40
20.0007694091
100
AcDbArc
 50
82.8195780366
 51
97.1804308004
  0
ARC
  5
2F5
100
AcDbEntity
  8
0
100
AcDbCircle
 62
7
  6
CONTINUOUS
 10
171.4532832222
 20
113.0777355173
 40
18.1918151957
100
AcDbArc
 50
273.7143326831
 51
274.1288100687
  0
CIRCLE
  5
2F6
100
AcDbEntity
  8
0
100
AcDbCircle
 62
2
  6
CONTINUOUS
 10
187.1735879635
 20
117.0128673695
 40
2.9999999941
  0
CIRCLE
  5
2F7
100
AcDbEntity
  8
GEWINDE
100
AcDbCircle
 62
7
  6
CONTINUOUS
 10
187.1735879575
 20
117.0128673695
 40
2.5
  0
ARC
  5
2F8
100
AcDbEntity
  8
BEZUGSACHSEN
100
AcDbCircle
 62
7
  6
CONTINUOUS
 10
198.0449357955
 20
100.4353991185
 40
2.0
100
AcDbArc
 50
93.0
 51
135.0
  0
ARC
  5
2F9
100
AcDbEntity
  8
RUNDUNGEN
100
AcDbCircle
 62
7
  6
CONTINUOUS
 10
154.1878015199
 20
94.0128673695
 40
1.0
100
AcDbArc
 50
225.0
 51
270.0
  0
ARC
  5
2FA
100
AcDbEntity
  8
RUNDUNGEN
100
AcDbCircle
 62
7
  6
CONTINUOUS
 10
151.8593743952
 20
93.5128673695
 40
1.0
100
AcDbArc
 50
45.0
 51
90.0
  0
ARC
  5
2FB
100
AcDbEntity
  8
RUNDUNGEN
100
AcDbCircle
 62
7
  6
CONTINUOUS
 10
137.2735879575
 20
93.5128673695
 40
1.0
100
AcDbArc
 50
90.0
 51
180.0
  0
ARC
  5
2FC
100
AcDbEntity
  8
BEZUGSACHSEN
100
AcDbCircle
 62
7
  6
CONTINUOUS
 10
191.3797633593
 20
98.0128673695
 40
1.0
100
AcDbArc
 50
270.0
 51
315.0
  0
ARC
  5
2FD
100
AcDbEntity
  8
BEZUGSACHSEN
100
AcDbCircle
 62
7
  6
CONTINUOUS
 10
135.2735879575
 20
86.2378673695
 40
1.0
100
AcDbArc
 50
270.0
 51
360.0
  0
ARC
  5
2FE
100
AcDbEntity
  8
BEZUGSACHSEN
100
AcDbCircle
 62
7
  6
CONTINUOUS
 10
181.8548011866
 20
96.7616743798
 40
0.8
100
AcDbArc
 50
276.5531882408
 51
330.0
  0
ARC
  5
2FF
100
AcDbEntity
  8
BEZUGSACHSEN
100
AcDbCircle
 62
7
  6
CONTINUOUS
 10
183.3854681729
 20
96.2128673695
 40
0.8
100
AcDbArc
 50
90.0
 51
150.0
  0
ARC
  5
300
100
AcDbEntity
  8
0
100
AcDbCircle
 62
7
  6
CONTINUOUS
 10
171.5707716367
 20
95.4363933828
 40
0.5157521083
100
AcDbArc
 50
249.2990087257
 51
254.4082791764
  0
ARC
  5
301
100
AcDbEntity
  8
BEZUGSACHSEN
100
AcDbCircle
 62
7
  6
CONTINUOUS
 10
129.7235879575
 20
88.3878673695
 40
0.5
100
AcDbArc
 50
0.0
 51
90.0
  0
ARC
  5
302
100
AcDbEntity
  8
BEZUGSACHSEN
100
AcDbCircle
 62
7
  6
CONTINUOUS
 10
246.8735879575
 20
105.2975567395
 40
0.3
100
AcDbArc
 50
273.0
 51
360.0
  0
ARC
  5
303
100
AcDbEntity
  8
0
100
AcDbCircle
 62
7
  6
CONTINUOUS
 10
303.8442945592
 20
171.9802948204
 40
189.9972240794
100
AcDbArc
 50
203.9631066104
 51
205.168227295
  0
ARC
  5
304
100
AcDbEntity
  8
GEWINDE
100
AcDbCircle
 62
7
  6
CONTINUOUS
 10
187.1735879573
 20
156.8570167534
 40
20.0008637939
100
AcDbArc
 50
262.8196075102
 51
277.1803924911
  0
ARC
  5
305
100
AcDbEntity
  8
BEZUGSACHSEN
100
AcDbCircle
 62
7
  6
CONTINUOUS
 10
198.0449357955
 20
133.5903356205
 40
2.0
100
AcDbArc
 50
225.0
 51
267.0
  0
ARC
  5
306
100
AcDbEntity
  8
RUNDUNGEN
100
AcDbCircle
 62
7
  6
CONTINUOUS
 10
154.1878015199
 20
140.0128673695
 40
1.0
100
AcDbArc
 50
90.0
 51
135.0
  0
ARC
  5
307
100
AcDbEntity
  8
RUNDUNGEN
100
AcDbCircle
 62
7
  6
CONTINUOUS
 10
151.8593743952
 20
140.5128673695
 40
1.0
100
AcDbArc
 50
270.0
 51
315.0
  0
ARC
  5
308
100
AcDbEntity
  8
RUNDUNGEN
100
AcDbCircle
 62
7
  6
CONTINUOUS
 10
137.2735879575
 20
140.5128673695
 40
1.0
100
AcDbArc
 50
180.0
 51
270.0
  0
ARC
  5
309
100
AcDbEntity
  8
BEZUGSACHSEN
100
AcDbCircle
 62
7
  6
CONTINUOUS
 10
191.3797633593
 20
136.0128673695
 40
1.0
100
AcDbArc
 50
45.0
 51
90.0
  0
ARC
  5
30A
100
AcDbEntity
  8
BEZUGSACHSEN
100
AcDbCircle
 62
7
  6
CONTINUOUS
 10
135.2735879575
 20
147.7878673695
 40
1.0
100
AcDbArc
 50
0.0
 51
90.0
  0
ARC
  5
30B
100
AcDbEntity
  8
BEZUGSACHSEN
100
AcDbCircle
 62
7
  6
CONTINUOUS
 10
181.8548011866
 20
137.2640603592
 40
0.8
100
AcDbArc
 50
30.0
 51
83.4468117592
  0
ARC
  5
30C
100
AcDbEntity
  8
BEZUGSACHSEN
100
AcDbCircle
 62
7
  6
CONTINUOUS
 10
183.3854681729
 20
137.8128673695
 40
0.8
100
AcDbArc
 50
210.0
 51
270.0
  0
ARC
  5
30D
100
AcDbEntity
  8
BEZUGSACHSEN
100
AcDbCircle
 62
7
  6
CONTINUOUS
 10
129.7235879575
 20
145.6378673695
 40
0.5
100
AcDbArc
 50
270.0
 51
360.0
  0
ARC
  5
30E
100
AcDbEntity
  8
0
100
AcDbCircle
 62
7
  6
CONTINUOUS
 10
174.909776209
 20
138.278756373
 40
0.4328950268
100
AcDbArc
 50
61.067867325
 51
61.4919833015
  0
ARC
  5
30F
100
AcDbEntity
  8
0
100
AcDbCircle
 62
7
  6
CONTINUOUS
 10
174.9151050884
 20
138.2883943787
 40
0.4218819388
100
AcDbArc
 50
60.5849709913
 51
61.0680289556
  0
ARC
  5
310
100
AcDbEntity
  8
BEZUGSACHSEN
100
AcDbCircle
 62
7
  6
CONTINUOUS
 10
246.8735879575
 20
128.7281779995
 40
0.3
100
AcDbArc
 50
0.0
 51
87.0
  0
SPLINE
  5
311
100
AcDbEntity
  8
0
100
AcDbSpline
 62
2
  6
CONTINUOUS
 70
0
 71
3
 72
29
 73
25
 74
23
 42
0.0000001
 43
0.0000001
 44
0.0000000001
 12
-0.035098428
 22
0.0052647279
 32
0.0
 13
-0.0356710947
 23
-0.0053506261
 33
0.0
 40
0.0
 40
0.0
 40
0.0
 40
0.0
 40
0.0454545455
 40
0.0909090909
 40
0.1363636364
 40
0.1818181818
 40
0.2272727273
 40
0.2727272727
 40
0.3181818182
 40
0.3636363636
 40
0.4090909091
 40
0.4545454545
 40
0.5
 40
0.5454545455
 40
0.5909090909
 40
0.6363636364
 40
0.6818181818
 40
0.7272727273
 40
0.7727272727
 40
0.8181818182
 40
0.8636363636
 40
0.9090909091
 40
0.9545454545
 40
1.0
 40
1.0
 40
1.0
 40
1.0
 10
190.1735668321
 20
97.012870459
 30
0.0
 10
190.1730350377
 20
97.0129502276
 30
0.0
 10
190.1519042749
 20
97.0161354852
 30
0.0
 10
190.0597348544
 20
97.0297430239
 30
0.0
 10
189.9097882097
 20
97.0509932285
 30
0.0
 10
189.7027110765
 20
97.0785020606
 30
0.0
 10
189.4457192977
 20
97.109693144
 30
0.0
 10
189.1394501708
 20
97.1425449049
 30
0.0
 10
188.7963568173
 20
97.1737651065
 30
0.0
 10
188.4176329906
 20
97.2013316562
 30
0.0
 10
188.0175607974
 20
97.2225595514
 30
0.0
 10
187.5990026403
 20
97.2360845983
 30
0.0
 10
187.173676266
 20
97.2406779353
 30
0.0
 10
186.7483417075
 20
97.2360882767
 30
0.0
 10
186.3297826059
 20
97.222566668
 30
0.0
 10
185.929707578
 20
97.2013421237
 30
0.0
 10
185.5509598949
 20
97.1737766547
 30
0.0
 10
185.2078713197
 20
97.1425594204
 30
0.0
 10
184.9015597763
 20
97.1097050202
 30
0.0
 10
184.6445732032
 20
97.0785158601
 30
0.0
 10
184.4374514145
 20
97.0510020695
 30
0.0
 10
184.2874959451
 20
97.0297509706
 30
0.0
 10
184.1952927971
 20
97.0161386781
 30
0.0
 10
184.174150253
 20
97.0129516313
 30
0.0
 10
184.1736097819
 20
97.0128705612
 30
0.0
 11
190.1735668321
 21
97.012870459
 31
0.0
 11
190.1418253955
 21
97.0176070939
 31
0.0
 11
190.0501053171
 21
97.0310168016
 31
0.0
 11
189.9002664616
 21
97.0520363331
 31
0.0
 11
189.6943919689
 21
97.0791157692
 31
0.0
 11
189.4375064063
 21
97.1099699236
 31
0.0
 11
189.1333127997
 21
97.1422729784
 31
0.0
 11
188.7904184051
 21
97.1731561645
 31
0.0
 11
188.4140749295
 21
97.2002752138
 31
0.0
 11
188.0144798034
 21
97.2212757433
 31
0.0
 11
187.5978746041
 21
97.23459598
 31
0.0
 11
187.173674902
 21
97.239147436
 31
0.0
 11
186.7494709503
 21
97.2345996184
 31
0.0
 11
186.3328632849
 21
97.2212828454
 31
0.0
 11
185.9332621355
 21
97.2002853029
 31
0.0
 11
185.5569030796
 21
97.1731680272
 31
0.0
 11
185.214000825
 21
97.1422865594
 31
0.0
 11
184.9097806047
 21
97.1099825602
 31
0.0
 11
184.6528840006
 21
97.0791284217
 31
0.0
 11
184.4469791344
 21
97.0520458515
 31
0.0
 11
184.297121332
 21
97.031024105
 31
0.0
 11
184.2053743524
 21
97.0176106318
 31
0.0
 11
184.1736097819
 21
97.0128705612
 31
0.0
  0
SPLINE
  5
312
100
AcDbEntity
  8
0
100
AcDbSpline
 62
2
  6
CONTINUOUS
 70
0
 71
3
 72
29
 73
25
 74
23
 42
0.0000001
 43
0.0000001
 44
0.0000000001
 12
0.03564117
 22
-0.0053461375
 32
0.0
 13
0.0356450166
 23
0.0053467145
 33
0.0
 40
0.0
 40
0.0
 40
0.0
 40
0.0
 40
0.0454545455
 40
0.0909090909
 40
0.1363636364
 40
0.1818181818
 40
0.2272727273
 40
0.2727272727
 40
0.3181818182
 40
0.3636363636
 40
0.4090909091
 40
0.4545454545
 40
0.5
 40
0.5454545455
 40
0.5909090909
 40
0.6363636364
 40
0.6818181818
 40
0.7272727273
 40
0.7727272727
 40
0.8181818182
 40
0.8636363636
 40
0.9090909091
 40
0.9545454545
 40
1.0
 40
1.0
 40
1.0
 40
1.0
 10
184.1736097463
 20
137.012864183
 30
0.0
 10
184.174149764
 20
137.012783181
 30
0.0
 10
184.1952920551
 20
137.0095961939
 30
0.0
 10
184.2874766966
 20
136.9959865448
 30
0.0
 10
184.437432889
 20
136.9747352882
 30
0.0
 10
184.6445147933
 20
136.9472263579
 30
0.0
 10
184.9015079208
 20
136.9160356292
 30
0.0
 10
185.2077997431
 20
136.8831825763
 30
0.0
 10
185.5508688571
 20
136.8519654706
 30
0.0
 10
185.9296267331
 20
136.8243979078
 30
0.0
 10
186.3296551843
 20
136.8031734366
 30
0.0
 10
186.7482558262
 20
136.7896484427
 30
0.0
 10
187.1735246574
 20
136.785056868
 30
0.0
 10
187.5989047262
 20
136.7896479025
 30
0.0
 10
188.0174227577
 20
136.8031694627
 30
0.0
 10
188.4175196858
 20
136.8243957891
 30
0.0
 10
188.796242378
 20
136.8519603496
 30
0.0
 10
189.1393362603
 20
136.8831784395
 30
0.0
 10
189.4456340955
 20
136.9160318311
 30
0.0
 10
189.7026176471
 20
136.9472207791
 30
0.0
 10
189.9097330756
 20
136.9747338659
 30
0.0
 10
190.0596844205
 20
136.9959844159
 30
0.0
 10
190.1518847358
 20
137.0095963046
 30
0.0
 10
190.1730260886
 20
137.0127831716
 30
0.0
 10
190.1735661647
 20
137.0128641824
 30
0.0
 11
184.1736097463
 21
137.012864183
 31
0.0
 11
184.2053705892
 21
137.0081246658
 31
0.0
 11
184.2971052884
 21
136.9947129436
 31
0.0
 11
184.446953841
 21
136.9736923426
 31
0.0
 11
184.6528333305
 21
136.9466127248
 31
0.0
 11
184.9097243699
 21
136.9157585751
 31
0.0
 11
185.2139292917
 21
136.8834552341
 31
0.0
 11
185.5568169841
 21
136.8525737277
 31
0.0
 11
185.933171829
 21
136.8254550897
 31
0.0
 11
186.3327505494
 21
136.8044566828
 31
0.0
 11
186.7493671911
 21
136.7911373459
 31
0.0
 11
187.173543197
 21
136.7865873028
 31
0.0
 11
187.5977610533
 21
136.7911363235
 31
0.0
 11
188.0143525738
 21
136.8044535904
 31
0.0
 11
188.4139573131
 21
136.8254521615
 31
0.0
 11
188.790304243
 21
136.8525692712
 31
0.0
 11
189.1332035858
 21
136.8834509898
 31
0.0
 11
189.4374150483
 21
136.9157544238
 31
0.0
 11
189.6943062933
 21
136.9466081356
 31
0.0
 11
189.9002057283
 21
136.9736901098
 31
0.0
 11
190.0500592489
 21
136.9947113057
 31
0.0
 11
190.1418033548
 21
137.0081243732
 31
0.0
 11
190.1735661647
 21
137.0128641824
 31
0.0
  0
SPLINE
  5
313
100
AcDbEntity
  8
BEZUGSACHSEN
100
AcDbSpline
 62
7
  6
CONTINUOUS
 70
0
 71
3
 72
19
 73
15
 74
13
 42
0.0000001
 43
0.0000001
 44
0.0000000001
 12
-0.8939002816
 22
0.3305664543
 32
0.0
 13
-0.0
 23
0.9530644753
 33
0.0
 40
0.0
 40
0.0
 40
0.0
 40
0.0
 40
0.1217181457
 40
0.2412117709
 40
0.3499481467
 40
0.4477039725
 40
0.5373829645
 40
0.6199208207
 40
0.6964779373
 40
0.7678297527
 40
0.8343908613
 40
0.8961956983
 40
0.9521075556
 40
1.0
 40
1.0
 40
1.0
 40
1.0
 10
126.9735879575
 20
142.9097209624
 30
0.0
 10
126.937319996
 20
142.9231329411
 30
0.0
 10
126.8683121933
 20
142.9579102888
 30
0.0
 10
126.7793772349
 20
143.0253680181
 30
0.0
 10
126.7064818818
 20
143.0993322525
 30
0.0
 10
126.6483922154
 20
143.173553625
 30
0.0
 10
126.6020568318
 20
143.2458558061
 30
0.0
 10
126.5649299913
 20
143.3157119855
 30
0.0
 10
126.5353598877
 20
143.3827502977
 30
0.0
 10
126.5121717954
 20
143.4468723388
 30
0.0
 10
126.4946292561
 20
143.5078967872
 30
0.0
 10
126.4823792873
 20
143.5651964661
 30
0.0
 10
126.4752753346
 20
143.6173791896
 30
0.0
 10
126.4735879575
 20
143.6503661999
 30
0.0
 10
126.4735879575
 20
143.6655810624
 30
0.0
 11
126.9735879575
 21
142.9097209624
 31
0.0
 11
126.8696381954
 21
142.9612152613
 31
0.0
 11
126.7785529854
 21
143.0295768527
 31
0.0
 11
126.7055999313
 21
143.10318123
 31
0.0
 11
126.6480574555
 21
143.1764551412
 31
0.0
 11
126.601876816
 21
143.2483748586
 31
0.0
 11
126.5649333532
 21
143.3178240451
 31
0.0
 11
126.535492334
 21
143.3845844558
 31
0.0
 11
126.5124025267
 21
143.4485473557
 31
0.0
 11
126.4949487313
 21
143.5095360559
 31
0.0
 11
126.4827526942
 21
143.5671636296
 31
0.0
 11
126.475733632
 21
143.6199869352
 31
0.0
 11
126.4735879575
 21
143.6655810624
 31
0.0
  0
SPLINE
  5
314
100
AcDbEntity
  8
BEZUGSACHSEN
100
AcDbSpline
 62
7
  6
CONTINUOUS
 70
0
 71
3
 72
18
 73
14
 74
12
 42
0.0000001
 43
0.0000001
 44
0.0000000001
 12
-2.6242089124
 22
-0.9704387092
 32
0.0
 13
-2.6242089124
 23
0.9704387092
 33
0.0
 40
0.0
 40
0.0
 40
0.0
 40
0.0
 40
0.0799679098
 40
0.1663286595
 40
0.257944786
 40
0.3532485422
 40
0.4508026001
 40
0.549197501
 40
0.6467509057
 40
0.7420528253
 40
0.8336699519
 40
0.920031171
 40
1.0
 40
1.0
 40
1.0
 40
1.0
 10
129.7235879575
 20
142.9097209624
 30
0.0
 10
129.6536371236
 20
142.8838529774
 30
0.0
 10
129.505748863
 20
142.8364080574
 30
0.0
 10
129.2718249303
 20
142.7795419184
 30
0.0
 10
129.020623956
 20
142.7354602465
 30
0.0
 10
128.7568736063
 20
142.7053798522
 30
0.0
 10
128.4855246607
 20
142.6901265037
 30
0.0
 10
128.2116515815
 20
142.6901265116
 30
0.0
 10
127.9403049549
 20
142.7053796947
 30
0.0
 10
127.6765559675
 20
142.7354596984
 30
0.0
 10
127.4253552693
 20
142.7795409851
 30
0.0
 10
127.191429118
 20
142.8364074354
 30
0.0
 10
127.0435395954
 20
142.8838526801
 30
0.0
 10
126.9735879575
 20
142.9097209624
 30
0.0
 11
129.7235879575
 21
142.9097209624
 31
0.0
 11
129.5107507695
 21
142.8407225732
 31
0.0
 11
129.2760742463
 21
142.7831793396
 31
0.0
 11
129.0236568348
 21
142.7385501953
 31
0.0
 11
128.7587475581
 21
142.7081312545
 31
0.0
 11
128.486237181
 21
142.6927141067
 31
0.0
 11
128.2109384518
 21
142.6927141147
 31
0.0
 11
127.9384298973
 21
142.708131123
 31
0.0
 11
127.6735256978
 21
142.7385492342
 31
0.0
 11
127.4211054733
 21
142.7831785404
 31
0.0
 11
127.1864276217
 21
142.8407218722
 31
0.0
 11
126.9735879575
 21
142.9097209624
 31
0.0
  0
SPLINE
  5
315
100
AcDbEntity
  8
0
100
AcDbSpline
 62
7
  6
CONTINUOUS
 70
0
 71
3
 72
13
 73
9
 74
7
 42
0.0000001
 43
0.0000001
 44
0.0000000001
 12
1.1663150242
 22
-0.326311752
 32
0.0
 13
1.2018478486
 23
0.0779287436
 33
0.0
 40
0.0
 40
0.0
 40
0.0
 40
0.0
 40
0.0678350117
 40
0.2293086837
 40
0.4385920282
 40
0.6656456961
 40
0.8899559633
 40
1.0
 40
1.0
 40
1.0
 40
1.0
 10
171.4321474539
 20
94.9396202221
 30
0.0
 10
171.458519785
 20
94.9322417683
 30
0.0
 10
171.545951176
 20
94.9150251501
 30
0.0
 10
171.7241602566
 20
94.9001698555
 30
0.0
 10
171.9631458786
 20
94.8964006514
 30
0.0
 10
172.2286638263
 20
94.9023736432
 30
0.0
 10
172.4537226334
 20
94.9131089609
 30
0.0
 10
172.5876988579
 20
94.9212747146
 30
0.0
 10
172.6317842541
 20
94.9241332458
 30
0.0
 11
171.4321474539
 21
94.9396202221
 31
0.0
 11
171.5107508421
 21
94.9228825633
 31
0.0
 11
171.7042733622
 21
94.9037277453
 31
0.0
 11
171.9562564524
 21
94.8980531388
 31
0.0
 11
172.2296495769
 21
94.9035498681
 31
0.0
 11
172.4995026956
 21
94.9160915909
 31
0.0
 11
172.6317842541
 21
94.9241332458
 31
0.0
  0
SPLINE
  5
316
100
AcDbEntity
  8
0
100
AcDbSpline
 62
7
  6
CONTINUOUS
 70
0
 71
3
 72
11
 73
7
 74
5
 42
0.0000001
 43
0.0000001
 44
0.0000000001
 12
1.0611160386
 22
0.0765158148
 32
0.0
 13
1.0568777515
 23
0.1214099611
 33
0.0
 40
0.0
 40
0.0
 40
0.0
 40
0.0
 40
0.2469665763
 40
0.4954858702
 40
0.7462702515
 40
1.0
 40
1.0
 40
1.0
 40
1.0
 10
172.763075342
 20
94.9331334352
 30
0.0
 10
172.8504287404
 20
94.9394323848
 30
0.0
 10
173.0255885004
 20
94.9532537856
 30
0.0
 10
173.2891564053
 20
94.9770637996
 30
0.0
 10
173.5548526224
 20
95.0037833234
 30
0.0
 10
173.7326852279
 20
95.0233763257
 30
0.0
 10
173.8220723366
 20
95.0336447653
 30
0.0
 11
172.763075342
 21
94.9331334352
 31
0.0
 11
173.0249988683
 21
94.9537041766
 31
0.0
 11
173.2883136623
 21
94.9774340126
 31
0.0
 11
173.5537695575
 21
95.0040967834
 31
0.0
 11
173.8220723366
 21
95.0336447653
 31
0.0
  0
SPLINE
  5
317
100
AcDbEntity
  8
0
100
AcDbSpline
 62
7
  6
CONTINUOUS
 70
0
 71
3
 72
17
 73
13
 74
11
 42
0.0000001
 43
0.0000001
 44
0.0000000001
 12
3.5320901899
 22
1.8973976037
 32
0.0
 13
3.5888550138
 23
1.8127787243
 33
0.0
 40
0.0
 40
0.0
 40
0.0
 40
0.0
 40
0.0422538301
 40
0.1144220674
 40
0.1999507146
 40
0.2972521015
 40
0.4049346212
 40
0.5209439651
 40
0.6427216894
 40
0.7677563471
 40
0.8927009859
 40
1.0
 40
1.0
 40
1.0
 40
1.0
 10
170.4467455681
 20
95.0977312297
 30
0.0
 10
170.496493681
 20
95.124455335
 30
0.0
 10
170.6357947953
 20
95.1908700264
 30
0.0
 10
170.8813010741
 20
95.2968745449
 30
0.0
 10
171.19926135
 20
95.422713616
 30
0.0
 10
171.563234934
 20
95.560645504
 30
0.0
 10
171.9666267377
 20
95.7100453507
 30
0.0
 10
172.4006704282
 20
95.8710350476
 30
0.0
 10
172.8553012455
 20
96.0433982197
 30
0.0
 10
173.3184745154
 20
96.2269013764
 30
0.0
 10
173.7591855043
 20
96.4141544391
 30
0.0
 10
174.0409355642
 20
96.5466003697
 30
0.0
 10
174.1692957658
 20
96.6114368264
 30
0.0
 11
170.4467455681
 21
95.0977312297
 31
0.0
 11
170.5995383348
 21
95.1727220381
 31
0.0
 11
170.8655267825
 21
95.2885806004
 31
0.0
 11
171.1848200682
 21
95.4161556146
 31
0.0
 11
171.5504057313
 21
95.5552844415
 31
0.0
 11
171.9561462992
 21
95.7061994823
 31
0.0
 11
172.3932337499
 21
95.8688597683
 31
0.0
 11
172.8507912426
 21
96.0429654036
 31
0.0
 11
173.3178124089
 21
96.2288532339
 31
0.0
 11
173.7795834039
 21
96.4265067789
 31
0.0
 11
174.1692957658
 21
96.6114368264
 31
0.0
  0
SPLINE
  5
318
100
AcDbEntity
  8
0
100
AcDbSpline
 62
7
  6
CONTINUOUS
 70
0
 71
3
 72
17
 73
13
 74
11
 42
0.0000001
 43
0.0000001
 44
0.0000000001
 12
-3.3697313379
 22
-0.9136187466
 32
0.0
 13
-3.3864898402
 23
-0.8674751175
 33
0.0
 40
0.0
 40
0.0
 40
0.0
 40
0.0
 40
0.043245437
 40
0.1237843329
 40
0.2182481252
 40
0.3250390612
 40
0.442729866
 40
0.5690881547
 40
0.7013916302
 40
0.8368935761
 40
0.9715828399
 40
1.0
 40
1.0
 40
1.0
 40
1.0
 10
176.0330418427
 20
138.2799560433
 30
0.0
 10
175.9844666746
 20
138.266786096
 30
0.0
 10
175.8430972862
 20
138.2344919376
 30
0.0
 10
175.5938285282
 20
138.1866141732
 30
0.0
 10
175.2695710527
 20
138.1339071761
 30
0.0
 10
174.9021296389
 20
138.0789398725
 30
0.0
 10
174.4975996099
 20
138.0202424518
 30
0.0
 10
174.0639272429
 20
137.9555652271
 30
0.0
 10
173.6105061867
 20
137.8826833711
 30
0.0
 10
173.1490728894
 20
137.7989094082
 30
0.0
 10
172.8088710591
 20
137.7257093274
 30
0.0
 10
172.6244451116
 20
137.6797427184
 30
0.0
 10
172.5923669703
 20
137.6715256586
 30
0.0
 11
176.0330418427
 21
138.2799560433
 31
0.0
 11
175.8856876324
 21
138.2448487041
 31
0.0
 11
175.609415483
 21
138.1908673119
 31
0.0
 11
175.2836955178
 21
138.1368646584
 31
0.0
 11
174.9146369496
 21
138.0810741739
 31
0.0
 11
174.5076348911
 21
138.0214344794
 31
0.0
 11
174.0708992928
 21
137.9557814018
 31
0.0
 11
173.6144406523
 21
137.8817561426
 31
0.0
 11
173.1486265542
 21
137.7962258933
 31
0.0
 11
172.6887506928
 21
137.6955781383
 31
0.0
 11
172.5923669703
 21
137.6715256586
 31
0.0
  0
SPLINE
  5
319
100
AcDbEntity
  8
0
100
AcDbSpline
 62
7
  6
CONTINUOUS
 70
0
 71
3
 72
13
 73
9
 74
7
 42
0.0000001
 43
0.0000001
 44
0.0000000001
 12
-1.167605986
 22
0.634193716
 32
0.0
 13
-1.3224443224
 23
0.2115673512
 33
0.0
 40
0.0
 40
0.0
 40
0.0
 40
0.0
 40
0.0454339898
 40
0.1845197794
 40
0.3726405453
 40
0.5843709191
 40
0.7969831112
 40
1.0
 40
1.0
 40
1.0
 40
1.0
 10
175.116389091
 20
138.6591630254
 30
0.0
 10
175.0987060915
 20
138.6687676757
 30
0.0
 10
175.0258447586
 20
138.701941295
 30
0.0
 10
174.8660854408
 20
138.7565742415
 30
0.0
 10
174.6338366672
 20
138.8158702773
 30
0.0
 10
174.3661281886
 20
138.873166032
 30
0.0
 10
174.0908460144
 20
138.9242882244
 30
0.0
 10
173.9078260374
 20
138.9548798542
 30
0.0
 10
173.8183331934
 20
138.9691971027
 30
0.0
 11
175.116389091
 21
138.6591630254
 31
0.0
 11
175.0624463387
 21
138.6847331295
 31
0.0
 11
174.8869767948
 21
138.7472221846
 31
0.0
 11
174.6434655353
 21
138.8118145622
 31
0.0
 11
174.3663346973
 21
138.8718092661
 31
0.0
 11
174.0864671172
 21
138.9242125849
 31
0.0
 11
173.8183331934
 21
138.9691971027
 31
0.0
  0
LINE
  5
31A
100
AcDbEntity
  8
0
100
AcDbLine
 62
7
  6
CONTINUOUS
 10
173.8183331934
 20
138.9691971027
 11
173.8108880763
 21
138.9703867133
  0
SPLINE
  5
31B
100
AcDbEntity
  8
0
100
AcDbSpline
 62
7
  6
CONTINUOUS
 70
0
 71
3
 72
11
 73
7
 74
5
 42
0.0000001
 43
0.0000001
 44
0.0000000001
 12
-1.1003711594
 22
0.1756043092
 32
0.0
 13
-1.1069721135
 23
0.1271646045
 33
0.0
 40
0.0
 40
0.0
 40
0.0
 40
0.0
 40
0.2486554675
 40
0.49741476
 40
0.7474123524
 40
1.0
 40
1.0
 40
1.0
 40
1.0
 10
173.8108880763
 20
138.9703867133
 30
0.0
 10
173.7196836413
 20
138.9849417038
 30
0.0
 10
173.5370416991
 20
139.0127674625
 30
0.0
 10
173.2621296172
 20
139.0513701415
 30
0.0
 10
172.9853846557
 20
139.087291127
 30
0.0
 10
172.8000376441
 20
139.1094973012
 30
0.0
 10
172.7068351501
 20
139.1202040373
 30
0.0
 11
173.8108880763
 21
138.9703867133
 31
0.0
 11
173.5370007541
 21
139.0122281112
 31
0.0
 11
173.2625212549
 21
139.0508298158
 31
0.0
 11
172.9862821705
 21
139.0867165084
 31
0.0
 11
172.7068351501
 21
139.1202040373
 31
0.0
  0
SPLINE
  5
31C
100
AcDbEntity
  8
BEZUGSACHSEN
100
AcDbSpline
 62
7
  6
CONTINUOUS
 70
0
 71
3
 72
11
 73
7
 74
5
 42
0.0000001
 43
0.0000001
 44
0.0000000001
 12
0.0
 22
-0.4680658555
 32
0.0
 13
-0.1674374283
 23
-0.437093071
 33
0.0
 40
0.0
 40
0.0
 40
0.0
 40
0.0
 40
0.1445461367
 40
0.3576974325
 40
0.6432572252
 40
1.0
 40
1.0
 40
1.0
 40
1.0
 10
130.3485879575
 20
144.3711738181
 30
0.0
 10
130.3485879575
 20
144.3486214477
 30
0.0
 10
130.3414893422
 20
144.2929429591
 30
0.0
 10
130.3180395902
 20
144.1953266658
 30
0.0
 10
130.2779443393
 20
144.0679146694
 30
0.0
 10
130.2434986551
 20
143.9737884497
 30
0.0
 10
130.2235879575
 20
143.9218118514
 30
0.0
 11
130.3485879575
 21
144.3711738181
 31
0.0
 11
130.3418806555
 21
144.3038499977
 31
0.0
 11
130.3197303548
 21
144.2065710877
 31
0.0
 11
130.2804226886
 21
144.0788208869
 31
0.0
 11
130.2235879575
 21
143.9218118514
 31
0.0
  0
SPLINE
  5
31D
100
AcDbEntity
  8
BEZUGSACHSEN
100
AcDbSpline
 62
7
  6
CONTINUOUS
 70
0
 71
3
 72
12
 73
8
 74
6
 42
0.0000001
 43
0.0000001
 44
0.0000000001
 12
-0.1674556245
 22
0.4371405719
 32
0.0
 13
0.0
 23
0.4681167224
 33
0.0
 40
0.0
 40
0.0
 40
0.0
 40
0.0
 40
0.2995620764
 40
0.5419687552
 40
0.7353081792
 40
0.886011903
 40
1.0
 40
1.0
 40
1.0
 40
1.0
 10
126.4735879575
 20
143.9218118514
 30
0.0
 10
126.4568668393
 20
143.9654620972
 30
0.0
 10
126.4276166386
 20
144.044830045
 30
0.0
 10
126.3918059666
 20
144.1538604871
 30
0.0
 10
126.3673553857
 20
144.2421055001
 30
0.0
 10
126.3528861125
 20
144.3121316739
 30
0.0
 10
126.3485879575
 20
144.3533872399
 30
0.0
 10
126.3485879575
 20
144.3711738181
 30
0.0
 11
126.4735879575
 21
143.9218118514
 31
0.0
 11
126.4254043187
 21
144.0535038964
 31
0.0
 11
126.3903614937
 21
144.161432066
 31
0.0
 11
126.3666754156
 21
144.2487830837
 31
0.0
 11
126.3530435068
 21
144.3180004287
 31
0.0
 11
126.3485879575
 21
144.3711738181
 31
0.0
  0
SPLINE
  5
31E
100
AcDbEntity
  8
BEZUGSACHSEN
100
AcDbSpline
 62
7
  6
CONTINUOUS
 70
0
 71
3
 72
19
 73
15
 74
13
 42
0.0000001
 43
0.0000001
 44
0.0000000001
 12
0.0
 22
-0.9530644332
 32
0.0
 13
-0.8939002421
 23
-0.3305664397
 33
0.0
 40
0.0
 40
0.0
 40
0.0
 40
0.0
 40
0.0479048512
 40
0.1038186277
 40
0.1656371908
 40
0.2321998811
 40
0.3035488221
 40
0.3800991219
 40
0.4626240486
 40
0.5522943159
 40
0.6500533187
 40
0.7587572076
 40
0.8782694549
 40
1.0
 40
1.0
 40
1.0
 40
1.0
 10
130.2235879575
 20
143.6655810624
 30
0.0
 10
130.2235879575
 20
143.6503622591
 30
0.0
 10
130.2218999206
 20
143.6173706937
 30
0.0
 10
130.21479377
 20
143.5651792797
 30
0.0
 10
130.2025412055
 20
143.5078745336
 30
0.0
 10
130.1849957931
 20
143.4468468072
 30
0.0
 10
130.161806882
 20
143.3827278125
 30
0.0
 10
130.1322382542
 20
143.3156967258
 30
0.0
 10
130.0951147967
 20
143.245849031
 30
0.0
 10
130.0487824087
 20
143.1735519497
 30
0.0
 10
129.9907001979
 20
143.099340068
 30
0.0
 10
129.9178085924
 20
143.0253772506
 30
0.0
 10
129.8288759889
 20
142.9579169583
 30
0.0
 10
129.7598596121
 20
142.9231343067
 30
0.0
 10
129.7235879575
 20
142.9097209624
 30
0.0
 11
130.2235879575
 21
143.6655810624
 31
0.0
 11
130.22144122
 21
143.6199751496
 31
0.0
 11
130.2144208956
 21
143.567150169
 31
0.0
 11
130.2022207227
 21
143.5095101017
 31
0.0
 11
130.1847647086
 21
143.4485204714
 31
0.0
 11
130.1616741201
 21
143.3845607692
 31
0.0
 11
130.1322342864
 21
143.3178069398
 31
0.0
 11
130.0952957429
 21
143.2483690981
 31
0.0
 11
130.0491194173
 21
143.1764564969
 31
0.0
 11
129.9915750838
 21
143.1031801999
 31
0.0
 11
129.9186451519
 21
143.0295965051
 31
0.0
 11
129.827547785
 21
142.9612215533
 31
0.0
 11
129.7235879575
 21
142.9097209624
 31
0.0
  0
SPLINE
  5
31F
100
AcDbEntity
  8
0
100
AcDbSpline
 62
7
  6
CONTINUOUS
 70
0
 71
3
 72
76
 73
72
 74
70
 42
0.0000001
 43
0.0000001
 44
0.0000000001
 12
25.6071347749
 22
12.9345066693
 32
0.0
 13
21.4879689191
 23
19.001608016
 33
0.0
 40
0.0
 40
0.0
 40
0.0
 40
0.0
 40
0.0014524859
 40
0.0156332744
 40
0.0269891159
 40
0.0359087535
 40
0.0429615383
 40
0.0487256145
 40
0.0540594401
 40
0.0598980332
 40
0.067028722
 40
0.0759463879
 40
0.0866363345
 40
0.098940441
 40
0.1126798639
 40
0.1276219903
 40
0.1434989361
 40
0.1600310394
 40
0.1769066229
 40
0.193783637
 40
0.2102333051
 40
0.2257459749
 40
0.2395879314
 40
0.2512336333
 40
0.2610448606
 40
0.2696128721
 40
0.277700695
 40
0.2861946615
 40
0.295932311
 40
0.3075001918
 40
0.3211437362
 40
0.3373034086
 40
0.3564985201
 40
0.3780613628
 40
0.3999141311
 40
0.4210306086
 40
0.4414226047
 40
0.4611020437
 40
0.4800087315
 40
0.4976129869
 40
0.5130870853
 40
0.526393422
 40
0.5381250887
 40
0.549055272
 40
0.5595546331
 40
0.5700575311
 40
0.5812743367
 40
0.5938586639
 40
0.6082776868
 40
0.6247863178
 40
0.6436464349
 40
0.663920168
 40
0.6845932189
 40
0.7054759872
 40
0.7265391861
 40
0.7474483579
 40
0.7676916051
 40
0.7863008635
 40
0.8025886121
 40
0.8167952283
 40
0.8296162821
 40
0.8416458072
 40
0.8533710711
 40
0.8656215772
 40
0.8791902357
 40
0.8947005169
 40
0.9127146697
 40
0.9332937718
 40
0.9556022036
 40
0.9783129984
 40
1.0
 40
1.0
 40
1.0
 40
1.0
 10
174.1692957658
 20
96.6114368264
 30
0.0
 10
174.1816937669
 20
96.6176992227
 30
0.0
 10
174.3149530151
 20
96.6854681219
 30
0.0
 10
174.5414863377
 20
96.8095087418
 30
0.0
 10
174.8162940371
 20
96.9922737234
 30
0.0
 10
175.0141954396
 20
97.164493991
 30
0.0
 10
175.1434396799
 20
97.3294362848
 30
0.0
 10
175.2098296693
 20
97.4934062377
 30
0.0
 10
175.2080467202
 20
97.6599615988
 30
0.0
 10
175.13546159
 20
97.8232619019
 30
0.0
 10
174.9984608791
 20
97.9837736429
 30
0.0
 10
174.798117075
 20
98.1441563247
 30
0.0
 10
174.5383617182
 20
98.305032039
 30
0.0
 10
174.2269286408
 20
98.4678158719
 30
0.0
 10
173.8715479253
 20
98.633168872
 30
0.0
 10
173.4804252838
 20
98.8021555088
 30
0.0
 10
173.0628171044
 20
98.9770316169
 30
0.0
 10
172.6285163452
 20
99.1599158381
 30
0.0
 10
172.1882115453
 20
99.3531258256
 30
0.0
 10
171.7544188673
 20
99.5588775293
 30
0.0
 10
171.3424075308
 20
99.7792827138
 30
0.0
 10
170.9723829036
 20
100.014637282
 30
0.0
 10
170.6653588887
 20
100.2601698033
 30
0.0
 10
170.4364300461
 20
100.5106659288
 30
0.0
 10
170.288495305
 20
100.7594351317
 30
0.0
 10
170.2126271543
 20
101.0034641327
 30
0.0
 10
170.1996514465
 20
101.2459707939
 30
0.0
 10
170.2459730877
 20
101.4953591948
 30
0.0
 10
170.35317035
 20
101.7610043214
 30
0.0
 10
170.5276857819
 20
102.0473794514
 30
0.0
 10
170.7758070208
 20
102.3564627826
 30
0.0
 10
171.1019850166
 20
102.6934042578
 30
0.0
 10
171.5060258179
 20
103.058418245
 30
0.0
 10
171.9682250417
 20
103.4390573606
 30
0.0
 10
172.4532099158
 20
103.8205207324
 30
0.0
 10
172.9309004116
 20
104.1931265367
 30
0.0
 10
173.388142841
 20
104.5581502954
 30
0.0
 10
173.8194586854
 20
104.9215985814
 30
0.0
 10
174.2141845206
 20
105.2864983653
 30
0.0
 10
174.5553179056
 20
105.6487542297
 30
0.0
 10
174.8276654592
 20
105.9999748055
 30
0.0
 10
175.0241382718
 20
106.3353469818
 30
0.0
 10
175.1501298219
 20
106.657063005
 30
0.0
 10
175.210970541
 20
106.9702793742
 30
0.0
 10
175.2073126576
 20
107.2777451346
 30
0.0
 10
175.1419342804
 20
107.580639195
 30
0.0
 10
175.0174556447
 20
107.8856310574
 30
0.0
 10
174.8294727086
 20
108.2003680657
 30
0.0
 10
174.5729802246
 20
108.5289555452
 30
0.0
 10
174.2463528954
 20
108.8759306325
 30
0.0
 10
173.8559601786
 20
109.2378022026
 30
0.0
 10
173.4191819067
 20
109.607047071
 30
0.0
 10
172.9593370618
 20
109.9785934427
 30
0.0
 10
172.4922608611
 20
110.3531795267
 30
0.0
 10
172.0285102397
 20
110.7355038698
 30
0.0
 10
171.5816416992
 20
111.1284243845
 30
0.0
 10
171.1736992125
 20
111.5291639625
 30
0.0
 10
170.8281315785
 20
111.9283432158
 30
0.0
 10
170.5596602082
 20
112.3149255173
 30
0.0
 10
170.37089428
 20
112.6851947508
 30
0.0
 10
170.2535512592
 20
113.0413903625
 30
0.0
 10
170.2006236431
 20
113.3888552989
 30
0.0
 10
170.2097493929
 20
113.7347822388
 30
0.0
 10
170.2812917775
 20
114.0882291821
 30
0.0
 10
170.4202906318
 20
114.4597444133
 30
0.0
 10
170.6375171582
 20
114.855688742
 30
0.0
 10
170.9399458241
 20
115.2765902001
 30
0.0
 10
171.3222294299
 20
115.7166513109
 30
0.0
 10
171.764984626
 20
116.1613589295
 30
0.0
 10
172.2338489405
 20
116.59388502
 30
0.0
 10
172.5514986115
 20
116.8755047351
 30
0.0
 10
172.70683515
 20
117.0128673694
 30
0.0
 11
174.1692957658
 21
96.6114368264
 31
0.0
 11
174.2064383528
 21
96.6303272527
 31
0.0
 11
174.5619062454
 21
96.8280698229
 31
0.0
 11
174.8310563115
 21
97.0115411927
 31
0.0
 11
175.0212606083
 21
97.1826661636
 31
0.0
 11
175.1422216959
 21
97.3448254774
 31
0.0
 11
175.2001378879
 21
97.4996889423
 31
0.0
 11
175.1982695111
 21
97.652675038
 31
0.0
 11
175.1345566876
 21
97.8075589863
 31
0.0
 11
175.0057389097
 21
97.9664374113
 31
0.0
 11
174.8087720609
 21
98.129644501
 31
0.0
 11
174.5498190531
 21
98.2938641098
 31
0.0
 11
174.237977497
 21
98.4591471036
 31
0.0
 11
173.8812729571
 21
98.6267242809
 31
0.0
 11
173.4883291567
 21
98.7978909078
 31
0.0
 11
173.0686518968
 21
98.9747489167
 31
0.0
 11
172.6320000781
 21
99.1597174442
 31
0.0
 11
172.1891972409
 21
99.3552814343
 31
0.0
 11
171.752476974
 21
99.5641707966
 31
0.0
 11
171.3375309762
 21
99.7888058941
 31
0.0
 11
170.963723364
 21
100.030192309
 31
0.0
 11
170.6564516844
 21
100.2816505212
 31
0.0
 11
170.4343826839
 21
100.5311993592
 31
0.0
 11
170.2931619128
 21
100.7746310417
 31
0.0
 11
170.2216108806
 21
101.0097531961
 31
0.0
 11
170.208839163
 21
101.2413955963
 31
0.0
 11
170.2510549526
 21
101.4813546013
 31
0.0
 11
170.3528000946
 21
101.7414829184
 31
0.0
 11
170.5226502734
 21
102.0265334357
 31
0.0
 11
170.764835591
 21
102.3339522342
 31
0.0
 11
171.0850413294
 21
102.6691068
 31
0.0
 11
171.4917801029
 21
103.0402184918
 31
0.0
 11
171.9675123102
 21
103.435493063
 31
0.0
 11
172.4590074204
 21
103.8245334571
 31
0.0
 11
172.9356490692
 21
104.1982996552
 31
0.0
 11
173.3918113088
 21
104.564443462
 31
0.0
 11
173.8222157649
 21
104.9296884435
 31
0.0
 11
174.2188042479
 21
105.299601712
 31
0.0
 11
174.5628256467
 21
105.6692517927
 31
0.0
 11
174.831892573
 21
106.0222661214
 31
0.0
 11
175.0222504759
 21
106.3530932743
 31
0.0
 11
175.1428060531
 21
106.6672733632
 31
0.0
 11
175.2008939949
 21
106.9753708804
 31
0.0
 11
175.1972635476
 21
107.2765167104
 31
0.0
 11
175.1352593002
 21
107.5713362878
 31
0.0
 11
175.0156001972
 21
107.8700048955
 31
0.0
 11
174.8327706761
 21
108.1812529694
 31
0.0
 11
174.5808232693
 21
108.5092592558
 31
0.0
 11
174.2582681703
 21
108.8559554683
 31
0.0
 11
173.8632691142
 21
109.2256132089
 31
0.0
 11
173.4207515124
 21
109.6029279682
 31
0.0
 11
172.9606734529
 21
109.977053291
 31
0.0
 11
172.4944480719
 21
110.3531465023
 31
0.0
 11
172.029440381
 21
110.7389019104
 31
0.0
 11
171.5806451958
 21
111.1367750137
 31
0.0
 11
171.1684422293
 21
111.5457501437
 31
0.0
 11
170.8215176559
 21
111.9514354579
 31
0.0
 11
170.5579340681
 21
112.3371857795
 31
0.0
 11
170.3749636531
 21
112.7013075059
 31
0.0
 11
170.2614744516
 21
113.0511225838
 31
0.0
 11
170.2105425926
 21
113.392402556
 31
0.0
 11
170.2190896416
 21
113.7286259172
 31
0.0
 11
170.2872526482
 21
114.0733497458
 31
0.0
 11
170.4216716657
 21
114.4386097568
 31
0.0
 11
170.6329791966
 21
114.8301294771
 31
0.0
 11
170.9313869288
 21
115.2519794888
 31
0.0
 11
171.316039383
 21
115.6997464551
 31
0.0
 11
171.7653564618
 21
116.1553678175
 31
0.0
 11
172.2425068087
 21
116.5988859775
 31
0.0
 11
172.70683515
 21
117.0128673694
 31
0.0
  0
SPLINE
  5
320
100
AcDbEntity
  8
0
100
AcDbSpline
 62
7
  6
CONTINUOUS
 70
0
 71
3
 72
18
 73
14
 74
12
 42
0.0000001
 43
0.0000001
 44
0.0000000001
 12
-1.7642179932
 22
0.0
 32
0.0
 13
0.0
 23
1.7642179932
 33
0.0
 40
0.0
 40
0.0
 40
0.0
 40
0.0
 40
0.0884356734
 40
0.1769592452
 40
0.264385139
 40
0.3507913626
 40
0.4389518107
 40
0.5291184745
 40
0.6208295728
 40
0.7142209758
 40
0.8094445939
 40
0.905156071
 40
1.0
 40
1.0
 40
1.0
 40
1.0
 10
121.4235879575
 20
91.1787692625
 30
0.0
 10
121.3715813554
 20
91.1787692625
 30
0.0
 10
121.2672461288
 20
91.1888470625
 30
0.0
 10
121.1172611962
 20
91.2329302725
 30
0.0
 10
120.9786437703
 20
91.3024068927
 30
0.0
 10
120.8535321549
 20
91.3933877846
 30
0.0
 10
120.7424639169
 20
91.5032704004
 30
0.0
 10
120.6461218535
 20
91.6301301604
 30
0.0
 10
120.5658078663
 20
91.7711861302
 30
0.0
 10
120.502422526
 20
91.9237973021
 30
0.0
 10
120.4568095025
 20
92.085052898
 30
0.0
 10
120.4295770744
 20
92.2512265144
 30
0.0
 10
120.4235879575
 20
92.3633811611
 30
0.0
 10
120.4235879575
 20
92.4191562831
 30
0.0
 11
121.4235879575
 21
91.1787692625
 31
0.0
 11
121.2682836621
 21
91.1936942674
 31
0.0
 11
121.1183728059
 21
91.2374815686
 31
0.0
 11
120.9803394577
 21
91.3063020507
 31
0.0
 11
120.8568500883
 21
91.3956785056
 31
0.0
 11
120.7460416532
 21
91.5048224164
 31
0.0
 11
120.6495786956
 21
91.6313108514
 31
0.0
 11
120.5692813204
 21
91.771778086
 31
0.0
 11
120.5058743667
 21
91.9238515431
 31
0.0
 11
120.4599809388
 21
92.0854565781
 31
0.0
 11
120.4325644867
 21
92.2520718732
 31
0.0
 11
120.4235879575
 21
92.4191562831
 31
0.0
  0
SPLINE
  5
321
100
AcDbEntity
  8
0
100
AcDbSpline
 62
7
  6
CONTINUOUS
 70
0
 71
3
 72
22
 73
18
 74
16
 42
0.0000001
 43
0.0000001
 44
0.0000000001
 12
2.9154579162
 22
-0.3349163437
 32
0.0
 13
-2.8293165284
 23
-0.7670987273
 33
0.0
 40
0.0
 40
0.0
 40
0.0
 40
0.0
 40
0.0960865634
 40
0.1914851522
 40
0.286206282
 40
0.3802853911
 40
0.4744748897
 40
0.570026209
 40
0.6652230665
 40
0.7505808937
 40
0.8147678553
 40
0.8558972873
 40
0.8792423016
 40
0.896934944
 40
0.9268746171
 40
0.9772219517
 40
1.0
 40
1.0
 40
1.0
 40
1.0
 10
173.8220723366
 20
138.9920899737
 30
0.0
 10
173.9154511139
 20
138.9813629869
 30
0.0
 10
174.1014378652
 20
138.959083787
 30
0.0
 10
174.379084319
 20
138.9230575425
 30
0.0
 10
174.6543991387
 20
138.8844142288
 30
0.0
 10
174.9280700648
 20
138.8427496219
 30
0.0
 10
175.2019659933
 20
138.7971178038
 30
0.0
 10
175.475967279
 20
138.7463938041
 30
0.0
 10
175.7405371442
 20
138.6902130931
 30
0.0
 10
175.9717046414
 20
138.6316835556
 30
0.0
 10
176.1514545333
 20
138.5719358116
 30
0.0
 10
176.2606290786
 20
138.5196793659
 30
0.0
 10
176.33116508
 20
138.4605424746
 30
0.0
 10
176.3064981897
 20
138.3841332101
 30
0.0
 10
176.2161258522
 20
138.3406341449
 30
0.0
 10
176.1229779257
 20
138.3056637105
 30
0.0
 10
176.0545239455
 20
138.2857803806
 30
0.0
 10
176.0330418427
 20
138.2799560433
 30
0.0
 11
173.8220723366
 21
138.9920899737
 31
0.0
 11
174.1020485444
 21
138.9585444557
 31
0.0
 11
174.3796768006
 21
138.9224888973
 31
0.0
 11
174.6549417277
 21
138.883791967
 31
0.0
 11
174.9278675954
 21
138.8421289912
 31
0.0
 11
175.2004920751
 21
138.7965306434
 31
0.0
 11
175.4761454032
 21
138.7451122053
 31
0.0
 11
175.7492783736
 21
138.6864205824
 31
0.0
 11
175.991612145
 21
138.6230054092
 31
0.0
 11
176.1695072865
 21
138.5610802197
 31
0.0
 11
176.2759797592
 21
138.5042291898
 31
0.0
 11
176.320001667
 21
138.451735784
 31
0.0
 11
176.3069767864
 21
138.4014746328
 31
0.0
 11
176.2351564709
 21
138.350862789
 31
0.0
 11
176.0969403647
 21
138.2986456148
 31
0.0
 11
176.0330418427
 21
138.2799560433
 31
0.0
  0
SPLINE
  5
322
100
AcDbEntity
  8
0
100
AcDbSpline
 62
7
  6
CONTINUOUS
 70
0
 71
3
 72
77
 73
73
 74
71
 42
0.0000001
 43
0.0000001
 44
0.0000000001
 12
-28.0730339199
 22
-7.191121057
 32
0.0
 13
-21.7600949736
 23
-19.1307359154
 33
0.0
 40
0.0
 40
0.0
 40
0.0
 40
0.0
 40
0.0116405693
 40
0.0242969718
 40
0.034236871
 40
0.041948591
 40
0.0480875155
 40
0.0533544246
 40
0.0586953598
 40
0.0649938992
 40
0.0729112893
 40
0.0828415474
 40
0.0946548489
 40
0.1081341876
 40
0.1230997537
 40
0.1393056271
 40
0.1564329623
 40
0.1741377005
 40
0.1920191712
 40
0.2096585043
 40
0.2266822973
 40
0.2427020383
 40
0.2570601161
 40
0.2691748091
 40
0.2792803719
 40
0.2878682099
 40
0.2956504672
 40
0.3034774311
 40
0.3121475781
 40
0.3222889293
 40
0.3341939027
 40
0.3481779303
 40
0.3647756893
 40
0.3838434012
 40
0.4037692665
 40
0.4232970916
 40
0.442283103
 40
0.4606943313
 40
0.4784436604
 40
0.4952186654
 40
0.5102508448
 40
0.5232607004
 40
0.53474172
 40
0.5454867394
 40
0.5560181802
 40
0.5666490235
 40
0.57794927
 40
0.5905822225
 40
0.6050680495
 40
0.6216529999
 40
0.6408178109
 40
0.661904495
 40
0.6835524819
 40
0.7049726929
 40
0.7257571109
 40
0.7455812989
 40
0.7641641791
 40
0.7813744052
 40
0.7971462034
 40
0.8115705565
 40
0.8247006418
 40
0.8368922881
 40
0.8484663894
 40
0.8597662211
 40
0.8715424514
 40
0.8845492874
 40
0.899423913
 40
0.9166813538
 40
0.9363828044
 40
0.9576580559
 40
0.9792555918
 40
1.0
 40
1.0
 40
1.0
 40
1.0
 10
172.5923669703
 20
137.6715256586
 30
0.0
 10
172.483438271
 20
137.6436227442
 30
0.0
 10
172.257360406
 20
137.5803626549
 30
0.0
 10
171.9451988573
 20
137.4699868813
 30
0.0
 10
171.6809436389
 20
137.3420151011
 30
0.0
 10
171.4926958132
 20
137.2076457594
 30
0.0
 10
171.3715924813
 20
137.0646635535
 30
0.0
 10
171.3150224716
 20
136.9086305728
 30
0.0
 10
171.3267917604
 20
136.7416593922
 30
0.0
 10
171.4025705227
 20
136.5660682633
 30
0.0
 10
171.5410498469
 20
136.3768941613
 30
0.0
 10
171.7438925205
 20
136.173579193
 30
0.0
 10
172.0071502775
 20
135.9576095909
 30
0.0
 10
172.3227160923
 20
135.7301940129
 30
0.0
 10
172.6827792896
 20
135.4927402974
 30
0.0
 10
173.0786199026
 20
135.2459114824
 30
0.0
 10
173.4999523411
 20
134.9900736218
 30
0.0
 10
173.9353367672
 20
134.7262003593
 30
0.0
 10
174.3722567968
 20
134.4553339018
 30
0.0
 10
174.7975661273
 20
134.1783636952
 30
0.0
 10
175.1974038787
 20
133.8956756058
 30
0.0
 10
175.5553605174
 20
133.6096938339
 30
0.0
 10
175.8537853221
 20
133.326958661
 30
0.0
 10
176.0794448762
 20
133.0535756354
 30
0.0
 10
176.2293146177
 20
132.7945932889
 30
0.0
 10
176.3107756864
 20
132.5500362906
 30
0.0
 10
176.3307207674
 20
132.3148461839
 30
0.0
 10
176.29200724
 20
132.0813114642
 30
0.0
 10
176.193358529
 20
131.8416834719
 30
0.0
 10
176.0291937882
 20
131.5927949677
 30
0.0
 10
175.7947221977
 20
131.3343442805
 30
0.0
 10
175.4870943731
 20
131.0619739122
 30
0.0
 10
175.1046017887
 20
130.7722527881
 30
0.0
 10
174.6604323464
 20
130.4704132593
 30
0.0
 10
174.1852205995
 20
130.1644224292
 30
0.0
 10
173.7094971443
 20
129.8607072301
 30
0.0
 10
173.250071535
 20
129.5586677938
 30
0.0
 10
172.8139777416
 20
129.252673542
 30
0.0
 10
172.4107085576
 20
128.9378946503
 30
0.0
 10
172.0561273268
 20
128.6155186192
 30
0.0
 10
171.7665065937
 20
128.2924853967
 30
0.0
 10
171.5515846669
 20
127.9752890964
 30
0.0
 10
171.4082707153
 20
127.6647959841
 30
0.0
 10
171.3294481836
 20
127.3563976293
 30
0.0
 10
171.313903937
 20
127.046521835
 30
0.0
 10
171.3598232184
 20
126.7346021589
 30
0.0
 10
171.4640708954
 20
126.4160558432
 30
0.0
 10
171.630234539
 20
126.0830164365
 30
0.0
 10
171.8647995902
 20
125.7310621045
 30
0.0
 10
172.1719494723
 20
125.3547747606
 30
0.0
 10
172.5496724701
 20
124.9559592938
 30
0.0
 10
172.983521511
 20
124.5444089211
 30
0.0
 10
173.4460265149
 20
124.1320413556
 30
0.0
 10
173.9113900565
 20
123.7273976177
 30
0.0
 10
174.3620595724
 20
123.3326897618
 30
0.0
 10
174.7849267736
 20
122.9478978264
 30
0.0
 10
175.1690879234
 20
122.5722116047
 30
0.0
 10
175.5060600406
 20
122.2050764579
 30
0.0
 10
175.7907466145
 20
121.8458342015
 30
0.0
 10
176.0181629145
 20
121.4935436157
 30
0.0
 10
176.1844675265
 20
121.1462150892
 30
0.0
 10
176.289086575
 20
120.803979186
 30
0.0
 10
176.3314224896
 20
120.466087402
 30
0.0
 10
176.3107960685
 20
120.1302234877
 30
0.0
 10
176.2286761116
 20
119.7898987496
 30
0.0
 10
176.0802479335
 20
119.4352316701
 30
0.0
 10
175.8558960012
 20
119.0600083122
 30
0.0
 10
175.5504964822
 20
118.662294395
 30
0.0
 10
175.1705596991
 20
118.2469307507
 30
0.0
 10
174.7360911097
 20
117.8265329831
 30
0.0
 10
174.2799316702
 20
117.4148555058
 30
0.0
 10
173.9725391009
 20
117.1451526347
 30
0.0
 10
173.8220723367
 20
117.0128673696
 30
0.0
 11
172.5923669703
 21
137.6715256586
 31
0.0
 11
172.2678558095
 21
137.579548311
 31
0.0
 11
171.9232570704
 21
137.4541509378
 31
0.0
 11
171.6660291168
 21
137.3246271383
 31
0.0
 11
171.4870264133
 21
137.1909004169
 31
0.0
 11
171.375837889
 21
137.0520683528
 31
0.0
 11
171.3259266421
 21
136.9078584036
 31
0.0
 11
171.3339152369
 21
136.7533170255
 31
0.0
 11
171.4014891039
 21
136.5837954792
 31
0.0
 11
171.5333823234
 21
136.3961056722
 31
0.0
 11
171.7338962857
 21
136.189766229
 31
0.0
 11
171.9967093571
 21
135.9704876265
 31
0.0
 11
172.3125062251
 21
135.7407032641
 31
0.0
 11
172.6737236026
 21
135.5008276228
 31
0.0
 11
173.0715375918
 21
135.2513908035
 31
0.0
 11
173.4952207809
 21
134.9930261017
 31
0.0
 11
173.9334313504
 21
134.7263518767
 31
0.0
 11
174.3732129904
 21
134.4524623244
 31
0.0
 11
174.8007061524
 21
134.1723683887
 31
0.0
 11
175.2023653175
 21
133.8860797485
 31
0.0
 11
175.5634432914
 21
133.5944259174
 31
0.0
 11
175.8628918403
 21
133.3056449274
 31
0.0
 11
176.0832227454
 21
133.0324010238
 31
0.0
 11
176.2269310268
 21
132.7772964649
 31
0.0
 11
176.3031060677
 21
132.5404202952
 31
0.0
 11
176.3212990885
 21
132.3156731122
 31
0.0
 11
176.2855209745
 21
132.091735547
 31
0.0
 11
176.1922481612
 21
131.8584854215
 31
0.0
 11
176.0331936138
 21
131.6114219638
 31
0.0
 11
175.8042394014
 21
131.3534314985
 31
0.0
 11
175.503056716
 21
131.0824090378
 31
0.0
 11
175.1214204703
 21
130.7897995697
 31
0.0
 11
174.6660730287
 21
130.4769460411
 31
0.0
 11
174.1817860293
 21
130.1626595029
 31
0.0
 11
173.7057767425
 21
129.8568136994
 31
0.0
 11
173.2470018833
 21
129.5532774075
 31
0.0
 11
172.8114600285
 21
129.2452726604
 31
0.0
 11
172.4075112165
 21
128.92700207
 31
0.0
 11
172.0497864948
 21
128.5979651829
 31
0.0
 11
171.7616925235
 21
128.2713190647
 31
0.0
 11
171.5527433512
 21
127.9575855705
 31
0.0
 11
171.4151280893
 21
127.6547357825
 31
0.0
 11
171.3393480147
 21
127.3527743658
 31
0.0
 11
171.3239191506
 21
127.0480277886
 31
0.0
 11
171.3671293553
 21
126.7430567485
 31
0.0
 11
171.4670353239
 21
126.4312594728
 31
0.0
 11
171.6283536165
 21
126.1026999583
 31
0.0
 11
171.8585783565
 21
125.7517672099
 31
0.0
 11
172.1602658715
 21
125.3777426597
 31
0.0
 11
172.540213716
 21
124.9728047333
 31
0.0
 11
172.9816711164
 21
124.5504403278
 31
0.0
 11
173.4485270675
 21
124.1315624263
 31
0.0
 11
173.9157780493
 21
123.7230842546
 31
0.0
 11
174.3677443252
 21
123.3251168098
 31
0.0
 11
174.7913713956
 21
122.937228814
 31
0.0
 11
175.1749771694
 21
122.5594179173
 31
0.0
 11
175.5107033525
 21
122.1907214264
 31
0.0
 11
175.7926080201
 21
121.8310663454
 31
0.0
 11
176.0169165518
 21
121.4784320433
 31
0.0
 11
176.1792120345
 21
121.1343579587
 31
0.0
 11
176.2806545829
 21
120.7959978388
 31
0.0
 11
176.3211967374
 21
120.4631107216
 31
0.0
 11
176.3017804745
 21
120.1362867866
 31
0.0
 11
176.2232686172
 21
119.8042392312
 31
0.0
 11
176.0797902678
 21
119.4557618617
 31
0.0
 11
175.8613927518
 21
119.0842208209
 31
0.0
 11
175.5598007475
 21
118.6854005599
 31
0.0
 11
175.1768591465
 21
118.2620801871
 31
0.0
 11
174.7359308553
 21
117.8313082505
 31
0.0
 11
174.2728297186
 21
117.4104532458
 31
0.0
 11
173.8220723367
 21
117.0128673696
 31
0.0
  0
SPLINE
  5
323
100
AcDbEntity
  8
0
100
AcDbSpline
 62
7
  6
CONTINUOUS
 70
0
 71
3
 72
15
 73
11
 74
9
 42
0.0000001
 43
0.0000001
 44
0.0000000001
 12
-0.9130901403
 22
0.0
 32
0.0
 13
0.0
 23
-0.9130901403
 33
0.0
 40
0.0
 40
0.0
 40
0.0
 40
0.0
 40
0.095594498
 40
0.1995281968
 40
0.3092175201
 40
0.4273815356
 40
0.5557358605
 40
0.6930947067
 40
0.8403493616
 40
1.0
 40
1.0
 40
1.0
 40
1.0
 10
126.9735879575
 20
95.828778411
 30
0.0
 10
126.944492493
 20
95.828778411
 30
0.0
 10
126.8835459208
 20
95.8216379664
 30
0.0
 10
126.7944254871
 20
95.7888719152
 30
0.0
 10
126.7092206062
 20
95.733193164
 30
0.0
 10
126.6321596215
 20
95.6559234461
 30
0.0
 10
126.5664486746
 20
95.5585252077
 30
0.0
 10
126.5152301774
 20
95.4430701465
 30
0.0
 10
126.4815144535
 20
95.311526465
 30
0.0
 10
126.4735879575
 20
95.2179103586
 30
0.0
 10
126.4735879575
 20
95.1693185507
 30
0.0
 11
126.9735879575
 21
95.828778411
 31
0.0
 11
126.886882774
 21
95.8187222862
 31
0.0
 11
126.7976724711
 21
95.7863542392
 31
0.0
 11
126.7135338983
 21
95.7320221779
 31
0.0
 11
126.6369220292
 21
95.6560496661
 31
0.0
 11
126.5709135508
 21
95.5592069977
 31
0.0
 11
126.5196483985
 21
95.4447416603
 31
0.0
 11
126.4859923956
 21
95.3145652515
 31
0.0
 11
126.4735879575
 21
95.1693185507
 31
0.0
  0
SPLINE
  5
324
100
AcDbEntity
  8
BEZUGSACHSEN
100
AcDbSpline
 62
7
  6
CONTINUOUS
 70
0
 71
3
 72
11
 73
7
 74
5
 42
0.0000001
 43
0.0000001
 44
0.0000000001
 12
0.0
 22
0.1830126193
 32
0.0
 13
0.1451726273
 23
-0.1114384454
 33
0.0
 40
0.0
 40
0.0
 40
0.0
 40
0.0
 40
0.2465776366
 40
0.4184562595
 40
0.6350985973
 40
1.0
 40
1.0
 40
1.0
 40
1.0
 10
126.3485879575
 20
144.3711738181
 30
0.0
 10
126.3485879575
 20
144.3862160911
 30
0.0
 10
126.3485604432
 20
144.4126293533
 30
0.0
 10
126.3779784854
 20
144.4459638854
 30
0.0
 10
126.4281412516
 20
144.4312091576
 30
0.0
 10
126.4559300591
 20
144.4114384244
 30
0.0
 10
126.4735879575
 20
144.3978837427
 30
0.0
 11
126.3485879575
 21
144.3711738181
 31
0.0
 11
126.3552953153
 21
144.4157993842
 31
0.0
 11
126.3774454931
 21
144.438134264
 31
0.0
 11
126.4167532919
 21
144.4329493631
 31
0.0
 11
126.4735879575
 21
144.3978837427
 31
0.0
  0
SPLINE
  5
325
100
AcDbEntity
  8
0
100
AcDbSpline
 62
7
  6
CONTINUOUS
 70
0
 71
3
 72
18
 73
14
 74
12
 42
0.0000001
 43
0.0000001
 44
0.0000000001
 12
0.0
 22
-1.7642178701
 32
0.0
 13
-1.7642178701
 23
0.0
 33
0.0
 40
0.0
 40
0.0
 40
0.0
 40
0.0
 40
0.0948691176
 40
0.1905791476
 40
0.2857584804
 40
0.3791181802
 40
0.470813814
 40
0.5609692284
 40
0.649130721
 40
0.7355549077
 40
0.8230391447
 40
0.9115892404
 40
1.0
 40
1.0
 40
1.0
 40
1.0
 10
136.2735879575
 20
92.4191562831
 30
0.0
 10
136.2735879575
 20
92.3633663523
 30
0.0
 10
136.2675965035
 20
92.2511976791
 30
0.0
 10
136.2403613008
 20
92.0850367892
 30
0.0
 10
136.1947603774
 20
91.9238256031
 30
0.0
 10
136.1314029106
 20
91.7712615615
 30
0.0
 10
136.051117788
 20
91.6302290251
 30
0.0
 10
135.9547990751
 20
91.5033708218
 30
0.0
 10
135.8437419489
 20
91.3934705849
 30
0.0
 10
135.7186047769
 20
91.302447009
 30
0.0
 10
135.5799364517
 20
91.2329339753
 30
0.0
 10
135.4299158568
 20
91.1888442309
 30
0.0
 10
135.3255799049
 20
91.1787692625
 30
0.0
 10
135.2735879575
 20
91.1787692625
 30
0.0
 11
136.2735879575
 21
92.4191562831
 31
0.0
 11
136.2646066476
 21
92.2520276394
 31
0.0
 11
136.2371858597
 21
92.0854156572
 31
0.0
 11
136.1913135063
 21
91.9238858679
 31
0.0
 11
136.1279352967
 21
91.7718610369
 31
0.0
 11
136.0476632585
 21
91.631410758
 31
0.0
 11
135.9512264579
 21
91.5049273496
 31
0.0
 11
135.8404309455
 21
91.3957677104
 31
0.0
 11
135.7169270733
 21
91.3063572621
 31
0.0
 11
135.5788057344
 21
91.2374826043
 31
0.0
 11
135.4288488919
 21
91.1936858824
 31
0.0
 11
135.2735879575
 21
91.1787692625
 31
0.0
  0
SPLINE
  5
326
100
AcDbEntity
  8
BEZUGSACHSEN
100
AcDbSpline
 62
7
  6
CONTINUOUS
 70
0
 71
3
 72
16
 73
12
 74
10
 42
0.0000001
 43
0.0000001
 44
0.0000000001
 12
0.4973714463
 22
-0.1381690781
 32
0.0
 13
0.2447633051
 23
0.4552915049
 33
0.0
 40
0.0
 40
0.0
 40
0.0
 40
0.0
 40
0.2054084362
 40
0.3821123936
 40
0.5239763358
 40
0.6383788277
 40
0.7345406286
 40
0.8178119434
 40
0.8930732946
 40
0.9645140243
 40
1.0
 40
1.0
 40
1.0
 40
1.0
 10
129.7235879575
 20
143.9031997018
 30
0.0
 10
129.7576427212
 20
143.8937393371
 30
0.0
 10
129.8223247742
 20
143.8805044835
 30
0.0
 10
129.9126088666
 20
143.8750620636
 30
0.0
 10
129.9871157388
 20
143.8810160353
 30
0.0
 10
130.0464866121
 20
143.8943330307
 30
0.0
 10
130.0938306483
 20
143.9126379819
 30
0.0
 10
130.1318088984
 20
143.9349183972
 30
0.0
 10
130.1620692096
 20
143.96075371
 30
0.0
 10
130.1818351261
 20
143.9853230049
 30
0.0
 10
130.1912769977
 20
144.0011632589
 30
0.0
 10
130.1941722193
 20
144.0065487466
 30
0.0
 11
129.7235879575
 21
143.9031997018
 31
0.0
 11
129.8275183742
 21
143.8821878631
 31
0.0
 11
129.9185901804
 21
143.8770660851
 31
0.0
 11
129.9915570402
 21
143.8832812075
 31
0.0
 11
130.0491033722
 21
143.896545746
 31
0.0
 11
130.0952886176
 21
143.9147387919
 31
0.0
 11
130.1322364857
 21
143.9367065237
 31
0.0
 11
130.1616804143
 21
143.9620522921
 31
0.0
 11
130.1847722443
 21
143.9908058348
 31
0.0
 11
130.1941722193
 21
144.0065487466
 31
0.0
  0
SPLINE
  5
327
100
AcDbEntity
  8
BEZUGSACHSEN
100
AcDbSpline
 62
7
  6
CONTINUOUS
 70
0
 71
3
 72
11
 73
7
 74
5
 42
0.0000001
 43
0.0000001
 44
0.0000000001
 12
0.0661784389
 22
0.1231004829
 32
0.0
 13
-0.0
 23
0.1395704877
 33
0.0
 40
0.0
 40
0.0
 40
0.0
 40
0.0
 40
0.1327767541
 40
0.408761515
 40
0.7011191023
 40
1.0
 40
1.0
 40
1.0
 40
1.0
 10
130.1941722193
 20
144.0065487466
 30
0.0
 10
130.1971012054
 20
144.0119970408
 30
0.0
 10
130.2053675309
 20
144.0291749927
 30
0.0
 10
130.2155734653
 20
144.0603083272
 30
0.0
 10
130.2222985118
 20
144.1002126824
 30
0.0
 10
130.2235879575
 20
144.1277479695
 30
0.0
 10
130.2235879575
 20
144.1416529537
 30
0.0
 11
130.1941722193
 21
144.0065487466
 31
0.0
 11
130.2022270748
 21
144.0232594473
 31
0.0
 11
130.2144235551
 21
144.0597968866
 31
0.0
 11
130.2214421488
 21
144.0999932276
 31
0.0
 11
130.2235879575
 21
144.1416529537
 31
0.0
  0
SPLINE
  5
328
100
AcDbEntity
  8
0
100
AcDbSpline
 62
7
  6
CONTINUOUS
 70
0
 71
3
 72
15
 73
11
 74
9
 42
0.0000001
 43
0.0000001
 44
0.0000000001
 12
0.0
 22
0.9130899958
 32
0.0
 13
-0.9130899958
 23
-0.0
 33
0.0
 40
0.0
 40
0.0
 40
0.0
 40
0.0
 40
0.1598406322
 40
0.3070906132
 40
0.4443104261
 40
0.5725485626
 40
0.6906434484
 40
0.8001389346
 40
0.9041997491
 40
1.0
 40
1.0
 40
1.0
 40
1.0
 10
130.2235879575
 20
95.1693185507
 30
0.0
 10
130.2235879575
 20
95.2179681781
 30
0.0
 10
130.2156472337
 20
95.3116414314
 30
0.0
 10
130.1819003301
 20
95.4431917227
 30
0.0
 10
130.130697341
 20
95.5585654704
 30
0.0
 10
130.0650437381
 20
95.6558810111
 30
0.0
 10
129.988078296
 20
95.7330810148
 30
0.0
 10
129.9029369093
 20
95.7887734214
 30
0.0
 10
129.8137952179
 20
95.8216101821
 30
0.0
 10
129.7527460411
 20
95.828778411
 30
0.0
 10
129.7235879575
 20
95.828778411
 30
0.0
 11
130.2235879575
 21
95.1693185507
 31
0.0
 11
130.2111538672
 21
95.3147368082
 31
0.0
 11
130.1774713253
 21
95.4449019225
 31
0.0
 11
130.1262417077
 21
95.5592440509
 31
0.0
 11
130.0602948479
 21
95.6560003057
 31
0.0
 11
129.9837413484
 21
95.7319420075
 31
0.0
 11
129.8997770839
 21
95.7862176865
 31
0.0
 11
129.8104772584
 21
95.8186792069
 31
0.0
 11
129.7235879575
 21
95.828778411
 31
0.0
  0
SPLINE
  5
329
100
AcDbEntity
  8
BEZUGSACHSEN
100
AcDbSpline
 62
7
  6
CONTINUOUS
 70
0
 71
3
 72
12
 73
8
 74
6
 42
0.0000001
 43
0.0000001
 44
0.0000000001
 12
0.1458774432
 22
0.1119794812
 32
0.0
 13
0.0
 23
-0.1839011491
 33
0.0
 40
0.0
 40
0.0
 40
0.0
 40
0.0
 40
0.3119503866
 40
0.5109744676
 40
0.6456308384
 40
0.7914381086
 40
1.0
 40
1.0
 40
1.0
 40
1.0
 10
130.2235879575
 20
144.3978837427
 30
0.0
 10
130.2387567991
 20
144.4095277569
 30
0.0
 10
130.2646120055
 20
144.4269841809
 30
0.0
 10
130.3021813184
 20
144.4428617674
 30
0.0
 10
130.3336675702
 20
144.4350213812
 30
0.0
 10
130.3473623378
 20
144.40550991
 30
0.0
 10
130.3485879575
 20
144.3839587419
 30
0.0
 10
130.3485879575
 20
144.3711738181
 30
0.0
 11
130.2235879575
 21
144.3978837427
 31
0.0
 11
130.2717715932
 21
144.4290193918
 31
0.0
 11
130.3068143852
 21
144.4395843413
 31
0.0
 11
130.3305004175
 21
144.4323593231
 31
0.0
 11
130.3441323744
 21
144.4092689132
 31
0.0
 11
130.3485879575
 21
144.3711738181
 31
0.0
  0
SPLINE
  5
32A
100
AcDbEntity
  8
BEZUGSACHSEN
100
AcDbSpline
 62
7
  6
CONTINUOUS
 70
0
 71
3
 72
18
 73
14
 74
12
 42
0.0000001
 43
0.0000001
 44
0.0000000001
 12
2.6737590161
 22
0.7427664394
 32
0.0
 13
2.6737590161
 23
-0.7427664394
 33
0.0
 40
0.0
 40
0.0
 40
0.0
 40
0.0
 40
0.0788628999
 40
0.1647195541
 40
0.2563676281
 40
0.3521236596
 40
0.4503969613
 40
0.5496032532
 40
0.6478758258
 40
0.7436299262
 40
0.8352788674
 40
0.9211360457
 40
1.0
 40
1.0
 40
1.0
 40
1.0
 10
126.9735879575
 20
143.9031997018
 30
0.0
 10
127.0438747541
 20
143.9227252736
 30
0.0
 10
127.1923256282
 20
143.9576727286
 30
0.0
 10
127.4261045115
 20
143.9980757011
 30
0.0
 10
127.6771173252
 20
144.0286006714
 30
0.0
 10
127.9406522294
 20
144.0490438471
 30
0.0
 10
128.211769858
 20
144.0592924894
 30
0.0
 10
128.4854059771
 20
144.0592924783
 30
0.0
 10
128.756521146
 20
144.0490439441
 30
0.0
 10
129.0200544045
 20
144.0286010575
 30
0.0
 10
129.2710667557
 20
143.9980764077
 30
0.0
 10
129.5048479033
 20
143.957673249
 30
0.0
 10
129.6533002213
 20
143.9227255347
 30
0.0
 10
129.7235879575
 20
143.9031997018
 30
0.0
 11
126.9735879575
 21
143.9031997018
 31
0.0
 11
127.1864249288
 21
143.9541286643
 31
0.0
 11
127.4211013733
 21
143.9952572207
 31
0.0
 11
127.6735189682
 21
144.026342459
 31
0.0
 11
127.9384284292
 21
144.0471336292
 31
0.0
 11
128.2109389504
 21
144.0575506574
 31
0.0
 11
128.4862375591
 21
144.0575506461
 31
0.0
 11
128.7587460592
 21
144.0471337119
 31
0.0
 11
129.0236501913
 21
144.0263431348
 31
0.0
 11
129.2760702067
 21
143.9952578622
 31
0.0
 11
129.5107481188
 21
143.954129253
 31
0.0
 11
129.7235879575
 21
143.9031997018
 31
0.0
  0
SPLINE
  5
32B
100
AcDbEntity
  8
BEZUGSACHSEN
100
AcDbSpline
 62
7
  6
CONTINUOUS
 70
0
 71
3
 72
11
 73
7
 74
5
 42
0.0000001
 43
0.0000001
 44
0.0000000001
 12
0.0
 22
-0.1395867963
 32
0.0
 13
0.0661959442
 23
-0.1231095805
 33
0.0
 40
0.0
 40
0.0
 40
0.0
 40
0.0
 40
0.2989089425
 40
0.5912641764
 40
0.8672480948
 40
1.0
 40
1.0
 40
1.0
 40
1.0
 10
126.4735879575
 20
144.1416529537
 30
0.0
 10
126.4735879575
 20
144.1277450398
 30
0.0
 10
126.4748778781
 20
144.1002053205
 30
0.0
 10
126.4816053262
 20
144.0602953588
 30
0.0
 10
126.4918140691
 20
144.0291602268
 30
0.0
 10
126.5000822274
 20
144.0119820196
 30
0.0
 10
126.50301144
 20
144.0065343425
 30
0.0
 11
126.4735879575
 21
144.1416529537
 31
0.0
 11
126.4757347114
 21
144.0999844756
 31
0.0
 11
126.4827555626
 21
144.0597840222
 31
0.0
 11
126.4949558093
 21
144.0232432191
 31
0.0
 11
126.50301144
 21
144.0065343425
 31
0.0
  0
SPLINE
  5
32C
100
AcDbEntity
  8
BEZUGSACHSEN
100
AcDbSpline
 62
7
  6
CONTINUOUS
 70
0
 71
3
 72
16
 73
12
 74
10
 42
0.0000001
 43
0.0000001
 44
0.0000000001
 12
0.244791693
 22
-0.4552575388
 32
0.0
 13
0.497355697
 23
0.1381647029
 33
0.0
 40
0.0
 40
0.0
 40
0.0
 40
0.0
 40
0.0354819688
 40
0.1069116572
 40
0.1821577292
 40
0.2654043123
 40
0.3615453499
 40
0.4759438992
 40
0.6177190239
 40
0.7944984177
 40
1.0
 40
1.0
 40
1.0
 40
1.0
 10
126.50301144
 20
144.0065343425
 30
0.0
 10
126.5059066704
 20
144.0011498646
 30
0.0
 10
126.5153480963
 20
143.9853130554
 30
0.0
 10
126.5351113271
 20
143.9607497133
 30
0.0
 10
126.5653641102
 20
143.9349212927
 30
0.0
 10
126.6033311085
 20
143.9126454563
 30
0.0
 10
126.6506643156
 20
143.8943407823
 30
0.0
 10
126.7100132526
 20
143.8810240959
 30
0.0
 10
126.7845138153
 20
143.875062273
 30
0.0
 10
126.8748097052
 20
143.8804968891
 30
0.0
 10
126.93951883
 20
143.8937353468
 30
0.0
 10
126.9735879575
 20
143.9031997018
 30
0.0
 11
126.50301144
 21
144.0065343425
 31
0.0
 11
126.5124112238
 21
143.9907944078
 31
0.0
 11
126.5355002272
 21
143.9620474025
 31
0.0
 11
126.5649375174
 21
143.9367078974
 31
0.0
 11
126.601872456
 21
143.9147460629
 31
0.0
 11
126.6480449994
 21
143.8965543039
 31
0.0
 11
126.7055865371
 21
143.8832863529
 31
0.0
 11
126.778504739
 21
143.877067502
 31
0.0
 11
126.8696130485
 21
143.8821822442
 31
0.0
 11
126.9735879575
 21
143.9031997018
 31
0.0
  0
SPLINE
  5
32D
100
AcDbEntity
  8
0
100
AcDbSpline
 62
7
  6
CONTINUOUS
 70
0
 71
3
 72
90
 73
86
 74
84
 42
0.0000001
 43
0.0000001
 44
0.0000000001
 12
-24.8083106396
 22
-21.8106235258
 32
0.0
 13
33.0242057488
 23
-12.493080578
 33
0.0
 40
0.0
 40
0.0
 40
0.0
 40
0.0
 40
0.0188425419
 40
0.0387588705
 40
0.0582080722
 40
0.0759598086
 40
0.0913252511
 40
0.1045132633
 40
0.1161044926
 40
0.1265934527
 40
0.1366051984
 40
0.1468497141
 40
0.1577729236
 40
0.1698528506
 40
0.183598994
 40
0.1991519538
 40
0.2160037071
 40
0.2333804617
 40
0.2511655114
 40
0.2694489658
 40
0.28797101
 40
0.3062142167
 40
0.3230824629
 40
0.3375534767
 40
0.3501244912
 40
0.3610924948
 40
0.3708182354
 40
0.3798363093
 40
0.3887632797
 40
0.3980205896
 40
0.4079178837
 40
0.4190241413
 40
0.4317806662
 40
0.4462739378
 40
0.4619626334
 40
0.4783509483
 40
0.495374519
 40
0.5130314672
 40
0.53128707
 40
0.5497452858
 40
0.5669542604
 40
0.5818057698
 40
0.5943748671
 40
0.6050513917
 40
0.6140373358
 40
0.6216969926
 40
0.6286750506
 40
0.6357169665
 40
0.6434956227
 40
0.6525726807
 40
0.6633477327
 40
0.6757829465
 40
0.6892087623
 40
0.7033028332
 40
0.7180304947
 40
0.7330460081
 40
0.7477145542
 40
0.7615360863
 40
0.7741538074
 40
0.785382636
 40
0.7952143611
 40
0.8036693632
 40
0.8105967051
 40
0.8161387974
 40
0.8208460027
 40
0.8254463681
 40
0.8307367598
 40
0.8373611706
 40
0.8457909788
 40
0.8563589456
 40
0.8690266771
 40
0.8831175131
 40
0.8976805099
 40
0.9121538576
 40
0.9262628179
 40
0.9397738917
 40
0.9524409341
 40
0.9640116487
 40
0.9742098987
 40
0.982756314
 40
0.9892529435
 40
0.9936428539
 40
0.9962575906
 40
0.9978274657
 40
1.0
 40
1.0
 40
1.0
 40
1.0
 10
173.8220723367
 20
117.0128673696
 30
0.0
 10
173.6662551262
 20
116.8758781741
 30
0.0
 10
173.346102146
 20
116.5936761415
 30
0.0
 10
172.8737876225
 20
116.1602961046
 30
0.0
 10
172.4290031736
 20
115.7152005527
 30
0.0
 10
172.0485752151
 20
115.2781625397
 30
0.0
 10
171.7501891367
 20
114.8635547702
 30
0.0
 10
171.5362711575
 20
114.475273089
 30
0.0
 10
171.3984276141
 20
114.1106845243
 30
0.0
 10
171.3263463915
 20
113.7631338621
 30
0.0
 10
171.3152830719
 20
113.423050978
 30
0.0
 10
171.3648520996
 20
113.0816070842
 30
0.0
 10
171.4773480415
 20
112.7316042556
 30
0.0
 10
171.6591853209
 20
112.3685242914
 30
0.0
 10
171.9172162676
 20
111.9916336921
 30
0.0
 10
172.2479106678
 20
111.6048332533
 30
0.0
 10
172.6370059015
 20
111.2181366766
 30
0.0
 10
173.0656610501
 20
110.8380470098
 30
0.0
 10
173.5191539328
 20
110.4629234371
 30
0.0
 10
173.9887132484
 20
110.0876540515
 30
0.0
 10
174.4620916314
 20
109.7090861979
 30
0.0
 10
174.9160795128
 20
109.3312644267
 30
0.0
 10
175.3202697155
 20
108.9638440774
 30
0.0
 10
175.6559637649
 20
108.61524985
 30
0.0
 10
175.9187542347
 20
108.2885563042
 30
0.0
 10
176.1130918459
 20
107.9767928801
 30
0.0
 10
176.2440465563
 20
107.6755130719
 30
0.0
 10
176.3166534137
 20
107.3778658504
 30
0.0
 10
176.3296087547
 20
107.0765454209
 30
0.0
 10
176.2795506617
 20
106.7693879632
 30
0.0
 10
176.1659375658
 20
106.4544402459
 30
0.0
 10
175.9850922477
 20
106.128134138
 30
0.0
 10
175.732372769
 20
105.7885603994
 30
0.0
 10
175.4132927791
 20
105.4389142017
 30
0.0
 10
175.0407942418
 20
105.0860528969
 30
0.0
 10
174.6299896646
 20
104.7343717188
 30
0.0
 10
174.1918300392
 20
104.3818657858
 30
0.0
 10
173.7320762622
 20
104.0235742775
 30
0.0
 10
173.2594065089
 20
103.656167751
 30
0.0
 10
172.7960090615
 20
103.2848860152
 30
0.0
 10
172.3744106654
 20
102.9217086192
 30
0.0
 10
172.0207504725
 20
102.5799999762
 30
0.0
 10
171.7427120402
 20
102.2650914924
 30
0.0
 10
171.5383476038
 20
101.9737350764
 30
0.0
 10
171.4029652275
 20
101.7035862486
 30
0.0
 10
171.3297532831
 20
101.4522065568
 30
0.0
 10
171.3142498068
 20
101.2118313234
 30
0.0
 10
171.357965543
 20
100.9733591605
 30
0.0
 10
171.4671683714
 20
100.7313563043
 30
0.0
 10
171.65088645
 20
100.486267413
 30
0.0
 10
171.9127191844
 20
100.2437018042
 30
0.0
 10
172.2420053799
 20
100.0093732812
 30
0.0
 10
172.622277599
 20
99.787348513
 30
0.0
 10
173.03786916
 20
99.577944
 30
0.0
 10
173.4772688984
 20
99.3779785588
 30
0.0
 10
173.9270787903
 20
99.1860825447
 30
0.0
 10
174.3695040025
 20
99.002418968
 30
0.0
 10
174.7868716641
 20
98.8272412725
 30
0.0
 10
175.1662065842
 20
98.6594030187
 30
0.0
 10
175.4997642395
 20
98.4970855923
 30
0.0
 10
175.7836521837
 20
98.3383803399
 30
0.0
 10
176.0132938328
 20
98.1812594388
 30
0.0
 10
176.1830088618
 20
98.0236452491
 30
0.0
 10
176.290586593
 20
97.8651450169
 30
0.0
 10
176.3327090583
 20
97.7027412974
 30
0.0
 10
176.3049826664
 20
97.5401830151
 30
0.0
 10
176.2143116917
 20
97.3797379728
 30
0.0
 10
176.0605460105
 20
97.2149725041
 30
0.0
 10
175.8365468388
 20
97.0421150911
 30
0.0
 10
175.5387372432
 20
96.8599647958
 30
0.0
 10
175.1731932999
 20
96.6715412446
 30
0.0
 10
174.7586392535
 20
96.4837340577
 30
0.0
 10
174.3198641381
 20
96.3020067948
 30
0.0
 10
173.8772424905
 20
96.1293964676
 30
0.0
 10
173.4433413866
 20
95.9664371314
 30
0.0
 10
173.0271704171
 20
95.8129035032
 30
0.0
 10
172.6372492535
 20
95.6688669168
 30
0.0
 10
172.2827264542
 20
95.5346010492
 30
0.0
 10
171.9721554231
 20
95.4115108678
 30
0.0
 10
171.7177311793
 20
95.3012274687
 30
0.0
 10
171.5236740872
 20
95.2068079534
 30
0.0
 10
171.4020282193
 20
95.126191272
 30
0.0
 10
171.32368988
 20
95.0636090512
 30
0.0
 10
171.3219392201
 20
94.9826644907
 30
0.0
 10
171.3645424873
 20
94.9629865212
 30
0.0
 10
171.3884578938
 20
94.9539393058
 30
0.0
 11
173.8220723367
 21
117.0128673696
 31
0.0
 11
173.3563080278
 21
116.5999884606
 31
0.0
 11
172.8732924956
 21
116.1533186447
 31
0.0
 11
172.4213784372
 21
115.6966714242
 31
0.0
 11
172.0388529667
 21
115.2522350013
 31
0.0
 11
171.7453793385
 21
114.8381195653
 31
0.0
 11
171.5377309673
 21
114.4551575179
 31
0.0
 11
171.4042347723
 21
114.0962944293
 31
0.0
 11
171.3353971844
 21
113.7567234511
 31
0.0
 11
171.3250143091
 21
113.4261720439
 31
0.0
 11
171.3726667126
 21
113.0911404967
 31
0.0
 11
171.4815490784
 21
112.7471383154
 31
0.0
 11
171.6582168955
 21
112.3893465278
 31
0.0
 11
171.9119453077
 21
112.0127794217
 31
0.0
 11
172.2434604211
 21
111.620297161
 31
0.0
 11
172.6364298031
 21
111.2260343552
 31
0.0
 11
173.0643912476
 21
110.8435096167
 31
0.0
 11
173.5159447158
 21
110.4676895878
 31
0.0
 11
173.9866409344
 21
110.089269599
 31
0.0
 11
174.4632331487
 21
109.7056051974
 31
0.0
 11
174.9247534999
 21
109.3181113774
 31
0.0
 11
175.3352095796
 21
108.941281525
 31
0.0
 11
175.6648262643
 21
108.5950850584
 31
0.0
 11
175.9226429759
 21
108.2695604046
 31
0.0
 11
176.1120093982
 21
107.9606862977
 31
0.0
 11
176.2381650095
 21
107.6652253008
 31
0.0
 11
176.3071592622
 21
107.3754344525
 31
0.0
 11
176.3195522258
 21
107.0808135495
 31
0.0
 11
176.2718693794
 21
106.7787606351
 31
0.0
 11
176.1630036446
 21
106.4704848533
 31
0.0
 11
175.9875640629
 21
106.1482832759
 31
0.0
 11
175.7387856958
 21
105.8081775547
 31
0.0
 11
175.4182262451
 21
105.4525875702
 31
0.0
 11
175.0435667785
 21
105.0945344397
 31
0.0
 11
174.6335908751
 21
104.7410108862
 31
0.0
 11
174.1963845101
 21
104.3873590514
 31
0.0
 11
173.7372028105
 21
104.0277212303
 31
0.0
 11
173.2620732322
 21
103.6563749422
 31
0.0
 11
172.7876455517
 21
103.2733849524
 31
0.0
 11
172.3586259929
 21
102.9004417395
 31
0.0
 11
172.0077009018
 21
102.5576227574
 31
0.0
 11
171.7354080954
 21
102.2441904802
 31
0.0
 11
171.5356603237
 21
101.9535366257
 31
0.0
 11
171.4053965646
 21
101.6868174824
 31
0.0
 11
171.3371963119
 21
101.4431636356
 31
0.0
 11
171.3237443238
 21
101.2130527882
 31
0.0
 11
171.3650676018
 21
100.9841396147
 31
0.0
 11
171.4686997835
 21
100.7490152649
 31
0.0
 11
171.6456576522
 21
100.5069626393
 31
0.0
 11
171.9036509323
 21
100.2617595913
 31
0.0
 11
172.2362676877
 21
100.0207275699
 31
0.0
 11
172.618010633
 21
99.7949934835
 31
0.0
 11
173.0329210213
 21
99.5838072982
 31
0.0
 11
173.4751474981
 21
99.381046931
 31
0.0
 11
173.9309059322
 21
99.1853370796
 31
0.0
 11
174.3779938846
 21
98.99854252
 31
0.0
 11
174.7984975474
 21
98.8207074758
 31
0.0
 11
175.1790836209
 21
98.6507847844
 31
0.0
 11
175.5118893042
 21
98.4870152339
 31
0.0
 11
175.794195001
 21
98.3264609859
 31
0.0
 11
176.0225746777
 21
98.1656933636
 31
0.0
 11
176.1871331347
 21
98.0066872018
 31
0.0
 11
176.285547285
 21
97.852319891
 31
0.0
 11
176.3217376808
 21
97.701098722
 31
0.0
 11
176.2986099165
 21
97.5509067569
 31
0.0
 11
176.2167781342
 21
97.3964946837
 31
0.0
 11
176.0707389794
 21
97.233535953
 31
0.0
 11
175.8527614839
 21
97.0602583034
 31
0.0
 11
175.5566189669
 21
96.8754287533
 31
0.0
 11
175.1856951708
 21
96.6817413167
 31
0.0
 11
174.7623950239
 21
96.4881754707
 31
0.0
 11
174.3183320949
 21
96.303185352
 31
0.0
 11
173.8731437081
 21
96.128886288
 31
0.0
 11
173.4370192333
 21
95.9645577091
 31
0.0
 11
173.0184568859
 21
95.8096543614
 31
0.0
 11
172.6261515474
 21
95.6641319982
 31
0.0
 11
172.268907043
 21
95.52825765
 31
0.0
 11
171.9561483446
 21
95.4030902725
 31
0.0
 11
171.6975249635
 21
95.2898945368
 31
0.0
 11
171.5064204059
 21
95.1922596401
 31
0.0
 11
171.3856867216
 21
95.1119391641
 31
0.0
 11
171.3286206633
 21
95.0471045308
 31
0.0
 11
171.3297832403
 21
94.9952604381
 31
0.0
 11
171.3884578938
 21
94.9539393058
 31
0.0
  0
SPLINE
  5
32E
100
AcDbEntity
  8
0
100
AcDbSpline
 62
7
  6
CONTINUOUS
 70
0
 71
3
 72
91
 73
87
 74
85
 42
0.0000001
 43
0.0000001
 44
0.0000000001
 12
24.741710525
 22
21.8788609942
 32
0.0
 13
-28.7045717508
 23
16.1848036589
 33
0.0
 40
0.0
 40
0.0
 40
0.0
 40
0.0
 40
0.0183966492
 40
0.0377301311
 40
0.0567320517
 40
0.0741737108
 40
0.0892896253
 40
0.1022689793
 40
0.113668036
 40
0.1240292354
 40
0.1340021112
 40
0.1442304605
 40
0.155025275
 40
0.1666804764
 40
0.1794234454
 40
0.1932223897
 40
0.2081155777
 40
0.2240344104
 40
0.2410087924
 40
0.2591454821
 40
0.2782959624
 40
0.2978329336
 40
0.3167942095
 40
0.3337897965
 40
0.3483476232
 40
0.3610604028
 40
0.372148431
 40
0.3820777929
 40
0.3914371769
 40
0.4007247418
 40
0.4102331542
 40
0.4204456891
 40
0.4319832756
 40
0.4451967836
 40
0.4598089643
 40
0.4751953047
 40
0.4911493577
 40
0.5076448261
 40
0.5246444678
 40
0.541995651
 40
0.5586669867
 40
0.5733076193
 40
0.5857128043
 40
0.5962653403
 40
0.6052422314
 40
0.6129113733
 40
0.6198296364
 40
0.6267029112
 40
0.634270572
 40
0.6431406373
 40
0.6537268734
 40
0.6662090275
 40
0.6800282813
 40
0.6946393945
 40
0.7100597856
 40
0.7262088308
 40
0.742451233
 40
0.7581030874
 40
0.7726906931
 40
0.7858604737
 40
0.7975444401
 40
0.8077829194
 40
0.8163997332
 40
0.8232658122
 40
0.8287367477
 40
0.8334092352
 40
0.8380750303
 40
0.8435637182
 40
0.8505067327
 40
0.8594403761
 40
0.8706165639
 40
0.8836556037
 40
0.8975555402
 40
0.9114995213
 40
0.9251441859
 40
0.9382609416
 40
0.950620063
 40
0.9619933229
 40
0.9721348615
 40
0.9807985599
 40
0.9875372245
 40
0.9921341524
 40
0.9948882567
 40
0.9964917775
 40
0.9984967501
 40
1.0
 40
1.0
 40
1.0
 40
1.0
 10
172.70683515
 20
117.0128673694
 30
0.0
 10
172.8585566731
 20
117.1470332797
 30
0.0
 10
173.1700017124
 20
117.4218856449
 30
0.0
 10
173.6323628037
 20
117.8418656693
 30
0.0
 10
174.0719250127
 20
118.2710056252
 30
0.0
 10
174.4527120105
 20
118.6926807528
 30
0.0
 10
174.7552231082
 20
119.0935447026
 30
0.0
 10
174.975220675
 20
119.4700247602
 30
0.0
 10
175.1197182933
 20
119.8257157709
 30
0.0
 10
175.198377053
 20
120.1677619143
 30
0.0
 10
175.215469048
 20
120.5056469347
 30
0.0
 10
175.1695898437
 20
120.8456545706
 30
0.0
 10
175.0614426643
 20
121.1903592795
 30
0.0
 10
174.8916189758
 20
121.5399517578
 30
0.0
 10
174.6617887598
 20
121.8931186023
 30
0.0
 10
174.3777070673
 20
122.250658668
 30
0.0
 10
174.0456789806
 20
122.6129645411
 30
0.0
 10
173.6703306559
 20
122.981826077
 30
0.0
 10
173.2560186655
 20
123.3613502995
 30
0.0
 10
172.8078611516
 20
123.7563559613
 30
0.0
 10
172.3368428728
 20
124.1680652757
 30
0.0
 10
171.8641776837
 20
124.5916743423
 30
0.0
 10
171.4222828959
 20
125.0138320827
 30
0.0
 10
171.0417185846
 20
125.419904943
 30
0.0
 10
170.7357770281
 20
125.7999875416
 30
0.0
 10
170.5040904194
 20
126.1541280632
 30
0.0
 10
170.3411147122
 20
126.4890912944
 30
0.0
 10
170.2402012333
 20
126.809366249
 30
0.0
 10
170.1978292366
 20
127.1228986842
 30
0.0
 10
170.2171397897
 20
127.4343648415
 30
0.0
 10
170.2997661335
 20
127.744837061
 30
0.0
 10
170.4472641465
 20
128.057595782
 30
0.0
 10
170.6660234022
 20
128.3760206836
 30
0.0
 10
170.9570376695
 20
128.6984280269
 30
0.0
 10
171.3096845418
 20
129.0185955676
 30
0.0
 10
171.708339622
 20
129.3305650402
 30
0.0
 10
172.1387998108
 20
129.6341871781
 30
0.0
 10
172.5928478551
 20
129.9346049763
 30
0.0
 10
173.0637639675
 20
130.2372454628
 30
0.0
 10
173.5352066283
 20
130.5426550945
 30
0.0
 10
173.9777845688
 20
130.8447707009
 30
0.0
 10
174.3613571348
 20
131.1360027701
 30
0.0
 10
174.6715678801
 20
131.4108729484
 30
0.0
 10
174.9085881322
 20
131.6718619673
 30
0.0
 10
175.0746904319
 20
131.9227874664
 30
0.0
 10
175.1749552771
 20
132.1640550049
 30
0.0
 10
175.2152272393
 20
132.399108391
 30
0.0
 10
175.1967961433
 20
132.6358832924
 30
0.0
 10
175.1167289522
 20
132.8819013801
 30
0.0
 10
174.9685767364
 20
133.1418426524
 30
0.0
 10
174.7456672297
 20
133.4153461783
 30
0.0
 10
174.451961937
 20
133.6968210407
 30
0.0
 10
174.1013466967
 20
133.9801383698
 30
0.0
 10
173.7085111948
 20
134.2610636977
 30
0.0
 10
173.2836368485
 20
134.5404287632
 30
0.0
 10
172.8370948182
 20
134.8191650151
 30
0.0
 10
172.3853576521
 20
135.0942870164
 30
0.0
 10
171.9485299042
 20
135.3608429203
 30
0.0
 10
171.543770404
 20
135.6149866997
 30
0.0
 10
171.1823463923
 20
135.8558058583
 30
0.0
 10
170.8702195355
 20
136.0837651302
 30
0.0
 10
170.6117892693
 20
136.2993755294
 30
0.0
 10
170.4135932279
 20
136.5027076802
 30
0.0
 10
170.2795964274
 20
136.6920723201
 30
0.0
 10
170.2083871877
 20
136.8679727715
 30
0.0
 10
170.2016728088
 20
137.0350144321
 30
0.0
 10
170.2629303378
 20
137.1907575921
 30
0.0
 10
170.3888669121
 20
137.3341795905
 30
0.0
 10
170.5831857229
 20
137.4693530281
 30
0.0
 10
170.8530222577
 20
137.5974371897
 30
0.0
 10
171.1980297545
 20
137.7177984647
 30
0.0
 10
171.6035892602
 20
137.8265222099
 30
0.0
 10
172.0436708962
 20
137.9214490306
 30
0.0
 10
172.4930044324
 20
138.0037246538
 30
0.0
 10
172.93534507
 20
138.0756790232
 30
0.0
 10
173.3612039296
 20
138.1399952835
 30
0.0
 10
173.762606391
 20
138.198860443
 30
0.0
 10
174.1313353597
 20
138.2543700609
 30
0.0
 10
174.4594134246
 20
138.3078171714
 30
0.0
 10
174.7352621667
 20
138.360682927
 30
0.0
 10
174.9508195091
 20
138.4107122122
 30
0.0
 10
175.0951364827
 20
138.4639550046
 30
0.0
 10
175.1871662541
 20
138.5073189943
 30
0.0
 10
175.2174675353
 20
138.5825255354
 30
0.0
 10
175.1698765138
 20
138.6264359953
 30
0.0
 10
175.1366883006
 20
138.6477794784
 30
0.0
 10
175.1223049189
 20
138.6558894134
 30
0.0
 11
172.70683515
 21
117.0128673694
 31
0.0
 11
173.1613300188
 21
117.4161211641
 31
0.0
 11
173.6324400973
 21
117.8471572594
 31
0.0
 11
174.0793135869
 21
118.2878110745
 31
0.0
 11
174.4629537002
 21
118.7175381177
 31
0.0
 11
174.7606915695
 21
119.1182854309
 31
0.0
 11
174.9742735972
 21
119.4899694979
 31
0.0
 11
175.113999187
 21
119.8395670511
 31
0.0
 11
175.1892054965
 21
120.1734086294
 31
0.0
 11
175.2052853797
 21
120.5023982323
 31
0.0
 11
175.1613251264
 21
120.8373458278
 31
0.0
 11
175.0564208975
 21
121.1780922948
 31
0.0
 11
174.8902342395
 21
121.5253174704
 31
0.0
 11
174.6630088338
 21
121.8795804389
 31
0.0
 11
174.3813158454
 21
122.2378488236
 31
0.0
 11
174.0503469838
 21
122.6017374095
 31
0.0
 11
173.6765855684
 21
122.9715083155
 31
0.0
 11
173.2643048881
 21
123.3514123285
 31
0.0
 11
172.8159709913
 21
123.7486730035
 31
0.0
 11
172.3408996356
 21
124.1662393724
 31
0.0
 11
171.8617983919
 21
124.5984742997
 31
0.0
 11
171.4109219208
 21
125.0330993609
 31
0.0
 11
171.0290501613
 21
125.44451417
 31
0.0
 11
170.7297970849
 21
125.8208504377
 31
0.0
 11
170.5024813778
 21
126.1738701277
 31
0.0
 11
170.344347476
 21
126.5041819677
 31
0.0
 11
170.2477090735
 21
126.8175651991
 31
0.0
 11
170.2079103231
 21
127.1241125134
 31
0.0
 11
170.2269124659
 21
127.4302713914
 31
0.0
 11
170.3063348628
 21
127.7341044649
 31
0.0
 11
170.4483872575
 21
128.0400307435
 31
0.0
 11
170.6616486411
 21
128.3558270506
 31
0.0
 11
170.9515149717
 21
128.6820694701
 31
0.0
 11
171.3070287855
 21
129.0084447892
 31
0.0
 11
171.7058569082
 21
129.3233737564
 31
0.0
 11
172.1353665598
 21
129.6286181181
 31
0.0
 11
172.5888638504
 21
129.9305409916
 31
0.0
 11
173.0603263971
 21
130.2354370593
 31
0.0
 11
173.5402032168
 21
130.5486932568
 31
0.0
 11
173.9934060675
 21
130.861402699
 31
0.0
 11
174.3768234115
 21
131.1560379976
 31
0.0
 11
174.6812992314
 21
131.4301945959
 31
0.0
 11
174.9127844231
 21
131.6907437191
 31
0.0
 11
175.0737108622
 21
131.9397563689
 31
0.0
 11
175.1685606243
 21
132.1746220607
 31
0.0
 11
175.2058046055
 21
132.4000614404
 31
0.0
 11
175.1889818921
 21
132.6264465249
 31
0.0
 11
175.1140687717
 21
132.8648992273
 31
0.0
 11
174.9719312298
 21
133.1210668298
 31
0.0
 11
174.7541248947
 21
133.3945786732
 31
0.0
 11
174.4590081456
 21
133.6824380644
 31
0.0
 11
174.105522611
 21
133.9711715354
 31
0.0
 11
173.7140420429
 21
134.2533414375
 31
0.0
 11
173.2892915667
 21
134.534367124
 31
0.0
 11
172.8374583919
 21
134.8177889322
 31
0.0
 11
172.3798454142
 21
135.0977356447
 31
0.0
 11
171.9391240738
 21
135.367917976
 31
0.0
 11
171.5317821259
 21
135.6252129242
 31
0.0
 11
171.1706089957
 21
135.8676012643
 31
0.0
 11
170.8600543392
 21
136.0966677804
 31
0.0
 11
170.6022734232
 21
136.3155228866
 31
0.0
 11
170.4063882236
 21
136.5219763997
 31
0.0
 11
170.2791136493
 21
136.7096637661
 31
0.0
 11
170.2160599806
 21
136.8789983999
 31
0.0
 11
170.2123888604
 21
137.0332767983
 31
0.0
 11
170.2664643938
 21
137.1775784423
 31
0.0
 11
170.3823451478
 21
137.316983849
 31
0.0
 11
170.5677508668
 21
137.4519245742
 31
0.0
 11
170.832374196
 21
137.5824395595
 31
0.0
 11
171.1798410714
 21
137.7070192986
 31
0.0
 11
171.5952119404
 21
137.8207178538
 31
0.0
 11
172.0436538245
 21
137.918995658
 31
0.0
 11
172.4965039505
 21
138.0028001325
 31
0.0
 11
172.9412135123
 21
138.0757520991
 31
0.0
 11
173.369500821
 21
138.1409262351
 31
0.0
 11
173.7732953346
 21
138.2007008093
 31
0.0
 11
174.1446583922
 21
138.2571840329
 31
0.0
 11
174.4750842621
 21
138.3120674381
 31
0.0
 11
174.7559494659
 21
138.3667719834
 31
0.0
 11
174.9717584323
 21
138.4211866273
 31
0.0
 11
175.11411177
 21
138.4739769017
 31
0.0
 11
175.1893915853
 21
138.5250361366
 31
0.0
 11
175.2055280853
 21
138.5754787659
 31
0.0
 11
175.1650335446
 21
138.627874029
 31
0.0
 11
175.1223049189
 21
138.6558894134
 31
0.0
  0
SPLINE
  5
32F
100
AcDbEntity
  8
0
100
AcDbSpline
 62
7
  6
CONTINUOUS
 70
0
 71
3
 72
22
 73
18
 74
16
 42
0.0000001
 43
0.0000001
 44
0.0000000001
 12
-2.8453792157
 22
-0.3268659781
 32
0.0
 13
2.5163921407
 23
1.3517764726
 33
0.0
 40
0.0
 40
0.0
 40
0.0
 40
0.0
 40
0.0950370443
 40
0.1892276922
 40
0.2823684341
 40
0.374381227
 40
0.4663038421
 40
0.5599802977
 40
0.6546650965
 40
0.7419933038
 40
0.809702094
 40
0.8539246806
 40
0.8790685076
 40
0.8976613807
 40
0.9290737433
 40
0.9816745102
 40
1.0
 40
1.0
 40
1.0
 40
1.0
 10
172.7068351501
 20
94.9055307017
 30
0.0
 10
172.6166963399
 20
94.8951759095
 30
0.0
 10
172.4371231381
 20
94.8754031493
 30
0.0
 10
172.1688900111
 20
94.8484876176
 30
0.0
 10
171.9032659508
 20
94.8245988695
 30
0.0
 10
171.6395492826
 20
94.8039434533
 30
0.0
 10
171.3750302146
 20
94.7868774593
 30
0.0
 10
171.1078080409
 20
94.7743663175
 30
0.0
 10
170.8442935964
 20
94.7687565223
 30
0.0
 10
170.6069021655
 20
94.7727101479
 30
0.0
 10
170.4143311524
 20
94.7893681645
 30
0.0
 10
170.2915489385
 20
94.8158540089
 30
0.0
 10
170.2047843073
 20
94.8577499352
 30
0.0
 10
170.2106458697
 20
94.9407054111
 30
0.0
 10
170.2920380003
 20
95.0039796115
 30
0.0
 10
170.3725070366
 20
95.0567027448
 30
0.0
 10
170.4313741953
 20
95.0894739077
 30
0.0
 10
170.4467455681
 20
95.0977312297
 30
0.0
 11
172.7068351501
 21
94.9055307017
 31
0.0
 11
172.4362740703
 21
94.8757524629
 31
0.0
 11
172.1678479407
 21
94.8488518197
 31
0.0
 11
171.9021512537
 21
94.8250163743
 31
0.0
 11
171.6394149527
 21
94.8045384902
 31
0.0
 11
171.3766758191
 21
94.7877518089
 31
0.0
 11
171.1086557388
 21
94.7755428981
 31
0.0
 11
170.837518724
 21
94.7703889242
 31
0.0
 11
170.5874738315
 21
94.7763542223
 31
0.0
 11
170.3945292057
 21
94.7958214814
 31
0.0
 11
170.2719027546
 21
94.8275215226
 31
0.0
 11
170.2137084311
 21
94.8699416991
 31
0.0
 11
170.2145906092
 21
94.9231860945
 31
0.0
 11
170.2751487172
 21
94.9897213421
 31
0.0
 11
170.4011615214
 21
95.0722878876
 31
0.0
 11
170.4467455681
 21
95.0977312297
 31
0.0
  0
ENDSEC
  0
SECTION
  2
OBJECTS
  0
DICTIONARY
  5
C
100
AcDbDictionary
280
0
281
1
  3
ACAD_GROUP
350
D
  3
ACAD_MLINESTYLE
350
17
  3
ACAD_LAYOUT
350
1A
  3
ACAD_PLOTSETTINGS
350
19
  3
ACAD_PLOTSTYLENAME
350
E
  0
DICTIONARY
  5
D
102
{ACAD_REACTORS
330
C
102
}
100
AcDbDictionary
280
0
281
1
  0
ACDBDICTIONARYWDFLT
  5
E
102
{ACAD_REACTORS
330
C
102
}
100
AcDbDictionary
281
1
  3
Normal
350
F
100
AcDbDictionaryWithDefault
340
F
  0
DICTIONARY
  5
17
102
{ACAD_REACTORS
330
C
102
}
100
AcDbDictionary
280
0
281
1
  3
Standard
350
18
  0
DICTIONARY
  5
19
102
{ACAD_REACTORS
330
C
102
}
100
AcDbDictionary
281
1
  0
DICTIONARY
  5
1A
102
{ACAD_REACTORS
330
C
102
}
100
AcDbDictionary
281
1
  3
Model
350
330
  3
Layout1
350
331
  0
ACDBPLACEHOLDER
  5
F
102
{ACAD_REACTORS
330
E
102
}
  0
MLINESTYLE
  5
18
102
{ACAD_REACTORS
330
17
102
}
100
AcDbMlineStyle
  2
STANDARD
 70
0
  3

 62
256
 51
90.0
 52
90.0
 71
2
 49
0.5
 62
256
  6
BYLAYER
 49
-0.5
 62
256
  6
BYLAYER
  0
LAYOUT
  5
330
102
{ACAD_REACTORS
330
1A
102
}
100
AcDbPlotSettings
  1

  2
none_device
  4
ISO_A4_(297.00_x_210.00_MM)
  6

 40
0.0
 41
0.0
 42
0.0
 43
0.0
 44
297.0
 45
210.0
 46
0.0
 47
0.0
 48
0.0
 49
0.0
140
0.0
141
0.0
142
1.0
143
1.0
 70
1024
 72
1
 73
0
 74
0
  7

 75
0
147
1.0
148
0.0
149
0.0
100
AcDbLayout
  1
Model
 70
0
 71
0
 10
0.0
 20
0.0
 11
297.0
 21
210.0
 12
0.0
 22
0.0
 32
0.0
 14
0.0
 24
0.0
 34
0.0
 15
0.0
 25
0.0
 35
0.0
146
0.0
 13
0.0
 23
0.0
 33
0.0
 16
1.0
 26
0.0
 36
0.0
 17
0.0
 27
1.0
 37
0.0
 76
0
330
217
345
0
346
0
  0
LAYOUT
  5
331
102
{ACAD_REACTORS
330
1A
102
}
100
AcDbPlotSettings
  1

  2
none_device
  4
ISO_A4_(297.00_x_210.00_MM)
  6

 40
0.0
 41
0.0
 42
0.0
 43
0.0
 44
297.0
 45
210.0
 46
0.0
 47
0.0
 48
0.0
 49
0.0
140
0.0
141
0.0
142
1.0
143
1.0
 70
0
 72
1
 73
0
 74
0
  7

 75
0
147
1.0
148
0.0
149
0.0
100
AcDbLayout
  1
Layout1
 70
0
 71
1
 10
0.0
 20
0.0
 11
297.0
 21
210.0
 12
0.0
 22
0.0
 32
0.0
 14
0.0
 24
0.0
 34
0.0
 15
0.0
 25
0.0
 35
0.0
146
0.0
 13
0.0
 23
0.0
 33
0.0
 16
1.0
 26
0.0
 36
0.0
 17
0.0
 27
1.0
 37
0.0
 76
0
330
218
345
0
346
0
  0
ENDSEC
  0
EOF
