999
DXF file: 40-484-12-8.dxf
999
Pro/ENGINEER 2009220 by Parametric Technology Corporation
  0
SECTION
  2
HEADER
  9
$ACADVER
  1
AC1021
  9
$DWGCODEPAGE
  3
ANSI_1252
  9
$EXTMAX
 10
297.0
 20
210.0
 30
0.0
  9
$EXTMIN
 10
0.0
 20
0.0
 30
0.0
  9
$LIMMIN
 10
0.0
 20
0.0
  9
$LIMMAX
 10
297.0
 20
210.0
  9
$VIEWCTR
 10
148.5
 20
105.0
  9
$VIEWSIZE
 40
210.0
  9
$CLAYER
  8
0
  9
$LTSCALE
 40
16.335
  9
$CELTYPE
  6
BYLAYER
  9
$DIMSCALE
 40
1.0
  9
$DIMASZ
 40
3.5
  9
$DIMEXO
 40
1.85625
  9
$DIMDLI
 40
11.286
  9
$DIMEXE
 40
5.346
  9
$DIMCEN
 40
2.673
  9
$DIMLFAC
 40
1.0
  9
$DIMBLK
  1
_FILLED
  9
$DIMTXT
 40
3.5
  9
$DIMTOL
 70
1
  9
$DIMLIM
 70
0
  9
$DIMTFAC
 40
1.0
  9
$DIMTP
 40
0.005
  9
$DIMTM
 40
0.005
  9
$PDMODE
 70
3
  9
$PDSIZE
 40
0.3125
  9
$HANDSEED
  5
326
  9
$TILEMODE
 70
1
  9
$MEASUREMENT
 70
1
  9
$INSUNITS
 70
4
  0
ENDSEC
  0
SECTION
  2
CLASSES
  0
CLASS
  1
ACDBDICTIONARYWDFLT
  2
AcDbDictionaryWithDefault
  3
AutoCAD 2000
 90
0
 91
1
280
0
281
0
  0
CLASS
  1
ACDBPLACEHOLDER
  2
AcDbPlaceHolder
  3
AutoCAD 2000
 90
0
 91
1
280
0
281
0
  0
CLASS
  1
LAYOUT
  2
AcDbLayout
  3
AutoCAD 2000
 90
0
 91
0
280
0
281
0
  0
ENDSEC
  0
SECTION
  2
TABLES
  0
TABLE
  2
VPORT
  5
8
100
AcDbSymbolTable
 70
2
  0
VPORT
  5
1F4
100
AcDbSymbolTableRecord
100
AcDbViewportTableRecord
  2
*ACTIVE
 70
0
 10
0.0
 20
0.0
 11
1.0
 21
1.0
 12
148.5
 22
105.0
 13
0.0
 23
0.0
 14
1.0
 24
1.0
 15
0.0
 25
0.0
 16
0.0
 26
0.0
 36
1.0
 17
0.0
 27
0.0
 37
0.0
 40
210.0
 41
1.4142857143
 42
50.0
 43
0.0
 44
0.0
 50
0.0
 51
0.0
 71
0
 72
100
 73
1
 74
1
 75
0
 76
0
 77
0
 78
0
  0
ENDTAB
  0
TABLE
  2
LTYPE
  5
5
100
AcDbSymbolTable
 70
6
  0
LTYPE
  5
14
100
AcDbSymbolTableRecord
100
AcDbLinetypeTableRecord
  2
BYBLOCK
 70
0
  3

 72
65
 73
0
 40
0.0
  0
LTYPE
  5
15
100
AcDbSymbolTableRecord
100
AcDbLinetypeTableRecord
  2
BYLAYER
 70
0
  3

 72
65
 73
0
 40
0.0
  0
LTYPE
  5
16
100
AcDbSymbolTableRecord
100
AcDbLinetypeTableRecord
  2
CONTINUOUS
 70
64
  3
Solid line
 72
65
 73
0
 40
0.0
  0
LTYPE
  5
1F5
100
AcDbSymbolTableRecord
100
AcDbLinetypeTableRecord
  2
CENTER
 70
64
  3
____ _ ____ _ ____ _ ____ _ ____ _ ____ _ ____
 72
65
 73
4
 40
0.6
 49
0.375
 74
0
 49
-0.075
 74
0
 49
0.075
 74
0
 49
-0.075
 74
0
  0
LTYPE
  5
1F6
100
AcDbSymbolTableRecord
100
AcDbLinetypeTableRecord
  2
HIDDEN
 70
64
  3
- - - - - - - - - - - - - - - - - - - -
 72
65
 73
2
 40
0.2
 49
0.1
 74
0
 49
-0.1
 74
0
  0
LTYPE
  5
1F7
100
AcDbSymbolTableRecord
100
AcDbLinetypeTableRecord
  2
PHANTOM
 70
64
  3
_____ _ _ _____ _ _ _____ _ _ _____
 72
65
 73
6
 40
0.8
 49
0.45
 74
0
 49
-0.05
 74
0
 49
0.1
 74
0
 49
-0.05
 74
0
 49
0.1
 74
0
 49
-0.05
 74
0
  0
LTYPE
  5
1F8
100
AcDbSymbolTableRecord
100
AcDbLinetypeTableRecord
  2
DOT
 70
64
  3
. . . . . . . . . . . . . . . . . . . .
 72
65
 73
2
 40
0.2
 49
0.1
 74
0
 49
-0.1
 74
0
  0
LTYPE
  5
1F9
100
AcDbSymbolTableRecord
100
AcDbLinetypeTableRecord
  2
DASHED
 70
64
  3
- - - - - - - - - - - - - - - - - - - -
 72
65
 73
2
 40
0.2
 49
0.1
 74
0
 49
-0.1
 74
0
  0
ENDTAB
  0
TABLE
  2
LAYER
  5
2
100
AcDbSymbolTable
 70
36
  0
LAYER
  5
10
100
AcDbSymbolTableRecord
100
AcDbLayerTableRecord
  2
0
 70
0
 62
7
  6
CONTINUOUS
370
-3
390
F
  0
LAYER
  5
1FA
100
AcDbSymbolTableRecord
100
AcDbLayerTableRecord
  2
DEFAULT_1
 70
0
 62
7
  6
CENTER
370
-3
390
F
  0
LAYER
  5
1FB
100
AcDbSymbolTableRecord
100
AcDbLayerTableRecord
  2
DEFAULT_2
 70
0
 62
8
  6
HIDDEN
370
-3
390
F
  0
LAYER
  5
1FC
100
AcDbSymbolTableRecord
100
AcDbLayerTableRecord
  2
DEFAULT_3
 70
0
 62
7
  6
PHANTOM
370
-3
390
F
  0
LAYER
  5
1FD
100
AcDbSymbolTableRecord
100
AcDbLayerTableRecord
  2
ANALYSEN
 70
0
 62
7
  6
CONTINUOUS
370
-3
390
F
  0
LAYER
  5
1FE
100
AcDbSymbolTableRecord
100
AcDbLayerTableRecord
  2
AUSSENKONTUR
 70
0
 62
7
  6
CONTINUOUS
370
-3
390
F
  0
LAYER
  5
1FF
100
AcDbSymbolTableRecord
100
AcDbLayerTableRecord
  2
BEZUGSACHSEN
 70
0
 62
7
  6
CONTINUOUS
370
-3
390
F
  0
LAYER
  5
200
100
AcDbSymbolTableRecord
100
AcDbLayerTableRecord
  2
BEZUGSACHSENKENNZEICHEN
 70
0
 62
7
  6
CONTINUOUS
370
-3
390
F
  0
LAYER
  5
201
100
AcDbSymbolTableRecord
100
AcDbLayerTableRecord
  2
BEZUGSEBENEN
 70
0
 62
7
  6
CONTINUOUS
370
-3
390
F
  0
LAYER
  5
202
100
AcDbSymbolTableRecord
100
AcDbLayerTableRecord
  2
BEZUGSPUNKTE
 70
0
 62
7
  6
CONTINUOUS
370
-3
390
F
  0
LAYER
  5
203
100
AcDbSymbolTableRecord
100
AcDbLayerTableRecord
  2
BOHRUNGEN
 70
0
 62
7
  6
CONTINUOUS
370
-3
390
F
  0
LAYER
  5
204
100
AcDbSymbolTableRecord
100
AcDbLayerTableRecord
  2
FASEN
 70
0
 62
7
  6
CONTINUOUS
370
-3
390
F
  0
LAYER
  5
205
100
AcDbSymbolTableRecord
100
AcDbLayerTableRecord
  2
FLAECHEN
 70
0
 62
7
  6
CONTINUOUS
370
-3
390
F
  0
LAYER
  5
206
100
AcDbSymbolTableRecord
100
AcDbLayerTableRecord
  2
GEWINDE
 70
0
 62
7
  6
CONTINUOUS
370
-3
390
F
  0
LAYER
  5
207
100
AcDbSymbolTableRecord
100
AcDbLayerTableRecord
  2
HILFEN
 70
0
 62
7
  6
CONTINUOUS
370
-3
390
F
  0
LAYER
  5
208
100
AcDbSymbolTableRecord
100
AcDbLayerTableRecord
  2
INNENKONTUR
 70
0
 62
7
  6
CONTINUOUS
370
-3
390
F
  0
LAYER
  5
209
100
AcDbSymbolTableRecord
100
AcDbLayerTableRecord
  2
KURVEN
 70
0
 62
7
  6
CONTINUOUS
370
-3
390
F
  0
LAYER
  5
20A
100
AcDbSymbolTableRecord
100
AcDbLayerTableRecord
  2
MAKINO
 70
0
 62
7
  6
CONTINUOUS
370
-3
390
F
  0
LAYER
  5
20B
100
AcDbSymbolTableRecord
100
AcDbLayerTableRecord
  2
OELVERDR_RILLE
 70
0
 62
7
  6
CONTINUOUS
370
-3
390
F
  0
LAYER
  5
20C
100
AcDbSymbolTableRecord
100
AcDbLayerTableRecord
  2
PLATZIERUNG
 70
0
 62
7
  6
CONTINUOUS
370
-3
390
F
  0
LAYER
  5
20D
100
AcDbSymbolTableRecord
100
AcDbLayerTableRecord
  2
PUNKTE
 70
0
 62
7
  6
CONTINUOUS
370
-3
390
F
  0
LAYER
  5
20E
100
AcDbSymbolTableRecord
100
AcDbLayerTableRecord
  2
RUNDUNGEN
 70
0
 62
7
  6
CONTINUOUS
370
-3
390
F
  0
LAYER
  5
20F
100
AcDbSymbolTableRecord
100
AcDbLayerTableRecord
  2
TEIL_STARTBEZUEGE
 70
0
 62
7
  6
CONTINUOUS
370
-3
390
F
  0
LAYER
  5
210
100
AcDbSymbolTableRecord
100
AcDbLayerTableRecord
  2
VERERBUNG
 70
0
 62
7
  6
CONTINUOUS
370
-3
390
F
  0
LAYER
  5
211
100
AcDbSymbolTableRecord
100
AcDbLayerTableRecord
  2
VOLUMEN
 70
0
 62
7
  6
CONTINUOUS
370
-3
390
F
  0
LAYER
  5
212
100
AcDbSymbolTableRecord
100
AcDbLayerTableRecord
  2
ZEICHNUNG
 70
0
 62
7
  6
CONTINUOUS
370
-3
390
F
  0
LAYER
  5
213
100
AcDbSymbolTableRecord
100
AcDbLayerTableRecord
  2
ZEICHNUNGSBEMASSUNGEN
 70
0
 62
7
  6
CONTINUOUS
370
-3
390
F
  0
ENDTAB
  0
TABLE
  2
STYLE
  5
3
100
AcDbSymbolTable
 70
1
  0
STYLE
  5
11
100
AcDbSymbolTableRecord
100
AcDbTextStyleTableRecord
  2
STANDARD
 70
0
 40
0.0
 41
0.7
 50
0.0
 71
0
 42
0.2
  3
txt
  4

  0
STYLE
  5
214
100
AcDbSymbolTableRecord
100
AcDbTextStyleTableRecord
  2
TEXTSTYLE_1
 70
0
 40
0.0
 41
0.8
 50
0.0
 71
0
 42
0.2
  3
gdt
  4

  0
STYLE
  5
215
100
AcDbSymbolTableRecord
100
AcDbTextStyleTableRecord
  2
TEXTSTYLE_2
 70
0
 40
0.0
 41
0.7
 50
0.0
 71
0
 42
0.2
  3
gdt
  4

  0
ENDTAB
  0
TABLE
  2
VIEW
  5
6
100
AcDbSymbolTable
 70
0
  0
ENDTAB
  0
TABLE
  2
UCS
  5
7
100
AcDbSymbolTable
 70
0
  0
ENDTAB
  0
TABLE
  2
APPID
  5
9
100
AcDbSymbolTable
 70
1
  0
APPID
  5
216
100
AcDbSymbolTableRecord
100
AcDbRegAppTableRecord
  2
ACAD
 70
0
  0
ENDTAB
  0
TABLE
  2
BLOCK_RECORD
  5
1
100
AcDbSymbolTable
 70
0
  0
BLOCK_RECORD
  5
217
100
AcDbSymbolTableRecord
100
AcDbBlockTableRecord
  2
*Model_Space
  0
BLOCK_RECORD
  5
218
100
AcDbSymbolTableRecord
100
AcDbBlockTableRecord
  2
*Paper_Space
  0
BLOCK_RECORD
  5
219
100
AcDbSymbolTableRecord
100
AcDbBlockTableRecord
  2
_FILLED
  0
BLOCK_RECORD
  5
21A
100
AcDbSymbolTableRecord
100
AcDbBlockTableRecord
  2
*D0
  0
BLOCK_RECORD
  5
21B
100
AcDbSymbolTableRecord
100
AcDbBlockTableRecord
  2
*D1
  0
BLOCK_RECORD
  5
21C
100
AcDbSymbolTableRecord
100
AcDbBlockTableRecord
  2
*D2
  0
BLOCK_RECORD
  5
21D
100
AcDbSymbolTableRecord
100
AcDbBlockTableRecord
  2
*D3
  0
BLOCK_RECORD
  5
21E
100
AcDbSymbolTableRecord
100
AcDbBlockTableRecord
  2
*D4
  0
BLOCK_RECORD
  5
21F
100
AcDbSymbolTableRecord
100
AcDbBlockTableRecord
  2
*D5
  0
ENDTAB
  0
TABLE
  2
DIMSTYLE
  5
A
100
AcDbSymbolTable
 70
1
100
AcDbDimStyleTable
 71
0
  0
DIMSTYLE
105
220
100
AcDbSymbolTableRecord
100
AcDbDimStyleTableRecord
  2
STANDARD
 70
0
  3

  4

 40
1.0
 41
3.5
 42
0.0625
 43
0.38
 44
0.18
 45
0.0
 46
0.0
 47
0.005
 48
0.005
140
3.5
141
0.09
142
0.0
143
25.4
144
1.0
145
0.0
146
1.0
147
0.09
 71
1.0
 72
0.0
 73
0
 74
0
 75
0
 76
0
 77
1
 78
8
170
0
171
2
172
0
173
0
174
0
175
0
176
0
177
0
178
5
270
2
271
3
272
3
273
2
274
2
275
0
280
0
281
0
282
0
283
1
284
8
285
0
286
0
287
3
288
0
340
11
341
219
342
219
343
219
344
219
  0
DIMSTYLE
105
221
100
AcDbSymbolTableRecord
100
AcDbDimStyleTableRecord
  2
DIMSTYLE_1
 70
0
  3

  4

 40
1.0
 41
3.5
 42
0.0625
 43
0.38
 44
0.18
 45
0.0
 46
0.0
 47
0.5
 48
0.5
140
3.5
141
0.09
142
0.0
143
25.4
144
1.0
145
0.0
146
1.0
147
0.09
 71
0.0
 72
0.0
 73
0
 74
0
 75
0
 76
0
 77
1
 78
8
170
0
171
2
172
0
173
0
174
0
175
0
176
0
177
0
178
5
270
2
271
3
272
3
273
2
274
2
275
0
280
0
281
0
282
0
283
1
284
8
285
0
286
0
287
3
288
0
340
11
341
219
342
219
343
219
344
219
  0
DIMSTYLE
105
222
100
AcDbSymbolTableRecord
100
AcDbDimStyleTableRecord
  2
DIMSTYLE_2
 70
0
  3

  4

 40
1.0
 41
3.5
 42
0.0625
 43
0.38
 44
0.18
 45
0.0
 46
0.0
 47
0.5
 48
0.5
140
3.5
141
0.09
142
0.0
143
25.4
144
1.0
145
0.0
146
1.0
147
0.09
 71
0.0
 72
0.0
 73
0
 74
0
 75
0
 76
0
 77
1
 78
8
170
0
171
2
172
0
173
0
174
0
175
0
176
0
177
0
178
5
270
2
271
2
272
2
273
2
274
2
275
0
280
0
281
0
282
0
283
1
284
8
285
0
286
0
287
3
288
0
340
11
341
219
342
219
343
219
344
219
  0
DIMSTYLE
105
223
100
AcDbSymbolTableRecord
100
AcDbDimStyleTableRecord
  2
DIMSTYLE_3
 70
0
  3

  4

 40
1.0
 41
3.5
 42
0.0625
 43
0.38
 44
0.18
 45
0.0
 46
0.0
 47
0.3
 48
0.3
140
3.5
141
0.09
142
0.0
143
25.4
144
1.0
145
0.0
146
1.0
147
0.09
 71
0.0
 72
0.0
 73
0
 74
0
 75
0
 76
0
 77
1
 78
8
170
0
171
2
172
0
173
0
174
0
175
0
176
0
177
0
178
5
270
2
271
2
272
2
273
2
274
2
275
0
280
0
281
0
282
0
283
1
284
8
285
0
286
0
287
3
288
0
340
11
341
219
342
219
343
219
344
219
  0
DIMSTYLE
105
224
100
AcDbSymbolTableRecord
100
AcDbDimStyleTableRecord
  2
DIMSTYLE_4
 70
0
  3

  4

 40
1.0
 41
3.5
 42
0.0625
 43
0.38
 44
0.18
 45
0.0
 46
0.0
 47
0.1
 48
0.0
140
3.5
141
0.09
142
0.0
143
25.4
144
1.0
145
0.0
146
1.0
147
0.09
 71
0.0
 72
0.0
 73
0
 74
0
 75
0
 76
0
 77
1
 78
8
170
0
171
2
172
0
173
0
174
0
175
0
176
0
177
0
178
5
270
2
271
2
272
2
273
2
274
2
275
0
280
0
281
0
282
0
283
1
284
8
285
0
286
0
287
3
288
0
340
11
341
219
342
219
343
219
344
219
  0
DIMSTYLE
105
225
100
AcDbSymbolTableRecord
100
AcDbDimStyleTableRecord
  2
DIMSTYLE_5
 70
0
  3

  4

 40
1.0
 41
3.5
 42
0.0625
 43
0.38
 44
0.18
 45
0.0
 46
0.0
 47
0.0
 48
0.0
140
3.5
141
0.09
142
0.0
143
25.4
144
1.0
145
0.0
146
1.0
147
0.09
 71
0.0
 72
0.0
 73
0
 74
0
 75
0
 76
0
 77
1
 78
8
170
0
171
2
172
0
173
0
174
0
175
0
176
0
177
0
178
5
270
2
271
0
272
0
273
2
274
2
275
0
280
0
281
0
282
0
283
1
284
8
285
0
286
0
287
3
288
0
340
11
341
219
342
219
343
219
344
219
  0
DIMSTYLE
105
226
100
AcDbSymbolTableRecord
100
AcDbDimStyleTableRecord
  2
DIMSTYLE_6
 70
0
  3

  4

 40
1.0
 41
3.5
 42
0.0625
 43
0.38
 44
0.18
 45
0.0
 46
0.0
 47
0.2
 48
0.2
140
3.5
141
0.09
142
0.0
143
25.4
144
1.0
145
0.0
146
1.0
147
0.09
 71
0.0
 72
0.0
 73
0
 74
0
 75
0
 76
0
 77
1
 78
8
170
0
171
2
172
0
173
0
174
0
175
0
176
0
177
0
178
5
270
2
271
2
272
2
273
2
274
2
275
0
280
0
281
0
282
0
283
1
284
8
285
0
286
0
287
3
288
0
340
11
341
219
342
219
343
219
344
219
  0
ENDTAB
  0
ENDSEC
  0
SECTION
  2
BLOCKS
  0
BLOCK
  5
20
100
AcDbEntity
  8
0
100
AcDbBlockBegin
  2
*Model_Space
 70
0
 10
0.0
 20
0.0
 30
0.0
  3
*Model_Space
  1

  0
ENDBLK
  5
21
100
AcDbEntity
  8
0
100
AcDbBlockEnd
  0
BLOCK
  5
1C
100
AcDbEntity
  8
0
100
AcDbBlockBegin
  2
*Paper_Space
 70
0
 10
0.0
 20
0.0
 30
0.0
  3
*Paper_Space
  1

  0
ENDBLK
  5
1D
100
AcDbEntity
  8
0
100
AcDbBlockEnd
  0
BLOCK
  5
227
100
AcDbEntity
  8
0
100
AcDbBlockBegin
  2
_FILLED
 70
64
 10
0.0
 20
0.0
  3
_FILLED
  1

  0
SOLID
  5
228
100
AcDbEntity
  8
0
  6
BYBLOCK
 62
0
100
AcDbTrace
 10
0.0
 20
0.0
 11
-1.0
 21
0.125
 12
-1.0
 22
-0.125
 13
-1.0
 23
-0.125
  0
ENDBLK
  5
229
100
AcDbEntity
  8
0
  6
BYBLOCK
 62
0
100
AcDbBlockEnd
  0
BLOCK
  5
22A
100
AcDbEntity
  8
0
100
AcDbBlockBegin
 62
2
  6
CONTINUOUS
  2
*D0
 70
65
 10
0.0
 20
0.0
  3
*D0
  1

  0
MTEXT
  5
22B
100
AcDbEntity
  8
0
100
AcDbMText
 62
5
  6
CONTINUOUS
  7
STANDARD
 71
2
 72
1
 10
160.065995194
 20
168.5468424105
 30
0.0
 11
1.0
 21
0.0
 31
0.0
 44
0.9
  1
130
 40
3.5
 41
8.490234375
  0
LINE
  5
22C
100
AcDbEntity
  8
0
100
AcDbLine
 62
2
  6
CONTINUOUS
 10
231.7915079809
 20
116.6590377574
 11
231.7915079809
 21
165.6718424105
  0
LINE
  5
22D
100
AcDbEntity
  8
0
100
AcDbLine
 62
2
  6
CONTINUOUS
 10
101.7915079809
 20
149.2223418585
 11
101.7915079809
 21
165.6718424105
  0
LINE
  5
22E
100
AcDbEntity
  8
0
100
AcDbLine
 62
2
  6
CONTINUOUS
 10
231.7915079809
 20
164.1718424105
 11
166.7915079809
 21
164.1718424105
  0
LINE
  5
22F
100
AcDbEntity
  8
0
100
AcDbLine
 62
2
  6
CONTINUOUS
 10
101.7915079809
 20
164.1718424105
 11
166.7915079809
 21
164.1718424105
  0
INSERT
  5
230
100
AcDbEntity
  8
0
100
AcDbBlockReference
 62
2
  6
CONTINUOUS
  2
_FILLED
 10
231.7915079809
 20
164.1718424105
 41
3.5
 42
3.5
 43
3.5
  0
INSERT
  5
231
100
AcDbEntity
  8
0
100
AcDbBlockReference
 62
2
  6
CONTINUOUS
  2
_FILLED
 10
101.7915079809
 20
164.1718424105
 41
3.5
 42
3.5
 43
3.5
 50
180.0
  0
ENDBLK
  5
232
100
AcDbEntity
  8
0
  6
BYBLOCK
 62
0
100
AcDbBlockEnd
  0
BLOCK
  5
233
100
AcDbEntity
  8
0
100
AcDbBlockBegin
 62
2
  6
CONTINUOUS
  2
*D1
 70
65
 10
0.0
 20
0.0
  3
*D1
  1

  0
MTEXT
  5
234
100
AcDbEntity
  8
0
100
AcDbMText
 62
5
  6
CONTINUOUS
  7
STANDARD
 71
2
 72
1
 10
132.5915079809
 20
175.2264237822
 30
0.0
 11
1.0
 21
0.0
 31
0.0
 44
0.9
  1
198.4
 40
3.5
 41
12.7421875
  0
LINE
  5
235
100
AcDbEntity
  8
0
100
AcDbLine
 62
2
  6
CONTINUOUS
 10
33.3915079809
 20
129.6131955041
 11
33.3915079809
 21
172.3514237822
  0
LINE
  5
236
100
AcDbEntity
  8
0
100
AcDbLine
 62
2
  6
CONTINUOUS
 10
231.7915079809
 20
119.1590377574
 11
231.7915079809
 21
172.3514237822
  0
LINE
  5
237
100
AcDbEntity
  8
0
100
AcDbLine
 62
2
  6
CONTINUOUS
 10
33.3915079809
 20
170.8514237822
 11
132.5915079809
 21
170.8514237822
  0
LINE
  5
238
100
AcDbEntity
  8
0
100
AcDbLine
 62
2
  6
CONTINUOUS
 10
231.7915079809
 20
170.8514237822
 11
132.5915079809
 21
170.8514237822
  0
INSERT
  5
239
100
AcDbEntity
  8
0
100
AcDbBlockReference
 62
2
  6
CONTINUOUS
  2
_FILLED
 10
33.3915079809
 20
170.8514237822
 41
3.5
 42
3.5
 43
3.5
 50
180.0
  0
INSERT
  5
23A
100
AcDbEntity
  8
0
100
AcDbBlockReference
 62
2
  6
CONTINUOUS
  2
_FILLED
 10
231.7915079809
 20
170.8514237822
 41
3.5
 42
3.5
 43
3.5
  0
ENDBLK
  5
23B
100
AcDbEntity
  8
0
  6
BYBLOCK
 62
0
100
AcDbBlockEnd
  0
BLOCK
  5
23C
100
AcDbEntity
  8
0
100
AcDbBlockBegin
 62
2
  6
CONTINUOUS
  2
*D2
 70
65
 10
0.0
 20
0.0
  3
*D2
  1

  0
MTEXT
  5
23D
100
AcDbEntity
  8
0
100
AcDbMText
 62
5
  6
CONTINUOUS
  7
STANDARD
 71
2
 72
1
 10
167.6189647111
 20
161.1220452399
 30
0.0
 11
1.0
 21
0.0
 31
0.0
 44
0.9
  1
110.9
 40
3.5
 41
12.7421875
  0
LINE
  5
23E
100
AcDbEntity
  8
0
100
AcDbLine
 62
2
  6
CONTINUOUS
 10
231.7915079809
 20
119.1590377574
 11
231.7915079809
 21
158.2470452399
  0
LINE
  5
23F
100
AcDbEntity
  8
0
100
AcDbLine
 62
2
  6
CONTINUOUS
 10
120.8915079809
 20
149.2223418585
 11
120.8915079809
 21
158.2470452399
  0
LINE
  5
240
100
AcDbEntity
  8
0
100
AcDbLine
 62
2
  6
CONTINUOUS
 10
231.7915079809
 20
156.7470452399
 11
176.3415079809
 21
156.7470452399
  0
LINE
  5
241
100
AcDbEntity
  8
0
100
AcDbLine
 62
2
  6
CONTINUOUS
 10
120.8915079809
 20
156.7470452399
 11
176.3415079809
 21
156.7470452399
  0
INSERT
  5
242
100
AcDbEntity
  8
0
100
AcDbBlockReference
 62
2
  6
CONTINUOUS
  2
_FILLED
 10
231.7915079809
 20
156.7470452399
 41
3.5
 42
3.5
 43
3.5
  0
INSERT
  5
243
100
AcDbEntity
  8
0
100
AcDbBlockReference
 62
2
  6
CONTINUOUS
  2
_FILLED
 10
120.8915079809
 20
156.7470452399
 41
3.5
 42
3.5
 43
3.5
 50
180.0
  0
ENDBLK
  5
244
100
AcDbEntity
  8
0
  6
BYBLOCK
 62
0
100
AcDbBlockEnd
  0
BLOCK
  5
245
100
AcDbEntity
  8
0
100
AcDbBlockBegin
 62
2
  6
CONTINUOUS
  2
*D3
 70
65
 10
0.0
 20
0.0
  3
*D3
  1

  0
MTEXT
  5
246
100
AcDbEntity
  8
0
100
AcDbMText
 62
5
  6
CONTINUOUS
  7
TEXTSTYLE_2
 71
2
 72
1
 10
270.3602829251
 20
119.1590377574
 30
0.0
 11
0.0
 21
1.0
 31
0.0
 44
0.9
  1
{\Fgdt;n}\Ftxt;18
 40
3.5
 41
10.3268229167
  0
LINE
  5
247
100
AcDbEntity
  8
0
100
AcDbLine
 62
2
  6
CONTINUOUS
 10
231.7915079809
 20
110.1590377574
 11
276.2352829251
 21
110.1590377574
  0
LINE
  5
248
100
AcDbEntity
  8
0
100
AcDbLine
 62
2
  6
CONTINUOUS
 10
231.7915079809
 20
128.1590377574
 11
276.2352829251
 21
128.1590377574
  0
LINE
  5
249
100
AcDbEntity
  8
0
100
AcDbLine
 62
2
  6
CONTINUOUS
 10
274.7352829251
 20
110.1590377574
 11
274.7352829251
 21
119.1590377574
  0
LINE
  5
24A
100
AcDbEntity
  8
0
100
AcDbLine
 62
2
  6
CONTINUOUS
 10
274.7352829251
 20
128.1590377574
 11
274.7352829251
 21
119.1590377574
  0
INSERT
  5
24B
100
AcDbEntity
  8
0
100
AcDbBlockReference
 62
2
  6
CONTINUOUS
  2
_FILLED
 10
274.7352829251
 20
110.1590377574
 41
3.5
 42
3.5
 43
3.5
 50
270.0
  0
INSERT
  5
24C
100
AcDbEntity
  8
0
100
AcDbBlockReference
 62
2
  6
CONTINUOUS
  2
_FILLED
 10
274.7352829251
 20
128.1590377574
 41
3.5
 42
3.5
 43
3.5
 50
90.0
  0
ENDBLK
  5
24D
100
AcDbEntity
  8
0
  6
BYBLOCK
 62
0
100
AcDbBlockEnd
  0
BLOCK
  5
24E
100
AcDbEntity
  8
0
100
AcDbBlockBegin
 62
2
  6
CONTINUOUS
  2
*D4
 70
65
 10
0.0
 20
0.0
  3
*D4
  1

  0
MTEXT
  5
24F
100
AcDbEntity
  8
0
100
AcDbMText
 62
5
  6
CONTINUOUS
  7
STANDARD
 71
2
 72
1
 10
188.1089732697
 20
139.4273027854
 30
0.0
 11
0.0936766163
 21
0.9956026776
 31
0.0
 44
0.9
  1
3\Fgdt;{\Fgdt;~}
 40
3.5
 41
5.1634114583
  0
LINE
  5
250
100
AcDbEntity
  8
0
100
AcDbLine
 62
2
  6
CONTINUOUS
 10
208.541664348
 20
129.3775104309
 11
192.9465322104
 21
130.1948166738
  0
LINE
  5
251
100
AcDbEntity
  8
0
100
AcDbLine
 62
2
  6
CONTINUOUS
 10
210.5105138478
 20
119.1590377574
 11
192.6575501692
 21
119.1590377574
  0
ARC
  5
252
100
AcDbEntity
  8
0
100
AcDbCircle
 62
2
  6
CONTINUOUS
 10
403.5217381705
 20
119.1590377574
 40
209.3641880012
100
AcDbArc
 50
174.6248441684
 51
177.0
  0
ARC
  5
253
100
AcDbEntity
  8
0
100
AcDbCircle
 62
2
  6
CONTINUOUS
 10
403.5217381705
 20
119.1590377574
 40
209.3641880012
100
AcDbArc
 50
180.0
 51
181.641993697
  0
ARC
  5
254
100
AcDbEntity
  8
0
100
AcDbCircle
 62
2
  6
CONTINUOUS
 10
403.5217381705
 20
119.1590377574
 40
209.3641880012
100
AcDbArc
 50
177.0
 51
180.0
  0
SOLID
  5
255
100
AcDbEntity
  8
0
100
AcDbTrace
 62
2
  6
CONTINUOUS
 10
194.2201669953
 20
133.6364109612
 11
194.4444765125
 21
130.1163127395
 12
195.0935545427
 22
133.583314897
 13
195.0935545427
 23
133.583314897
  0
SOLID
  5
256
100
AcDbEntity
  8
0
100
AcDbTrace
 62
2
  6
CONTINUOUS
 10
194.6242897874
 20
115.6628168864
 11
194.1575501692
 21
119.1590377574
 12
193.7493203539
 22
115.655503161
 13
193.7493203539
 23
115.655503161
  0
ENDBLK
  5
257
100
AcDbEntity
  8
0
  6
BYBLOCK
 62
0
100
AcDbBlockEnd
  0
BLOCK
  5
258
100
AcDbEntity
  8
0
100
AcDbBlockBegin
 62
2
  6
CONTINUOUS
  2
*D5
 70
65
 10
0.0
 20
0.0
  3
*D5
  1

  0
MTEXT
  5
259
100
AcDbEntity
  8
0
100
AcDbMText
 62
5
  6
CONTINUOUS
  7
TEXTSTYLE_2
 71
2
 72
1
 10
250.4940777128
 20
119.1590377574
 30
0.0
 11
0.0
 21
1.0
 31
0.0
 44
0.9
  1
{\Fgdt;n}\Ftxt;12
 40
3.5
 41
10.3268229167
  0
LINE
  5
25A
100
AcDbEntity
  8
0
100
AcDbLine
 62
2
  6
CONTINUOUS
 10
231.7915079809
 20
113.1590377574
 11
256.3690777128
 21
113.1590377574
  0
LINE
  5
25B
100
AcDbEntity
  8
0
100
AcDbLine
 62
2
  6
CONTINUOUS
 10
231.7915079809
 20
125.1590377574
 11
256.3690777128
 21
125.1590377574
  0
LINE
  5
25C
100
AcDbEntity
  8
0
100
AcDbLine
 62
2
  6
CONTINUOUS
 10
254.8690777128
 20
113.1590377574
 11
254.8690777128
 21
119.1590377574
  0
LINE
  5
25D
100
AcDbEntity
  8
0
100
AcDbLine
 62
2
  6
CONTINUOUS
 10
254.8690777128
 20
125.1590377574
 11
254.8690777128
 21
119.1590377574
  0
INSERT
  5
25E
100
AcDbEntity
  8
0
100
AcDbBlockReference
 62
2
  6
CONTINUOUS
  2
_FILLED
 10
254.8690777128
 20
113.1590377574
 41
3.5
 42
3.5
 43
3.5
 50
270.0
  0
INSERT
  5
25F
100
AcDbEntity
  8
0
100
AcDbBlockReference
 62
2
  6
CONTINUOUS
  2
_FILLED
 10
254.8690777128
 20
125.1590377574
 41
3.5
 42
3.5
 43
3.5
 50
90.0
  0
ENDBLK
  5
260
100
AcDbEntity
  8
0
  6
BYBLOCK
 62
0
100
AcDbBlockEnd
  0
ENDSEC
  0
SECTION
  2
ENTITIES
  0
DIMENSION
  5
261
100
AcDbEntity
  8
0
100
AcDbDimension
 62
2
  6
CONTINUOUS
  2
*D0
 10
101.7915079809
 20
164.1718424105
 11
155.8208780065
 21
166.7968424105
 70
160
 71
2
 42
130.0
  3
DIMSTYLE_1
100
AcDbAlignedDimension
 13
231.7915079809
 23
116.6590377574
 14
101.7915079809
 24
149.2223418585
 50
180.0
100
AcDbRotatedDimension
  0
DIMENSION
  5
262
100
AcDbEntity
  8
0
100
AcDbDimension
 62
2
  6
CONTINUOUS
  2
*D1
 10
231.7915079809
 20
170.8514237822
 11
126.2204142309
 21
173.4764237822
 70
160
 71
2
 42
198.4
  3
DIMSTYLE_2
100
AcDbAlignedDimension
 13
33.3915079809
 23
129.6131955041
 14
231.7915079809
 24
119.1590377574
100
AcDbRotatedDimension
  0
DIMENSION
  5
263
100
AcDbEntity
  8
0
100
AcDbDimension
 62
2
  6
CONTINUOUS
  2
*D2
 10
120.8915079809
 20
156.7470452399
 11
161.2478709611
 21
159.3720452399
 70
160
 71
2
 42
110.9
  3
DIMSTYLE_3
100
AcDbAlignedDimension
 13
231.7915079809
 23
119.1590377574
 14
120.8915079809
 24
149.2223418585
 50
180.0
100
AcDbRotatedDimension
  0
DIMENSION
  5
264
100
AcDbEntity
  8
0
100
AcDbDimension
 62
2
  6
CONTINUOUS
  2
*D3
 10
274.7352829251
 20
128.1590377574
 11
273.267077147
 21
116.8510014491
 70
160
 71
2
 42
18.0
  1
%%c<>
  3
DIMSTYLE_4
100
AcDbAlignedDimension
 13
231.7915079809
 23
110.1590377574
 14
231.7915079809
 24
128.1590377574
 50
90.0
100
AcDbRotatedDimension
  0
DIMENSION
  5
265
100
AcDbEntity
  8
0
100
AcDbDimension
 62
2
  6
CONTINUOUS
  2
*D4
 10
192.6575501692
 20
119.1590377574
 11
191.1293366854
 21
139.00924728
 70
162
 71
2
 42
0.0523598776
  3
DIMSTYLE_5
100
AcDb2LineAngularDimension
 13
192.9465322104
 23
130.1948166738
 14
208.541664348
 24
129.3775104309
 15
210.5105138478
 25
119.1590377574
 16
194.2292940475
 26
124.6395532842
  0
DIMENSION
  5
266
100
AcDbEntity
  8
0
100
AcDbDimension
 62
2
  6
CONTINUOUS
  2
*D5
 10
254.8690777128
 20
125.1590377574
 11
253.4008719346
 21
116.8510014491
 70
160
 71
2
 42
12.0
  1
%%c<>
  3
DIMSTYLE_6
100
AcDbAlignedDimension
 13
231.7915079809
 23
113.1590377574
 14
231.7915079809
 24
125.1590377574
 50
90.0
100
AcDbRotatedDimension
  0
MTEXT
  5
267
100
AcDbEntity
  8
0
100
AcDbMText
 62
5
  6
CONTINUOUS
  7
STANDARD
 71
1
 72
1
 10
14.7553737006
 20
85.7091585239
 30
0.0
 11
1.0
 21
0.0
 31
0.0
 44
0.9
  3
Für diese Unterlage behalten wir das Ur-\Pheberrecht. Sie darf nur für den von uns \Pbestimmten Zweck benutzt und ohne unsere \PZustimmung weder vervielfältigt noch\PDritten zugänglich gemacht werden\P \PWe own the copyright of this document. It \Pde
  1
termined and may neither be copied or \Pmade accessible to outsiders without our\Ppermission.\P \PCe plan reste notre propriété. Il ne peut\Pêtre utilisé, copié ou reproduit sans notre\Paccord.\P 
 40
3.5
 41
99.162109375
  0
LINE
  5
268
100
AcDbEntity
  8
0
100
AcDbLine
 62
7
  6
CONTINUOUS
 10
0.0
 20
0.0
 11
0.0
 21
210.0
  0
LINE
  5
269
100
AcDbEntity
  8
0
100
AcDbLine
 62
7
  6
CONTINUOUS
 10
0.0
 20
0.0
 11
297.0
 21
0.0
  0
LINE
  5
26A
100
AcDbEntity
  8
0
100
AcDbLine
 62
7
  6
CONTINUOUS
 10
0.0
 20
210.0
 11
297.0
 21
210.0
  0
LINE
  5
26B
100
AcDbEntity
  8
0
100
AcDbLine
 62
7
  6
CONTINUOUS
 10
297.0
 20
0.0
 11
297.0
 21
210.0
  0
LINE
  5
26C
100
AcDbEntity
  8
BEZUGSACHSEN
100
AcDbLine
 62
7
  6
CONTINUOUS
 10
33.3915079809
 20
129.6787384319
 11
33.3915079809
 21
108.6393370829
  0
LINE
  5
26D
100
AcDbEntity
  8
BEZUGSACHSEN
100
AcDbLine
 62
9
  6
CONTINUOUS
 10
35.1028706426
 20
131.6578009591
 11
35.1028706426
 21
106.6602745556
  0
LINE
  5
26E
100
AcDbEntity
  8
BEZUGSACHSEN
100
AcDbLine
 62
7
  6
CONTINUOUS
 10
101.3342027185
 20
141.3173418486
 11
101.3342027185
 21
97.0007336662
  0
LINE
  5
26F
100
AcDbEntity
  8
BEZUGSACHSEN
100
AcDbLine
 62
7
  6
CENTER
 10
101.7915079809
 20
89.7911885739
 11
101.7915079809
 21
145.252988224
  0
LINE
  5
270
100
AcDbEntity
  8
BEZUGSACHSEN
100
AcDbLine
 62
7
  6
CONTINUOUS
 10
102.3915079809
 20
141.0340377574
 11
102.3915079809
 21
97.2840377574
  0
LINE
  5
271
100
AcDbEntity
  8
BEZUGSACHSEN
100
AcDbLine
 62
9
  6
CONTINUOUS
 10
104.0415079809
 20
141.0340377574
 11
104.0415079809
 21
97.2840377574
  0
LINE
  5
272
100
AcDbEntity
  8
BEZUGSACHSEN
100
AcDbLine
 62
7
  6
CONTINUOUS
 10
105.0415079809
 20
149.9161519082
 11
105.0415079809
 21
127.3590377574
  0
LINE
  5
273
100
AcDbEntity
  8
BEZUGSACHSEN
100
AcDbLine
 62
7
  6
CONTINUOUS
 10
105.0415079809
 20
110.9590377574
 11
105.0415079809
 21
100.6590377574
  0
LINE
  5
274
100
AcDbEntity
  8
BEZUGSACHSEN
100
AcDbLine
 62
7
  6
CONTINUOUS
 10
105.0415079809
 20
94.565326671
 11
105.0415079809
 21
88.3860695413
  0
LINE
  5
275
100
AcDbEntity
  8
0
100
AcDbLine
 62
7
  6
CONTINUOUS
 10
105.0415079809
 20
88.3840402621
 11
105.0415079809
 21
94.565326671
  0
LINE
  5
276
100
AcDbEntity
  8
FASEN
100
AcDbLine
 62
7
  6
CONTINUOUS
 10
105.0415079809
 20
94.565326671
 11
105.0415079809
 21
100.6590377574
  0
LINE
  5
277
100
AcDbEntity
  8
0
100
AcDbLine
 62
7
  6
CONTINUOUS
 10
105.0415079809
 20
100.6590377574
 11
105.0415079809
 21
110.9590377574
  0
LINE
  5
278
100
AcDbEntity
  8
FASEN
100
AcDbLine
 62
7
  6
CONTINUOUS
 10
105.0415079809
 20
110.9590377574
 11
105.0415079809
 21
127.3590377574
  0
LINE
  5
279
100
AcDbEntity
  8
0
100
AcDbLine
 62
7
  6
CONTINUOUS
 10
105.0415079809
 20
127.3590377574
 11
105.0415079809
 21
149.9340373158
  0
LINE
  5
27A
100
AcDbEntity
  8
0
100
AcDbLine
 62
9
  6
CONTINUOUS
 10
106.0415079809
 20
150.9340377574
 11
106.0415079809
 21
127.3590377574
  0
LINE
  5
27B
100
AcDbEntity
  8
0
100
AcDbLine
 62
9
  6
CONTINUOUS
 10
106.0415079809
 20
110.9590377574
 11
106.0415079809
 21
100.6590377574
  0
LINE
  5
27C
100
AcDbEntity
  8
0
100
AcDbLine
 62
9
  6
CONTINUOUS
 10
106.0415079809
 20
93.3249396504
 11
106.0415079809
 21
87.3840377574
  0
LINE
  5
27D
100
AcDbEntity
  8
BEZUGSACHSEN
100
AcDbLine
 62
7
  6
CONTINUOUS
 10
114.8415079809
 20
148.0566330216
 11
116.5027783797
 21
150.9340377574
  0
LINE
  5
27E
100
AcDbEntity
  8
BEZUGSACHSEN
100
AcDbLine
 62
7
  6
CONTINUOUS
 10
106.0415079809
 20
87.3840377574
 11
109.4302375821
 21
87.3840377574
  0
LINE
  5
27F
100
AcDbEntity
  8
BEZUGSACHSEN
100
AcDbLine
 62
7
  6
CONTINUOUS
 10
116.5027783797
 20
87.3840377574
 11
119.8915079809
 21
87.3840377574
  0
LINE
  5
280
100
AcDbEntity
  8
BEZUGSACHSEN
100
AcDbLine
 62
7
  6
CONTINUOUS
 10
114.8415079809
 20
90.2614424932
 11
116.5027783797
 21
87.3840377574
  0
LINE
  5
281
100
AcDbEntity
  8
0
100
AcDbLine
 62
7
  6
CONTINUOUS
 10
109.4302375821
 20
87.3840377574
 11
109.4302375821
 21
93.3249396504
  0
LINE
  5
282
100
AcDbEntity
  8
0
100
AcDbLine
 62
7
  6
CONTINUOUS
 10
109.4302375821
 20
100.6590377574
 11
109.4302375821
 21
110.9590377574
  0
LINE
  5
283
100
AcDbEntity
  8
0
100
AcDbLine
 62
7
  6
CONTINUOUS
 10
109.4302375821
 20
127.3590377574
 11
109.4302375821
 21
150.9340377574
  0
LINE
  5
284
100
AcDbEntity
  8
0
100
AcDbLine
 62
7
  6
CONTINUOUS
 10
111.0915079809
 20
148.0566325595
 11
111.0915079809
 21
146.5440541306
  0
LINE
  5
285
100
AcDbEntity
  8
BEZUGSACHSEN
100
AcDbLine
 62
7
  6
CONTINUOUS
 10
111.0915079809
 20
146.5440541306
 11
111.0915079809
 21
146.2878233416
  0
LINE
  5
286
100
AcDbEntity
  8
0
100
AcDbLine
 62
7
  6
CONTINUOUS
 10
111.0915079809
 20
146.0679822393
 11
111.0915079809
 21
127.3590377574
  0
LINE
  5
287
100
AcDbEntity
  8
0
100
AcDbLine
 62
7
  6
CONTINUOUS
 10
111.0915079809
 20
110.9590377574
 11
111.0915079809
 21
100.6590377574
  0
LINE
  5
288
100
AcDbEntity
  8
0
100
AcDbLine
 62
7
  6
CONTINUOUS
 10
111.0915079809
 20
90.2614485338
 11
111.0915079809
 21
97.3154889386
  0
LINE
  5
289
100
AcDbEntity
  8
0
100
AcDbLine
 62
9
  6
CONTINUOUS
 10
111.5915079809
 20
91.0340377574
 11
111.5915079809
 21
97.9749487989
  0
LINE
  5
28A
100
AcDbEntity
  8
0
100
AcDbLine
 62
9
  6
CONTINUOUS
 10
111.5915079809
 20
100.6590377574
 11
111.5915079809
 21
110.9590377574
  0
LINE
  5
28B
100
AcDbEntity
  8
0
100
AcDbLine
 62
9
  6
CONTINUOUS
 10
111.5915079809
 20
127.3590377574
 11
111.5915079809
 21
145.0558913503
  0
LINE
  5
28C
100
AcDbEntity
  8
0
100
AcDbLine
 62
9
  6
CONTINUOUS
 10
111.5915079809
 20
146.0493700897
 11
111.5915079809
 21
147.2840377574
  0
LINE
  5
28D
100
AcDbEntity
  8
BEZUGSACHSEN
100
AcDbLine
 62
7
  6
CONTINUOUS
 10
145.4096540105
 20
96.6590377574
 11
156.2306952398
 21
98.5016336601
  0
LINE
  5
28E
100
AcDbEntity
  8
BEZUGSACHSEN
100
AcDbLine
 62
7
  6
CONTINUOUS
 10
157.3882867556
 20
98.6987471669
 11
165.5935823217
 21
100.0959365566
  0
LINE
  5
28F
100
AcDbEntity
  8
BEZUGSACHSEN
100
AcDbLine
 62
7
  6
CONTINUOUS
 10
111.5915079809
 20
91.0340377574
 11
114.3415079809
 21
91.0340377574
  0
LINE
  5
290
100
AcDbEntity
  8
0
100
AcDbLine
 62
7
  6
CONTINUOUS
 10
106.0415079809
 20
93.3249396504
 11
109.4302375821
 21
93.3249396504
  0
LINE
  5
291
100
AcDbEntity
  8
0
100
AcDbLine
 62
7
  6
CONTINUOUS
 10
116.5027783797
 20
93.3249396504
 11
119.8915079809
 21
93.3249396504
  0
LINE
  5
292
100
AcDbEntity
  8
BEZUGSACHSEN
100
AcDbLine
 62
7
  6
CONTINUOUS
 10
121.8915079809
 20
96.6590377574
 11
145.4096540105
 21
96.6590377574
  0
LINE
  5
293
100
AcDbEntity
  8
BEZUGSACHSEN
100
AcDbLine
 62
7
  6
CONTINUOUS
 10
102.3915079809
 20
97.2840377574
 11
104.0415079809
 21
97.2840377574
  0
LINE
  5
294
100
AcDbEntity
  8
BEZUGSACHSEN
100
AcDbLine
 62
7
  6
CONTINUOUS
 10
35.1028706426
 20
106.6602745556
 11
101.3342027185
 21
97.0007336662
  0
LINE
  5
295
100
AcDbEntity
  8
0
100
AcDbLine
 62
9
  6
CONTINUOUS
 10
114.3415079809
 20
91.0340377574
 11
114.3415079809
 21
97.9749487989
  0
LINE
  5
296
100
AcDbEntity
  8
0
100
AcDbLine
 62
9
  6
CONTINUOUS
 10
114.3415079809
 20
100.6590377574
 11
114.3415079809
 21
110.9590377574
  0
LINE
  5
297
100
AcDbEntity
  8
0
100
AcDbLine
 62
9
  6
CONTINUOUS
 10
114.3415079809
 20
127.3590377574
 11
114.3415079809
 21
145.0558913503
  0
LINE
  5
298
100
AcDbEntity
  8
0
100
AcDbLine
 62
9
  6
CONTINUOUS
 10
114.3415079809
 20
146.0493700897
 11
114.3415079809
 21
147.2840377574
  0
LINE
  5
299
100
AcDbEntity
  8
BEZUGSACHSEN
100
AcDbLine
 62
7
  6
CONTINUOUS
 10
114.8415079809
 20
146.5440541306
 11
114.8415079809
 21
146.2878233416
  0
LINE
  5
29A
100
AcDbEntity
  8
0
100
AcDbLine
 62
7
  6
CONTINUOUS
 10
114.8415079809
 20
146.0679822393
 11
114.8415079809
 21
127.3590377574
  0
LINE
  5
29B
100
AcDbEntity
  8
0
100
AcDbLine
 62
7
  6
CONTINUOUS
 10
114.8415079809
 20
90.2614485338
 11
114.8415079809
 21
97.3154889386
  0
LINE
  5
29C
100
AcDbEntity
  8
0
100
AcDbLine
 62
7
  6
CONTINUOUS
 10
114.8415079809
 20
100.6590377574
 11
114.8415079809
 21
110.9590377574
  0
LINE
  5
29D
100
AcDbEntity
  8
0
100
AcDbLine
 62
7
  6
CONTINUOUS
 10
114.8415079809
 20
146.5440541306
 11
114.8415079809
 21
148.0566325595
  0
LINE
  5
29E
100
AcDbEntity
  8
0
100
AcDbLine
 62
7
  6
CONTINUOUS
 10
116.5027783797
 20
150.9340377574
 11
116.5027783797
 21
127.3590377574
  0
LINE
  5
29F
100
AcDbEntity
  8
0
100
AcDbLine
 62
7
  6
CONTINUOUS
 10
116.5027783797
 20
110.9590377574
 11
116.5027783797
 21
100.6590377574
  0
LINE
  5
2A0
100
AcDbEntity
  8
0
100
AcDbLine
 62
7
  6
CONTINUOUS
 10
116.5027783797
 20
93.3249396504
 11
116.5027783797
 21
87.3840377574
  0
LINE
  5
2A1
100
AcDbEntity
  8
0
100
AcDbLine
 62
9
  6
CONTINUOUS
 10
119.8915079809
 20
87.3840377574
 11
119.8915079809
 21
93.3249396504
  0
LINE
  5
2A2
100
AcDbEntity
  8
0
100
AcDbLine
 62
9
  6
CONTINUOUS
 10
119.8915079809
 20
100.6590377574
 11
119.8915079809
 21
110.9590377574
  0
LINE
  5
2A3
100
AcDbEntity
  8
0
100
AcDbLine
 62
9
  6
CONTINUOUS
 10
119.8915079809
 20
127.3590377574
 11
119.8915079809
 21
150.9340377574
  0
LINE
  5
2A4
100
AcDbEntity
  8
0
100
AcDbLine
 62
7
  6
CONTINUOUS
 10
111.5915079809
 20
97.9749487989
 11
114.3415079809
 21
97.9749487989
  0
LINE
  5
2A5
100
AcDbEntity
  8
FASEN
100
AcDbLine
 62
7
  6
CONTINUOUS
 10
105.0415079809
 20
100.2590377574
 11
120.8915079809
 21
100.2590377574
  0
LINE
  5
2A6
100
AcDbEntity
  8
0
100
AcDbLine
 62
7
  6
CONTINUOUS
 10
105.0415079809
 20
100.6590377574
 11
120.8915079809
 21
100.6590377574
  0
LINE
  5
2A7
100
AcDbEntity
  8
BEZUGSACHSEN
100
AcDbLine
 62
7
  6
CONTINUOUS
 10
167.0033881963
 20
101.1590377574
 11
168.2915079809
 21
101.1590377574
  0
LINE
  5
2A8
100
AcDbEntity
  8
BEZUGSACHSEN
100
AcDbLine
 62
7
  6
CONTINUOUS
 10
173.2915079809
 20
101.1590377574
 11
174.9976833827
 21
101.1590377574
  0
LWPOLYLINE
  5
2A9
100
AcDbEntity
  8
0
100
AcDbPolyline
 62
7
  6
CONTINUOUS
 90
10
 70
0
 10
154.8773380013
 20
98.484936342
 10
154.8664074411
 20
98.4851040796
 10
154.8579387926
 20
98.4853617994
 10
154.8564461099
 20
98.4854264791
 10
154.8622172861
 20
98.4849774366
 10
154.8757359856
 20
98.4835921968
 10
154.8964340079
 20
98.4808845035
 10
154.9242181067
 20
98.4763815476
 10
154.9575006585
 20
98.4698635498
 10
154.9807960334
 20
98.4646326486
  0
LINE
  5
2AA
100
AcDbEntity
  8
BEZUGSACHSEN
100
AcDbLine
 62
7
  6
CONTINUOUS
 10
120.8915079809
 20
149.9161519082
 11
120.8915079809
 21
127.3590377574
  0
LINE
  5
2AB
100
AcDbEntity
  8
0
100
AcDbLine
 62
7
  6
CONTINUOUS
 10
120.8915079809
 20
149.9340373158
 11
120.8915079809
 21
127.3590377574
  0
LINE
  5
2AC
100
AcDbEntity
  8
0
100
AcDbLine
 62
7
  6
CONTINUOUS
 10
120.8915079809
 20
110.9590377574
 11
120.8915079809
 21
100.6590377574
  0
LINE
  5
2AD
100
AcDbEntity
  8
BEZUGSACHSEN
100
AcDbLine
 62
7
  6
CONTINUOUS
 10
120.8915079809
 20
94.565326671
 11
120.8915079809
 21
88.3860695413
  0
LINE
  5
2AE
100
AcDbEntity
  8
0
100
AcDbLine
 62
7
  6
CONTINUOUS
 10
120.8915079809
 20
94.565326671
 11
120.8915079809
 21
88.3840402621
  0
LINE
  5
2AF
100
AcDbEntity
  8
FASEN
100
AcDbLine
 62
7
  6
CONTINUOUS
 10
120.8915079809
 20
94.565326671
 11
120.8915079809
 21
100.6590377574
  0
LINE
  5
2B0
100
AcDbEntity
  8
FASEN
100
AcDbLine
 62
7
  6
CONTINUOUS
 10
120.8915079809
 20
110.9590377574
 11
120.8915079809
 21
127.3590377574
  0
LINE
  5
2B1
100
AcDbEntity
  8
RUNDUNGEN
100
AcDbLine
 62
9
  6
CONTINUOUS
 10
121.8915079809
 20
141.6590377574
 11
121.8915079809
 21
96.6590377574
  0
LINE
  5
2B2
100
AcDbEntity
  8
BEZUGSACHSEN
100
AcDbLine
 62
7
  6
CONTINUOUS
 10
101.3342027185
 20
97.0007336662
 11
102.3915079809
 21
97.2840377574
  0
LINE
  5
2B3
100
AcDbEntity
  8
BEZUGSACHSEN
100
AcDbLine
 62
7
  6
CONTINUOUS
 10
182.5581839064
 20
107.5788285759
 11
231.5072087678
 21
110.144138267
  0
LINE
  5
2B4
100
AcDbEntity
  8
0
100
AcDbLine
 62
7
  6
CONTINUOUS
 10
105.0415079809
 20
110.9590377574
 11
120.8915079809
 21
110.9590377574
  0
LINE
  5
2B5
100
AcDbEntity
  8
FASEN
100
AcDbLine
 62
7
  6
CONTINUOUS
 10
120.8915079809
 20
111.3590377574
 11
105.0415079809
 21
111.3590377574
  0
LINE
  5
2B6
100
AcDbEntity
  8
BEZUGSACHSEN
100
AcDbLine
 62
7
  6
CONTINUOUS
 10
109.4302375821
 20
87.3840377574
 11
111.0915079809
 21
90.2614424932
  0
LINE
  5
2B7
100
AcDbEntity
  8
DEFAULT_2
100
AcDbLine
 62
8
  6
HIDDEN
 10
230.2915079809
 20
113.1590377574
 11
202.7915079809
 21
113.1590377574
  0
LINE
  5
2B8
100
AcDbEntity
  8
BEZUGSACHSEN
100
AcDbLine
 62
7
  6
CONTINUOUS
 10
109.4302375821
 20
150.9340377574
 11
111.0915079809
 21
148.0566330216
  0
LINE
  5
2B9
100
AcDbEntity
  8
DEFAULT_1
100
AcDbLine
 62
7
  6
CENTER
 10
170.7915079809
 20
119.1590377574
 11
166.5741424908
 21
119.1590377574
  0
LINE
  5
2BA
100
AcDbEntity
  8
BEZUGSACHSEN
100
AcDbLine
 62
7
  6
CENTER
 10
236.7915079809
 20
119.1590377574
 11
30.3915079809
 21
119.1590377574
  0
LINE
  5
2BB
100
AcDbEntity
  8
0
100
AcDbLine
 62
9
  6
CONTINUOUS
 10
156.2306952398
 20
119.1590377574
 11
157.3882867556
 21
119.1590377574
  0
LINE
  5
2BC
100
AcDbEntity
  8
DEFAULT_1
100
AcDbLine
 62
7
  6
CENTER
 10
170.7915079809
 20
119.1590377574
 11
175.0088734711
 21
119.1590377574
  0
LINE
  5
2BD
100
AcDbEntity
  8
DEFAULT_2
100
AcDbLine
 62
8
  6
HIDDEN
 10
230.2915079809
 20
125.1590377574
 11
202.7915079809
 21
125.1590377574
  0
LINE
  5
2BE
100
AcDbEntity
  8
BEZUGSACHSEN
100
AcDbLine
 62
7
  6
CONTINUOUS
 10
145.4096540105
 20
141.6590377574
 11
145.4096540105
 21
96.6590377574
  0
LINE
  5
2BF
100
AcDbEntity
  8
FASEN
100
AcDbLine
 62
7
  6
CONTINUOUS
 10
105.0415079809
 20
126.9590377574
 11
120.8915079809
 21
126.9590377574
  0
LINE
  5
2C0
100
AcDbEntity
  8
0
100
AcDbLine
 62
7
  6
CONTINUOUS
 10
105.0415079809
 20
127.3590377574
 11
120.8915079809
 21
127.3590377574
  0
LINE
  5
2C1
100
AcDbEntity
  8
BEZUGSACHSEN
100
AcDbLine
 62
7
  6
CONTINUOUS
 10
101.3342027185
 20
141.3173418486
 11
102.3915079809
 21
141.0340377574
  0
LINE
  5
2C2
100
AcDbEntity
  8
BEZUGSACHSEN
100
AcDbLine
 62
7
  6
CONTINUOUS
 10
167.0033881963
 20
137.1590377574
 11
168.2915079809
 21
137.1590377574
  0
LINE
  5
2C3
100
AcDbEntity
  8
BEZUGSACHSEN
100
AcDbLine
 62
7
  6
CONTINUOUS
 10
173.2915079809
 20
137.1590377574
 11
174.9976833827
 21
137.1590377574
  0
LINE
  5
2C4
100
AcDbEntity
  8
BEZUGSACHSEN
100
AcDbLine
 62
7
  6
CONTINUOUS
 10
182.5581839064
 20
130.7392469389
 11
231.5072087678
 21
128.1739372478
  0
LINE
  5
2C5
100
AcDbEntity
  8
BEZUGSACHSEN
100
AcDbLine
 62
7
  6
CONTINUOUS
 10
35.1028706426
 20
131.6578009591
 11
101.3342027185
 21
141.3173418486
  0
LINE
  5
2C6
100
AcDbEntity
  8
BEZUGSACHSEN
100
AcDbLine
 62
7
  6
CONTINUOUS
 10
102.3915079809
 20
141.0340377574
 11
104.0415079809
 21
141.0340377574
  0
LINE
  5
2C7
100
AcDbEntity
  8
BEZUGSACHSEN
100
AcDbLine
 62
7
  6
CONTINUOUS
 10
121.8915079809
 20
141.6590377574
 11
145.4096540105
 21
141.6590377574
  0
LINE
  5
2C8
100
AcDbEntity
  8
BEZUGSACHSEN
100
AcDbLine
 62
7
  6
CONTINUOUS
 10
145.4096540105
 20
141.6590377574
 11
156.2306952398
 21
139.8164418547
  0
LINE
  5
2C9
100
AcDbEntity
  8
BEZUGSACHSEN
100
AcDbLine
 62
7
  6
CONTINUOUS
 10
157.3882867556
 20
139.6193283479
 11
165.5935823217
 21
138.2221389582
  0
LWPOLYLINE
  5
2CA
100
AcDbEntity
  8
0
100
AcDbPolyline
 62
7
  6
CONTINUOUS
 90
10
 70
0
 10
158.7448725981
 20
139.17223216
 10
158.7567984519
 20
139.1679160303
 10
158.7662823186
 20
139.1643129699
 10
158.7685864617
 20
139.1633943288
 10
158.7636645857
 20
139.1655502496
 10
158.7512490809
 20
139.1713648186
 10
158.732348022
 20
139.1809007663
 10
158.7075696862
 20
139.1944119689
 10
158.6784531538
 20
139.211602046
 10
158.6629358732
 20
139.2213123312
  0
LINE
  5
2CB
100
AcDbEntity
  8
BEZUGSACHSEN
100
AcDbLine
 62
9
  6
CONTINUOUS
 10
165.5935823217
 20
138.2221389582
 11
165.5935823217
 21
100.0959365566
  0
LINE
  5
2CC
100
AcDbEntity
  8
BEZUGSACHSEN
100
AcDbLine
 62
9
  6
CONTINUOUS
 10
166.1521124145
 20
137.8334906626
 11
166.1521124145
 21
100.4845848521
  0
LINE
  5
2CD
100
AcDbEntity
  8
BEZUGSACHSEN
100
AcDbLine
 62
9
  6
CONTINUOUS
 10
166.3105678733
 20
137.5590377574
 11
166.3105678733
 21
100.7590377574
  0
LINE
  5
2CE
100
AcDbEntity
  8
BEZUGSACHSEN
100
AcDbLine
 62
9
  6
CONTINUOUS
 10
167.0033881963
 20
137.1590377574
 11
167.0033881963
 21
101.1590377574
  0
LINE
  5
2CF
100
AcDbEntity
  8
BEZUGSACHSEN
100
AcDbLine
 62
7
  6
CONTINUOUS
 10
111.5915079809
 20
147.2840377574
 11
114.3415079809
 21
147.2840377574
  0
LINE
  5
2D0
100
AcDbEntity
  8
BEZUGSACHSEN
100
AcDbLine
 62
7
  6
CONTINUOUS
 10
106.0415079809
 20
150.9340377574
 11
109.4302375821
 21
150.9340377574
  0
LINE
  5
2D1
100
AcDbEntity
  8
BEZUGSACHSEN
100
AcDbLine
 62
7
  6
CONTINUOUS
 10
116.5027783797
 20
150.9340377574
 11
119.8915079809
 21
150.9340377574
  0
LINE
  5
2D2
100
AcDbEntity
  8
DEFAULT_1
100
AcDbLine
 62
7
  6
CENTER
 10
170.7915079809
 20
119.1590377574
 11
170.7915079809
 21
98.866969491
  0
LINE
  5
2D3
100
AcDbEntity
  8
DEFAULT_1
100
AcDbLine
 62
7
  6
CENTER
 10
170.7915079809
 20
119.1590377574
 11
170.7915079809
 21
139.5918018797
  0
LINE
  5
2D4
100
AcDbEntity
  8
BEZUGSACHSEN
100
AcDbLine
 62
9
  6
CONTINUOUS
 10
174.9976833827
 20
137.1590377574
 11
174.9976833827
 21
101.1590377574
  0
LINE
  5
2D5
100
AcDbEntity
  8
BEZUGSACHSEN
100
AcDbLine
 62
9
  6
CONTINUOUS
 10
175.7047901639
 20
136.8661445386
 11
175.7047901639
 21
101.4519309762
  0
LINE
  5
2D6
100
AcDbEntity
  8
BEZUGSACHSEN
100
AcDbLine
 62
7
  6
CONTINUOUS
 10
166.1521124145
 20
100.4845848521
 11
166.3105678733
 21
100.7590377574
  0
LINE
  5
2D7
100
AcDbEntity
  8
BEZUGSACHSEN
100
AcDbLine
 62
7
  6
CONTINUOUS
 10
175.7047901639
 20
101.4519309762
 11
181.2486422565
 21
106.9957830688
  0
LINE
  5
2D8
100
AcDbEntity
  8
BEZUGSACHSEN
100
AcDbLine
 62
7
  6
CONTINUOUS
 10
166.1521124145
 20
137.8334906626
 11
166.3105678733
 21
137.5590377574
  0
LINE
  5
2D9
100
AcDbEntity
  8
BEZUGSACHSEN
100
AcDbLine
 62
9
  6
CONTINUOUS
 10
181.2486422565
 20
131.322292446
 11
181.2486422565
 21
106.9957830688
  0
LINE
  5
2DA
100
AcDbEntity
  8
BEZUGSACHSEN
100
AcDbLine
 62
9
  6
CONTINUOUS
 10
182.5581839064
 20
130.7392469389
 11
182.5581839064
 21
107.5788285759
  0
LINE
  5
2DB
100
AcDbEntity
  8
BEZUGSACHSEN
100
AcDbLine
 62
7
  6
CONTINUOUS
 10
175.7047901639
 20
136.8661445386
 11
181.2486422565
 21
131.322292446
  0
LINE
  5
2DC
100
AcDbEntity
  8
DEFAULT_2
100
AcDbLine
 62
8
  6
HIDDEN
 10
202.7915079809
 20
125.1590377574
 11
202.7915079809
 21
113.1590377574
  0
LINE
  5
2DD
100
AcDbEntity
  8
BEZUGSACHSEN
100
AcDbLine
 62
9
  6
CONTINUOUS
 10
231.5072087678
 20
128.1739372478
 11
231.5072087678
 21
110.144138267
  0
LINE
  5
2DE
100
AcDbEntity
  8
BEZUGSACHSEN
100
AcDbLine
 62
7
  6
CONTINUOUS
 10
231.7915079809
 20
127.8743483874
 11
231.7915079809
 21
110.4437271274
  0
CIRCLE
  5
2DF
100
AcDbEntity
  8
BEZUGSACHSEN
100
AcDbCircle
 62
7
  6
CONTINUOUS
 10
112.8915079809
 20
119.1590377574
 40
5.0
  0
CIRCLE
  5
2E0
100
AcDbEntity
  8
BEZUGSACHSEN
100
AcDbCircle
 62
7
  6
CONTINUOUS
 10
112.8915079809
 20
119.1590377574
 40
4.7
  0
CIRCLE
  5
2E1
100
AcDbEntity
  8
BEZUGSACHSEN
100
AcDbCircle
 62
7
  6
CONTINUOUS
 10
112.8915079809
 20
119.1590377574
 40
2.0
  0
ARC
  5
2E2
100
AcDbEntity
  8
BEZUGSACHSEN
100
AcDbCircle
 62
7
  6
CONTINUOUS
 10
35.3915079809
 20
108.6393370829
 40
2.0
100
AcDbArc
 50
180.0
 51
261.7021731718
  0
ARC
  5
2E3
100
AcDbEntity
  8
BEZUGSACHSEN
100
AcDbCircle
 62
7
  6
CONTINUOUS
 10
104.0415079809
 20
96.2840377574
 40
1.0
100
AcDbArc
 50
0.0
 51
90.0
  0
ARC
  5
2E4
100
AcDbEntity
  8
BEZUGSACHSEN
100
AcDbCircle
 62
7
  6
CONTINUOUS
 10
106.0415079809
 20
88.3840377574
 40
1.0
100
AcDbArc
 50
180.0
 51
270.0
  0
ARC
  5
2E5
100
AcDbEntity
  8
BEZUGSACHSEN
100
AcDbCircle
 62
7
  6
CONTINUOUS
 10
111.5915079809
 20
90.5340377574
 40
0.5
100
AcDbArc
 50
90.0
 51
180.0
  0
ARC
  5
2E6
100
AcDbEntity
  8
0
100
AcDbCircle
 62
7
  6
CONTINUOUS
 10
-62.5291986204
 20
174.1264652092
 40
189.9972240794
100
AcDbArc
 50
334.8317727047
 51
336.0368933894
  0
ARC
  5
2E7
100
AcDbEntity
  8
BEZUGSACHSEN
100
AcDbCircle
 62
7
  6
CONTINUOUS
 10
35.3915079809
 20
129.6787384319
 40
2.0
100
AcDbArc
 50
98.2978268282
 51
180.0
  0
ARC
  5
2E8
100
AcDbEntity
  8
BEZUGSACHSEN
100
AcDbCircle
 62
7
  6
CONTINUOUS
 10
104.0415079809
 20
142.0340377574
 40
1.0
100
AcDbArc
 50
270.0
 51
360.0
  0
ARC
  5
2E9
100
AcDbEntity
  8
BEZUGSACHSEN
100
AcDbCircle
 62
7
  6
CONTINUOUS
 10
106.0415079809
 20
149.9340377574
 40
1.0
100
AcDbArc
 50
90.0
 51
180.0
  0
ARC
  5
2EA
100
AcDbEntity
  8
BEZUGSACHSEN
100
AcDbCircle
 62
7
  6
CONTINUOUS
 10
111.5915079809
 20
147.7840377574
 40
0.5
100
AcDbArc
 50
180.0
 51
270.0
  0
ARC
  5
2EB
100
AcDbEntity
  8
0
100
AcDbCircle
 62
7
  6
CONTINUOUS
 10
152.2556389671
 20
109.5054264583
 40
30.5481772135
100
AcDbArc
 50
80.3273909211
 51
81.4254505724
  0
ARC
  5
2EC
100
AcDbEntity
  8
0
100
AcDbCircle
 62
7
  6
CONTINUOUS
 10
153.8114021637
 20
117.8461401428
 40
19.4714511597
100
AcDbArc
 50
276.9932563057
 51
277.3915757902
  0
ARC
  5
2ED
100
AcDbEntity
  8
GEWINDE
100
AcDbCircle
 62
7
  6
CONTINUOUS
 10
170.7915098807
 20
83.3324351145
 40
18.0008522335
100
AcDbArc
 50
82.0169180728
 51
97.9830939039
  0
ARC
  5
2EE
100
AcDbEntity
  8
0
100
AcDbCircle
 62
2
  6
CONTINUOUS
 10
170.7915079726
 20
119.1590377574
 40
2.9999999917
100
AcDbArc
 50
0.0
 51
359.8424034203
  0
CIRCLE
  5
2EF
100
AcDbEntity
  8
GEWINDE
100
AcDbCircle
 62
7
  6
CONTINUOUS
 10
170.7915079809
 20
119.1590377574
 40
2.5
  0
ARC
  5
2F0
100
AcDbEntity
  8
BEZUGSACHSEN
100
AcDbCircle
 62
7
  6
CONTINUOUS
 10
182.6628558188
 20
105.5815695064
 40
2.0
100
AcDbArc
 50
93.0
 51
135.0
  0
ARC
  5
2F1
100
AcDbEntity
  8
RUNDUNGEN
100
AcDbCircle
 62
7
  6
CONTINUOUS
 10
121.8915079809
 20
95.6590377574
 40
1.0
100
AcDbArc
 50
90.0
 51
180.0
  0
ARC
  5
2F2
100
AcDbEntity
  8
BEZUGSACHSEN
100
AcDbCircle
 62
7
  6
CONTINUOUS
 10
174.9976833827
 20
102.1590377574
 40
1.0
100
AcDbArc
 50
270.0
 51
315.0
  0
ARC
  5
2F3
100
AcDbEntity
  8
BEZUGSACHSEN
100
AcDbCircle
 62
7
  6
CONTINUOUS
 10
119.8915079809
 20
88.3840377574
 40
1.0
100
AcDbArc
 50
270.0
 51
360.0
  0
ARC
  5
2F4
100
AcDbEntity
  8
BEZUGSACHSEN
100
AcDbCircle
 62
7
  6
CONTINUOUS
 10
165.4592920915
 20
100.8845848521
 40
0.8
100
AcDbArc
 50
279.6635802072
 51
330.0
  0
ARC
  5
2F5
100
AcDbEntity
  8
BEZUGSACHSEN
100
AcDbCircle
 62
7
  6
CONTINUOUS
 10
167.0033881963
 20
100.3590377574
 40
0.8
100
AcDbArc
 50
90.0
 51
150.0
  0
ARC
  5
2F6
100
AcDbEntity
  8
BEZUGSACHSEN
100
AcDbCircle
 62
7
  6
CONTINUOUS
 10
114.3415079809
 20
90.5340377574
 40
0.5
100
AcDbArc
 50
0.0
 51
90.0
  0
ARC
  5
2F7
100
AcDbEntity
  8
0
100
AcDbCircle
 62
7
  6
CONTINUOUS
 10
155.0928644586
 20
98.9317910906
 40
0.4801752746
100
AcDbArc
 50
252.9554453585
 51
256.5173593283
  0
ARC
  5
2F8
100
AcDbEntity
  8
BEZUGSACHSEN
100
AcDbCircle
 62
7
  6
CONTINUOUS
 10
231.4915079809
 20
127.8743483874
 40
0.3
100
AcDbArc
 50
0.0
 51
87.0
  0
ARC
  5
2F9
100
AcDbEntity
  8
BEZUGSACHSEN
100
AcDbCircle
 62
7
  6
CONTINUOUS
 10
231.4915079809
 20
110.4437271274
 40
0.3
100
AcDbArc
 50
273.0
 51
360.0
  0
ARC
  5
2FA
100
AcDbEntity
  8
0
100
AcDbCircle
 62
7
  6
CONTINUOUS
 10
288.4622145827
 20
174.1264652084
 40
189.9972240794
100
AcDbArc
 50
203.9631066104
 51
205.168227295
  0
ARC
  5
2FB
100
AcDbEntity
  8
0
100
AcDbCircle
 62
7
  6
CONTINUOUS
 10
151.0341219413
 20
129.0355333661
 40
30.972946114
100
AcDbArc
 50
279.6586416519
 51
280.7479857504
  0
ARC
  5
2FC
100
AcDbEntity
  8
GEWINDE
100
AcDbCircle
 62
7
  6
CONTINUOUS
 10
170.7915079806
 20
154.9857470439
 40
18.0009585021
100
AcDbArc
 50
262.0169592265
 51
277.9830407756
  0
ARC
  5
2FD
100
AcDbEntity
  8
BEZUGSACHSEN
100
AcDbCircle
 62
7
  6
CONTINUOUS
 10
182.6628558188
 20
132.7365060084
 40
2.0
100
AcDbArc
 50
225.0
 51
267.0
  0
ARC
  5
2FE
100
AcDbEntity
  8
RUNDUNGEN
100
AcDbCircle
 62
7
  6
CONTINUOUS
 10
121.8915079809
 20
142.6590377574
 40
1.0
100
AcDbArc
 50
180.0
 51
270.0
  0
ARC
  5
2FF
100
AcDbEntity
  8
BEZUGSACHSEN
100
AcDbCircle
 62
7
  6
CONTINUOUS
 10
174.9976833827
 20
136.1590377574
 40
1.0
100
AcDbArc
 50
45.0
 51
90.0
  0
ARC
  5
300
100
AcDbEntity
  8
BEZUGSACHSEN
100
AcDbCircle
 62
7
  6
CONTINUOUS
 10
119.8915079809
 20
149.9340377574
 40
1.0
100
AcDbArc
 50
0.0
 51
90.0
  0
ARC
  5
301
100
AcDbEntity
  8
BEZUGSACHSEN
100
AcDbCircle
 62
7
  6
CONTINUOUS
 10
165.4592920915
 20
137.4334906626
 40
0.8
100
AcDbArc
 50
30.0
 51
80.3364197928
  0
ARC
  5
302
100
AcDbEntity
  8
BEZUGSACHSEN
100
AcDbCircle
 62
7
  6
CONTINUOUS
 10
167.0033881963
 20
137.9590377574
 40
0.8
100
AcDbArc
 50
210.0
 51
270.0
  0
ARC
  5
303
100
AcDbEntity
  8
BEZUGSACHSEN
100
AcDbCircle
 62
7
  6
CONTINUOUS
 10
114.3415079809
 20
147.7840377574
 40
0.5
100
AcDbArc
 50
270.0
 51
360.0
  0
ARC
  5
304
100
AcDbEntity
  8
0
100
AcDbCircle
 62
7
  6
CONTINUOUS
 10
158.4305574316
 20
138.861979178
 40
0.4278106124
100
AcDbArc
 50
52.5469273876
 51
57.1058466307
  0
SPLINE
  5
305
100
AcDbEntity
  8
0
100
AcDbSpline
 62
2
  6
CONTINUOUS
 70
0
 71
3
 72
29
 73
25
 74
23
 42
0.0000001
 43
0.0000001
 44
0.0000000001
 12
-0.0253038713
 22
0.0042172968
 32
0.0
 13
-0.0257144819
 23
-0.0042857312
 33
0.0
 40
0.0
 40
0.0
 40
0.0
 40
0.0
 40
0.0454545455
 40
0.0909090909
 40
0.1363636364
 40
0.1818181818
 40
0.2272727273
 40
0.2727272727
 40
0.3181818182
 40
0.3636363636
 40
0.4090909091
 40
0.4545454545
 40
0.5
 40
0.5454545455
 40
0.5909090909
 40
0.6363636364
 40
0.6818181818
 40
0.7272727273
 40
0.7727272727
 40
0.8181818182
 40
0.8636363636
 40
0.9090909091
 40
0.9545454545
 40
1.0
 40
1.0
 40
1.0
 40
1.0
 10
173.7914969895
 20
101.1590395273
 30
0.0
 10
173.7911135975
 20
101.1591034257
 30
0.0
 10
173.7703023199
 20
101.1625892551
 30
0.0
 10
173.678564615
 20
101.1776427566
 30
0.0
 10
173.528952056
 20
101.2012175886
 30
0.0
 10
173.3220118584
 20
101.2317964374
 30
0.0
 10
173.0649110371
 20
101.266520811
 30
0.0
 10
172.7582771266
 20
101.3031346996
 30
0.0
 10
172.4147431672
 20
101.337941908
 30
0.0
 10
172.0356226946
 20
101.3686727979
 30
0.0
 10
171.6353368512
 20
101.392326312
 30
0.0
 10
171.2167714839
 20
101.4073889485
 30
0.0
 10
170.7915689947
 20
101.4125024396
 30
0.0
 10
170.366358909
 20
101.407391741
 30
0.0
 10
169.9477945222
 20
101.3923317484
 30
0.0
 10
169.5475083522
 20
101.3686809634
 30
0.0
 10
169.16836827
 20
101.3379506118
 30
0.0
 10
168.8248430822
 20
101.3031462784
 30
0.0
 10
168.5181726293
 20
101.2665294928
 30
0.0
 10
168.2610828845
 20
101.2318075869
 30
0.0
 10
168.0541050776
 20
101.201223962
 30
0.0
 10
167.9044902742
 20
101.1776490131
 30
0.0
 10
167.8127266886
 20
101.1625914509
 30
0.0
 10
167.7919089476
 20
101.1591045209
 30
0.0
 10
167.7915193342
 20
101.1590395856
 30
0.0
 11
173.7914969895
 21
101.1590395273
 31
0.0
 11
173.7602155218
 21
101.1642267147
 31
0.0
 11
173.6689188059
 21
101.1790629783
 31
0.0
 11
173.5193974495
 21
101.2023849247
 31
0.0
 11
173.3136517544
 21
101.2324873582
 31
0.0
 11
173.0566555222
 21
101.2668357301
 31
0.0
 11
172.7521271184
 21
101.3028335862
 31
0.0
 11
172.4088120817
 21
101.3372625216
 31
0.0
 11
172.0320951328
 21
101.3674932353
 31
0.0
 11
171.6322902639
 21
101.3908944991
 31
0.0
 11
171.2156652969
 21
101.4057307576
 31
0.0
 11
170.7915677286
 21
101.410798408
 31
0.0
 11
170.3674665255
 21
101.4057335253
 31
0.0
 11
169.9508408916
 21
101.3908999496
 31
0.0
 11
169.5510327001
 21
101.3675010356
 31
0.0
 11
169.1743040857
 21
101.3372716149
 31
0.0
 11
168.830985538
 21
101.3028442031
 31
0.0
 11
168.5264360806
 21
101.2668453061
 31
0.0
 11
168.2694348741
 21
101.2324973004
 31
0.0
 11
168.0636655782
 21
101.2023920747
 31
0.0
 11
167.9141321438
 21
101.1790685775
 31
0.0
 11
167.8228161843
 21
101.1642293121
 31
0.0
 11
167.7915193342
 21
101.1590395856
 31
0.0
  0
SPLINE
  5
306
100
AcDbEntity
  8
0
100
AcDbSpline
 62
2
  6
CONTINUOUS
 70
0
 71
3
 72
29
 73
25
 74
23
 42
0.0000001
 43
0.0000001
 44
0.0000000001
 12
0.0256930562
 22
-0.0042821603
 32
0.0
 13
0.0256959066
 23
0.0042826353
 33
0.0
 40
0.0
 40
0.0
 40
0.0
 40
0.0
 40
0.0454545455
 40
0.0909090909
 40
0.1363636364
 40
0.1818181818
 40
0.2272727273
 40
0.2727272727
 40
0.3181818182
 40
0.3636363636
 40
0.4090909091
 40
0.4545454545
 40
0.5
 40
0.5454545455
 40
0.5909090909
 40
0.6363636364
 40
0.6818181818
 40
0.7272727273
 40
0.7727272727
 40
0.8181818182
 40
0.8636363636
 40
0.9090909091
 40
0.9545454545
 40
1.0
 40
1.0
 40
1.0
 40
1.0
 10
167.7915193156
 20
137.1590359322
 30
0.0
 10
167.7919086044
 20
137.158971051
 30
0.0
 10
167.8127266774
 20
137.1554840895
 30
0.0
 10
167.9044728031
 20
137.1404293003
 30
0.0
 10
168.0540897276
 20
137.116853975
 30
0.0
 10
168.2610298998
 20
137.0862754711
 30
0.0
 10
168.5181293154
 20
137.051551498
 30
0.0
 10
168.8247831525
 20
137.0149360172
 30
0.0
 10
169.1682916225
 20
136.9801317952
 30
0.0
 10
169.5474456309
 20
136.9493991529
 30
0.0
 10
169.9476882741
 20
136.9257487135
 30
0.0
 10
170.3662973273
 20
136.9106853743
 30
0.0
 10
170.7914442379
 20
136.9055731283
 30
0.0
 10
171.2167024492
 20
136.9106847531
 30
0.0
 10
171.6352288502
 20
136.9257442453
 30
0.0
 10
172.0355401612
 20
136.949396747
 30
0.0
 10
172.4146586696
 20
136.9801260022
 30
0.0
 10
172.7581923844
 20
137.014931352
 30
0.0
 10
173.0648523613
 20
137.0515472229
 30
0.0
 10
173.3219417692
 20
137.0862691498
 30
0.0
 10
173.5289157308
 20
137.1168523076
 30
0.0
 10
173.6785282518
 20
137.1404269153
 30
0.0
 10
173.770290327
 20
137.1554842403
 30
0.0
 10
173.791107312
 20
137.1589710434
 30
0.0
 10
173.7914966439
 20
137.1590359318
 30
0.0
 11
167.7915193156
 21
137.1590359322
 31
0.0
 11
167.8228131801
 21
137.1538466983
 31
0.0
 11
167.9141179362
 21
137.1390092109
 31
0.0
 11
168.0636436022
 21
137.1156867785
 31
0.0
 11
168.2693897737
 21
137.0855845596
 31
0.0
 11
168.5263883857
 21
137.0512362467
 31
0.0
 11
168.8309255913
 21
137.0152378936
 31
0.0
 11
169.1742325456
 21
136.9808103918
 31
0.0
 11
169.5509604034
 21
136.95057952
 31
0.0
 11
169.9507493424
 21
136.9271798968
 31
0.0
 11
170.3673869702
 21
136.9123438898
 31
0.0
 11
170.791462788
 21
136.9072771067
 31
0.0
 11
171.2155804808
 21
136.912342731
 31
0.0
 11
171.6321930019
 21
136.9271764135
 31
0.0
 11
172.0320080274
 21
136.9505762059
 31
0.0
 11
172.4087278707
 21
136.9808053513
 31
0.0
 11
172.7520467615
 21
137.0152331055
 31
0.0
 11
173.0565905998
 21
137.0512315656
 31
0.0
 11
173.3135891948
 21
137.085579355
 31
0.0
 11
173.5193554907
 21
137.1156842159
 31
0.0
 11
173.6688865109
 21
137.1390073682
 31
0.0
 11
173.760200894
 21
137.1538463869
 31
0.0
 11
173.7914966439
 21
137.1590359318
 31
0.0
  0
SPLINE
  5
307
100
AcDbEntity
  8
BEZUGSACHSEN
100
AcDbSpline
 62
7
  6
CONTINUOUS
 70
0
 71
3
 72
19
 73
15
 74
13
 42
0.0000001
 43
0.0000001
 44
0.0000000001
 12
-0.8939002816
 22
0.3305664543
 32
0.0
 13
-0.0
 23
0.9530644753
 33
0.0
 40
0.0
 40
0.0
 40
0.0
 40
0.0
 40
0.1217181457
 40
0.2412117709
 40
0.3499481467
 40
0.4477039725
 40
0.5373829645
 40
0.6199208207
 40
0.6964779373
 40
0.7678297527
 40
0.8343908613
 40
0.8961956983
 40
0.9521075556
 40
1.0
 40
1.0
 40
1.0
 40
1.0
 10
111.5915079809
 20
145.0558913503
 30
0.0
 10
111.5552400193
 20
145.0693033289
 30
0.0
 10
111.4862322167
 20
145.1040806766
 30
0.0
 10
111.3972972583
 20
145.1715384059
 30
0.0
 10
111.3244019052
 20
145.2455026403
 30
0.0
 10
111.2663122388
 20
145.3197240129
 30
0.0
 10
111.2199768552
 20
145.392026194
 30
0.0
 10
111.1828500147
 20
145.4618823734
 30
0.0
 10
111.1532799111
 20
145.5289206856
 30
0.0
 10
111.1300918188
 20
145.5930427267
 30
0.0
 10
111.1125492795
 20
145.6540671751
 30
0.0
 10
111.1002993107
 20
145.711366854
 30
0.0
 10
111.093195358
 20
145.7635495775
 30
0.0
 10
111.0915079809
 20
145.7965365878
 30
0.0
 10
111.0915079809
 20
145.8117514503
 30
0.0
 11
111.5915079809
 21
145.0558913503
 31
0.0
 11
111.4875582188
 21
145.1073856492
 31
0.0
 11
111.3964730088
 21
145.1757472406
 31
0.0
 11
111.3235199547
 21
145.2493516179
 31
0.0
 11
111.2659774789
 21
145.322625529
 31
0.0
 11
111.2197968394
 21
145.3945452465
 31
0.0
 11
111.1828533766
 21
145.4639944329
 31
0.0
 11
111.1534123574
 21
145.5307548437
 31
0.0
 11
111.13032255
 21
145.5947177436
 31
0.0
 11
111.1128687546
 21
145.6557064438
 31
0.0
 11
111.1006727176
 21
145.7133340175
 31
0.0
 11
111.0936536554
 21
145.7661573231
 31
0.0
 11
111.0915079809
 21
145.8117514503
 31
0.0
  0
SPLINE
  5
308
100
AcDbEntity
  8
0
100
AcDbSpline
 62
7
  6
CONTINUOUS
 70
0
 71
3
 72
13
 73
9
 74
7
 42
0.0000001
 43
0.0000001
 44
0.0000000001
 12
1.2019208686
 22
-0.2883528015
 32
0.0
 13
1.1981907087
 23
0.1468802385
 33
0.0
 40
0.0
 40
0.0
 40
0.0
 40
0.0
 40
0.0740851788
 40
0.228083385
 40
0.4320589939
 40
0.6588972043
 40
0.8871931657
 40
1.0
 40
1.0
 40
1.0
 40
1.0
 10
154.9809112346
 20
98.4648491563
 30
0.0
 10
155.0105927421
 20
98.4577282667
 30
0.0
 10
155.0979942591
 20
98.4458109283
 30
0.0
 10
155.2748330239
 20
98.4420353424
 30
0.0
 10
155.5088145622
 20
98.4523018981
 30
0.0
 10
155.7735739741
 20
98.4737779829
 30
0.0
 10
156.0007540232
 20
98.4978331916
 30
0.0
 10
156.1370457142
 20
98.5140240315
 30
0.0
 10
156.1821004144
 20
98.519547063
 30
0.0
 11
154.9809112346
 21
98.4648491563
 31
0.0
 11
155.0679995096
 21
98.451033437
 31
0.0
 11
155.2537683845
 21
98.4442140218
 31
0.0
 11
155.4998213835
 21
98.45335189
 31
0.0
 11
155.772797793
 21
98.474835226
 31
0.0
 11
156.0468824991
 21
98.5035056925
 31
0.0
 11
156.1821004144
 21
98.519547063
 31
0.0
  0
SPLINE
  5
309
100
AcDbEntity
  8
0
100
AcDbSpline
 62
7
  6
CONTINUOUS
 70
0
 71
3
 72
11
 73
7
 74
5
 42
0.0000001
 43
0.0000001
 44
0.0000000001
 12
1.0752117946
 22
0.1393987523
 32
0.0
 13
1.0687778498
 23
0.181990406
 33
0.0
 40
0.0
 40
0.0
 40
0.0
 40
0.0
 40
0.248283662
 40
0.4965148479
 40
0.7463909537
 40
1.0
 40
1.0
 40
1.0
 40
1.0
 10
156.3164002582
 20
98.5364950188
 30
0.0
 10
156.4053860987
 20
98.5480318297
 30
0.0
 10
156.5831777017
 20
98.5722478716
 30
0.0
 10
156.8500477497
 20
98.611509319
 30
0.0
 10
157.1184324325
 20
98.6535903642
 30
0.0
 10
157.2979361785
 20
98.6833623625
 30
0.0
 10
157.3882867556
 20
98.6987471669
 30
0.0
 11
156.3164002582
 21
98.5364950188
 31
0.0
 11
156.5831304597
 21
98.5727259047
 31
0.0
 11
156.8493955248
 21
98.6118407002
 31
0.0
 11
157.1170368174
 21
98.6537722641
 31
0.0
 11
157.3882867556
 21
98.6987471669
 31
0.0
  0
SPLINE
  5
30A
100
AcDbEntity
  8
BEZUGSACHSEN
100
AcDbSpline
 62
7
  6
CONTINUOUS
 70
0
 71
3
 72
18
 73
14
 74
12
 42
0.0000001
 43
0.0000001
 44
0.0000000001
 12
-2.6242089124
 22
-0.9704387092
 32
0.0
 13
-2.6242089124
 23
0.9704387092
 33
0.0
 40
0.0
 40
0.0
 40
0.0
 40
0.0
 40
0.0799679098
 40
0.1663286595
 40
0.257944786
 40
0.3532485422
 40
0.4508026001
 40
0.549197501
 40
0.6467509057
 40
0.7420528253
 40
0.8336699519
 40
0.920031171
 40
1.0
 40
1.0
 40
1.0
 40
1.0
 10
114.3415079809
 20
145.0558913503
 30
0.0
 10
114.271557147
 20
145.0300233653
 30
0.0
 10
114.1236688864
 20
144.9825784453
 30
0.0
 10
113.8897449537
 20
144.9257123063
 30
0.0
 10
113.6385439794
 20
144.8816306343
 30
0.0
 10
113.3747936297
 20
144.8515502401
 30
0.0
 10
113.1034446841
 20
144.8362968916
 30
0.0
 10
112.8295716049
 20
144.8362968995
 30
0.0
 10
112.5582249783
 20
144.8515500826
 30
0.0
 10
112.2944759909
 20
144.8816300863
 30
0.0
 10
112.0432752927
 20
144.925711373
 30
0.0
 10
111.8093491414
 20
144.9825778233
 30
0.0
 10
111.6614596188
 20
145.0300230679
 30
0.0
 10
111.5915079809
 20
145.0558913503
 30
0.0
 11
114.3415079809
 21
145.0558913503
 31
0.0
 11
114.1286707929
 21
144.9868929611
 31
0.0
 11
113.8939942697
 21
144.9293497275
 31
0.0
 11
113.6415768581
 21
144.8847205832
 31
0.0
 11
113.3766675815
 21
144.8543016424
 31
0.0
 11
113.1041572044
 21
144.8388844946
 31
0.0
 11
112.8288584752
 21
144.8388845026
 31
0.0
 11
112.5563499206
 21
144.8543015109
 31
0.0
 11
112.2914457212
 21
144.8847196221
 31
0.0
 11
112.0390254967
 21
144.9293489283
 31
0.0
 11
111.8043476451
 21
144.9868922601
 31
0.0
 11
111.5915079809
 21
145.0558913503
 31
0.0
  0
SPLINE
  5
30B
100
AcDbEntity
  8
0
100
AcDbSpline
 62
7
  6
CONTINUOUS
 70
0
 71
3
 72
20
 73
16
 74
14
 42
0.0000001
 43
0.0000001
 44
0.0000000001
 12
3.7233999092
 22
2.4080948056
 32
0.0
 13
3.8733817531
 23
2.3039085221
 33
0.0
 40
0.0
 40
0.0
 40
0.0
 40
0.0
 40
0.0012532169
 40
0.0453720192
 40
0.1040334313
 40
0.1751599249
 40
0.256942626
 40
0.3479280745
 40
0.4464050835
 40
0.5500501126
 40
0.6564261631
 40
0.7630230623
 40
0.866456113
 40
0.9610538425
 40
1.0
 40
1.0
 40
1.0
 40
1.0
 10
153.8859622139
 20
98.4911088592
 30
0.0
 10
153.8875176232
 20
98.4921148142
 30
0.0
 10
153.9439422184
 20
98.5284259982
 30
0.0
 10
154.083253334
 20
98.6032631605
 30
0.0
 10
154.3178077989
 20
98.7162141441
 30
0.0
 10
154.6090217584
 20
98.8443254314
 30
0.0
 10
154.946602944
 20
98.9862931631
 30
0.0
 10
155.3235909922
 20
99.1408597993
 30
0.0
 10
155.7313853812
 20
99.3067127919
 30
0.0
 10
156.1601065192
 20
99.4825104123
 30
0.0
 10
156.5984712706
 20
99.6668986216
 30
0.0
 10
157.0335114732
 20
99.8582641002
 30
0.0
 10
157.4475956416
 20
100.053062826
 30
0.0
 10
157.7638851897
 20
100.2165780278
 30
0.0
 10
157.9380494249
 20
100.3162224138
 30
0.0
 10
157.9883338701
 20
100.3461318752
 30
0.0
 11
153.8859622139
 21
98.4911088592
 31
0.0
 11
153.8906379274
 21
98.494117909
 31
0.0
 11
154.063961855
 21
98.5914787187
 31
0.0
 11
154.3017301443
 21
98.7069524509
 31
0.0
 11
154.5946085139
 21
98.8370973665
 31
0.0
 11
154.9340864331
 21
98.9804623181
 31
0.0
 11
155.3132416842
 21
99.1364161341
 31
0.0
 11
155.7241196551
 21
99.3039807242
 31
0.0
 11
156.1560461676
 21
99.481594426
 31
0.0
 11
156.597656506
 21
99.6679624034
 31
0.0
 11
157.037015948
 21
99.8620525121
 31
0.0
 11
157.4582751334
 21
100.0614430588
 31
0.0
 11
157.8361178617
 21
100.25874046
 31
0.0
 11
157.9883338701
 21
100.3461318752
 31
0.0
  0
SPLINE
  5
30C
100
AcDbEntity
  8
0
100
AcDbSpline
 62
7
  6
CONTINUOUS
 70
0
 71
3
 72
13
 73
9
 74
7
 42
0.0000001
 43
0.0000001
 44
0.0000000001
 12
-1.1408967151
 22
0.7385532397
 32
0.0
 13
-1.3087912654
 23
0.2804307891
 33
0.0
 40
0.0
 40
0.0
 40
0.0
 40
0.0
 40
0.059563586
 40
0.1942909648
 40
0.3794773789
 40
0.5925784288
 40
0.8107277078
 40
1.0
 40
1.0
 40
1.0
 40
1.0
 10
158.6628965708
 20
139.2212011769
 30
0.0
 10
158.6402446042
 20
139.2358648034
 30
0.0
 10
158.5660922006
 20
139.274301948
 30
0.0
 10
158.4053606097
 20
139.3360240362
 30
0.0
 10
158.1789941249
 20
139.4052621953
 30
0.0
 10
157.9127238748
 20
139.4757914919
 30
0.0
 10
157.6434800703
 20
139.5398177616
 30
0.0
 10
157.4659632949
 20
139.5789824294
 30
0.0
 10
157.3833906539
 20
139.5966750221
 30
0.0
 11
158.6628965708
 21
139.2212011769
 31
0.0
 11
158.5940137679
 21
139.2587896295
 31
0.0
 11
158.4266689233
 21
139.3259586083
 31
0.0
 11
158.1902241112
 21
139.4003028255
 31
0.0
 11
157.9146993505
 21
139.4740309995
 31
0.0
 11
157.6307390431
 21
139.541973484
 31
0.0
 11
157.3833906539
 21
139.5966750221
 31
0.0
  0
LINE
  5
30D
100
AcDbEntity
  8
0
100
AcDbLine
 62
7
  6
CONTINUOUS
 10
157.3833906539
 20
139.5966750221
 11
157.3485407364
 21
139.604111449
  0
SPLINE
  5
30E
100
AcDbEntity
  8
0
100
AcDbSpline
 62
7
  6
CONTINUOUS
 70
0
 71
3
 72
11
 73
7
 74
5
 42
0.0000001
 43
0.0000001
 44
0.0000000001
 12
-1.1130979781
 22
0.2365470736
 32
0.0
 13
-1.1217571013
 23
0.1910116591
 33
0.0
 40
0.0
 40
0.0
 40
0.0
 40
0.0
 40
0.2507105064
 40
0.4993734817
 40
0.7481726691
 40
1.0
 40
1.0
 40
1.0
 40
1.0
 10
157.3485407364
 20
139.604111449
 30
0.0
 10
157.2555189505
 20
139.6238797278
 30
0.0
 10
157.0699884331
 20
139.6620293147
 30
0.0
 10
156.7914097393
 20
139.7161634553
 30
0.0
 10
156.5119091067
 20
139.7676856968
 30
0.0
 10
156.324858272
 20
139.8004078692
 30
0.0
 10
156.2306952398
 20
139.8164418547
 30
0.0
 11
157.3485407364
 21
139.604111449
 31
0.0
 11
157.0691246484
 21
139.6616772546
 31
0.0
 11
156.7913765028
 21
139.7157069144
 31
0.0
 11
156.5129629207
 21
139.7670571982
 31
0.0
 11
156.2306952398
 21
139.8164418547
 31
0.0
  0
SPLINE
  5
30F
100
AcDbEntity
  8
0
100
AcDbSpline
 62
7
  6
CONTINUOUS
 70
0
 71
3
 72
18
 73
14
 74
12
 42
0.0000001
 43
0.0000001
 44
0.0000000001
 12
-3.645811509
 22
-0.8893278592
 32
0.0
 13
-3.7180421888
 23
-0.8214017207
 33
0.0
 40
0.0
 40
0.0
 40
0.0
 40
0.0
 40
0.0499555941
 40
0.117252616
 40
0.1975988486
 40
0.2890722958
 40
0.3904379633
 40
0.4999035845
 40
0.6147577172
 40
0.7323157376
 40
0.8496375047
 40
0.9619350557
 40
1.0
 40
1.0
 40
1.0
 40
1.0
 10
159.6847980575
 20
138.8376360263
 30
0.0
 10
159.6240884975
 20
138.8228270591
 30
0.0
 10
159.4755121888
 20
138.7980415472
 30
0.0
 10
159.2275575402
 20
138.7672416241
 30
0.0
 10
158.9250662389
 20
138.7392443152
 30
0.0
 10
158.5796087869
 20
138.7117568696
 30
0.0
 10
158.1970140492
 20
138.683409534
 30
0.0
 10
157.7849226694
 20
138.652246764
 30
0.0
 10
157.3526135947
 20
138.6158622569
 30
0.0
 10
156.9110031902
 20
138.5716116172
 30
0.0
 10
156.4738391149
 20
138.5165288199
 30
0.0
 10
156.1385843449
 20
138.4611737163
 30
0.0
 10
155.9516776712
 20
138.4224845227
 30
0.0
 10
155.9045019816
 20
138.4120623191
 30
0.0
 11
159.6847980575
 21
138.8376360263
 31
0.0
 11
159.4977482987
 21
138.8028888275
 31
0.0
 11
159.2436193814
 21
138.7704653165
 31
0.0
 11
158.9391607122
 21
138.7411658903
 31
0.0
 11
158.5920729202
 21
138.7130493278
 31
0.0
 11
158.2072793279
 21
138.6840758451
 31
0.0
 11
157.7917830559
 21
138.6521885488
 31
0.0
 11
157.3561354075
 21
138.6150091016
 31
0.0
 11
156.9109113144
 21
138.5696911158
 31
0.0
 11
156.4679184189
 21
138.5128463448
 31
0.0
 11
156.0464006502
 21
138.4415864456
 31
0.0
 11
155.9045019816
 21
138.4120623191
 31
0.0
  0
SPLINE
  5
310
100
AcDbEntity
  8
BEZUGSACHSEN
100
AcDbSpline
 62
7
  6
CONTINUOUS
 70
0
 71
3
 72
11
 73
7
 74
5
 42
0.0000001
 43
0.0000001
 44
0.0000000001
 12
0.0
 22
-0.4680658555
 32
0.0
 13
-0.1674374283
 23
-0.437093071
 33
0.0
 40
0.0
 40
0.0
 40
0.0
 40
0.0
 40
0.1445461367
 40
0.3576974325
 40
0.6432572252
 40
1.0
 40
1.0
 40
1.0
 40
1.0
 10
114.9665079809
 20
146.5173442059
 30
0.0
 10
114.9665079809
 20
146.4947918356
 30
0.0
 10
114.9594093656
 20
146.439113347
 30
0.0
 10
114.9359596136
 20
146.3414970537
 30
0.0
 10
114.8958643627
 20
146.2140850572
 30
0.0
 10
114.8614186785
 20
146.1199588376
 30
0.0
 10
114.8415079809
 20
146.0679822393
 30
0.0
 11
114.9665079809
 21
146.5173442059
 31
0.0
 11
114.9598006789
 21
146.4500203856
 31
0.0
 11
114.9376503782
 21
146.3527414755
 31
0.0
 11
114.898342712
 21
146.2249912748
 31
0.0
 11
114.8415079809
 21
146.0679822393
 31
0.0
  0
SPLINE
  5
311
100
AcDbEntity
  8
BEZUGSACHSEN
100
AcDbSpline
 62
7
  6
CONTINUOUS
 70
0
 71
3
 72
12
 73
8
 74
6
 42
0.0000001
 43
0.0000001
 44
0.0000000001
 12
-0.1674556245
 22
0.4371405719
 32
0.0
 13
0.0
 23
0.4681167224
 33
0.0
 40
0.0
 40
0.0
 40
0.0
 40
0.0
 40
0.2995620764
 40
0.5419687552
 40
0.7353081792
 40
0.886011903
 40
1.0
 40
1.0
 40
1.0
 40
1.0
 10
111.0915079809
 20
146.0679822393
 30
0.0
 10
111.0747868627
 20
146.1116324851
 30
0.0
 10
111.045536662
 20
146.1910004329
 30
0.0
 10
111.00972599
 20
146.3000308749
 30
0.0
 10
110.9852754091
 20
146.388275888
 30
0.0
 10
110.9708061359
 20
146.4583020618
 30
0.0
 10
110.9665079809
 20
146.4995576278
 30
0.0
 10
110.9665079809
 20
146.5173442059
 30
0.0
 11
111.0915079809
 21
146.0679822393
 31
0.0
 11
111.0433243421
 21
146.1996742843
 31
0.0
 11
111.0082815171
 21
146.3076024539
 31
0.0
 11
110.984595439
 21
146.3949534716
 31
0.0
 11
110.9709635302
 21
146.4641708166
 31
0.0
 11
110.9665079809
 21
146.5173442059
 31
0.0
  0
SPLINE
  5
312
100
AcDbEntity
  8
BEZUGSACHSEN
100
AcDbSpline
 62
7
  6
CONTINUOUS
 70
0
 71
3
 72
19
 73
15
 74
13
 42
0.0000001
 43
0.0000001
 44
0.0000000001
 12
0.0
 22
-0.9530644332
 32
0.0
 13
-0.8939002421
 23
-0.3305664397
 33
0.0
 40
0.0
 40
0.0
 40
0.0
 40
0.0
 40
0.0479048512
 40
0.1038186277
 40
0.1656371908
 40
0.2321998811
 40
0.3035488221
 40
0.3800991219
 40
0.4626240486
 40
0.5522943159
 40
0.6500533187
 40
0.7587572076
 40
0.8782694549
 40
1.0
 40
1.0
 40
1.0
 40
1.0
 10
114.8415079809
 20
145.8117514503
 30
0.0
 10
114.8415079809
 20
145.796532647
 30
0.0
 10
114.839819944
 20
145.7635410816
 30
0.0
 10
114.8327137933
 20
145.7113496676
 30
0.0
 10
114.8204612289
 20
145.6540449215
 30
0.0
 10
114.8029158165
 20
145.5930171951
 30
0.0
 10
114.7797269054
 20
145.5288982004
 30
0.0
 10
114.7501582776
 20
145.4618671137
 30
0.0
 10
114.71303482
 20
145.3920194189
 30
0.0
 10
114.6667024321
 20
145.3197223376
 30
0.0
 10
114.6086202212
 20
145.2455104559
 30
0.0
 10
114.5357286158
 20
145.1715476384
 30
0.0
 10
114.4467960123
 20
145.1040873461
 30
0.0
 10
114.3777796355
 20
145.0693046946
 30
0.0
 10
114.3415079809
 20
145.0558913503
 30
0.0
 11
114.8415079809
 21
145.8117514503
 31
0.0
 11
114.8393612434
 21
145.7661455375
 31
0.0
 11
114.832340919
 21
145.7133205569
 31
0.0
 11
114.8201407461
 21
145.6556804896
 31
0.0
 11
114.802684732
 21
145.5946908593
 31
0.0
 11
114.7795941435
 21
145.5307311571
 31
0.0
 11
114.7501543098
 21
145.4639773277
 31
0.0
 11
114.7132157663
 21
145.394539486
 31
0.0
 11
114.6670394407
 21
145.3226268848
 31
0.0
 11
114.6094951072
 21
145.2493505878
 31
0.0
 11
114.5365651753
 21
145.175766893
 31
0.0
 11
114.4454678084
 21
145.1073919412
 31
0.0
 11
114.3415079809
 21
145.0558913503
 31
0.0
  0
SPLINE
  5
313
100
AcDbEntity
  8
0
100
AcDbSpline
 62
7
  6
CONTINUOUS
 70
0
 71
3
 72
80
 73
76
 74
74
 42
0.0000001
 43
0.0000001
 44
0.0000000001
 12
-27.0766361239
 22
-5.9818566799
 32
0.0
 13
-21.4542651269
 23
-17.5583621916
 33
0.0
 40
0.0
 40
0.0
 40
0.0
 40
0.0
 40
0.0084096885
 40
0.0194907158
 40
0.0281746627
 40
0.0349713652
 40
0.0404224966
 40
0.0452527754
 40
0.050390375
 40
0.0565724254
 40
0.0643373769
 40
0.0740145609
 40
0.0855413222
 40
0.0988288427
 40
0.1138150603
 40
0.1302893728
 40
0.1478980048
 40
0.1662063535
 40
0.1846887002
 40
0.2027702098
 40
0.2200217532
 40
0.2361332173
 40
0.2507290559
 40
0.26332051
 40
0.2739220985
 40
0.2828194988
 40
0.2904842302
 40
0.2975864105
 40
0.3049322793
 40
0.3132432002
 40
0.3229207413
 40
0.3340033086
 40
0.3465056995
 40
0.3604057247
 40
0.3756075978
 40
0.3919818096
 40
0.4093448815
 40
0.4273442941
 40
0.4455146555
 40
0.4633421904
 40
0.4802716449
 40
0.495856383
 40
0.5096972
 40
0.5218083735
 40
0.5325728606
 40
0.5426357488
 40
0.5524799744
 40
0.56236489
 40
0.5727457584
 40
0.5842378664
 40
0.5973336382
 40
0.6123022698
 40
0.6294452531
 40
0.6488171491
 40
0.6695308882
 40
0.6907185145
 40
0.7119737892
 40
0.7329845234
 40
0.753355354
 40
0.7726700491
 40
0.7904048897
 40
0.806105788
 40
0.8198509164
 40
0.8320442709
 40
0.8432659786
 40
0.8538800549
 40
0.8644605873
 40
0.8757926039
 40
0.8884414068
 40
0.9029512336
 40
0.9196222669
 40
0.9384028155
 40
0.9586407262
 40
0.9794884327
 40
1.0
 40
1.0
 40
1.0
 40
1.0
 10
155.9045019816
 20
138.4120623191
 30
0.0
 10
155.8285999565
 20
138.395293802
 30
0.0
 10
155.6535290228
 20
138.3526633758
 30
0.0
 10
155.4049034861
 20
138.2738563535
 30
0.0
 10
155.1810558242
 20
138.1710461851
 30
0.0
 10
155.0213219354
 20
138.0593840896
 30
0.0
 10
154.9198562739
 20
137.9343428633
 30
0.0
 10
154.8797894198
 20
137.7932504001
 30
0.0
 10
154.9006151587
 20
137.6420654547
 30
0.0
 10
154.9776212416
 20
137.4813687529
 30
0.0
 10
155.1112178006
 20
137.307465562
 30
0.0
 10
155.3014610766
 20
137.1184309214
 30
0.0
 10
155.5464144242
 20
136.9140792894
 30
0.0
 10
155.8424502633
 20
136.6955654537
 30
0.0
 10
156.185082204
 20
136.463911108
 30
0.0
 10
156.5670916555
 20
136.2195524362
 30
0.0
 10
156.9784942089
 20
135.9642933599
 30
0.0
 10
157.4066825837
 20
135.7009106889
 30
0.0
 10
157.8369962216
 20
135.4326407044
 30
0.0
 10
158.2546371813
 20
135.1625733799
 30
0.0
 10
158.6461844785
 20
134.8927605175
 30
0.0
 10
158.9996361079
 20
134.6250392774
 30
0.0
 10
159.30272074
 20
134.3632101226
 30
0.0
 10
159.5450313297
 20
134.1107512012
 30
0.0
 10
159.7213200492
 20
133.8709221896
 30
0.0
 10
159.8344590026
 20
133.645177998
 30
0.0
 10
159.8897864526
 20
133.4315950687
 30
0.0
 10
159.8906301594
 20
133.2250151442
 30
0.0
 10
159.8373128224
 20
133.0193802902
 30
0.0
 10
159.7276251905
 20
132.8106120106
 30
0.0
 10
159.5595327219
 20
132.5994656637
 30
0.0
 10
159.3351295859
 20
132.3883500723
 30
0.0
 10
159.0605508076
 20
132.1765772928
 30
0.0
 10
158.7410389533
 20
131.9623977478
 30
0.0
 10
158.381767621
 20
131.7442092854
 30
0.0
 10
157.9888475913
 20
131.5202272757
 30
0.0
 10
157.5709409182
 20
131.2879882467
 30
0.0
 10
157.1394358051
 20
131.0460351712
 30
0.0
 10
156.708838382
 20
130.793770552
 30
0.0
 10
156.2955617978
 20
130.5319045073
 30
0.0
 10
155.9163178373
 20
130.2618921363
 30
0.0
 10
155.5877172621
 20
129.9861230737
 30
0.0
 10
155.3206896876
 20
129.7091485159
 30
0.0
 10
155.1188229871
 20
129.4348819702
 30
0.0
 10
154.9805048294
 20
129.1619107759
 30
0.0
 10
154.9021732147
 20
128.8876041077
 30
0.0
 10
154.8805004844
 20
128.6113164681
 30
0.0
 10
154.9131520929
 20
128.3333375539
 30
0.0
 10
154.9991424143
 20
128.0513458581
 30
0.0
 10
155.1393602929
 20
127.7591069406
 30
0.0
 10
155.3369316449
 20
127.4506834667
 30
0.0
 10
155.59653215
 20
127.1226533811
 30
0.0
 10
155.9210002599
 20
126.7741829763
 30
0.0
 10
156.3034821044
 20
126.4086553824
 30
0.0
 10
156.7281116785
 20
126.0339406114
 30
0.0
 10
157.1747573385
 20
125.6582230925
 30
0.0
 10
157.6265041723
 20
125.2843740082
 30
0.0
 10
158.0698415784
 20
124.9121900033
 30
0.0
 10
158.4908816223
 20
124.5414652019
 30
0.0
 10
158.8747291229
 20
124.1747885164
 30
0.0
 10
159.206370261
 20
123.8169195038
 30
0.0
 10
159.473889039
 20
123.471677706
 30
0.0
 10
159.6734729083
 20
123.1414762376
 30
0.0
 10
159.8087652559
 20
122.8243942665
 30
0.0
 10
159.8821456705
 20
122.5167908155
 30
0.0
 10
159.8948920002
 20
122.215662547
 30
0.0
 10
159.8512624366
 20
121.916627748
 30
0.0
 10
159.7503037549
 20
121.612045665
 30
0.0
 10
159.5857541855
 20
121.2952450933
 30
0.0
 10
159.3519880975
 20
120.9633285926
 30
0.0
 10
159.0486579328
 20
120.6144735804
 30
0.0
 10
158.6820174678
 20
120.2528232715
 30
0.0
 10
158.2680209662
 20
119.8856283807
 30
0.0
 10
157.8311402589
 20
119.5206780362
 30
0.0
 10
157.5349736234
 20
119.2790876001
 30
0.0
 10
157.3882867556
 20
119.1590377574
 30
0.0
 11
155.9045019816
 21
138.4120623191
 31
0.0
 11
155.6780964324
 21
138.3562932304
 31
0.0
 11
155.3862167616
 21
138.2604822304
 31
0.0
 11
155.1690301594
 21
138.1566100256
 31
0.0
 11
155.0174274438
 21
138.0447111012
 31
0.0
 11
154.9258286262
 21
137.9245115595
 31
0.0
 11
154.8896887033
 21
137.7955691752
 31
0.0
 11
154.905670121
 21
137.6540373725
 31
0.0
 11
154.9756736513
 21
137.4975990075
 31
0.0
 11
155.1035568881
 21
137.3244311747
 31
0.0
 11
155.2916761211
 21
137.1331533744
 31
0.0
 11
155.5357096027
 21
136.9268376139
 31
0.0
 11
155.8311824343
 21
136.706848557
 31
0.0
 11
156.1746032381
 21
136.4730209158
 31
0.0
 11
156.5587973527
 21
136.2260589644
 31
0.0
 11
156.9731611919
 21
135.9679659075
 31
0.0
 11
157.4050478712
 21
135.7013217918
 31
0.0
 11
157.8393783645
 21
135.429472037
 31
0.0
 11
158.2596943212
 21
135.156313991
 31
0.0
 11
158.652710366
 21
134.8837697386
 31
0.0
 11
159.0076779641
 21
134.6126501095
 31
0.0
 11
159.3121465025
 21
134.3461236062
 31
0.0
 11
159.5515105081
 21
134.0920381454
 31
0.0
 11
159.7230248837
 21
133.8533615235
 31
0.0
 11
159.8308601576
 21
133.6315162178
 31
0.0
 11
159.8819520402
 21
133.4252582931
 31
0.0
 11
159.8823088477
 21
133.2283627123
 31
0.0
 11
159.8327256798
 21
133.0308391804
 31
0.0
 11
159.7279647639
 21
132.8256267035
 31
0.0
 11
159.5633065303
 21
132.6138036146
 31
0.0
 11
159.3416951345
 21
132.4009935734
 31
0.0
 11
159.0686883208
 21
132.1874424223
 31
0.0
 11
158.749573337
 21
131.971424339
 31
0.0
 11
158.390088723
 21
131.7514523737
 31
0.0
 11
157.9963988991
 21
131.5254514276
 31
0.0
 11
157.5762259363
 21
131.2905817058
 31
0.0
 11
157.1415853535
 21
131.0454455391
 31
0.0
 11
156.7076274906
 21
130.7896389123
 31
0.0
 11
156.2910637169
 21
130.5236577363
 31
0.0
 11
155.9101067099
 21
130.2495187573
 31
0.0
 11
155.5808033485
 21
129.9698126428
 31
0.0
 11
155.3164405735
 21
129.6916973335
 31
0.0
 11
155.1197463375
 21
129.4195809526
 31
0.0
 11
154.9867128779
 21
129.152446417
 31
0.0
 11
154.9109052125
 21
128.8839672021
 31
0.0
 11
154.8894299588
 21
128.6118989858
 31
0.0
 11
154.9204408944
 21
128.3396167331
 31
0.0
 11
155.0025487429
 21
128.0637861378
 31
0.0
 11
155.1382198521
 21
127.775517511
 31
0.0
 11
155.3321469363
 21
127.4685917188
 31
0.0
 11
155.5879530343
 21
127.1418325187
 31
0.0
 11
155.9100194809
 21
126.7923394579
 31
0.0
 11
156.2968235081
 21
126.4197692975
 31
0.0
 11
156.7262809654
 21
126.038543475
 31
0.0
 11
157.1747791248
 21
125.659231483
 31
0.0
 11
157.627802395
 21
125.2823961697
 31
0.0
 11
158.0728658959
 21
124.9066175806
 31
0.0
 11
158.4955731446
 21
124.5321079739
 31
0.0
 11
158.8812838967
 21
124.1606886766
 31
0.0
 11
159.2133544054
 21
123.7981049349
 31
0.0
 11
159.4776369539
 21
123.4522377838
 31
0.0
 11
159.6725173
 21
123.1247799151
 31
0.0
 11
159.8028774438
 21
122.812886788
 31
0.0
 11
159.8732876566
 21
122.5098564897
 31
0.0
 11
159.8856852637
 21
122.21586051
 31
0.0
 11
159.844199524
 21
121.9254817103
 31
0.0
 11
159.7469002431
 21
121.6267678915
 31
0.0
 11
159.5874747474
 21
121.3144370116
 31
0.0
 11
159.3585334122
 21
120.9836814464
 31
0.0
 11
159.0574487008
 21
120.6330323849
 31
0.0
 11
158.688613725
 21
120.2655457835
 31
0.0
 11
158.2704716955
 21
119.8914501693
 31
0.0
 11
157.8280386068
 21
119.5195642151
 31
0.0
 11
157.3882867556
 21
119.1590377574
 31
0.0
  0
SPLINE
  5
314
100
AcDbEntity
  8
0
100
AcDbSpline
 62
7
  6
CONTINUOUS
 70
0
 71
3
 72
93
 73
89
 74
87
 42
0.0000001
 43
0.0000001
 44
0.0000000001
 12
-24.7884022216
 22
-20.2870497676
 32
0.0
 13
32.9864705435
 23
-10.1142040993
 33
0.0
 40
0.0
 40
0.0
 40
0.0
 40
0.0
 40
0.0187215096
 40
0.0382257892
 40
0.0570421845
 40
0.0742038218
 40
0.0891517193
 40
0.1020227556
 40
0.1133034436
 40
0.1234519108
 40
0.1329924932
 40
0.1426305242
 40
0.1528362304
 40
0.1639816141
 40
0.1765738173
 40
0.1907949601
 40
0.2065015135
 40
0.2231283574
 40
0.2403292444
 40
0.2580112064
 40
0.2758897319
 40
0.2933899427
 40
0.3098631414
 40
0.3245776361
 40
0.3372451224
 40
0.3483719313
 40
0.3581185467
 40
0.3668361899
 40
0.3750228013
 40
0.3832360269
 40
0.3918172027
 40
0.4010172893
 40
0.4113239268
 40
0.4230742559
 40
0.4364138455
 40
0.4510831374
 40
0.46672525
 40
0.4833453424
 40
0.5010293849
 40
0.5194878364
 40
0.5381710736
 40
0.5559475084
 40
0.5715379723
 40
0.5847622085
 40
0.596019314
 40
0.6055812414
 40
0.6135948756
 40
0.6204989269
 40
0.6269388595
 40
0.6336054972
 40
0.641085018
 40
0.6498220186
 40
0.6601505519
 40
0.6719921227
 40
0.6848747632
 40
0.6986276779
 40
0.7132093892
 40
0.7281718305
 40
0.7427648069
 40
0.7564329036
 40
0.7688010967
 40
0.7796827459
 40
0.7891010589
 40
0.797157432
 40
0.8037678568
 40
0.809029833
 40
0.813434299
 40
0.8176324284
 40
0.822349932
 40
0.8282425635
 40
0.8356945727
 40
0.8450165572
 40
0.8563315515
 40
0.8693551531
 40
0.8834149086
 40
0.8978583507
 40
0.9123046767
 40
0.926470448
 40
0.9400769948
 40
0.9528454655
 40
0.9644881527
 40
0.9746765383
 40
0.9831166744
 40
0.9895247216
 40
0.993899184
 40
0.9964800794
 40
0.9979573085
 40
1.0
 40
1.0
 40
1.0
 40
1.0
 10
157.3882867556
 20
119.1590377574
 30
0.0
 10
157.2335946518
 20
119.0324363581
 30
0.0
 10
156.9182482665
 20
118.7733126826
 30
0.0
 10
156.4557454638
 20
118.3768993363
 30
0.0
 10
156.0223947726
 20
117.9725684176
 30
0.0
 10
155.6500157281
 20
117.5755913677
 30
0.0
 10
155.353148267
 20
117.1970656376
 30
0.0
 10
155.1335757519
 20
116.8406715635
 30
0.0
 10
154.9867761322
 20
116.5036280138
 30
0.0
 10
154.9040048518
 20
116.1819365941
 30
0.0
 10
154.8790078113
 20
115.8681450416
 30
0.0
 10
154.9122290112
 20
115.5543383785
 30
0.0
 10
155.0068071309
 20
115.2355224417
 30
0.0
 10
155.1654122829
 20
114.9081257651
 30
0.0
 10
155.3924987765
 20
114.5710096869
 30
0.0
 10
155.6900082604
 20
114.2269626217
 30
0.0
 10
156.0481065043
 20
113.8815329399
 30
0.0
 10
156.4518355247
 20
113.5394918356
 30
0.0
 10
156.8869262158
 20
113.202903093
 30
0.0
 10
157.341199656
 20
112.8697085285
 30
0.0
 10
157.8009084541
 20
112.5386023825
 30
0.0
 10
158.2472569672
 20
112.2110153233
 30
0.0
 10
158.6578754013
 20
111.8920288456
 30
0.0
 10
159.0137652069
 20
111.5872908083
 30
0.0
 10
159.306164512
 20
111.2975486696
 30
0.0
 10
159.5356957217
 20
111.0217433686
 30
0.0
 10
159.7073097351
 20
110.7553267281
 30
0.0
 10
159.8238951947
 20
110.4942476263
 30
0.0
 10
159.8860706687
 20
110.2315704475
 30
0.0
 10
159.8932559695
 20
109.9630061714
 30
0.0
 10
159.8431768979
 20
109.6881098135
 30
0.0
 10
159.7340494092
 20
109.4071218552
 30
0.0
 10
159.5647993283
 20
109.1182209814
 30
0.0
 10
159.3349995077
 20
108.817288142
 30
0.0
 10
159.046466265
 20
108.5052420352
 30
0.0
 10
158.7062531856
 20
108.1862835327
 30
0.0
 10
158.3241702038
 20
107.8618801807
 30
0.0
 10
157.9069346148
 20
107.5296700447
 30
0.0
 10
157.4599461028
 20
107.1867629238
 30
0.0
 10
156.9937593512
 20
106.8327232688
 30
0.0
 10
156.5301424436
 20
106.4736650734
 30
0.0
 10
156.0999777795
 20
106.1215957646
 30
0.0
 10
155.729606263
 20
105.7891283734
 30
0.0
 10
155.4299531632
 20
105.4831619909
 30
0.0
 10
155.199784074
 20
105.2009668876
 30
0.0
 10
155.035332199
 20
104.9395459131
 30
0.0
 10
154.9318054536
 20
104.6981307033
 30
0.0
 10
154.8837612573
 20
104.4734137375
 30
0.0
 10
154.8895181139
 20
104.257609042
 30
0.0
 10
154.9521272398
 20
104.0444097582
 30
0.0
 10
155.0774236515
 20
103.832096914
 30
0.0
 10
155.2711662129
 20
103.622861186
 30
0.0
 10
155.5336188385
 20
103.4209920497
 30
0.0
 10
155.8555923963
 20
103.2290330375
 30
0.0
 10
156.2250123996
 20
103.0485304936
 30
0.0
 10
156.6312872138
 20
102.8789284203
 30
0.0
 10
157.0646461007
 20
102.7177428753
 30
0.0
 10
157.5101246244
 20
102.5639410675
 30
0.0
 10
157.9478008448
 20
102.4175603887
 30
0.0
 10
158.3587720353
 20
102.2786508838
 30
0.0
 10
158.7300810591
 20
102.146223287
 30
0.0
 10
159.054599727
 20
102.0180571685
 30
0.0
 10
159.3298715046
 20
101.8914551037
 30
0.0
 10
159.5541261478
 20
101.764709859
 30
0.0
 10
159.7247626012
 20
101.6359526458
 30
0.0
 10
159.8387528886
 20
101.501947471
 30
0.0
 10
159.8932999448
 20
101.360210739
 30
0.0
 10
159.8843328742
 20
101.2141830128
 30
0.0
 10
159.8157932061
 20
101.0687516681
 30
0.0
 10
159.6909695518
 20
100.92009645
 30
0.0
 10
159.5069489373
 20
100.76188202
 30
0.0
 10
159.2591422259
 20
100.592213092
 30
0.0
 10
158.9476547473
 20
100.4124478258
 30
0.0
 10
158.5822503569
 20
100.2262507523
 30
0.0
 10
158.1802969357
 20
100.0389458578
 30
0.0
 10
157.7600769932
 20
99.8552649785
 30
0.0
 10
157.3360092851
 20
99.6777469024
 30
0.0
 10
156.9186527816
 20
99.5073985204
 30
0.0
 10
156.5173746789
 20
99.3451039841
 30
0.0
 10
156.1413811644
 20
99.1920501089
 30
0.0
 10
155.8004471683
 20
99.0499819543
 30
0.0
 10
155.5037361265
 20
98.9211090236
 30
0.0
 10
155.2627542803
 20
98.8068501352
 30
0.0
 10
155.0792897491
 20
98.7109553737
 30
0.0
 10
154.9645883372
 20
98.6308000575
 30
0.0
 10
154.8899387074
 20
98.5710058599
 30
0.0
 10
154.889198609
 20
98.4951048441
 30
0.0
 10
154.9296573627
 20
98.4795932339
 30
0.0
 10
154.9521177567
 20
98.4727065011
 30
0.0
 11
157.3882867556
 21
119.1590377574
 31
0.0
 11
156.9260030961
 21
118.777053635
 31
0.0
 11
156.4531211222
 21
118.3687626402
 31
0.0
 11
156.0143752094
 21
117.9555138099
 31
0.0
 11
155.640361677
 21
117.5526467587
 31
0.0
 11
155.3473460807
 21
117.1739681759
 31
0.0
 11
155.1338079244
 21
116.8212967512
 31
0.0
 11
154.9914745107
 21
116.4891710993
 31
0.0
 11
154.9119019731
 21
116.1739879949
 31
0.0
 11
154.8885019592
 21
115.8692841931
 31
0.0
 11
154.9205815968
 21
115.5622329915
 31
0.0
 11
155.0118453384
 21
115.2483245904
 31
0.0
 11
155.1655060636
 21
114.9260804224
 31
0.0
 11
155.3887530057
 21
114.5901463811
 31
0.0
 11
155.6843119506
 21
114.2435197868
 31
0.0
 11
156.0445257134
 21
113.8922888404
 31
0.0
 11
156.4495780627
 21
113.5464848839
 31
0.0
 11
156.8842468263
 21
113.2079071637
 31
0.0
 11
157.3399808521
 21
112.8716091154
 31
0.0
 11
157.8036829333
 21
112.5355405324
 31
0.0
 11
158.2545250137
 21
112.2024182525
 31
0.0
 11
158.6699358556
 21
111.8770514178
 31
0.0
 11
159.0262488449
 21
111.5685175117
 31
0.0
 11
159.3128068707
 21
111.281243254
 31
0.0
 11
159.5389497711
 21
111.0057657753
 31
0.0
 11
159.7059459478
 21
110.7419827592
 31
0.0
 11
159.8176800715
 21
110.4860707759
 31
0.0
 11
159.8770641664
 21
110.2306522313
 31
0.0
 11
159.8842566627
 21
109.9676670575
 31
0.0
 11
159.8362578418
 21
109.6970207975
 31
0.0
 11
159.7317116545
 21
109.4214943068
 31
0.0
 11
159.5674279598
 21
109.1351332587
 31
0.0
 11
159.3411081663
 21
108.8343950777
 31
0.0
 11
159.0527048015
 21
108.5191175507
 31
0.0
 11
158.7113693328
 21
108.1961943203
 31
0.0
 11
158.3305213761
 21
107.8706190577
 31
0.0
 11
157.9148723383
 21
107.5379730798
 31
0.0
 11
157.4662352248
 21
107.1921550447
 31
0.0
 11
156.996231205
 21
106.8334362083
 31
0.0
 11
156.5241869746
 21
106.4655728353
 31
0.0
 11
156.0848954762
 21
106.1032885452
 31
0.0
 11
155.714773411
 21
105.7680289996
 31
0.0
 11
155.4203637564
 21
105.463471306
 31
0.0
 11
155.1947591474
 21
105.182182348
 31
0.0
 11
155.0341721377
 21
104.9213718113
 31
0.0
 11
154.9356347432
 21
104.6843480314
 31
0.0
 11
154.8917803301
 21
104.4675914327
 31
0.0
 11
154.8981661589
 21
104.2614083635
 31
0.0
 11
154.9573025601
 21
104.0562162802
 31
0.0
 11
155.0768277661
 21
103.8485792947
 31
0.0
 11
155.26432689
 21
103.6408145037
 31
0.0
 11
155.5241088028
 21
103.435951808
 31
0.0
 11
155.8483869694
 21
103.2391870599
 31
0.0
 11
156.2182512205
 21
103.0562041511
 31
0.0
 11
156.624132877
 21
102.8849558279
 31
0.0
 11
157.0614405739
 21
102.7208741667
 31
0.0
 11
157.5141023032
 21
102.5633962241
 31
0.0
 11
157.9570852097
 21
102.4141843994
 31
0.0
 11
158.371508425
 21
102.273000215
 31
0.0
 11
158.7442170931
 21
102.1386789499
 31
0.0
 11
159.0678167826
 21
102.0091580397
 31
0.0
 11
159.3410790984
 21
101.8813251741
 31
0.0
 11
159.5642764374
 21
101.7517970684
 31
0.0
 11
159.7305699717
 21
101.620718483
 31
0.0
 11
159.835967615
 21
101.4891873485
 31
0.0
 11
159.8837216235
 21
101.3564325922
 31
0.0
 11
159.8768637863
 21
101.2221343865
 31
0.0
 11
159.8164450837
 21
101.0836291593
 31
0.0
 11
159.6986033966
 21
100.9361833702
 31
0.0
 11
159.5198010087
 21
100.778045406
 31
0.0
 11
159.2749076588
 21
100.6071987757
 31
0.0
 11
158.962085656
 21
100.4241578158
 31
0.0
 11
158.5910883179
 21
100.2333958973
 31
0.0
 11
158.183284884
 21
100.0422978495
 31
0.0
 11
157.7596338507
 21
99.8563869388
 31
0.0
 11
157.3329813941
 21
99.6772327248
 31
0.0
 11
156.9130339384
 21
99.5053709192
 31
0.0
 11
156.5091366684
 21
99.3415902034
 31
0.0
 11
156.1304892792
 21
99.186982154
 31
0.0
 11
155.7864395003
 21
99.0430716234
 31
0.0
 11
155.4875840663
 21
98.911958882
 31
0.0
 11
155.2435836705
 21
98.7955375605
 31
0.0
 11
155.0635403855
 21
98.6969661333
 31
0.0
 11
154.948452876
 21
98.6170356589
 31
0.0
 11
154.894499918
 21
98.5543979659
 31
0.0
 11
154.8964683597
 21
98.5071207786
 31
0.0
 11
154.9521177567
 21
98.4727065011
 31
0.0
  0
SPLINE
  5
315
100
AcDbEntity
  8
0
100
AcDbSpline
 62
7
  6
CONTINUOUS
 70
0
 71
3
 72
93
 73
89
 74
87
 42
0.0000001
 43
0.0000001
 44
0.0000000001
 12
24.6520028558
 22
20.3697883784
 32
0.0
 13
-27.3177403562
 23
20.9340156474
 33
0.0
 40
0.0
 40
0.0
 40
0.0
 40
0.0
 40
0.0183086016
 40
0.0372646356
 40
0.0555450675
 40
0.0721987802
 40
0.0866485257
 40
0.0990805819
 40
0.1099886602
 40
0.1198431348
 40
0.1291400323
 40
0.1385628705
 40
0.1485922611
 40
0.1595825881
 40
0.1720263571
 40
0.1861175722
 40
0.2017666025
 40
0.2184819819
 40
0.2359582042
 40
0.2542995779
 40
0.2734188215
 40
0.2926796711
 40
0.3112533309
 40
0.3280419988
 40
0.3424159053
 40
0.3550147585
 40
0.3660304356
 40
0.3757732447
 40
0.384707667
 40
0.3933745351
 40
0.4020916512
 40
0.4111274391
 40
0.4210279481
 40
0.4322258349
 40
0.4449366018
 40
0.4589084014
 40
0.473755471
 40
0.4893571738
 40
0.5055705599
 40
0.5217774834
 40
0.5372004261
 40
0.5514512716
 40
0.5643399922
 40
0.5758427754
 40
0.586046915
 40
0.5950856038
 40
0.6029011572
 40
0.6096601735
 40
0.6159256587
 40
0.6224250948
 40
0.6298042633
 40
0.6385467146
 40
0.6489135484
 40
0.6610430714
 40
0.6745105881
 40
0.688951859
 40
0.7044603154
 40
0.7209976837
 40
0.7378252118
 40
0.7540938763
 40
0.769218424
 40
0.7827582276
 40
0.7946361428
 40
0.8049681533
 40
0.8137539261
 40
0.8208633313
 40
0.8264990702
 40
0.8311243352
 40
0.8353635821
 40
0.8400337784
 40
0.8458370437
 40
0.8532709883
 40
0.8627149058
 40
0.8742571525
 40
0.887308723
 40
0.9009814806
 40
0.9147190254
 40
0.9282189362
 40
0.9412204993
 40
0.9534517347
 40
0.9646678465
 40
0.9746151506
 40
0.9830213566
 40
0.9895080874
 40
0.9939427024
 40
0.9965604271
 40
0.998037571
 40
1.0
 40
1.0
 40
1.0
 40
1.0
 10
156.2306952396
 20
119.1590377572
 30
0.0
 10
156.3811431389
 20
119.2833518703
 30
0.0
 10
156.6877717013
 20
119.5358752072
 30
0.0
 10
157.1400956794
 20
119.9179989801
 30
0.0
 10
157.5667891315
 20
120.3028855301
 30
0.0
 10
157.9369535351
 20
120.677776142
 30
0.0
 10
158.235380482
 20
121.034036875
 30
0.0
 10
158.4599665923
 20
121.3696768983
 30
0.0
 10
158.6144329684
 20
121.6895328096
 30
0.0
 10
158.7058188689
 20
121.9982593612
 30
0.0
 10
158.7394357932
 20
122.3026848165
 30
0.0
 10
158.7152082283
 20
122.6100613221
 30
0.0
 10
158.6288513068
 20
122.9246561952
 30
0.0
 10
158.4793034051
 20
123.2499163935
 30
0.0
 10
158.2641602762
 20
123.5883307797
 30
0.0
 10
157.9821840432
 20
123.9394795745
 30
0.0
 10
157.6416025269
 20
124.2994664009
 30
0.0
 10
157.2555096098
 20
124.6646785868
 30
0.0
 10
156.8348403811
 20
125.0344040099
 30
0.0
 10
156.3871328348
 20
125.411904223
 30
0.0
 10
155.9231100213
 20
125.7995324647
 30
0.0
 10
155.4617312417
 20
126.1941869011
 30
0.0
 10
155.0302397563
 20
126.5853358281
 30
0.0
 10
154.6541894554
 20
126.9594513068
 30
0.0
 10
154.3457873269
 20
127.3100394561
 30
0.0
 10
154.1055118563
 20
127.6367856939
 30
0.0
 10
153.9264202077
 20
127.9449177818
 30
0.0
 10
153.8043530362
 20
128.2381858817
 30
0.0
 10
153.7372490754
 20
128.5233543716
 30
0.0
 10
153.7243987044
 20
128.8053554217
 30
0.0
 10
153.767590303
 20
129.0855436735
 30
0.0
 10
153.8693430918
 20
129.3641240795
 30
0.0
 10
154.0336822903
 20
129.6419047405
 30
0.0
 10
154.2627589325
 20
129.9215397522
 30
0.0
 10
154.5551308234
 20
130.2011839223
 30
0.0
 10
154.9029878541
 20
130.4757715104
 30
0.0
 10
155.2939189523
 20
130.7433674645
 30
0.0
 10
155.716889382
 20
131.005307098
 30
0.0
 10
156.1597483831
 20
131.2621152177
 30
0.0
 10
156.6042798355
 20
131.512078247
 30
0.0
 10
157.0298774996
 20
131.7530419764
 30
0.0
 10
157.4202107383
 20
131.9844254459
 30
0.0
 10
157.7664147059
 20
132.2078939062
 30
0.0
 10
158.0645685263
 20
132.4253889167
 30
0.0
 10
158.3128205065
 20
132.6401925721
 30
0.0
 10
158.5066474018
 20
132.8551805647
 30
0.0
 10
158.6418210795
 20
133.0693773693
 30
0.0
 10
158.7182741758
 20
133.2800818224
 30
0.0
 10
158.7391675847
 20
133.4894310049
 30
0.0
 10
158.7048368038
 20
133.7035752616
 30
0.0
 10
158.6134032009
 20
133.9285273452
 30
0.0
 10
158.4598592341
 20
134.1670070489
 30
0.0
 10
158.2404257403
 20
134.4186235301
 30
0.0
 10
157.9585622045
 20
134.6792114246
 30
0.0
 10
157.6246492283
 20
134.94542298
 30
0.0
 10
157.2484360978
 20
135.21520958
 30
0.0
 10
156.835803323
 20
135.4897107919
 30
0.0
 10
156.3959220548
 20
135.7688814332
 30
0.0
 10
155.9463925573
 20
136.0478867286
 30
0.0
 10
155.5099427438
 20
136.3194110453
 30
0.0
 10
155.1062375866
 20
136.5771976507
 30
0.0
 10
154.7474918054
 20
136.8182912261
 30
0.0
 10
154.4395772458
 20
137.0430396706
 30
0.0
 10
154.1838422075
 20
137.2526260135
 30
0.0
 10
153.9824549096
 20
137.4471711465
 30
0.0
 10
153.8378591011
 20
137.6265858138
 30
0.0
 10
153.751208915
 20
137.7921310797
 30
0.0
 10
153.7214504191
 20
137.9470384691
 30
0.0
 10
153.7526126122
 20
138.0922097015
 30
0.0
 10
153.846630672
 20
138.2220952037
 30
0.0
 10
154.000631312
 20
138.337769082
 30
0.0
 10
154.218890945
 20
138.4439407286
 30
0.0
 10
154.5068034359
 20
138.5400681385
 30
0.0
 10
154.8602381986
 20
138.6235116356
 30
0.0
 10
155.2622546515
 20
138.6934907544
 30
0.0
 10
155.6898608276
 20
138.7504577975
 30
0.0
 10
156.1235491408
 20
138.7964451531
 30
0.0
 10
156.5508149373
 20
138.8343813578
 30
0.0
 10
156.9624035366
 20
138.8669119183
 30
0.0
 10
157.349835014
 20
138.896415199
 30
0.0
 10
157.7045980464
 20
138.9249220713
 30
0.0
 10
158.0187201929
 20
138.9536434145
 30
0.0
 10
158.2810470872
 20
138.9853487904
 30
0.0
 10
158.4861152274
 20
139.0177454547
 30
0.0
 10
158.6223637489
 20
139.0575212034
 30
0.0
 10
158.7125667238
 20
139.0898252751
 30
0.0
 10
158.7401204734
 20
139.1597795476
 30
0.0
 10
158.7085836672
 20
139.1879035085
 30
0.0
 10
158.6907139586
 20
139.2015973482
 30
0.0
 11
156.2306952396
 21
119.1590377572
 31
0.0
 11
156.6816794313
 21
119.5324147528
 31
0.0
 11
157.1434209422
 21
119.9251801843
 31
0.0
 11
157.5756306964
 21
120.3188015808
 31
0.0
 11
157.9477592455
 21
120.6997848481
 31
0.0
 11
158.2421294604
 21
121.0559736062
 31
0.0
 11
158.4604835937
 21
121.3882056251
 31
0.0
 11
158.6100909105
 21
121.7033227506
 31
0.0
 11
158.6980637834
 21
122.0059296783
 31
0.0
 11
158.72996462
 21
122.3015177209
 31
0.0
 11
158.7066177813
 21
122.6019438421
 31
0.0
 11
158.6237660743
 21
122.9117866328
 31
0.0
 11
158.4792822246
 21
123.2321730849
 31
0.0
 11
158.268055004
 21
123.5694232423
 31
0.0
 11
157.9882781142
 21
123.9226718496
 31
0.0
 11
157.6462784393
 21
124.2880142377
 31
0.0
 11
157.2592693256
 21
124.6567366544
 31
0.0
 11
156.8405593194
 21
125.0268958838
 31
0.0
 11
156.393191622
 21
125.4062210334
 31
0.0
 11
155.9250284029
 21
125.7994742693
 31
0.0
 11
155.4581402942
 21
126.201218403
 31
0.0
 11
155.0194419083
 21
126.601640951
 31
0.0
 11
154.6405765862
 21
126.9820412874
 31
0.0
 11
154.3388113339
 21
127.3287782471
 31
0.0
 11
154.1019248645
 21
127.6546786724
 31
0.0
 11
153.9269394427
 21
127.9604132843
 31
0.0
 11
153.809450703
 21
128.2489764001
 31
0.0
 11
153.7455075727
 21
128.5274421076
 31
0.0
 11
153.7335969013
 21
128.8043429016
 31
0.0
 11
153.7758215306
 21
129.0798901542
 31
0.0
 11
153.8738100657
 21
129.3517227136
 31
0.0
 11
154.0327487468
 21
129.625545068
 31
0.0
 11
154.2574524306
 21
129.9043658119
 31
0.0
 11
154.5493810415
 21
130.1872096229
 31
0.0
 11
154.8985323544
 21
130.4660034261
 31
0.0
 11
155.2891878309
 21
130.7358488097
 31
0.0
 11
155.712549563
 21
130.9998396564
 31
0.0
 11
156.1603708077
 21
131.2611517074
 31
0.0
 11
156.6114376064
 21
131.5164012671
 31
0.0
 11
157.0399055478
 21
131.7606756267
 31
0.0
 11
157.4311188494
 21
131.9944245597
 31
0.0
 11
157.776509609
 21
132.2193397896
 31
0.0
 11
158.0724454717
 21
132.4378182444
 31
0.0
 11
158.3173007589
 21
132.6535234198
 31
0.0
 11
158.508434734
 21
132.8703554251
 31
0.0
 11
158.6392527376
 21
133.0833179142
 31
0.0
 11
158.7109705902
 21
133.2872188195
 31
0.0
 11
158.730385025
 21
133.4866392823
 31
0.0
 11
158.6992207543
 21
133.6921343765
 31
0.0
 11
158.6129870063
 21
133.9117913433
 31
0.0
 11
158.4643646206
 21
134.1485886313
 31
0.0
 11
158.2489235327
 21
134.4005619509
 31
0.0
 11
157.9661607702
 21
134.6660857092
 31
0.0
 11
157.6306565987
 21
134.9361208758
 31
0.0
 11
157.2562125018
 21
135.2064271613
 31
0.0
 11
156.8440044973
 21
135.4821884156
 31
0.0
 11
156.3980702149
 21
135.7664795683
 31
0.0
 11
155.9413813062
 21
136.0511100505
 31
0.0
 11
155.5001477373
 21
136.3267493448
 31
0.0
 11
155.0930839367
 21
136.5879621439
 31
0.0
 11
154.7344857386
 21
136.830626246
 31
0.0
 11
154.4285643471
 21
137.0557761441
 31
0.0
 11
154.1742791889
 21
137.2667437854
 31
0.0
 11
153.9742585288
 21
137.464050276
 31
0.0
 11
153.8348125401
 21
137.6436143265
 31
0.0
 11
153.7552566035
 21
137.805329478
 31
0.0
 11
153.7311674907
 21
137.9512655397
 31
0.0
 11
153.7598660315
 21
138.0837594934
 31
0.0
 11
153.8439914358
 21
138.2071598663
 31
0.0
 11
153.9892107857
 21
138.3227107936
 31
0.0
 11
154.2012111891
 21
138.4302796237
 31
0.0
 11
154.4866214353
 21
138.5290147554
 31
0.0
 11
154.8452271837
 21
138.6164380005
 31
0.0
 11
155.2561266853
 21
138.6896725018
 31
0.0
 11
155.689400213
 21
138.7484309046
 31
0.0
 11
156.1261875857
 21
138.7954558773
 31
0.0
 11
156.55616279
 21
138.8341435646
 31
0.0
 11
156.9706098086
 21
138.8673550308
 31
0.0
 11
157.3605863501
 21
138.8975188563
 31
0.0
 11
157.7180757747
 21
138.9267046733
 31
0.0
 11
158.034754127
 21
138.95678496
 31
0.0
 11
158.3015530914
 21
138.9896958243
 31
0.0
 11
158.5057818181
 21
139.0260461004
 31
0.0
 11
158.6420757097
 21
139.0652278069
 31
0.0
 11
158.7145437888
 21
139.1071332463
 31
0.0
 11
158.7292109382
 21
139.1520359085
 31
0.0
 11
158.6907139586
 21
139.2015973482
 31
0.0
  0
SPLINE
  5
316
100
AcDbEntity
  8
0
100
AcDbSpline
 62
7
  6
CONTINUOUS
 70
0
 71
3
 72
21
 73
17
 74
15
 42
0.0000001
 43
0.0000001
 44
0.0000000001
 12
-2.7290476823
 22
-0.4646994657
 32
0.0
 13
2.287551933
 23
1.4794655588
 33
0.0
 40
0.0
 40
0.0
 40
0.0
 40
0.0
 40
0.0989736171
 40
0.196819746
 40
0.2937642573
 40
0.3900132175
 40
0.4863189884
 40
0.5836604507
 40
0.6806746609
 40
0.769323589
 40
0.8381244363
 40
0.8831088282
 40
0.908622895
 40
0.9256054808
 40
0.9536787972
 40
1.0
 40
1.0
 40
1.0
 40
1.0
 10
156.2306952398
 20
98.5016336601
 30
0.0
 10
156.1406606663
 20
98.4863026644
 30
0.0
 10
155.9614841308
 20
98.4565897598
 30
0.0
 10
155.6936703433
 20
98.4146240006
 30
0.0
 10
155.4279531809
 20
98.375576817
 30
0.0
 10
155.1632478564
 20
98.3395759393
 30
0.0
 10
154.8977050227
 20
98.3069172833
 30
0.0
 10
154.6310625203
 20
98.2786426615
 30
0.0
 10
154.3704237362
 20
98.2571188781
 30
0.0
 10
154.1368455797
 20
98.2465607763
 30
0.0
 10
153.9471290738
 20
98.2485797927
 30
0.0
 10
153.8248552685
 20
98.2664736031
 30
0.0
 10
153.7379371889
 20
98.2936655913
 30
0.0
 10
153.7269834216
 20
98.3684505145
 30
0.0
 10
153.7964734844
 20
98.4290871202
 30
0.0
 10
153.850641495
 20
98.4682653178
 30
0.0
 10
153.8859622139
 20
98.4911088592
 30
0.0
 11
156.2306952398
 21
98.5016336601
 31
0.0
 11
155.9603928253
 21
98.4568231773
 31
0.0
 11
155.69278296
 21
98.4149223445
 31
0.0
 11
155.427251857
 21
98.3759606659
 31
0.0
 11
155.163221046
 21
98.340145861
 31
0.0
 11
154.8985880097
 21
98.3077705698
 31
0.0
 11
154.6305865288
 21
98.2796454709
 31
0.0
 11
154.3628740659
 21
98.2582347506
 31
0.0
 11
154.1176655765
 21
98.2483059813
 31
0.0
 11
153.9272798911
 21
98.2537462827
 31
0.0
 11
153.8044410867
 21
98.2742096517
 31
0.0
 11
153.7423024737
 21
98.3077890891
 31
0.0
 11
153.7345663766
 21
98.3541616191
 31
0.0
 11
153.7822536282
 21
98.4155271727
 31
0.0
 11
153.8859622139
 21
98.4911088592
 31
0.0
  0
SPLINE
  5
317
100
AcDbEntity
  8
0
100
AcDbSpline
 62
7
  6
CONTINUOUS
 70
0
 71
3
 72
22
 73
18
 74
16
 42
0.0000001
 43
0.0000001
 44
0.0000000001
 12
2.8158984448
 22
-0.4794883253
 32
0.0
 13
-2.7356039879
 23
-0.6672996758
 33
0.0
 40
0.0
 40
0.0
 40
0.0
 40
0.0
 40
0.0999136752
 40
0.1990008153
 40
0.2977506695
 40
0.3965194871
 40
0.4956985249
 40
0.5954815014
 40
0.6933413374
 40
0.7799626277
 40
0.8448878106
 40
0.8865357634
 40
0.910195896
 40
0.9260503639
 40
0.9525111263
 40
0.9983594767
 40
1.0
 40
1.0
 40
1.0
 40
1.0
 10
157.3882867556
 20
139.6193283479
 30
0.0
 10
157.4820690097
 20
139.6033592009
 30
0.0
 10
157.6687169795
 20
139.5707193097
 30
0.0
 10
157.9475328118
 20
139.5193717563
 30
0.0
 10
158.2247802192
 20
139.4655780241
 30
0.0
 10
158.5015148768
 20
139.4088075591
 30
0.0
 10
158.7784952454
 20
139.3482668645
 30
0.0
 10
159.0534558384
 20
139.2832931739
 30
0.0
 10
159.3157150971
 20
139.2148079042
 30
0.0
 10
159.5421035101
 20
139.1464821793
 30
0.0
 10
159.7175695984
 20
139.0824999776
 30
0.0
 10
159.8231273851
 20
139.0267191685
 30
0.0
 10
159.8928618303
 20
138.9749914812
 30
0.0
 10
159.8801395999
 20
138.9032516985
 30
0.0
 10
159.794804495
 20
138.8686302055
 30
0.0
 10
159.7295520331
 20
138.8486387189
 30
0.0
 10
159.6862939981
 20
138.8380009331
 30
0.0
 10
159.6847980575
 20
138.8376360263
 30
0.0
 11
157.3882867556
 21
139.6193283479
 31
0.0
 11
157.6694160293
 21
139.570160725
 31
0.0
 11
157.9477655958
 21
139.5188712622
 31
0.0
 11
158.2246628788
 21
139.4650889115
 31
0.0
 11
158.5010134273
 21
139.4082947026
 31
0.0
 11
158.7777378314
 21
139.3476205187
 31
0.0
 11
159.0550479829
 21
139.2817627338
 31
0.0
 11
159.3253111907
 21
139.2103855743
 31
0.0
 11
159.5618233363
 21
139.1377050829
 31
0.0
 11
159.7348462063
 21
139.0709490733
 31
0.0
 11
159.8389995798
 21
139.013463255
 31
0.0
 11
159.8846643773
 21
138.9636409923
 31
0.0
 11
159.8775806262
 21
138.9189112581
 31
0.0
 11
159.8143982519
 21
138.8774284217
 31
0.0
 11
159.6892811162
 21
138.8387385326
 31
0.0
 11
159.6847980575
 21
138.8376360263
 31
0.0
  0
SPLINE
  5
318
100
AcDbEntity
  8
BEZUGSACHSEN
100
AcDbSpline
 62
7
  6
CONTINUOUS
 70
0
 71
3
 72
18
 73
14
 74
12
 42
0.0000001
 43
0.0000001
 44
0.0000000001
 12
2.6737590161
 22
0.7427664394
 32
0.0
 13
2.6737590161
 23
-0.7427664394
 33
0.0
 40
0.0
 40
0.0
 40
0.0
 40
0.0
 40
0.0788628999
 40
0.1647195541
 40
0.2563676281
 40
0.3521236596
 40
0.4503969613
 40
0.5496032532
 40
0.6478758258
 40
0.7436299262
 40
0.8352788674
 40
0.9211360457
 40
1.0
 40
1.0
 40
1.0
 40
1.0
 10
111.5915079809
 20
146.0493700897
 30
0.0
 10
111.6617947775
 20
146.0688956615
 30
0.0
 10
111.8102456516
 20
146.1038431165
 30
0.0
 10
112.0440245349
 20
146.1442460889
 30
0.0
 10
112.2950373486
 20
146.1747710593
 30
0.0
 10
112.5585722527
 20
146.195214235
 30
0.0
 10
112.8296898814
 20
146.2054628773
 30
0.0
 10
113.1033260005
 20
146.2054628662
 30
0.0
 10
113.3744411694
 20
146.195214332
 30
0.0
 10
113.6379744279
 20
146.1747714454
 30
0.0
 10
113.8889867791
 20
146.1442467956
 30
0.0
 10
114.1227679267
 20
146.1038436368
 30
0.0
 10
114.2712202447
 20
146.0688959225
 30
0.0
 10
114.3415079809
 20
146.0493700897
 30
0.0
 11
111.5915079809
 21
146.0493700897
 31
0.0
 11
111.8043449521
 21
146.1002990522
 31
0.0
 11
112.0390213967
 21
146.1414276086
 31
0.0
 11
112.2914389916
 21
146.1725128469
 31
0.0
 11
112.5563484526
 21
146.1933040171
 31
0.0
 11
112.8288589738
 21
146.2037210453
 31
0.0
 11
113.1041575825
 21
146.203721034
 31
0.0
 11
113.3766660825
 21
146.1933040997
 31
0.0
 11
113.6415702147
 21
146.1725135227
 31
0.0
 11
113.8939902301
 21
146.1414282501
 31
0.0
 11
114.1286681422
 21
146.1002996409
 31
0.0
 11
114.3415079809
 21
146.0493700897
 31
0.0
  0
SPLINE
  5
319
100
AcDbEntity
  8
0
100
AcDbSpline
 62
7
  6
CONTINUOUS
 70
0
 71
3
 72
18
 73
14
 74
12
 42
0.0000001
 43
0.0000001
 44
0.0000000001
 12
0.0
 22
-1.7642178701
 32
0.0
 13
-1.7642178701
 23
0.0
 33
0.0
 40
0.0
 40
0.0
 40
0.0
 40
0.0
 40
0.0948691176
 40
0.1905791476
 40
0.2857584804
 40
0.3791181802
 40
0.470813814
 40
0.5609692284
 40
0.649130721
 40
0.7355549077
 40
0.8230391447
 40
0.9115892404
 40
1.0
 40
1.0
 40
1.0
 40
1.0
 10
120.8915079809
 20
94.565326671
 30
0.0
 10
120.8915079809
 20
94.5095367401
 30
0.0
 10
120.8855165269
 20
94.397368067
 30
0.0
 10
120.8582813242
 20
94.2312071771
 30
0.0
 10
120.8126804008
 20
94.069995991
 30
0.0
 10
120.749322934
 20
93.9174319494
 30
0.0
 10
120.6690378113
 20
93.776399413
 30
0.0
 10
120.5727190985
 20
93.6495412097
 30
0.0
 10
120.4616619723
 20
93.5396409728
 30
0.0
 10
120.3365248003
 20
93.4486173969
 30
0.0
 10
120.1978564751
 20
93.3791043632
 30
0.0
 10
120.0478358802
 20
93.3350146188
 30
0.0
 10
119.9434999283
 20
93.3249396504
 30
0.0
 10
119.8915079809
 20
93.3249396504
 30
0.0
 11
120.8915079809
 21
94.565326671
 31
0.0
 11
120.882526671
 21
94.3981980273
 31
0.0
 11
120.8551058831
 21
94.2315860451
 31
0.0
 11
120.8092335297
 21
94.0700562558
 31
0.0
 11
120.7458553201
 21
93.9180314248
 31
0.0
 11
120.6655832819
 21
93.7775811459
 31
0.0
 11
120.5691464813
 21
93.6510977375
 31
0.0
 11
120.4583509688
 21
93.5419380983
 31
0.0
 11
120.3348470967
 21
93.45252765
 31
0.0
 11
120.1967257578
 21
93.3836529922
 31
0.0
 11
120.0467689153
 21
93.3398562703
 31
0.0
 11
119.8915079809
 21
93.3249396504
 31
0.0
  0
SPLINE
  5
31A
100
AcDbEntity
  8
0
100
AcDbSpline
 62
7
  6
CONTINUOUS
 70
0
 71
3
 72
78
 73
74
 74
72
 42
0.0000001
 43
0.0000001
 44
0.0000000001
 12
23.5107804524
 22
13.9843400153
 32
0.0
 13
21.0839513804
 23
17.4215308312
 33
0.0
 40
0.0
 40
0.0
 40
0.0
 40
0.0
 40
0.0068216859
 40
0.0175249733
 40
0.0260607266
 40
0.0328430914
 40
0.0383205973
 40
0.0432784648
 40
0.0485596855
 40
0.0549110692
 40
0.0628854284
 40
0.0725845139
 40
0.0839201208
 40
0.096850646
 40
0.1111853687
 40
0.1266732027
 40
0.1430032817
 40
0.1598083453
 40
0.1766401556
 40
0.1930430579
 40
0.2085434672
 40
0.222686633
 40
0.2349431044
 40
0.2452676945
 40
0.2540855512
 40
0.26194811
 40
0.2695636274
 40
0.2777486583
 40
0.2872506426
 40
0.2985802082
 40
0.3119162392
 40
0.3275924894
 40
0.3460578561
 40
0.3670270203
 40
0.3889176068
 40
0.4104692205
 40
0.4312836404
 40
0.4511265849
 40
0.4699013293
 40
0.487417452
 40
0.5031821179
 40
0.5169124526
 40
0.5288836625
 40
0.5396236784
 40
0.5497095856
 40
0.5594090644
 40
0.56913081
 40
0.5795401666
 40
0.5912119635
 40
0.6045427992
 40
0.6197173573
 40
0.6369923022
 40
0.6558531505
 40
0.6756253002
 40
0.6959576351
 40
0.7166857151
 40
0.737386518
 40
0.7574399798
 40
0.7761986659
 40
0.7929800196
 40
0.8077037085
 40
0.8207282199
 40
0.8327247134
 40
0.8441027763
 40
0.8554040805
 40
0.8674729534
 40
0.8809527874
 40
0.8964147993
 40
0.9142317174
 40
0.9343557925
 40
0.956074137
 40
0.9783710142
 40
1.0
 40
1.0
 40
1.0
 40
1.0
 10
157.9883338701
 20
100.3461318752
 30
0.0
 10
158.0417949229
 20
100.3779308
 30
0.0
 10
158.1776615471
 20
100.4620896539
 30
0.0
 10
158.3721629517
 20
100.5991628485
 30
0.0
 10
158.5496849499
 20
100.7575964495
 30
0.0
 10
158.6685719018
 20
100.9070515475
 30
0.0
 10
158.7308951581
 20
101.0542462319
 30
0.0
 10
158.7326968836
 20
101.2016427759
 30
0.0
 10
158.6712364849
 20
101.3438291504
 30
0.0
 10
158.5508366397
 20
101.4785828042
 30
0.0
 10
158.3735861426
 20
101.6088048406
 30
0.0
 10
158.1421615535
 20
101.7376482609
 30
0.0
 10
157.8602351057
 20
101.8662346735
 30
0.0
 10
157.5327443208
 20
101.9953106435
 30
0.0
 10
157.1658447743
 20
102.1269489675
 30
0.0
 10
156.7677183962
 20
102.2631114971
 30
0.0
 10
156.3479410149
 20
102.4055477603
 30
0.0
 10
155.9179397341
 20
102.5559780683
 30
0.0
 10
155.4907850826
 20
102.7163471992
 30
0.0
 10
155.0810000723
 20
102.8884980992
 30
0.0
 10
154.704018526
 20
103.0739917672
 30
0.0
 10
154.37621429
 20
103.2713188221
 30
0.0
 10
154.1111710495
 20
103.477769932
 30
0.0
 10
153.9171788272
 20
103.6906805429
 30
0.0
 10
153.7928036901
 20
103.9057096053
 30
0.0
 10
153.7313274489
 20
104.120980988
 30
0.0
 10
153.7265649059
 20
104.338854007
 30
0.0
 10
153.7756188233
 20
104.5660341739
 30
0.0
 10
153.8804303825
 20
104.810333907
 30
0.0
 10
154.0465488337
 20
105.0750118391
 30
0.0
 10
154.2789547763
 20
105.3609324501
 30
0.0
 10
154.5814152986
 20
105.6711297151
 30
0.0
 10
154.9546345669
 20
106.007860999
 30
0.0
 10
155.3863458046
 20
106.3633010637
 30
0.0
 10
155.8493729709
 20
106.7245021189
 30
0.0
 10
156.3144875793
 20
107.080652073
 30
0.0
 10
156.762979511
 20
107.4278153767
 30
0.0
 10
157.1852202425
 20
107.7674499754
 30
0.0
 10
157.5733168888
 20
108.1012542344
 30
0.0
 10
157.9167686646
 20
108.4292205254
 30
0.0
 10
158.2041214795
 20
108.747924935
 30
0.0
 10
158.4290691077
 20
109.0526917199
 30
0.0
 10
158.5917775306
 20
109.3436570973
 30
0.0
 10
158.6940552588
 20
109.6262899644
 30
0.0
 10
158.7376673274
 20
109.9030407426
 30
0.0
 10
158.7242522294
 20
110.173632046
 30
0.0
 10
158.6559126179
 20
110.4386234213
 30
0.0
 10
158.5331717347
 20
110.7027522238
 30
0.0
 10
158.3549942253
 20
110.9730772992
 30
0.0
 10
158.1182704715
 20
111.2534771565
 30
0.0
 10
157.8201548696
 20
111.5462246565
 30
0.0
 10
157.4643610563
 20
111.8503034112
 30
0.0
 10
157.0624803216
 20
112.1639604482
 30
0.0
 10
156.6304667396
 20
112.4839187409
 30
0.0
 10
156.1820887113
 20
112.8103098547
 30
0.0
 10
155.7296340799
 20
113.145495105
 30
0.0
 10
155.287876559
 20
113.490693777
 30
0.0
 10
154.8759030532
 20
113.8441862294
 30
0.0
 10
154.5137981532
 20
114.1995635579
 30
0.0
 10
154.2175487272
 20
114.5503465655
 30
0.0
 10
153.9947079663
 20
114.8911136436
 30
0.0
 10
153.8408135193
 20
115.2206649621
 30
0.0
 10
153.7504906292
 20
115.5417188182
 30
0.0
 10
153.7213108871
 20
115.858310899
 30
0.0
 10
153.7501405533
 20
116.1754187947
 30
0.0
 10
153.837112028
 20
116.5014578245
 30
0.0
 10
153.9894111619
 20
116.8444429636
 30
0.0
 10
154.2155840571
 20
117.2071106921
 30
0.0
 10
154.5177632219
 20
117.5898161604
 30
0.0
 10
154.890536728
 20
117.9865835101
 30
0.0
 10
155.3175342529
 20
118.3864599019
 30
0.0
 10
155.7704619293
 20
118.7777524968
 30
0.0
 10
156.078687078
 20
119.0334344096
 30
0.0
 10
156.2306952396
 20
119.1590377572
 30
0.0
 11
157.9883338701
 21
100.3461318752
 31
0.0
 11
158.1468001466
 21
100.4446642642
 31
0.0
 11
158.3845217998
 21
100.6154988702
 31
0.0
 11
158.5563899145
 21
100.7734959
 31
0.0
 11
158.6681627024
 21
100.9215403642
 31
0.0
 11
158.7226985516
 21
101.0610732286
 31
0.0
 11
158.7234912626
 21
101.1966704214
 31
0.0
 11
158.6693599551
 21
101.330587114
 31
0.0
 11
158.557319119
 21
101.4633385777
 31
0.0
 11
158.3841524824
 21
101.5959344172
 31
0.0
 11
158.1537736393
 21
101.7274473777
 31
0.0
 11
157.8725015123
 21
101.8578562703
 31
0.0
 11
157.5440578495
 21
101.9889912097
 31
0.0
 11
157.1754341615
 21
102.1225112293
 31
0.0
 11
156.7749309647
 21
102.2604693648
 31
0.0
 11
156.3522638273
 21
102.4048097851
 31
0.0
 11
155.918752675
 21
102.5575283306
 31
0.0
 11
155.488213992
 21
102.7205139442
 31
0.0
 11
155.075278988
 21
102.8958692288
 31
0.0
 11
154.695852969
 21
103.0849793965
 31
0.0
 11
154.3660481337
 21
103.2871157769
 31
0.0
 11
154.1041391573
 21
103.4963416969
 31
0.0
 11
153.9166274117
 21
103.7074780933
 31
0.0
 11
153.7980779114
 21
103.9175013716
 31
0.0
 11
153.7400046247
 21
104.1245553951
 31
0.0
 11
153.7345342796
 21
104.3327707669
 31
0.0
 11
153.7794042575
 21
104.5520915537
 31
0.0
 11
153.8792455568
 21
104.7920306661
 31
0.0
 11
154.0414722389
 21
105.0560393106
 31
0.0
 11
154.2692103609
 21
105.3409507742
 31
0.0
 11
154.5665374594
 21
105.6498588955
 31
0.0
 11
154.9399917934
 21
105.9898468655
 31
0.0
 11
155.3813866541
 21
106.356028985
 31
0.0
 11
155.8523590123
 21
106.7256848456
 31
0.0
 11
156.3195062727
 21
107.0851544351
 31
0.0
 11
156.7688660239
 21
107.4346653932
 31
0.0
 11
157.1908638583
 21
107.7759189752
 31
0.0
 11
157.5789496124
 21
108.1121745332
 31
0.0
 11
157.9238499676
 21
108.4446713708
 31
0.0
 11
158.2107624888
 21
108.7665227291
 31
0.0
 11
158.431570962
 21
109.070276246
 31
0.0
 11
158.5887786893
 21
109.3574828551
 31
0.0
 11
158.6867359473
 21
109.6344116668
 31
0.0
 11
158.7285362616
 21
109.9070795473
 31
0.0
 11
158.7153670574
 21
110.1720368084
 31
0.0
 11
158.650124025
 21
110.4298014577
 31
0.0
 11
158.5322922311
 21
110.6889724817
 31
0.0
 11
158.35865356
 21
110.956845782
 31
0.0
 11
158.1252691791
 21
111.236965915
 31
0.0
 11
157.8308357227
 21
111.5294700303
 31
0.0
 11
157.4732594483
 21
111.8382950732
 31
0.0
 11
157.0677574294
 21
112.1571532772
 31
0.0
 11
156.6341408765
 21
112.4802862922
 31
0.0
 11
156.1854568948
 21
112.8088078723
 31
0.0
 11
155.7308940309
 21
113.147587503
 31
0.0
 11
155.285987519
 21
113.4977473148
 31
0.0
 11
154.8711775916
 21
113.8565670859
 31
0.0
 11
154.5070530812
 21
114.2180097977
 31
0.0
 11
154.2133726171
 21
114.5707291869
 31
0.0
 11
153.9950506569
 21
114.9091098532
 31
0.0
 11
153.8462610663
 21
115.2327733439
 31
0.0
 11
153.7590531698
 21
115.5490801489
 31
0.0
 11
153.7307858274
 21
115.8589878871
 31
0.0
 11
153.7578678647
 21
116.1668940262
 31
0.0
 11
153.8414984614
 21
116.4862122121
 31
0.0
 11
153.9891029546
 21
116.8240534649
 31
0.0
 11
154.2100945937
 21
117.1846087645
 31
0.0
 11
154.5096437975
 21
117.5689665228
 31
0.0
 11
154.8845335067
 21
117.9719539395
 31
0.0
 11
155.3162803089
 21
118.3799200585
 31
0.0
 11
155.7763967177
 21
118.780148602
 31
0.0
 11
156.2306952396
 21
119.1590377572
 31
0.0
  0
SPLINE
  5
31B
100
AcDbEntity
  8
BEZUGSACHSEN
100
AcDbSpline
 62
7
  6
CONTINUOUS
 70
0
 71
3
 72
11
 73
7
 74
5
 42
0.0000001
 43
0.0000001
 44
0.0000000001
 12
0.0
 22
0.1830126193
 32
0.0
 13
0.1451726273
 23
-0.1114384454
 33
0.0
 40
0.0
 40
0.0
 40
0.0
 40
0.0
 40
0.2465776366
 40
0.4184562595
 40
0.6350985973
 40
1.0
 40
1.0
 40
1.0
 40
1.0
 10
110.9665079809
 20
146.5173442059
 30
0.0
 10
110.9665079809
 20
146.532386479
 30
0.0
 10
110.9664804665
 20
146.5587997412
 30
0.0
 10
110.9958985088
 20
146.5921342733
 30
0.0
 10
111.046061275
 20
146.5773795455
 30
0.0
 10
111.0738500825
 20
146.5576088123
 30
0.0
 10
111.0915079809
 20
146.5440541306
 30
0.0
 11
110.9665079809
 21
146.5173442059
 31
0.0
 11
110.9732153387
 21
146.5619697721
 31
0.0
 11
110.9953655165
 21
146.5843046518
 31
0.0
 11
111.0346733153
 21
146.579119751
 31
0.0
 11
111.0915079809
 21
146.5440541306
 31
0.0
  0
SPLINE
  5
31C
100
AcDbEntity
  8
0
100
AcDbSpline
 62
7
  6
CONTINUOUS
 70
0
 71
3
 72
15
 73
11
 74
9
 42
0.0000001
 43
0.0000001
 44
0.0000000001
 12
-0.9130901403
 22
0.0
 32
0.0
 13
0.0
 23
-0.9130901403
 33
0.0
 40
0.0
 40
0.0
 40
0.0
 40
0.0
 40
0.095594498
 40
0.1995281968
 40
0.3092175201
 40
0.4273815356
 40
0.5557358605
 40
0.6930947067
 40
0.8403493616
 40
1.0
 40
1.0
 40
1.0
 40
1.0
 10
111.5915079809
 20
97.9749487989
 30
0.0
 10
111.5624125164
 20
97.9749487989
 30
0.0
 10
111.5014659442
 20
97.9678083542
 30
0.0
 10
111.4123455105
 20
97.935042303
 30
0.0
 10
111.3271406296
 20
97.8793635519
 30
0.0
 10
111.2500796449
 20
97.802093834
 30
0.0
 10
111.1843686979
 20
97.7046955956
 30
0.0
 10
111.1331502008
 20
97.5892405344
 30
0.0
 10
111.0994344769
 20
97.4576968529
 30
0.0
 10
111.0915079809
 20
97.3640807465
 30
0.0
 10
111.0915079809
 20
97.3154889386
 30
0.0
 11
111.5915079809
 21
97.9749487989
 31
0.0
 11
111.5048027974
 21
97.9648926741
 31
0.0
 11
111.4155924945
 21
97.9325246271
 31
0.0
 11
111.3314539217
 21
97.8781925658
 31
0.0
 11
111.2548420526
 21
97.802220054
 31
0.0
 11
111.1888335742
 21
97.7053773856
 31
0.0
 11
111.1375684219
 21
97.5909120482
 31
0.0
 11
111.103912419
 21
97.4607356394
 31
0.0
 11
111.0915079809
 21
97.3154889386
 31
0.0
  0
SPLINE
  5
31D
100
AcDbEntity
  8
0
100
AcDbSpline
 62
7
  6
CONTINUOUS
 70
0
 71
3
 72
15
 73
11
 74
9
 42
0.0000001
 43
0.0000001
 44
0.0000000001
 12
0.0
 22
0.9130899958
 32
0.0
 13
-0.9130899958
 23
0.0
 33
0.0
 40
0.0
 40
0.0
 40
0.0
 40
0.0
 40
0.1598406322
 40
0.3070906132
 40
0.4443104261
 40
0.5725485626
 40
0.6906434484
 40
0.8001389346
 40
0.9041997491
 40
1.0
 40
1.0
 40
1.0
 40
1.0
 10
114.8415079809
 20
97.3154889386
 30
0.0
 10
114.8415079809
 20
97.364138566
 30
0.0
 10
114.8335672571
 20
97.4578118193
 30
0.0
 10
114.7998203535
 20
97.5893621106
 30
0.0
 10
114.7486173644
 20
97.7047358583
 30
0.0
 10
114.6829637615
 20
97.802051399
 30
0.0
 10
114.6059983194
 20
97.8792514027
 30
0.0
 10
114.5208569327
 20
97.9349438093
 30
0.0
 10
114.4317152413
 20
97.96778057
 30
0.0
 10
114.3706660645
 20
97.9749487989
 30
0.0
 10
114.3415079809
 20
97.9749487989
 30
0.0
 11
114.8415079809
 21
97.3154889386
 31
0.0
 11
114.8290738906
 21
97.460907196
 31
0.0
 11
114.7953913487
 21
97.5910723104
 31
0.0
 11
114.7441617311
 21
97.7054144388
 31
0.0
 11
114.6782148713
 21
97.8021706936
 31
0.0
 11
114.6016613718
 21
97.8781123954
 31
0.0
 11
114.5176971073
 21
97.9323880744
 31
0.0
 11
114.4283972818
 21
97.9648495948
 31
0.0
 11
114.3415079809
 21
97.9749487989
 31
0.0
  0
SPLINE
  5
31E
100
AcDbEntity
  8
BEZUGSACHSEN
100
AcDbSpline
 62
7
  6
CONTINUOUS
 70
0
 71
3
 72
12
 73
8
 74
6
 42
0.0000001
 43
0.0000001
 44
0.0000000001
 12
0.1458774432
 22
0.1119794812
 32
0.0
 13
0.0
 23
-0.1839011491
 33
0.0
 40
0.0
 40
0.0
 40
0.0
 40
0.0
 40
0.3119503866
 40
0.5109744676
 40
0.6456308384
 40
0.7914381086
 40
1.0
 40
1.0
 40
1.0
 40
1.0
 10
114.8415079809
 20
146.5440541306
 30
0.0
 10
114.8566768225
 20
146.5556981448
 30
0.0
 10
114.8825320289
 20
146.5731545688
 30
0.0
 10
114.9201013418
 20
146.5890321552
 30
0.0
 10
114.9515875936
 20
146.5811917691
 30
0.0
 10
114.9652823612
 20
146.5516802978
 30
0.0
 10
114.9665079809
 20
146.5301291298
 30
0.0
 10
114.9665079809
 20
146.5173442059
 30
0.0
 11
114.8415079809
 21
146.5440541306
 31
0.0
 11
114.8896916166
 21
146.5751897797
 31
0.0
 11
114.9247344086
 21
146.5857547292
 31
0.0
 11
114.9484204409
 21
146.5785297109
 31
0.0
 11
114.9620523978
 21
146.5554393011
 31
0.0
 11
114.9665079809
 21
146.5173442059
 31
0.0
  0
SPLINE
  5
31F
100
AcDbEntity
  8
0
100
AcDbSpline
 62
7
  6
CONTINUOUS
 70
0
 71
3
 72
18
 73
14
 74
12
 42
0.0000001
 43
0.0000001
 44
0.0000000001
 12
-1.7642179932
 22
0.0
 32
0.0
 13
0.0
 23
1.7642179932
 33
0.0
 40
0.0
 40
0.0
 40
0.0
 40
0.0
 40
0.0884356734
 40
0.1769592452
 40
0.264385139
 40
0.3507913626
 40
0.4389518107
 40
0.5291184745
 40
0.6208295728
 40
0.7142209758
 40
0.8094445939
 40
0.905156071
 40
1.0
 40
1.0
 40
1.0
 40
1.0
 10
106.0415079809
 20
93.3249396504
 30
0.0
 10
105.9895013788
 20
93.3249396504
 30
0.0
 10
105.8851661522
 20
93.3350174504
 30
0.0
 10
105.7351812196
 20
93.3791006604
 30
0.0
 10
105.5965637937
 20
93.4485772806
 30
0.0
 10
105.4714521783
 20
93.5395581725
 30
0.0
 10
105.3603839403
 20
93.6494407883
 30
0.0
 10
105.2640418769
 20
93.7763005482
 30
0.0
 10
105.1837278897
 20
93.9173565181
 30
0.0
 10
105.1203425493
 20
94.06996769
 30
0.0
 10
105.0747295259
 20
94.2312232859
 30
0.0
 10
105.0474970978
 20
94.3973969023
 30
0.0
 10
105.0415079809
 20
94.509551549
 30
0.0
 10
105.0415079809
 20
94.565326671
 30
0.0
 11
106.0415079809
 21
93.3249396504
 31
0.0
 11
105.8862036855
 21
93.3398646552
 31
0.0
 11
105.7362928293
 21
93.3836519565
 31
0.0
 11
105.5982594811
 21
93.4524724386
 31
0.0
 11
105.4747701117
 21
93.5418488934
 31
0.0
 11
105.3639616766
 21
93.6509928043
 31
0.0
 11
105.267498719
 21
93.7774812393
 31
0.0
 11
105.1872013438
 21
93.9179484739
 31
0.0
 11
105.1237943901
 21
94.0700219309
 31
0.0
 11
105.0779009621
 21
94.231626966
 31
0.0
 11
105.0504845101
 21
94.3982422611
 31
0.0
 11
105.0415079809
 21
94.565326671
 31
0.0
  0
SPLINE
  5
320
100
AcDbEntity
  8
BEZUGSACHSEN
100
AcDbSpline
 62
7
  6
CONTINUOUS
 70
0
 71
3
 72
11
 73
7
 74
5
 42
0.0000001
 43
0.0000001
 44
0.0000000001
 12
0.0
 22
-0.1395867963
 32
0.0
 13
0.0661959442
 23
-0.1231095805
 33
0.0
 40
0.0
 40
0.0
 40
0.0
 40
0.0
 40
0.2989089425
 40
0.5912641764
 40
0.8672480948
 40
1.0
 40
1.0
 40
1.0
 40
1.0
 10
111.0915079809
 20
146.2878233416
 30
0.0
 10
111.0915079809
 20
146.2739154277
 30
0.0
 10
111.0927979015
 20
146.2463757084
 30
0.0
 10
111.0995253496
 20
146.2064657467
 30
0.0
 10
111.1097340925
 20
146.1753306147
 30
0.0
 10
111.1180022508
 20
146.1581524075
 30
0.0
 10
111.1209314634
 20
146.1527047304
 30
0.0
 11
111.0915079809
 21
146.2878233416
 31
0.0
 11
111.0936547347
 21
146.2461548635
 31
0.0
 11
111.100675586
 21
146.2059544101
 31
0.0
 11
111.1128758327
 21
146.169413607
 31
0.0
 11
111.1209314634
 21
146.1527047304
 31
0.0
  0
SPLINE
  5
321
100
AcDbEntity
  8
BEZUGSACHSEN
100
AcDbSpline
 62
7
  6
CONTINUOUS
 70
0
 71
3
 72
16
 73
12
 74
10
 42
0.0000001
 43
0.0000001
 44
0.0000000001
 12
0.244791693
 22
-0.4552575388
 32
0.0
 13
0.497355697
 23
0.1381647029
 33
0.0
 40
0.0
 40
0.0
 40
0.0
 40
0.0
 40
0.0354819688
 40
0.1069116572
 40
0.1821577292
 40
0.2654043123
 40
0.3615453499
 40
0.4759438992
 40
0.6177190239
 40
0.7944984177
 40
1.0
 40
1.0
 40
1.0
 40
1.0
 10
111.1209314634
 20
146.1527047304
 30
0.0
 10
111.1238266938
 20
146.1473202525
 30
0.0
 10
111.1332681197
 20
146.1314834432
 30
0.0
 10
111.1530313505
 20
146.1069201012
 30
0.0
 10
111.1832841336
 20
146.0810916805
 30
0.0
 10
111.2212511319
 20
146.0588158442
 30
0.0
 10
111.268584339
 20
146.0405111702
 30
0.0
 10
111.327933276
 20
146.0271944838
 30
0.0
 10
111.4024338387
 20
146.0212326609
 30
0.0
 10
111.4927297286
 20
146.026667277
 30
0.0
 10
111.5574388534
 20
146.0399057347
 30
0.0
 10
111.5915079809
 20
146.0493700897
 30
0.0
 11
111.1209314634
 21
146.1527047304
 31
0.0
 11
111.1303312472
 21
146.1369647956
 31
0.0
 11
111.1534202506
 21
146.1082177904
 31
0.0
 11
111.1828575408
 21
146.0828782853
 31
0.0
 11
111.2197924794
 21
146.0609164507
 31
0.0
 11
111.2659650228
 21
146.0427246918
 31
0.0
 11
111.3235065605
 21
146.0294567407
 31
0.0
 11
111.3964247624
 21
146.0232378899
 31
0.0
 11
111.4875330719
 21
146.0283526321
 31
0.0
 11
111.5915079809
 21
146.0493700897
 31
0.0
  0
SPLINE
  5
322
100
AcDbEntity
  8
BEZUGSACHSEN
100
AcDbSpline
 62
7
  6
CONTINUOUS
 70
0
 71
3
 72
16
 73
12
 74
10
 42
0.0000001
 43
0.0000001
 44
0.0000000001
 12
0.4973714463
 22
-0.1381690781
 32
0.0
 13
0.2447633051
 23
0.4552915049
 33
0.0
 40
0.0
 40
0.0
 40
0.0
 40
0.0
 40
0.2054084362
 40
0.3821123936
 40
0.5239763358
 40
0.6383788277
 40
0.7345406286
 40
0.8178119434
 40
0.8930732946
 40
0.9645140243
 40
1.0
 40
1.0
 40
1.0
 40
1.0
 10
114.3415079809
 20
146.0493700897
 30
0.0
 10
114.3755627446
 20
146.039909725
 30
0.0
 10
114.4402447975
 20
146.0266748714
 30
0.0
 10
114.53052889
 20
146.0212324515
 30
0.0
 10
114.6050357622
 20
146.0271864232
 30
0.0
 10
114.6644066355
 20
146.0405034186
 30
0.0
 10
114.7117506717
 20
146.0588083697
 30
0.0
 10
114.7497289218
 20
146.081088785
 30
0.0
 10
114.779989233
 20
146.1069240978
 30
0.0
 10
114.7997551494
 20
146.1314933928
 30
0.0
 10
114.8091970211
 20
146.1473336467
 30
0.0
 10
114.8120922426
 20
146.1527191345
 30
0.0
 11
114.3415079809
 21
146.0493700897
 31
0.0
 11
114.4454383976
 21
146.028358251
 31
0.0
 11
114.5365102038
 21
146.023236473
 31
0.0
 11
114.6094770636
 21
146.0294515954
 31
0.0
 11
114.6670233956
 21
146.0427161339
 31
0.0
 11
114.713208641
 21
146.0609091797
 31
0.0
 11
114.7501565091
 21
146.0828769116
 31
0.0
 11
114.7796004377
 21
146.1082226799
 31
0.0
 11
114.8026922677
 21
146.1369762227
 31
0.0
 11
114.8120922426
 21
146.1527191345
 31
0.0
  0
SPLINE
  5
323
100
AcDbEntity
  8
BEZUGSACHSEN
100
AcDbSpline
 62
7
  6
CONTINUOUS
 70
0
 71
3
 72
11
 73
7
 74
5
 42
0.0000001
 43
0.0000001
 44
0.0000000001
 12
0.0661784389
 22
0.1231004829
 32
0.0
 13
0.0
 23
0.1395704877
 33
0.0
 40
0.0
 40
0.0
 40
0.0
 40
0.0
 40
0.1327767541
 40
0.408761515
 40
0.7011191023
 40
1.0
 40
1.0
 40
1.0
 40
1.0
 10
114.8120922426
 20
146.1527191345
 30
0.0
 10
114.8150212288
 20
146.1581674287
 30
0.0
 10
114.8232875543
 20
146.1753453805
 30
0.0
 10
114.8334934887
 20
146.2064787151
 30
0.0
 10
114.8402185352
 20
146.2463830703
 30
0.0
 10
114.8415079809
 20
146.2739183574
 30
0.0
 10
114.8415079809
 20
146.2878233416
 30
0.0
 11
114.8120922426
 21
146.1527191345
 31
0.0
 11
114.8201470981
 21
146.1694298352
 31
0.0
 11
114.8323435785
 21
146.2059672745
 31
0.0
 11
114.8393621722
 21
146.2461636155
 31
0.0
 11
114.8415079809
 21
146.2878233416
 31
0.0
  0
ENDSEC
  0
SECTION
  2
OBJECTS
  0
DICTIONARY
  5
C
100
AcDbDictionary
280
0
281
1
  3
ACAD_GROUP
350
D
  3
ACAD_MLINESTYLE
350
17
  3
ACAD_LAYOUT
350
1A
  3
ACAD_PLOTSETTINGS
350
19
  3
ACAD_PLOTSTYLENAME
350
E
  0
DICTIONARY
  5
D
102
{ACAD_REACTORS
330
C
102
}
100
AcDbDictionary
280
0
281
1
  0
ACDBDICTIONARYWDFLT
  5
E
102
{ACAD_REACTORS
330
C
102
}
100
AcDbDictionary
281
1
  3
Normal
350
F
100
AcDbDictionaryWithDefault
340
F
  0
DICTIONARY
  5
17
102
{ACAD_REACTORS
330
C
102
}
100
AcDbDictionary
280
0
281
1
  3
Standard
350
18
  0
DICTIONARY
  5
19
102
{ACAD_REACTORS
330
C
102
}
100
AcDbDictionary
281
1
  0
DICTIONARY
  5
1A
102
{ACAD_REACTORS
330
C
102
}
100
AcDbDictionary
281
1
  3
Model
350
324
  3
Layout1
350
325
  0
ACDBPLACEHOLDER
  5
F
102
{ACAD_REACTORS
330
E
102
}
  0
MLINESTYLE
  5
18
102
{ACAD_REACTORS
330
17
102
}
100
AcDbMlineStyle
  2
STANDARD
 70
0
  3

 62
256
 51
90.0
 52
90.0
 71
2
 49
0.5
 62
256
  6
BYLAYER
 49
-0.5
 62
256
  6
BYLAYER
  0
LAYOUT
  5
324
102
{ACAD_REACTORS
330
1A
102
}
100
AcDbPlotSettings
  1

  2
none_device
  4
ISO_A4_(297.00_x_210.00_MM)
  6

 40
0.0
 41
0.0
 42
0.0
 43
0.0
 44
297.0
 45
210.0
 46
0.0
 47
0.0
 48
0.0
 49
0.0
140
0.0
141
0.0
142
1.0
143
1.0
 70
1024
 72
1
 73
0
 74
0
  7

 75
0
147
1.0
148
0.0
149
0.0
100
AcDbLayout
  1
Model
 70
0
 71
0
 10
0.0
 20
0.0
 11
297.0
 21
210.0
 12
0.0
 22
0.0
 32
0.0
 14
0.0
 24
0.0
 34
0.0
 15
0.0
 25
0.0
 35
0.0
146
0.0
 13
0.0
 23
0.0
 33
0.0
 16
1.0
 26
0.0
 36
0.0
 17
0.0
 27
1.0
 37
0.0
 76
0
330
217
345
0
346
0
  0
LAYOUT
  5
325
102
{ACAD_REACTORS
330
1A
102
}
100
AcDbPlotSettings
  1

  2
none_device
  4
ISO_A4_(297.00_x_210.00_MM)
  6

 40
0.0
 41
0.0
 42
0.0
 43
0.0
 44
297.0
 45
210.0
 46
0.0
 47
0.0
 48
0.0
 49
0.0
140
0.0
141
0.0
142
1.0
143
1.0
 70
0
 72
1
 73
0
 74
0
  7

 75
0
147
1.0
148
0.0
149
0.0
100
AcDbLayout
  1
Layout1
 70
0
 71
1
 10
0.0
 20
0.0
 11
297.0
 21
210.0
 12
0.0
 22
0.0
 32
0.0
 14
0.0
 24
0.0
 34
0.0
 15
0.0
 25
0.0
 35
0.0
146
0.0
 13
0.0
 23
0.0
 33
0.0
 16
1.0
 26
0.0
 36
0.0
 17
0.0
 27
1.0
 37
0.0
 76
0
330
218
345
0
346
0
  0
ENDSEC
  0
EOF
