999
DXF file: 40-484-10-8.dxf
999
Pro/ENGINEER 2009220 by Parametric Technology Corporation
  0
SECTION
  2
HEADER
  9
$ACADVER
  1
AC1021
  9
$DWGCODEPAGE
  3
ANSI_1252
  9
$EXTMAX
 10
297.0
 20
210.0
 30
0.0
  9
$EXTMIN
 10
0.0
 20
0.0
 30
0.0
  9
$LIMMIN
 10
0.0
 20
0.0
  9
$LIMMAX
 10
297.0
 20
210.0
  9
$VIEWCTR
 10
148.5
 20
105.0
  9
$VIEWSIZE
 40
210.0
  9
$CLAYER
  8
0
  9
$LTSCALE
 40
16.335
  9
$CELTYPE
  6
BYLAYER
  9
$DIMSCALE
 40
1.0
  9
$DIMASZ
 40
3.5
  9
$DIMEXO
 40
1.85625
  9
$DIMDLI
 40
11.286
  9
$DIMEXE
 40
5.346
  9
$DIMCEN
 40
2.673
  9
$DIMLFAC
 40
1.0
  9
$DIMBLK
  1
_FILLED
  9
$DIMTXT
 40
3.5
  9
$DIMTOL
 70
1
  9
$DIMLIM
 70
0
  9
$DIMTFAC
 40
1.0
  9
$DIMTP
 40
0.005
  9
$DIMTM
 40
0.005
  9
$PDMODE
 70
3
  9
$PDSIZE
 40
0.3125
  9
$HANDSEED
  5
328
  9
$TILEMODE
 70
1
  9
$MEASUREMENT
 70
1
  9
$INSUNITS
 70
4
  0
ENDSEC
  0
SECTION
  2
CLASSES
  0
CLASS
  1
ACDBDICTIONARYWDFLT
  2
AcDbDictionaryWithDefault
  3
AutoCAD 2000
 90
0
 91
1
280
0
281
0
  0
CLASS
  1
ACDBPLACEHOLDER
  2
AcDbPlaceHolder
  3
AutoCAD 2000
 90
0
 91
1
280
0
281
0
  0
CLASS
  1
LAYOUT
  2
AcDbLayout
  3
AutoCAD 2000
 90
0
 91
0
280
0
281
0
  0
ENDSEC
  0
SECTION
  2
TABLES
  0
TABLE
  2
VPORT
  5
8
100
AcDbSymbolTable
 70
2
  0
VPORT
  5
1F4
100
AcDbSymbolTableRecord
100
AcDbViewportTableRecord
  2
*ACTIVE
 70
0
 10
0.0
 20
0.0
 11
1.0
 21
1.0
 12
148.5
 22
105.0
 13
0.0
 23
0.0
 14
1.0
 24
1.0
 15
0.0
 25
0.0
 16
0.0
 26
0.0
 36
1.0
 17
0.0
 27
0.0
 37
0.0
 40
210.0
 41
1.4142857143
 42
50.0
 43
0.0
 44
0.0
 50
0.0
 51
0.0
 71
0
 72
100
 73
1
 74
1
 75
0
 76
0
 77
0
 78
0
  0
ENDTAB
  0
TABLE
  2
LTYPE
  5
5
100
AcDbSymbolTable
 70
6
  0
LTYPE
  5
14
100
AcDbSymbolTableRecord
100
AcDbLinetypeTableRecord
  2
BYBLOCK
 70
0
  3

 72
65
 73
0
 40
0.0
  0
LTYPE
  5
15
100
AcDbSymbolTableRecord
100
AcDbLinetypeTableRecord
  2
BYLAYER
 70
0
  3

 72
65
 73
0
 40
0.0
  0
LTYPE
  5
16
100
AcDbSymbolTableRecord
100
AcDbLinetypeTableRecord
  2
CONTINUOUS
 70
64
  3
Solid line
 72
65
 73
0
 40
0.0
  0
LTYPE
  5
1F5
100
AcDbSymbolTableRecord
100
AcDbLinetypeTableRecord
  2
CENTER
 70
64
  3
____ _ ____ _ ____ _ ____ _ ____ _ ____ _ ____
 72
65
 73
4
 40
0.6
 49
0.375
 74
0
 49
-0.075
 74
0
 49
0.075
 74
0
 49
-0.075
 74
0
  0
LTYPE
  5
1F6
100
AcDbSymbolTableRecord
100
AcDbLinetypeTableRecord
  2
HIDDEN
 70
64
  3
- - - - - - - - - - - - - - - - - - - -
 72
65
 73
2
 40
0.2
 49
0.1
 74
0
 49
-0.1
 74
0
  0
LTYPE
  5
1F7
100
AcDbSymbolTableRecord
100
AcDbLinetypeTableRecord
  2
PHANTOM
 70
64
  3
_____ _ _ _____ _ _ _____ _ _ _____
 72
65
 73
6
 40
0.8
 49
0.45
 74
0
 49
-0.05
 74
0
 49
0.1
 74
0
 49
-0.05
 74
0
 49
0.1
 74
0
 49
-0.05
 74
0
  0
LTYPE
  5
1F8
100
AcDbSymbolTableRecord
100
AcDbLinetypeTableRecord
  2
DOT
 70
64
  3
. . . . . . . . . . . . . . . . . . . .
 72
65
 73
2
 40
0.2
 49
0.1
 74
0
 49
-0.1
 74
0
  0
LTYPE
  5
1F9
100
AcDbSymbolTableRecord
100
AcDbLinetypeTableRecord
  2
DASHED
 70
64
  3
- - - - - - - - - - - - - - - - - - - -
 72
65
 73
2
 40
0.2
 49
0.1
 74
0
 49
-0.1
 74
0
  0
ENDTAB
  0
TABLE
  2
LAYER
  5
2
100
AcDbSymbolTable
 70
36
  0
LAYER
  5
10
100
AcDbSymbolTableRecord
100
AcDbLayerTableRecord
  2
0
 70
0
 62
7
  6
CONTINUOUS
370
-3
390
F
  0
LAYER
  5
1FA
100
AcDbSymbolTableRecord
100
AcDbLayerTableRecord
  2
DEFAULT_1
 70
0
 62
7
  6
CENTER
370
-3
390
F
  0
LAYER
  5
1FB
100
AcDbSymbolTableRecord
100
AcDbLayerTableRecord
  2
DEFAULT_2
 70
0
 62
8
  6
HIDDEN
370
-3
390
F
  0
LAYER
  5
1FC
100
AcDbSymbolTableRecord
100
AcDbLayerTableRecord
  2
DEFAULT_3
 70
0
 62
7
  6
PHANTOM
370
-3
390
F
  0
LAYER
  5
1FD
100
AcDbSymbolTableRecord
100
AcDbLayerTableRecord
  2
ANALYSEN
 70
0
 62
7
  6
CONTINUOUS
370
-3
390
F
  0
LAYER
  5
1FE
100
AcDbSymbolTableRecord
100
AcDbLayerTableRecord
  2
AUSSENKONTUR
 70
0
 62
7
  6
CONTINUOUS
370
-3
390
F
  0
LAYER
  5
1FF
100
AcDbSymbolTableRecord
100
AcDbLayerTableRecord
  2
BEZUGSACHSEN
 70
0
 62
7
  6
CONTINUOUS
370
-3
390
F
  0
LAYER
  5
200
100
AcDbSymbolTableRecord
100
AcDbLayerTableRecord
  2
BEZUGSACHSENKENNZEICHEN
 70
0
 62
7
  6
CONTINUOUS
370
-3
390
F
  0
LAYER
  5
201
100
AcDbSymbolTableRecord
100
AcDbLayerTableRecord
  2
BEZUGSEBENEN
 70
0
 62
7
  6
CONTINUOUS
370
-3
390
F
  0
LAYER
  5
202
100
AcDbSymbolTableRecord
100
AcDbLayerTableRecord
  2
BEZUGSPUNKTE
 70
0
 62
7
  6
CONTINUOUS
370
-3
390
F
  0
LAYER
  5
203
100
AcDbSymbolTableRecord
100
AcDbLayerTableRecord
  2
BOHRUNGEN
 70
0
 62
7
  6
CONTINUOUS
370
-3
390
F
  0
LAYER
  5
204
100
AcDbSymbolTableRecord
100
AcDbLayerTableRecord
  2
FASEN
 70
0
 62
7
  6
CONTINUOUS
370
-3
390
F
  0
LAYER
  5
205
100
AcDbSymbolTableRecord
100
AcDbLayerTableRecord
  2
FLAECHEN
 70
0
 62
7
  6
CONTINUOUS
370
-3
390
F
  0
LAYER
  5
206
100
AcDbSymbolTableRecord
100
AcDbLayerTableRecord
  2
GEWINDE
 70
0
 62
7
  6
CONTINUOUS
370
-3
390
F
  0
LAYER
  5
207
100
AcDbSymbolTableRecord
100
AcDbLayerTableRecord
  2
HILFEN
 70
0
 62
7
  6
CONTINUOUS
370
-3
390
F
  0
LAYER
  5
208
100
AcDbSymbolTableRecord
100
AcDbLayerTableRecord
  2
INNENKONTUR
 70
0
 62
7
  6
CONTINUOUS
370
-3
390
F
  0
LAYER
  5
209
100
AcDbSymbolTableRecord
100
AcDbLayerTableRecord
  2
KURVEN
 70
0
 62
7
  6
CONTINUOUS
370
-3
390
F
  0
LAYER
  5
20A
100
AcDbSymbolTableRecord
100
AcDbLayerTableRecord
  2
MAKINO
 70
0
 62
7
  6
CONTINUOUS
370
-3
390
F
  0
LAYER
  5
20B
100
AcDbSymbolTableRecord
100
AcDbLayerTableRecord
  2
OELVERDR_RILLE
 70
0
 62
7
  6
CONTINUOUS
370
-3
390
F
  0
LAYER
  5
20C
100
AcDbSymbolTableRecord
100
AcDbLayerTableRecord
  2
PLATZIERUNG
 70
0
 62
7
  6
CONTINUOUS
370
-3
390
F
  0
LAYER
  5
20D
100
AcDbSymbolTableRecord
100
AcDbLayerTableRecord
  2
PUNKTE
 70
0
 62
7
  6
CONTINUOUS
370
-3
390
F
  0
LAYER
  5
20E
100
AcDbSymbolTableRecord
100
AcDbLayerTableRecord
  2
RUNDUNGEN
 70
0
 62
7
  6
CONTINUOUS
370
-3
390
F
  0
LAYER
  5
20F
100
AcDbSymbolTableRecord
100
AcDbLayerTableRecord
  2
TEIL_STARTBEZUEGE
 70
0
 62
7
  6
CONTINUOUS
370
-3
390
F
  0
LAYER
  5
210
100
AcDbSymbolTableRecord
100
AcDbLayerTableRecord
  2
VERERBUNG
 70
0
 62
7
  6
CONTINUOUS
370
-3
390
F
  0
LAYER
  5
211
100
AcDbSymbolTableRecord
100
AcDbLayerTableRecord
  2
VOLUMEN
 70
0
 62
7
  6
CONTINUOUS
370
-3
390
F
  0
LAYER
  5
212
100
AcDbSymbolTableRecord
100
AcDbLayerTableRecord
  2
ZEICHNUNG
 70
0
 62
7
  6
CONTINUOUS
370
-3
390
F
  0
LAYER
  5
213
100
AcDbSymbolTableRecord
100
AcDbLayerTableRecord
  2
ZEICHNUNGSBEMASSUNGEN
 70
0
 62
7
  6
CONTINUOUS
370
-3
390
F
  0
ENDTAB
  0
TABLE
  2
STYLE
  5
3
100
AcDbSymbolTable
 70
1
  0
STYLE
  5
11
100
AcDbSymbolTableRecord
100
AcDbTextStyleTableRecord
  2
STANDARD
 70
0
 40
0.0
 41
0.7
 50
0.0
 71
0
 42
0.2
  3
txt
  4

  0
STYLE
  5
214
100
AcDbSymbolTableRecord
100
AcDbTextStyleTableRecord
  2
TEXTSTYLE_1
 70
0
 40
0.0
 41
0.8
 50
0.0
 71
0
 42
0.2
  3
gdt
  4

  0
STYLE
  5
215
100
AcDbSymbolTableRecord
100
AcDbTextStyleTableRecord
  2
TEXTSTYLE_2
 70
0
 40
0.0
 41
0.7
 50
0.0
 71
0
 42
0.2
  3
gdt
  4

  0
ENDTAB
  0
TABLE
  2
VIEW
  5
6
100
AcDbSymbolTable
 70
0
  0
ENDTAB
  0
TABLE
  2
UCS
  5
7
100
AcDbSymbolTable
 70
0
  0
ENDTAB
  0
TABLE
  2
APPID
  5
9
100
AcDbSymbolTable
 70
1
  0
APPID
  5
216
100
AcDbSymbolTableRecord
100
AcDbRegAppTableRecord
  2
ACAD
 70
0
  0
ENDTAB
  0
TABLE
  2
BLOCK_RECORD
  5
1
100
AcDbSymbolTable
 70
0
  0
BLOCK_RECORD
  5
217
100
AcDbSymbolTableRecord
100
AcDbBlockTableRecord
  2
*Model_Space
  0
BLOCK_RECORD
  5
218
100
AcDbSymbolTableRecord
100
AcDbBlockTableRecord
  2
*Paper_Space
  0
BLOCK_RECORD
  5
219
100
AcDbSymbolTableRecord
100
AcDbBlockTableRecord
  2
_FILLED
  0
BLOCK_RECORD
  5
21A
100
AcDbSymbolTableRecord
100
AcDbBlockTableRecord
  2
*D0
  0
BLOCK_RECORD
  5
21B
100
AcDbSymbolTableRecord
100
AcDbBlockTableRecord
  2
*D1
  0
BLOCK_RECORD
  5
21C
100
AcDbSymbolTableRecord
100
AcDbBlockTableRecord
  2
*D2
  0
BLOCK_RECORD
  5
21D
100
AcDbSymbolTableRecord
100
AcDbBlockTableRecord
  2
*D3
  0
BLOCK_RECORD
  5
21E
100
AcDbSymbolTableRecord
100
AcDbBlockTableRecord
  2
*D4
  0
BLOCK_RECORD
  5
21F
100
AcDbSymbolTableRecord
100
AcDbBlockTableRecord
  2
*D5
  0
ENDTAB
  0
TABLE
  2
DIMSTYLE
  5
A
100
AcDbSymbolTable
 70
1
100
AcDbDimStyleTable
 71
0
  0
DIMSTYLE
105
220
100
AcDbSymbolTableRecord
100
AcDbDimStyleTableRecord
  2
STANDARD
 70
0
  3

  4

 40
1.0
 41
3.5
 42
0.0625
 43
0.38
 44
0.18
 45
0.0
 46
0.0
 47
0.005
 48
0.005
140
3.5
141
0.09
142
0.0
143
25.4
144
1.0
145
0.0
146
1.0
147
0.09
 71
1.0
 72
0.0
 73
0
 74
0
 75
0
 76
0
 77
1
 78
8
170
0
171
2
172
0
173
0
174
0
175
0
176
0
177
0
178
5
270
2
271
3
272
3
273
2
274
2
275
0
280
0
281
0
282
0
283
1
284
8
285
0
286
0
287
3
288
0
340
11
341
219
342
219
343
219
344
219
  0
DIMSTYLE
105
221
100
AcDbSymbolTableRecord
100
AcDbDimStyleTableRecord
  2
DIMSTYLE_1
 70
0
  3

  4

 40
1.0
 41
3.5
 42
0.0625
 43
0.38
 44
0.18
 45
0.0
 46
0.0
 47
0.5
 48
0.5
140
3.5
141
0.09
142
0.0
143
25.4
144
1.0
145
0.0
146
1.0
147
0.09
 71
0.0
 72
0.0
 73
0
 74
0
 75
0
 76
0
 77
1
 78
8
170
0
171
2
172
0
173
0
174
0
175
0
176
0
177
0
178
5
270
2
271
3
272
3
273
2
274
2
275
0
280
0
281
0
282
0
283
1
284
8
285
0
286
0
287
3
288
0
340
11
341
219
342
219
343
219
344
219
  0
DIMSTYLE
105
222
100
AcDbSymbolTableRecord
100
AcDbDimStyleTableRecord
  2
DIMSTYLE_2
 70
0
  3

  4

 40
1.0
 41
3.5
 42
0.0625
 43
0.38
 44
0.18
 45
0.0
 46
0.0
 47
0.5
 48
0.5
140
3.5
141
0.09
142
0.0
143
25.4
144
1.0
145
0.0
146
1.0
147
0.09
 71
0.0
 72
0.0
 73
0
 74
0
 75
0
 76
0
 77
1
 78
8
170
0
171
2
172
0
173
0
174
0
175
0
176
0
177
0
178
5
270
2
271
2
272
2
273
2
274
2
275
0
280
0
281
0
282
0
283
1
284
8
285
0
286
0
287
3
288
0
340
11
341
219
342
219
343
219
344
219
  0
DIMSTYLE
105
223
100
AcDbSymbolTableRecord
100
AcDbDimStyleTableRecord
  2
DIMSTYLE_3
 70
0
  3

  4

 40
1.0
 41
3.5
 42
0.0625
 43
0.38
 44
0.18
 45
0.0
 46
0.0
 47
0.3
 48
0.3
140
3.5
141
0.09
142
0.0
143
25.4
144
1.0
145
0.0
146
1.0
147
0.09
 71
0.0
 72
0.0
 73
0
 74
0
 75
0
 76
0
 77
1
 78
8
170
0
171
2
172
0
173
0
174
0
175
0
176
0
177
0
178
5
270
2
271
2
272
2
273
2
274
2
275
0
280
0
281
0
282
0
283
1
284
8
285
0
286
0
287
3
288
0
340
11
341
219
342
219
343
219
344
219
  0
DIMSTYLE
105
224
100
AcDbSymbolTableRecord
100
AcDbDimStyleTableRecord
  2
DIMSTYLE_4
 70
0
  3

  4

 40
1.0
 41
3.5
 42
0.0625
 43
0.38
 44
0.18
 45
0.0
 46
0.0
 47
0.1
 48
0.0
140
3.5
141
0.09
142
0.0
143
25.4
144
1.0
145
0.0
146
1.0
147
0.09
 71
0.0
 72
0.0
 73
0
 74
0
 75
0
 76
0
 77
1
 78
8
170
0
171
2
172
0
173
0
174
0
175
0
176
0
177
0
178
5
270
2
271
2
272
2
273
2
274
2
275
0
280
0
281
0
282
0
283
1
284
8
285
0
286
0
287
3
288
0
340
11
341
219
342
219
343
219
344
219
  0
DIMSTYLE
105
225
100
AcDbSymbolTableRecord
100
AcDbDimStyleTableRecord
  2
DIMSTYLE_5
 70
0
  3

  4

 40
1.0
 41
3.5
 42
0.0625
 43
0.38
 44
0.18
 45
0.0
 46
0.0
 47
0.0
 48
0.0
140
3.5
141
0.09
142
0.0
143
25.4
144
1.0
145
0.0
146
1.0
147
0.09
 71
0.0
 72
0.0
 73
0
 74
0
 75
0
 76
0
 77
1
 78
8
170
0
171
2
172
0
173
0
174
0
175
0
176
0
177
0
178
5
270
2
271
0
272
0
273
2
274
2
275
0
280
0
281
0
282
0
283
1
284
8
285
0
286
0
287
3
288
0
340
11
341
219
342
219
343
219
344
219
  0
DIMSTYLE
105
226
100
AcDbSymbolTableRecord
100
AcDbDimStyleTableRecord
  2
DIMSTYLE_6
 70
0
  3

  4

 40
1.0
 41
3.5
 42
0.0625
 43
0.38
 44
0.18
 45
0.0
 46
0.0
 47
0.2
 48
0.2
140
3.5
141
0.09
142
0.0
143
25.4
144
1.0
145
0.0
146
1.0
147
0.09
 71
0.0
 72
0.0
 73
0
 74
0
 75
0
 76
0
 77
1
 78
8
170
0
171
2
172
0
173
0
174
0
175
0
176
0
177
0
178
5
270
2
271
2
272
2
273
2
274
2
275
0
280
0
281
0
282
0
283
1
284
8
285
0
286
0
287
3
288
0
340
11
341
219
342
219
343
219
344
219
  0
ENDTAB
  0
ENDSEC
  0
SECTION
  2
BLOCKS
  0
BLOCK
  5
20
100
AcDbEntity
  8
0
100
AcDbBlockBegin
  2
*Model_Space
 70
0
 10
0.0
 20
0.0
 30
0.0
  3
*Model_Space
  1

  0
ENDBLK
  5
21
100
AcDbEntity
  8
0
100
AcDbBlockEnd
  0
BLOCK
  5
1C
100
AcDbEntity
  8
0
100
AcDbBlockBegin
  2
*Paper_Space
 70
0
 10
0.0
 20
0.0
 30
0.0
  3
*Paper_Space
  1

  0
ENDBLK
  5
1D
100
AcDbEntity
  8
0
100
AcDbBlockEnd
  0
BLOCK
  5
227
100
AcDbEntity
  8
0
100
AcDbBlockBegin
  2
_FILLED
 70
64
 10
0.0
 20
0.0
  3
_FILLED
  1

  0
SOLID
  5
228
100
AcDbEntity
  8
0
  6
BYBLOCK
 62
0
100
AcDbTrace
 10
0.0
 20
0.0
 11
-1.0
 21
0.125
 12
-1.0
 22
-0.125
 13
-1.0
 23
-0.125
  0
ENDBLK
  5
229
100
AcDbEntity
  8
0
  6
BYBLOCK
 62
0
100
AcDbBlockEnd
  0
BLOCK
  5
22A
100
AcDbEntity
  8
0
100
AcDbBlockBegin
 62
2
  6
CONTINUOUS
  2
*D0
 70
65
 10
0.0
 20
0.0
  3
*D0
  1

  0
MTEXT
  5
22B
100
AcDbEntity
  8
0
100
AcDbMText
 62
5
  6
CONTINUOUS
  7
STANDARD
 71
2
 72
1
 10
183.2113171782
 20
172.8673825922
 30
0.0
 11
1.0
 21
0.0
 31
0.0
 44
0.9
  1
130
 40
3.5
 41
8.490234375
  0
LINE
  5
22C
100
AcDbEntity
  8
0
100
AcDbLine
 62
2
  6
CONTINUOUS
 10
239.3735168489
 20
119.1155018954
 11
239.3735168489
 21
169.9923825922
  0
LINE
  5
22D
100
AcDbEntity
  8
0
100
AcDbLine
 62
2
  6
CONTINUOUS
 10
109.3735168489
 20
146.6379134185
 11
109.3735168489
 21
169.9923825922
  0
LINE
  5
22E
100
AcDbEntity
  8
0
100
AcDbLine
 62
2
  6
CONTINUOUS
 10
239.3735168489
 20
168.4923825922
 11
174.3735168489
 21
168.4923825922
  0
LINE
  5
22F
100
AcDbEntity
  8
0
100
AcDbLine
 62
2
  6
CONTINUOUS
 10
109.3735168489
 20
168.4923825922
 11
174.3735168489
 21
168.4923825922
  0
INSERT
  5
230
100
AcDbEntity
  8
0
100
AcDbBlockReference
 62
2
  6
CONTINUOUS
  2
_FILLED
 10
239.3735168489
 20
168.4923825922
 41
3.5
 42
3.5
 43
3.5
  0
INSERT
  5
231
100
AcDbEntity
  8
0
100
AcDbBlockReference
 62
2
  6
CONTINUOUS
  2
_FILLED
 10
109.3735168489
 20
168.4923825922
 41
3.5
 42
3.5
 43
3.5
 50
180.0
  0
ENDBLK
  5
232
100
AcDbEntity
  8
0
  6
BYBLOCK
 62
0
100
AcDbBlockEnd
  0
BLOCK
  5
233
100
AcDbEntity
  8
0
100
AcDbBlockBegin
 62
2
  6
CONTINUOUS
  2
*D1
 70
65
 10
0.0
 20
0.0
  3
*D1
  1

  0
MTEXT
  5
234
100
AcDbEntity
  8
0
100
AcDbMText
 62
5
  6
CONTINUOUS
  7
STANDARD
 71
2
 72
1
 10
158.3104489865
 20
179.5469639639
 30
0.0
 11
1.0
 21
0.0
 31
0.0
 44
0.9
  1
198.4
 40
3.5
 41
12.7421875
  0
LINE
  5
235
100
AcDbEntity
  8
0
100
AcDbLine
 62
2
  6
CONTINUOUS
 10
40.9735168489
 20
133.0064209714
 11
40.9735168489
 21
176.6719639639
  0
LINE
  5
236
100
AcDbEntity
  8
0
100
AcDbLine
 62
2
  6
CONTINUOUS
 10
239.3735168489
 20
121.6155018954
 11
239.3735168489
 21
176.6719639639
  0
LINE
  5
237
100
AcDbEntity
  8
0
100
AcDbLine
 62
2
  6
CONTINUOUS
 10
40.9735168489
 20
175.1719639639
 11
140.1735168489
 21
175.1719639639
  0
LINE
  5
238
100
AcDbEntity
  8
0
100
AcDbLine
 62
2
  6
CONTINUOUS
 10
239.3735168489
 20
175.1719639639
 11
140.1735168489
 21
175.1719639639
  0
INSERT
  5
239
100
AcDbEntity
  8
0
100
AcDbBlockReference
 62
2
  6
CONTINUOUS
  2
_FILLED
 10
40.9735168489
 20
175.1719639639
 41
3.5
 42
3.5
 43
3.5
 50
180.0
  0
INSERT
  5
23A
100
AcDbEntity
  8
0
100
AcDbBlockReference
 62
2
  6
CONTINUOUS
  2
_FILLED
 10
239.3735168489
 20
175.1719639639
 41
3.5
 42
3.5
 43
3.5
  0
ENDBLK
  5
23B
100
AcDbEntity
  8
0
  6
BYBLOCK
 62
0
100
AcDbBlockEnd
  0
BLOCK
  5
23C
100
AcDbEntity
  8
0
100
AcDbBlockBegin
 62
2
  6
CONTINUOUS
  2
*D2
 70
65
 10
0.0
 20
0.0
  3
*D2
  1

  0
MTEXT
  5
23D
100
AcDbEntity
  8
0
100
AcDbMText
 62
5
  6
CONTINUOUS
  7
STANDARD
 71
2
 72
1
 10
190.7642866952
 20
165.4425854216
 30
0.0
 11
1.0
 21
0.0
 31
0.0
 44
0.9
  1
110.9
 40
3.5
 41
12.7421875
  0
LINE
  5
23E
100
AcDbEntity
  8
0
100
AcDbLine
 62
2
  6
CONTINUOUS
 10
239.3735168489
 20
121.6155018954
 11
239.3735168489
 21
162.5675854216
  0
LINE
  5
23F
100
AcDbEntity
  8
0
100
AcDbLine
 62
2
  6
CONTINUOUS
 10
128.4735168489
 20
151.6788059965
 11
128.4735168489
 21
162.5675854216
  0
LINE
  5
240
100
AcDbEntity
  8
0
100
AcDbLine
 62
2
  6
CONTINUOUS
 10
239.3735168489
 20
161.0675854216
 11
183.9235168489
 21
161.0675854216
  0
LINE
  5
241
100
AcDbEntity
  8
0
100
AcDbLine
 62
2
  6
CONTINUOUS
 10
128.4735168489
 20
161.0675854216
 11
183.9235168489
 21
161.0675854216
  0
INSERT
  5
242
100
AcDbEntity
  8
0
100
AcDbBlockReference
 62
2
  6
CONTINUOUS
  2
_FILLED
 10
239.3735168489
 20
161.0675854216
 41
3.5
 42
3.5
 43
3.5
  0
INSERT
  5
243
100
AcDbEntity
  8
0
100
AcDbBlockReference
 62
2
  6
CONTINUOUS
  2
_FILLED
 10
128.4735168489
 20
161.0675854216
 41
3.5
 42
3.5
 43
3.5
 50
180.0
  0
ENDBLK
  5
244
100
AcDbEntity
  8
0
  6
BYBLOCK
 62
0
100
AcDbBlockEnd
  0
BLOCK
  5
245
100
AcDbEntity
  8
0
100
AcDbBlockBegin
 62
2
  6
CONTINUOUS
  2
*D3
 70
65
 10
0.0
 20
0.0
  3
*D3
  1

  0
MTEXT
  5
246
100
AcDbEntity
  8
0
100
AcDbMText
 62
5
  6
CONTINUOUS
  7
TEXTSTYLE_2
 71
2
 72
1
 10
254.2074435184
 20
121.6155018954
 30
0.0
 11
0.0
 21
1.0
 31
0.0
 44
0.9
  1
{\Fgdt;n}\Ftxt;16
 40
3.5
 41
10.3268229167
  0
LINE
  5
247
100
AcDbEntity
  8
0
100
AcDbLine
 62
2
  6
CONTINUOUS
 10
239.3735168489
 20
113.6155018954
 11
260.0824435184
 21
113.6155018954
  0
LINE
  5
248
100
AcDbEntity
  8
0
100
AcDbLine
 62
2
  6
CONTINUOUS
 10
239.3735168489
 20
129.6155018954
 11
260.0824435184
 21
129.6155018954
  0
LINE
  5
249
100
AcDbEntity
  8
0
100
AcDbLine
 62
2
  6
CONTINUOUS
 10
258.5824435184
 20
113.6155018954
 11
258.5824435184
 21
121.6155018954
  0
LINE
  5
24A
100
AcDbEntity
  8
0
100
AcDbLine
 62
2
  6
CONTINUOUS
 10
258.5824435184
 20
129.6155018954
 11
258.5824435184
 21
121.6155018954
  0
INSERT
  5
24B
100
AcDbEntity
  8
0
100
AcDbBlockReference
 62
2
  6
CONTINUOUS
  2
_FILLED
 10
258.5824435184
 20
113.6155018954
 41
3.5
 42
3.5
 43
3.5
 50
270.0
  0
INSERT
  5
24C
100
AcDbEntity
  8
0
100
AcDbBlockReference
 62
2
  6
CONTINUOUS
  2
_FILLED
 10
258.5824435184
 20
129.6155018954
 41
3.5
 42
3.5
 43
3.5
 50
90.0
  0
ENDBLK
  5
24D
100
AcDbEntity
  8
0
  6
BYBLOCK
 62
0
100
AcDbBlockEnd
  0
BLOCK
  5
24E
100
AcDbEntity
  8
0
100
AcDbBlockBegin
 62
2
  6
CONTINUOUS
  2
*D4
 70
65
 10
0.0
 20
0.0
  3
*D4
  1

  0
MTEXT
  5
24F
100
AcDbEntity
  8
0
100
AcDbMText
 62
5
  6
CONTINUOUS
  7
STANDARD
 71
2
 72
1
 10
195.3745909383
 20
138.6782848777
 30
0.0
 11
0.0864433472
 21
0.996256768
 31
0.0
 44
0.9
  1
3\Fgdt;{\Fgdt;~}
 40
3.5
 41
5.1634114583
  0
LINE
  5
250
100
AcDbEntity
  8
0
100
AcDbLine
 62
2
  6
CONTINUOUS
 10
215.9340673654
 20
130.8439113904
 11
200.3987003358
 21
131.6580854768
  0
LINE
  5
251
100
AcDbEntity
  8
0
100
AcDbLine
 62
2
  6
CONTINUOUS
 10
215.9919161901
 20
121.6155018954
 11
200.1357260297
 21
121.6155018954
  0
ARC
  5
252
100
AcDbEntity
  8
0
100
AcDbCircle
 62
2
  6
CONTINUOUS
 10
392.0226103507
 20
121.6155018954
 40
190.3868843209
100
AcDbArc
 50
175.040971893
 51
177.0
  0
ARC
  5
253
100
AcDbEntity
  8
0
100
AcDbCircle
 62
2
  6
CONTINUOUS
 10
392.0226103507
 20
121.6155018954
 40
190.3868843209
100
AcDbArc
 50
180.0
 51
181.8056636533
  0
ARC
  5
254
100
AcDbEntity
  8
0
100
AcDbCircle
 62
2
  6
CONTINUOUS
 10
392.0226103507
 20
121.6155018954
 40
190.3868843209
100
AcDbArc
 50
177.0
 51
180.0
  0
SOLID
  5
255
100
AcDbEntity
  8
0
100
AcDbTrace
 62
2
  6
CONTINUOUS
 10
201.6752680351
 20
135.0998654301
 11
201.8966446379
 21
131.5795815424
 12
202.5486110414
 22
135.046041705
 13
202.5486110414
 23
135.046041705
  0
SOLID
  5
256
100
AcDbEntity
  8
0
100
AcDbTrace
 62
2
  6
CONTINUOUS
 10
202.1053784286
 20
118.1196711108
 11
201.6357260297
 21
121.6155018954
 12
201.2304153924
 22
118.1116283906
 13
201.2304153924
 23
118.1116283906
  0
ENDBLK
  5
257
100
AcDbEntity
  8
0
  6
BYBLOCK
 62
0
100
AcDbBlockEnd
  0
BLOCK
  5
258
100
AcDbEntity
  8
0
100
AcDbBlockBegin
 62
2
  6
CONTINUOUS
  2
*D5
 70
65
 10
0.0
 20
0.0
  3
*D5
  1

  0
MTEXT
  5
259
100
AcDbEntity
  8
0
100
AcDbMText
 62
5
  6
CONTINUOUS
  7
TEXTSTYLE_2
 71
1
 72
1
 10
244.4524579027
 20
132.3841004978
 30
0.0
 11
0.0
 21
1.0
 31
0.0
 44
0.9
  1
{\Fgdt;n}\Ftxt;10
 40
3.5
 41
10.3268229167
  0
LINE
  5
25A
100
AcDbEntity
  8
0
100
AcDbLine
 62
2
  6
CONTINUOUS
 10
239.3735168489
 20
116.6155018954
 11
250.3274579027
 21
116.6155018954
  0
LINE
  5
25B
100
AcDbEntity
  8
0
100
AcDbLine
 62
2
  6
CONTINUOUS
 10
239.3735168489
 20
126.6155018954
 11
250.3274579027
 21
126.6155018954
  0
LINE
  5
25C
100
AcDbEntity
  8
0
100
AcDbLine
 62
2
  6
CONTINUOUS
 10
248.8274579027
 20
116.6155018954
 11
248.8274579027
 21
110.6155018954
  0
LINE
  5
25D
100
AcDbEntity
  8
0
100
AcDbLine
 62
2
  6
CONTINUOUS
 10
248.8274579027
 20
110.6155018954
 11
248.8274579027
 21
121.6155018954
  0
LINE
  5
25E
100
AcDbEntity
  8
0
100
AcDbLine
 62
2
  6
CONTINUOUS
 10
248.8274579027
 20
126.6155018954
 11
248.8274579027
 21
142.7109234145
  0
LINE
  5
25F
100
AcDbEntity
  8
0
100
AcDbLine
 62
2
  6
CONTINUOUS
 10
248.8274579027
 20
142.7109234145
 11
248.8274579027
 21
121.6155018954
  0
INSERT
  5
260
100
AcDbEntity
  8
0
100
AcDbBlockReference
 62
2
  6
CONTINUOUS
  2
_FILLED
 10
248.8274579027
 20
116.6155018954
 41
3.5
 42
3.5
 43
3.5
 50
90.0
  0
INSERT
  5
261
100
AcDbEntity
  8
0
100
AcDbBlockReference
 62
2
  6
CONTINUOUS
  2
_FILLED
 10
248.8274579027
 20
126.6155018954
 41
3.5
 42
3.5
 43
3.5
 50
270.0
  0
ENDBLK
  5
262
100
AcDbEntity
  8
0
  6
BYBLOCK
 62
0
100
AcDbBlockEnd
  0
ENDSEC
  0
SECTION
  2
ENTITIES
  0
DIMENSION
  5
263
100
AcDbEntity
  8
0
100
AcDbDimension
 62
2
  6
CONTINUOUS
  2
*D0
 10
109.3735168489
 20
168.4923825922
 11
178.9661999907
 21
171.1173825922
 70
160
 71
2
 42
130.0
  3
DIMSTYLE_1
100
AcDbAlignedDimension
 13
239.3735168489
 23
119.1155018954
 14
109.3735168489
 24
146.6379134185
 50
180.0
100
AcDbRotatedDimension
  0
DIMENSION
  5
264
100
AcDbEntity
  8
0
100
AcDbDimension
 62
2
  6
CONTINUOUS
  2
*D1
 10
239.3735168489
 20
175.1719639639
 11
151.9393552365
 21
177.7969639639
 70
160
 71
2
 42
198.4
  3
DIMSTYLE_2
100
AcDbAlignedDimension
 13
40.9735168489
 23
133.0064209714
 14
239.3735168489
 24
121.6155018954
100
AcDbRotatedDimension
  0
DIMENSION
  5
265
100
AcDbEntity
  8
0
100
AcDbDimension
 62
2
  6
CONTINUOUS
  2
*D2
 10
128.4735168489
 20
161.0675854216
 11
184.3931929452
 21
163.6925854216
 70
160
 71
2
 42
110.9
  3
DIMSTYLE_3
100
AcDbAlignedDimension
 13
239.3735168489
 23
121.6155018954
 14
128.4735168489
 24
151.6788059965
 50
180.0
100
AcDbRotatedDimension
  0
DIMENSION
  5
266
100
AcDbEntity
  8
0
100
AcDbDimension
 62
2
  6
CONTINUOUS
  2
*D3
 10
258.5824435184
 20
129.6155018954
 11
257.1142377403
 21
119.3074655871
 70
160
 71
2
 42
16.0
  1
%%c<>
  3
DIMSTYLE_4
100
AcDbAlignedDimension
 13
239.3735168489
 23
113.6155018954
 14
239.3735168489
 24
129.6155018954
 50
90.0
100
AcDbRotatedDimension
  0
DIMENSION
  5
267
100
AcDbEntity
  8
0
100
AcDbDimension
 62
2
  6
CONTINUOUS
  2
*D4
 10
200.1357260297
 20
121.6155018954
 11
198.3987466722
 21
138.8061538133
 70
162
 71
2
 42
0.0523598776
  3
DIMSTYLE_5
100
AcDb2LineAngularDimension
 13
200.3987003358
 23
131.6580854768
 14
215.9340673654
 24
130.8439113904
 15
215.9919161901
 25
121.6155018954
 16
201.70096686
 26
126.5992495247
  0
DIMENSION
  5
268
100
AcDbEntity
  8
0
100
AcDbDimension
 62
2
  6
CONTINUOUS
  2
*D5
 10
248.8274579027
 20
126.6155018954
 11
246.2024579027
 21
137.5475119561
 70
160
 71
1
 42
10.0
  1
%%c<>
  3
DIMSTYLE_6
100
AcDbAlignedDimension
 13
239.3735168489
 23
116.6155018954
 14
239.3735168489
 24
126.6155018954
 50
90.0
100
AcDbRotatedDimension
  0
MTEXT
  5
269
100
AcDbEntity
  8
0
100
AcDbMText
 62
5
  6
CONTINUOUS
  7
STANDARD
 71
1
 72
1
 10
20.9946448544
 20
85.1846086785
 30
0.0
 11
1.0
 21
0.0
 31
0.0
 44
0.9
  3
Für diese Unterlage behalten wir das Ur-\Pheberrecht. Sie darf nur für den von uns \Pbestimmten Zweck benutzt und ohne unsere \PZustimmung weder vervielfältigt noch\PDritten zugänglich gemacht werden\P \PWe own the copyright of this document. It \Pde
  1
termined and may neither be copied or \Pmade accessible to outsiders without our\Ppermission.\P \PCe plan reste notre propriété. Il ne peut\Pêtre utilisé, copié ou reproduit sans notre\Paccord.\P 
 40
3.5
 41
99.162109375
  0
LINE
  5
26A
100
AcDbEntity
  8
0
100
AcDbLine
 62
7
  6
CONTINUOUS
 10
0.0
 20
0.0
 11
0.0
 21
210.0
  0
LINE
  5
26B
100
AcDbEntity
  8
0
100
AcDbLine
 62
7
  6
CONTINUOUS
 10
0.0
 20
0.0
 11
297.0
 21
0.0
  0
LINE
  5
26C
100
AcDbEntity
  8
0
100
AcDbLine
 62
7
  6
CONTINUOUS
 10
0.0
 20
210.0
 11
297.0
 21
210.0
  0
LINE
  5
26D
100
AcDbEntity
  8
0
100
AcDbLine
 62
7
  6
CONTINUOUS
 10
297.0
 20
0.0
 11
297.0
 21
210.0
  0
LINE
  5
26E
100
AcDbEntity
  8
BEZUGSACHSEN
100
AcDbLine
 62
7
  6
CONTINUOUS
 10
40.9735168489
 20
132.1352025698
 11
40.9735168489
 21
111.0958012209
  0
LINE
  5
26F
100
AcDbEntity
  8
BEZUGSACHSEN
100
AcDbLine
 62
9
  6
CONTINUOUS
 10
42.6848795105
 20
134.1142650971
 11
42.6848795105
 21
109.1167386936
  0
LINE
  5
270
100
AcDbEntity
  8
BEZUGSACHSEN
100
AcDbLine
 62
7
  6
CONTINUOUS
 10
108.9162115864
 20
143.7738059866
 11
108.9162115864
 21
99.4571978041
  0
LINE
  5
271
100
AcDbEntity
  8
BEZUGSACHSEN
100
AcDbLine
 62
7
  6
CENTER
 10
109.3735168489
 20
92.2476527119
 11
109.3735168489
 21
147.709452362
  0
LINE
  5
272
100
AcDbEntity
  8
BEZUGSACHSEN
100
AcDbLine
 62
7
  6
CONTINUOUS
 10
109.9735168489
 20
143.4905018954
 11
109.9735168489
 21
99.7405018954
  0
LINE
  5
273
100
AcDbEntity
  8
BEZUGSACHSEN
100
AcDbLine
 62
9
  6
CONTINUOUS
 10
111.6235168489
 20
143.4905018954
 11
111.6235168489
 21
99.7405018954
  0
LINE
  5
274
100
AcDbEntity
  8
BEZUGSACHSEN
100
AcDbLine
 62
7
  6
CONTINUOUS
 10
112.6235168489
 20
152.3726160461
 11
112.6235168489
 21
129.8155018954
  0
LINE
  5
275
100
AcDbEntity
  8
BEZUGSACHSEN
100
AcDbLine
 62
7
  6
CONTINUOUS
 10
112.6235168489
 20
113.4155018954
 11
112.6235168489
 21
103.1155018954
  0
LINE
  5
276
100
AcDbEntity
  8
BEZUGSACHSEN
100
AcDbLine
 62
7
  6
CONTINUOUS
 10
112.6235168489
 20
97.021790809
 11
112.6235168489
 21
90.8425336793
  0
LINE
  5
277
100
AcDbEntity
  8
0
100
AcDbLine
 62
7
  6
CONTINUOUS
 10
112.6235168489
 20
90.8405044
 11
112.6235168489
 21
97.021790809
  0
LINE
  5
278
100
AcDbEntity
  8
FASEN
100
AcDbLine
 62
7
  6
CONTINUOUS
 10
112.6235168489
 20
97.021790809
 11
112.6235168489
 21
103.1155018954
  0
LINE
  5
279
100
AcDbEntity
  8
0
100
AcDbLine
 62
7
  6
CONTINUOUS
 10
112.6235168489
 20
103.1155018954
 11
112.6235168489
 21
113.4155018954
  0
LINE
  5
27A
100
AcDbEntity
  8
FASEN
100
AcDbLine
 62
7
  6
CONTINUOUS
 10
112.6235168489
 20
113.4155018954
 11
112.6235168489
 21
129.8155018954
  0
LINE
  5
27B
100
AcDbEntity
  8
0
100
AcDbLine
 62
7
  6
CONTINUOUS
 10
112.6235168489
 20
129.8155018954
 11
112.6235168489
 21
152.3905014538
  0
LINE
  5
27C
100
AcDbEntity
  8
0
100
AcDbLine
 62
9
  6
CONTINUOUS
 10
113.6235168489
 20
153.3905018954
 11
113.6235168489
 21
129.8155018954
  0
LINE
  5
27D
100
AcDbEntity
  8
0
100
AcDbLine
 62
9
  6
CONTINUOUS
 10
113.6235168489
 20
113.4155018954
 11
113.6235168489
 21
103.1155018954
  0
LINE
  5
27E
100
AcDbEntity
  8
0
100
AcDbLine
 62
9
  6
CONTINUOUS
 10
113.6235168489
 20
95.7814037884
 11
113.6235168489
 21
89.8405018954
  0
LINE
  5
27F
100
AcDbEntity
  8
BEZUGSACHSEN
100
AcDbLine
 62
7
  6
CONTINUOUS
 10
122.4235168489
 20
150.5130971596
 11
124.0847872477
 21
153.3905018954
  0
LINE
  5
280
100
AcDbEntity
  8
BEZUGSACHSEN
100
AcDbLine
 62
7
  6
CONTINUOUS
 10
113.6235168489
 20
89.8405018954
 11
117.0122464501
 21
89.8405018954
  0
LINE
  5
281
100
AcDbEntity
  8
BEZUGSACHSEN
100
AcDbLine
 62
7
  6
CONTINUOUS
 10
124.0847872477
 20
89.8405018954
 11
127.4735168489
 21
89.8405018954
  0
LINE
  5
282
100
AcDbEntity
  8
BEZUGSACHSEN
100
AcDbLine
 62
7
  6
CONTINUOUS
 10
122.4235168489
 20
92.7179066312
 11
124.0847872477
 21
89.8405018954
  0
LINE
  5
283
100
AcDbEntity
  8
0
100
AcDbLine
 62
7
  6
CONTINUOUS
 10
117.0122464501
 20
89.8405018954
 11
117.0122464501
 21
95.7814037884
  0
LINE
  5
284
100
AcDbEntity
  8
0
100
AcDbLine
 62
7
  6
CONTINUOUS
 10
117.0122464501
 20
103.1155018954
 11
117.0122464501
 21
113.4155018954
  0
LINE
  5
285
100
AcDbEntity
  8
0
100
AcDbLine
 62
7
  6
CONTINUOUS
 10
117.0122464501
 20
129.8155018954
 11
117.0122464501
 21
153.3905018954
  0
LINE
  5
286
100
AcDbEntity
  8
0
100
AcDbLine
 62
7
  6
CONTINUOUS
 10
118.6735168489
 20
150.5130966974
 11
118.6735168489
 21
149.0005182686
  0
LINE
  5
287
100
AcDbEntity
  8
BEZUGSACHSEN
100
AcDbLine
 62
7
  6
CONTINUOUS
 10
118.6735168489
 20
149.0005182686
 11
118.6735168489
 21
148.7442874796
  0
LINE
  5
288
100
AcDbEntity
  8
0
100
AcDbLine
 62
7
  6
CONTINUOUS
 10
118.6735168489
 20
148.5244463773
 11
118.6735168489
 21
129.8155018954
  0
LINE
  5
289
100
AcDbEntity
  8
0
100
AcDbLine
 62
7
  6
CONTINUOUS
 10
118.6735168489
 20
113.4155018954
 11
118.6735168489
 21
103.1155018954
  0
LINE
  5
28A
100
AcDbEntity
  8
0
100
AcDbLine
 62
7
  6
CONTINUOUS
 10
118.6735168489
 20
92.7179126718
 11
118.6735168489
 21
99.7719530766
  0
LINE
  5
28B
100
AcDbEntity
  8
0
100
AcDbLine
 62
9
  6
CONTINUOUS
 10
119.1735168489
 20
93.4905018954
 11
119.1735168489
 21
100.4314129369
  0
LINE
  5
28C
100
AcDbEntity
  8
0
100
AcDbLine
 62
9
  6
CONTINUOUS
 10
119.1735168489
 20
103.1155018954
 11
119.1735168489
 21
113.4155018954
  0
LINE
  5
28D
100
AcDbEntity
  8
0
100
AcDbLine
 62
9
  6
CONTINUOUS
 10
119.1735168489
 20
129.8155018954
 11
119.1735168489
 21
147.5123554883
  0
LINE
  5
28E
100
AcDbEntity
  8
0
100
AcDbLine
 62
9
  6
CONTINUOUS
 10
119.1735168489
 20
148.5058342277
 11
119.1735168489
 21
149.7405018954
  0
LINE
  5
28F
100
AcDbEntity
  8
BEZUGSACHSEN
100
AcDbLine
 62
7
  6
CONTINUOUS
 10
152.5301244169
 20
99.1155018954
 11
162.8048573607
 21
100.9121390632
  0
LINE
  5
290
100
AcDbEntity
  8
BEZUGSACHSEN
100
AcDbLine
 62
7
  6
CONTINUOUS
 10
163.9664355249
 20
101.1152523232
 11
172.178013025
 21
102.5511266592
  0
LINE
  5
291
100
AcDbEntity
  8
BEZUGSACHSEN
100
AcDbLine
 62
7
  6
CONTINUOUS
 10
119.1735168489
 20
93.4905018954
 11
121.9235168489
 21
93.4905018954
  0
LINE
  5
292
100
AcDbEntity
  8
0
100
AcDbLine
 62
7
  6
CONTINUOUS
 10
113.6235168489
 20
95.7814037884
 11
117.0122464501
 21
95.7814037884
  0
LINE
  5
293
100
AcDbEntity
  8
0
100
AcDbLine
 62
7
  6
CONTINUOUS
 10
124.0847872477
 20
95.7814037884
 11
127.4735168489
 21
95.7814037884
  0
LINE
  5
294
100
AcDbEntity
  8
BEZUGSACHSEN
100
AcDbLine
 62
7
  6
CONTINUOUS
 10
129.4735168489
 20
99.1155018954
 11
152.5301244169
 21
99.1155018954
  0
LINE
  5
295
100
AcDbEntity
  8
BEZUGSACHSEN
100
AcDbLine
 62
7
  6
CONTINUOUS
 10
109.9735168489
 20
99.7405018954
 11
111.6235168489
 21
99.7405018954
  0
LINE
  5
296
100
AcDbEntity
  8
BEZUGSACHSEN
100
AcDbLine
 62
7
  6
CONTINUOUS
 10
42.6848795105
 20
109.1167386936
 11
108.9162115864
 21
99.4571978041
  0
LINE
  5
297
100
AcDbEntity
  8
0
100
AcDbLine
 62
9
  6
CONTINUOUS
 10
121.9235168489
 20
93.4905018954
 11
121.9235168489
 21
100.4314129369
  0
LINE
  5
298
100
AcDbEntity
  8
0
100
AcDbLine
 62
9
  6
CONTINUOUS
 10
121.9235168489
 20
103.1155018954
 11
121.9235168489
 21
113.4155018954
  0
LINE
  5
299
100
AcDbEntity
  8
0
100
AcDbLine
 62
9
  6
CONTINUOUS
 10
121.9235168489
 20
129.8155018954
 11
121.9235168489
 21
147.5123554883
  0
LINE
  5
29A
100
AcDbEntity
  8
0
100
AcDbLine
 62
9
  6
CONTINUOUS
 10
121.9235168489
 20
148.5058342277
 11
121.9235168489
 21
149.7405018954
  0
LINE
  5
29B
100
AcDbEntity
  8
BEZUGSACHSEN
100
AcDbLine
 62
7
  6
CONTINUOUS
 10
122.4235168489
 20
149.0005182686
 11
122.4235168489
 21
148.7442874796
  0
LINE
  5
29C
100
AcDbEntity
  8
0
100
AcDbLine
 62
7
  6
CONTINUOUS
 10
122.4235168489
 20
148.5244463773
 11
122.4235168489
 21
129.8155018954
  0
LINE
  5
29D
100
AcDbEntity
  8
0
100
AcDbLine
 62
7
  6
CONTINUOUS
 10
122.4235168489
 20
92.7179126718
 11
122.4235168489
 21
99.7719530766
  0
LINE
  5
29E
100
AcDbEntity
  8
0
100
AcDbLine
 62
7
  6
CONTINUOUS
 10
122.4235168489
 20
103.1155018954
 11
122.4235168489
 21
113.4155018954
  0
LINE
  5
29F
100
AcDbEntity
  8
0
100
AcDbLine
 62
7
  6
CONTINUOUS
 10
122.4235168489
 20
149.0005182686
 11
122.4235168489
 21
150.5130966974
  0
LINE
  5
2A0
100
AcDbEntity
  8
0
100
AcDbLine
 62
7
  6
CONTINUOUS
 10
124.0847872477
 20
153.3905018954
 11
124.0847872477
 21
129.8155018954
  0
LINE
  5
2A1
100
AcDbEntity
  8
0
100
AcDbLine
 62
7
  6
CONTINUOUS
 10
124.0847872477
 20
113.4155018954
 11
124.0847872477
 21
103.1155018954
  0
LINE
  5
2A2
100
AcDbEntity
  8
0
100
AcDbLine
 62
7
  6
CONTINUOUS
 10
124.0847872477
 20
95.7814037884
 11
124.0847872477
 21
89.8405018954
  0
LINE
  5
2A3
100
AcDbEntity
  8
0
100
AcDbLine
 62
9
  6
CONTINUOUS
 10
127.4735168489
 20
89.8405018954
 11
127.4735168489
 21
95.7814037884
  0
LINE
  5
2A4
100
AcDbEntity
  8
0
100
AcDbLine
 62
9
  6
CONTINUOUS
 10
127.4735168489
 20
103.1155018954
 11
127.4735168489
 21
113.4155018954
  0
LINE
  5
2A5
100
AcDbEntity
  8
0
100
AcDbLine
 62
9
  6
CONTINUOUS
 10
127.4735168489
 20
129.8155018954
 11
127.4735168489
 21
153.3905018954
  0
LINE
  5
2A6
100
AcDbEntity
  8
0
100
AcDbLine
 62
7
  6
CONTINUOUS
 10
119.1735168489
 20
100.4314129369
 11
121.9235168489
 21
100.4314129369
  0
LINE
  5
2A7
100
AcDbEntity
  8
FASEN
100
AcDbLine
 62
7
  6
CONTINUOUS
 10
112.6235168489
 20
102.7155018954
 11
128.4735168489
 21
102.7155018954
  0
LINE
  5
2A8
100
AcDbEntity
  8
0
100
AcDbLine
 62
7
  6
CONTINUOUS
 10
112.6235168489
 20
103.1155018954
 11
128.4735168489
 21
103.1155018954
  0
LINE
  5
2A9
100
AcDbEntity
  8
BEZUGSACHSEN
100
AcDbLine
 62
7
  6
CONTINUOUS
 10
173.5853970642
 20
103.6155018954
 11
174.8735168489
 21
103.6155018954
  0
LINE
  5
2AA
100
AcDbEntity
  8
BEZUGSACHSEN
100
AcDbLine
 62
7
  6
CONTINUOUS
 10
179.8735168489
 20
103.6155018954
 11
181.5796922506
 21
103.6155018954
  0
LWPOLYLINE
  5
2AB
100
AcDbEntity
  8
0
100
AcDbPolyline
 62
7
  6
CONTINUOUS
 90
10
 70
0
 10
161.4530222854
 20
100.8908809806
 10
161.4421997072
 20
100.8910053346
 10
161.433882063
 20
100.891226731
 10
161.4325646078
 20
100.8912773496
 10
161.4385320378
 20
100.8908349834
 10
161.4522708561
 20
100.8894756053
 10
161.4732132641
 20
100.8868073797
 10
161.5012672008
 20
100.8823531519
 10
161.5348463934
 20
100.8758836003
 10
161.5586370284
 20
100.8706109941
  0
LINE
  5
2AC
100
AcDbEntity
  8
BEZUGSACHSEN
100
AcDbLine
 62
7
  6
CONTINUOUS
 10
128.4735168489
 20
152.3726160461
 11
128.4735168489
 21
129.8155018954
  0
LINE
  5
2AD
100
AcDbEntity
  8
0
100
AcDbLine
 62
7
  6
CONTINUOUS
 10
128.4735168489
 20
152.3905014538
 11
128.4735168489
 21
129.8155018954
  0
LINE
  5
2AE
100
AcDbEntity
  8
0
100
AcDbLine
 62
7
  6
CONTINUOUS
 10
128.4735168489
 20
113.4155018954
 11
128.4735168489
 21
103.1155018954
  0
LINE
  5
2AF
100
AcDbEntity
  8
BEZUGSACHSEN
100
AcDbLine
 62
7
  6
CONTINUOUS
 10
128.4735168489
 20
97.021790809
 11
128.4735168489
 21
90.8425336793
  0
LINE
  5
2B0
100
AcDbEntity
  8
0
100
AcDbLine
 62
7
  6
CONTINUOUS
 10
128.4735168489
 20
97.021790809
 11
128.4735168489
 21
90.8405044
  0
LINE
  5
2B1
100
AcDbEntity
  8
FASEN
100
AcDbLine
 62
7
  6
CONTINUOUS
 10
128.4735168489
 20
97.021790809
 11
128.4735168489
 21
103.1155018954
  0
LINE
  5
2B2
100
AcDbEntity
  8
FASEN
100
AcDbLine
 62
7
  6
CONTINUOUS
 10
128.4735168489
 20
113.4155018954
 11
128.4735168489
 21
129.8155018954
  0
LINE
  5
2B3
100
AcDbEntity
  8
RUNDUNGEN
100
AcDbLine
 62
9
  6
CONTINUOUS
 10
129.4735168489
 20
144.1155018954
 11
129.4735168489
 21
99.1155018954
  0
LINE
  5
2B4
100
AcDbEntity
  8
BEZUGSACHSEN
100
AcDbLine
 62
7
  6
CONTINUOUS
 10
108.9162115864
 20
99.4571978041
 11
109.9735168489
 21
99.7405018954
  0
LINE
  5
2B5
100
AcDbEntity
  8
BEZUGSACHSEN
100
AcDbLine
 62
7
  6
CONTINUOUS
 10
190.1401927743
 20
111.0352927139
 11
239.0892176357
 21
113.600602405
  0
LINE
  5
2B6
100
AcDbEntity
  8
0
100
AcDbLine
 62
7
  6
CONTINUOUS
 10
112.6235168489
 20
113.4155018954
 11
128.4735168489
 21
113.4155018954
  0
LINE
  5
2B7
100
AcDbEntity
  8
FASEN
100
AcDbLine
 62
7
  6
CONTINUOUS
 10
128.4735168489
 20
113.8155018954
 11
112.6235168489
 21
113.8155018954
  0
LINE
  5
2B8
100
AcDbEntity
  8
BEZUGSACHSEN
100
AcDbLine
 62
7
  6
CONTINUOUS
 10
117.0122464501
 20
89.8405018954
 11
118.6735168489
 21
92.7179066312
  0
LINE
  5
2B9
100
AcDbEntity
  8
DEFAULT_2
100
AcDbLine
 62
8
  6
HIDDEN
 10
237.8735168489
 20
116.6155018954
 11
210.3735168489
 21
116.6155018954
  0
LINE
  5
2BA
100
AcDbEntity
  8
BEZUGSACHSEN
100
AcDbLine
 62
7
  6
CONTINUOUS
 10
117.0122464501
 20
153.3905018954
 11
118.6735168489
 21
150.5130971596
  0
LINE
  5
2BB
100
AcDbEntity
  8
DEFAULT_1
100
AcDbLine
 62
7
  6
CENTER
 10
177.3735168489
 20
121.6155018954
 11
171.8735168489
 21
121.6155018954
  0
LINE
  5
2BC
100
AcDbEntity
  8
BEZUGSACHSEN
100
AcDbLine
 62
7
  6
CENTER
 10
244.3735168489
 20
121.6155018954
 11
37.9735168489
 21
121.6155018954
  0
LINE
  5
2BD
100
AcDbEntity
  8
0
100
AcDbLine
 62
9
  6
CONTINUOUS
 10
162.8048573607
 20
121.6155018954
 11
163.9664355249
 21
121.6155018954
  0
LINE
  5
2BE
100
AcDbEntity
  8
DEFAULT_1
100
AcDbLine
 62
7
  6
CENTER
 10
177.3735168489
 20
121.6155018954
 11
182.8735168489
 21
121.6155018954
  0
LINE
  5
2BF
100
AcDbEntity
  8
DEFAULT_2
100
AcDbLine
 62
8
  6
HIDDEN
 10
237.8735168489
 20
126.6155018954
 11
210.3735168489
 21
126.6155018954
  0
LINE
  5
2C0
100
AcDbEntity
  8
BEZUGSACHSEN
100
AcDbLine
 62
7
  6
CONTINUOUS
 10
152.5301244169
 20
144.1155018954
 11
152.5301244169
 21
99.1155018954
  0
LINE
  5
2C1
100
AcDbEntity
  8
FASEN
100
AcDbLine
 62
7
  6
CONTINUOUS
 10
112.6235168489
 20
129.4155018954
 11
128.4735168489
 21
129.4155018954
  0
LINE
  5
2C2
100
AcDbEntity
  8
0
100
AcDbLine
 62
7
  6
CONTINUOUS
 10
112.6235168489
 20
129.8155018954
 11
128.4735168489
 21
129.8155018954
  0
LINE
  5
2C3
100
AcDbEntity
  8
BEZUGSACHSEN
100
AcDbLine
 62
7
  6
CONTINUOUS
 10
190.1401927743
 20
132.1957110768
 11
239.0892176357
 21
129.6304013858
  0
LINE
  5
2C4
100
AcDbEntity
  8
BEZUGSACHSEN
100
AcDbLine
 62
7
  6
CONTINUOUS
 10
108.9162115864
 20
143.7738059866
 11
109.9735168489
 21
143.4905018954
  0
LINE
  5
2C5
100
AcDbEntity
  8
BEZUGSACHSEN
100
AcDbLine
 62
7
  6
CONTINUOUS
 10
173.5853970642
 20
139.6155018954
 11
174.8735168489
 21
139.6155018954
  0
LINE
  5
2C6
100
AcDbEntity
  8
BEZUGSACHSEN
100
AcDbLine
 62
7
  6
CONTINUOUS
 10
179.8735168489
 20
139.6155018954
 11
181.5796922506
 21
139.6155018954
  0
LINE
  5
2C7
100
AcDbEntity
  8
BEZUGSACHSEN
100
AcDbLine
 62
7
  6
CONTINUOUS
 10
42.6848795105
 20
134.1142650971
 11
108.9162115864
 21
143.7738059866
  0
LINE
  5
2C8
100
AcDbEntity
  8
BEZUGSACHSEN
100
AcDbLine
 62
7
  6
CONTINUOUS
 10
109.9735168489
 20
143.4905018954
 11
111.6235168489
 21
143.4905018954
  0
LINE
  5
2C9
100
AcDbEntity
  8
BEZUGSACHSEN
100
AcDbLine
 62
7
  6
CONTINUOUS
 10
129.4735168489
 20
144.1155018954
 11
152.5301244169
 21
144.1155018954
  0
LINE
  5
2CA
100
AcDbEntity
  8
BEZUGSACHSEN
100
AcDbLine
 62
7
  6
CONTINUOUS
 10
152.5301244169
 20
144.1155018954
 11
162.8048573607
 21
142.3188647275
  0
LINE
  5
2CB
100
AcDbEntity
  8
BEZUGSACHSEN
100
AcDbLine
 62
7
  6
CONTINUOUS
 10
163.9664355249
 20
142.1157514676
 11
172.178013025
 21
140.6798771315
  0
LWPOLYLINE
  5
2CC
100
AcDbEntity
  8
0
100
AcDbPolyline
 62
7
  6
CONTINUOUS
 90
10
 70
0
 10
165.3214719821
 20
141.6612010292
 10
165.3332755378
 20
141.6568617535
 10
165.3425790546
 20
141.6532726065
 10
165.3446872052
 20
141.6524207615
 10
165.3395656305
 20
141.6546965912
 10
165.3269602219
 20
141.6606853581
 10
165.3078824949
 20
141.6704473268
 10
165.2829431378
 20
141.6842376101
 10
165.2536965479
 20
141.7017429412
 10
165.2379699078
 20
141.7117196686
  0
LINE
  5
2CD
100
AcDbEntity
  8
BEZUGSACHSEN
100
AcDbLine
 62
9
  6
CONTINUOUS
 10
172.178013025
 20
140.6798771315
 11
172.178013025
 21
102.5511266592
  0
LINE
  5
2CE
100
AcDbEntity
  8
BEZUGSACHSEN
100
AcDbLine
 62
9
  6
CONTINUOUS
 10
172.7330363277
 20
140.2918339975
 11
172.7330363277
 21
102.9391697933
  0
LINE
  5
2CF
100
AcDbEntity
  8
BEZUGSACHSEN
100
AcDbLine
 62
9
  6
CONTINUOUS
 10
172.8925767412
 20
140.0155018954
 11
172.8925767412
 21
103.2155018954
  0
LINE
  5
2D0
100
AcDbEntity
  8
BEZUGSACHSEN
100
AcDbLine
 62
9
  6
CONTINUOUS
 10
173.5853970642
 20
139.6155018954
 11
173.5853970642
 21
103.6155018954
  0
LINE
  5
2D1
100
AcDbEntity
  8
BEZUGSACHSEN
100
AcDbLine
 62
7
  6
CONTINUOUS
 10
172.7330363277
 20
102.9391697933
 11
172.8925767412
 21
103.2155018954
  0
LINE
  5
2D2
100
AcDbEntity
  8
BEZUGSACHSEN
100
AcDbLine
 62
7
  6
CONTINUOUS
 10
119.1735168489
 20
149.7405018954
 11
121.9235168489
 21
149.7405018954
  0
LINE
  5
2D3
100
AcDbEntity
  8
BEZUGSACHSEN
100
AcDbLine
 62
7
  6
CONTINUOUS
 10
113.6235168489
 20
153.3905018954
 11
117.0122464501
 21
153.3905018954
  0
LINE
  5
2D4
100
AcDbEntity
  8
BEZUGSACHSEN
100
AcDbLine
 62
7
  6
CONTINUOUS
 10
124.0847872477
 20
153.3905018954
 11
127.4735168489
 21
153.3905018954
  0
LINE
  5
2D5
100
AcDbEntity
  8
DEFAULT_1
100
AcDbLine
 62
7
  6
CENTER
 10
177.3735168489
 20
121.6155018954
 11
177.3735168489
 21
102.4113359388
  0
LINE
  5
2D6
100
AcDbEntity
  8
DEFAULT_1
100
AcDbLine
 62
7
  6
CENTER
 10
177.3735168489
 20
121.6155018954
 11
177.3735168489
 21
140.8422798093
  0
LINE
  5
2D7
100
AcDbEntity
  8
BEZUGSACHSEN
100
AcDbLine
 62
9
  6
CONTINUOUS
 10
181.5796922506
 20
139.6155018954
 11
181.5796922506
 21
103.6155018954
  0
LINE
  5
2D8
100
AcDbEntity
  8
BEZUGSACHSEN
100
AcDbLine
 62
9
  6
CONTINUOUS
 10
182.2867990318
 20
139.3226086766
 11
182.2867990318
 21
103.9083951142
  0
LINE
  5
2D9
100
AcDbEntity
  8
BEZUGSACHSEN
100
AcDbLine
 62
7
  6
CONTINUOUS
 10
182.2867990318
 20
103.9083951142
 11
188.8306511244
 21
110.4522472068
  0
LINE
  5
2DA
100
AcDbEntity
  8
BEZUGSACHSEN
100
AcDbLine
 62
7
  6
CONTINUOUS
 10
182.2867990318
 20
139.3226086766
 11
188.8306511244
 21
132.778756584
  0
LINE
  5
2DB
100
AcDbEntity
  8
BEZUGSACHSEN
100
AcDbLine
 62
7
  6
CONTINUOUS
 10
172.7330363277
 20
140.2918339975
 11
172.8925767412
 21
140.0155018954
  0
LINE
  5
2DC
100
AcDbEntity
  8
BEZUGSACHSEN
100
AcDbLine
 62
9
  6
CONTINUOUS
 10
188.8306511244
 20
132.778756584
 11
188.8306511244
 21
110.4522472068
  0
LINE
  5
2DD
100
AcDbEntity
  8
BEZUGSACHSEN
100
AcDbLine
 62
9
  6
CONTINUOUS
 10
190.1401927743
 20
132.1957110768
 11
190.1401927743
 21
111.0352927139
  0
LINE
  5
2DE
100
AcDbEntity
  8
DEFAULT_2
100
AcDbLine
 62
8
  6
HIDDEN
 10
210.3735168489
 20
126.6155018954
 11
210.3735168489
 21
116.6155018954
  0
LINE
  5
2DF
100
AcDbEntity
  8
BEZUGSACHSEN
100
AcDbLine
 62
9
  6
CONTINUOUS
 10
239.0892176357
 20
129.6304013858
 11
239.0892176357
 21
113.600602405
  0
LINE
  5
2E0
100
AcDbEntity
  8
BEZUGSACHSEN
100
AcDbLine
 62
7
  6
CONTINUOUS
 10
239.3735168489
 20
129.3308125254
 11
239.3735168489
 21
113.9001912654
  0
CIRCLE
  5
2E1
100
AcDbEntity
  8
BEZUGSACHSEN
100
AcDbCircle
 62
7
  6
CONTINUOUS
 10
120.4735168489
 20
121.6155018954
 40
5.0
  0
CIRCLE
  5
2E2
100
AcDbEntity
  8
BEZUGSACHSEN
100
AcDbCircle
 62
7
  6
CONTINUOUS
 10
120.4735168489
 20
121.6155018954
 40
4.7
  0
CIRCLE
  5
2E3
100
AcDbEntity
  8
BEZUGSACHSEN
100
AcDbCircle
 62
7
  6
CONTINUOUS
 10
120.4735168489
 20
121.6155018954
 40
2.0
  0
ARC
  5
2E4
100
AcDbEntity
  8
BEZUGSACHSEN
100
AcDbCircle
 62
7
  6
CONTINUOUS
 10
42.9735168489
 20
111.0958012209
 40
2.0
100
AcDbArc
 50
180.0
 51
261.7021731718
  0
ARC
  5
2E5
100
AcDbEntity
  8
BEZUGSACHSEN
100
AcDbCircle
 62
7
  6
CONTINUOUS
 10
111.6235168489
 20
98.7405018954
 40
1.0
100
AcDbArc
 50
0.0
 51
90.0
  0
ARC
  5
2E6
100
AcDbEntity
  8
BEZUGSACHSEN
100
AcDbCircle
 62
7
  6
CONTINUOUS
 10
113.6235168489
 20
90.8405018954
 40
1.0
100
AcDbArc
 50
180.0
 51
270.0
  0
ARC
  5
2E7
100
AcDbEntity
  8
BEZUGSACHSEN
100
AcDbCircle
 62
7
  6
CONTINUOUS
 10
119.1735168489
 20
92.9905018954
 40
0.5
100
AcDbArc
 50
90.0
 51
180.0
  0
ARC
  5
2E8
100
AcDbEntity
  8
0
100
AcDbCircle
 62
7
  6
CONTINUOUS
 10
-54.9471897525
 20
176.5829293471
 40
189.9972240794
100
AcDbArc
 50
334.8317727047
 51
336.0368933894
  0
ARC
  5
2E9
100
AcDbEntity
  8
BEZUGSACHSEN
100
AcDbCircle
 62
7
  6
CONTINUOUS
 10
42.9735168489
 20
132.1352025698
 40
2.0
100
AcDbArc
 50
98.2978268282
 51
180.0
  0
ARC
  5
2EA
100
AcDbEntity
  8
BEZUGSACHSEN
100
AcDbCircle
 62
7
  6
CONTINUOUS
 10
111.6235168489
 20
144.4905018954
 40
1.0
100
AcDbArc
 50
270.0
 51
360.0
  0
ARC
  5
2EB
100
AcDbEntity
  8
BEZUGSACHSEN
100
AcDbCircle
 62
7
  6
CONTINUOUS
 10
113.6235168489
 20
152.3905018954
 40
1.0
100
AcDbArc
 50
90.0
 51
180.0
  0
ARC
  5
2EC
100
AcDbEntity
  8
BEZUGSACHSEN
100
AcDbCircle
 62
7
  6
CONTINUOUS
 10
119.1735168489
 20
150.2405018954
 40
0.5
100
AcDbArc
 50
180.0
 51
270.0
  0
ARC
  5
2ED
100
AcDbEntity
  8
0
100
AcDbCircle
 62
7
  6
CONTINUOUS
 10
158.7004945958
 20
112.0288518267
 40
30.5442569687
100
AcDbArc
 50
80.0723991853
 51
81.1752661815
  0
ARC
  5
2EE
100
AcDbEntity
  8
0
100
AcDbCircle
 62
7
  6
CONTINUOUS
 10
159.6414275665
 20
122.3800222603
 40
20.1807054181
100
AcDbArc
 50
77.3439087649
 51
77.7531404301
  0
ARC
  5
2EF
100
AcDbEntity
  8
0
100
AcDbCircle
 62
7
  6
CONTINUOUS
 10
160.305550332
 20
120.2380417881
 40
19.4628736634
100
AcDbArc
 50
277.2469389459
 51
277.6454388414
  0
ARC
  5
2F0
100
AcDbEntity
  8
GEWINDE
100
AcDbCircle
 62
7
  6
CONTINUOUS
 10
177.3735187497
 20
85.7888992524
 40
18.0008522335
100
AcDbArc
 50
82.0169180759
 51
97.983093907
  0
ARC
  5
2F1
100
AcDbEntity
  8
0
100
AcDbCircle
 62
2
  6
CONTINUOUS
 10
177.3735168354
 20
121.6155018954
 40
2.9999999865
100
AcDbArc
 50
180.1550562786
 51
180.0000000004
  0
CIRCLE
  5
2F2
100
AcDbEntity
  8
GEWINDE
100
AcDbCircle
 62
7
  6
CONTINUOUS
 10
177.3735168489
 20
121.6155018954
 40
2.5
  0
ARC
  5
2F3
100
AcDbEntity
  8
BEZUGSACHSEN
100
AcDbCircle
 62
7
  6
CONTINUOUS
 10
190.2448646868
 20
109.0380336444
 40
2.0
100
AcDbArc
 50
93.0
 51
135.0
  0
ARC
  5
2F4
100
AcDbEntity
  8
RUNDUNGEN
100
AcDbCircle
 62
7
  6
CONTINUOUS
 10
129.4735168489
 20
98.1155018954
 40
1.0
100
AcDbArc
 50
90.0
 51
180.0
  0
ARC
  5
2F5
100
AcDbEntity
  8
BEZUGSACHSEN
100
AcDbCircle
 62
7
  6
CONTINUOUS
 10
181.5796922506
 20
104.6155018954
 40
1.0
100
AcDbArc
 50
270.0
 51
315.0
  0
ARC
  5
2F6
100
AcDbEntity
  8
BEZUGSACHSEN
100
AcDbCircle
 62
7
  6
CONTINUOUS
 10
127.4735168489
 20
90.8405018954
 40
1.0
100
AcDbArc
 50
270.0
 51
360.0
  0
ARC
  5
2F7
100
AcDbEntity
  8
BEZUGSACHSEN
100
AcDbCircle
 62
7
  6
CONTINUOUS
 10
172.0402160046
 20
103.3391697933
 40
0.8
100
AcDbArc
 50
279.9184480125
 51
330.0
  0
ARC
  5
2F8
100
AcDbEntity
  8
BEZUGSACHSEN
100
AcDbCircle
 62
7
  6
CONTINUOUS
 10
173.5853970642
 20
102.8155018954
 40
0.8
100
AcDbArc
 50
90.0
 51
150.0
  0
ARC
  5
2F9
100
AcDbEntity
  8
BEZUGSACHSEN
100
AcDbCircle
 62
7
  6
CONTINUOUS
 10
121.9235168489
 20
92.9905018954
 40
0.5
100
AcDbArc
 50
0.0
 51
90.0
  0
ARC
  5
2FA
100
AcDbEntity
  8
0
100
AcDbCircle
 62
7
  6
CONTINUOUS
 10
161.6696515056
 20
101.3394809189
 40
0.4815903326
100
AcDbArc
 50
253.2259446941
 51
256.687122699
  0
ARC
  5
2FB
100
AcDbEntity
  8
BEZUGSACHSEN
100
AcDbCircle
 62
7
  6
CONTINUOUS
 10
239.0735168489
 20
129.3308125254
 40
0.3
100
AcDbArc
 50
0.0
 51
87.0
  0
ARC
  5
2FC
100
AcDbEntity
  8
BEZUGSACHSEN
100
AcDbCircle
 62
7
  6
CONTINUOUS
 10
239.0735168489
 20
113.9001912654
 40
0.3
100
AcDbArc
 50
273.0
 51
360.0
  0
ARC
  5
2FD
100
AcDbEntity
  8
0
100
AcDbCircle
 62
7
  6
CONTINUOUS
 10
296.0442234506
 20
176.5829293463
 40
189.9972240794
100
AcDbArc
 50
203.9631066104
 51
205.168227295
  0
ARC
  5
2FE
100
AcDbEntity
  8
0
100
AcDbCircle
 62
7
  6
CONTINUOUS
 10
157.4710681069
 20
131.4308657386
 40
30.9813164692
100
AcDbArc
 50
279.9135157528
 51
281.0071191097
  0
ARC
  5
2FF
100
AcDbEntity
  8
GEWINDE
100
AcDbCircle
 62
7
  6
CONTINUOUS
 10
177.3735168485
 20
157.4422111819
 40
18.0009585021
100
AcDbArc
 50
262.0169592265
 51
277.9830407756
  0
ARC
  5
300
100
AcDbEntity
  8
BEZUGSACHSEN
100
AcDbCircle
 62
7
  6
CONTINUOUS
 10
190.2448646868
 20
134.1929701463
 40
2.0
100
AcDbArc
 50
225.0
 51
267.0
  0
ARC
  5
301
100
AcDbEntity
  8
RUNDUNGEN
100
AcDbCircle
 62
7
  6
CONTINUOUS
 10
129.4735168489
 20
145.1155018954
 40
1.0
100
AcDbArc
 50
180.0
 51
270.0
  0
ARC
  5
302
100
AcDbEntity
  8
BEZUGSACHSEN
100
AcDbCircle
 62
7
  6
CONTINUOUS
 10
181.5796922506
 20
138.6155018954
 40
1.0
100
AcDbArc
 50
45.0
 51
90.0
  0
ARC
  5
303
100
AcDbEntity
  8
BEZUGSACHSEN
100
AcDbCircle
 62
7
  6
CONTINUOUS
 10
127.4735168489
 20
152.3905018954
 40
1.0
100
AcDbArc
 50
0.0
 51
90.0
  0
ARC
  5
304
100
AcDbEntity
  8
BEZUGSACHSEN
100
AcDbCircle
 62
7
  6
CONTINUOUS
 10
172.0402160046
 20
139.8918339975
 40
0.8
100
AcDbArc
 50
30.0
 51
80.0815519875
  0
ARC
  5
305
100
AcDbEntity
  8
BEZUGSACHSEN
100
AcDbCircle
 62
7
  6
CONTINUOUS
 10
173.5853970642
 20
140.4155018954
 40
0.8
100
AcDbArc
 50
210.0
 51
270.0
  0
ARC
  5
306
100
AcDbEntity
  8
BEZUGSACHSEN
100
AcDbCircle
 62
7
  6
CONTINUOUS
 10
121.9235168489
 20
150.2405018954
 40
0.5
100
AcDbArc
 50
270.0
 51
360.0
  0
ARC
  5
307
100
AcDbEntity
  8
0
100
AcDbCircle
 62
7
  6
CONTINUOUS
 10
164.9980115633
 20
141.3452627172
 40
0.4378798525
100
AcDbArc
 50
52.4929170862
 51
56.7807551217
  0
SPLINE
  5
308
100
AcDbEntity
  8
0
100
AcDbSpline
 62
2
  6
CONTINUOUS
 70
0
 71
3
 72
29
 73
25
 74
23
 42
0.0000001
 43
0.0000001
 44
0.0000000001
 12
-0.0253038713
 22
0.0042172968
 32
0.0
 13
-0.0257144819
 23
-0.0042857312
 33
0.0
 40
0.0
 40
0.0
 40
0.0
 40
0.0
 40
0.0454545455
 40
0.0909090909
 40
0.1363636364
 40
0.1818181818
 40
0.2272727273
 40
0.2727272727
 40
0.3181818182
 40
0.3636363636
 40
0.4090909091
 40
0.4545454545
 40
0.5
 40
0.5454545455
 40
0.5909090909
 40
0.6363636364
 40
0.6818181818
 40
0.7272727273
 40
0.7727272727
 40
0.8181818182
 40
0.8636363636
 40
0.9090909091
 40
0.9545454545
 40
1.0
 40
1.0
 40
1.0
 40
1.0
 10
180.3735058575
 20
103.6155036653
 30
0.0
 10
180.3731224655
 20
103.6155675637
 30
0.0
 10
180.3523111878
 20
103.6190533931
 30
0.0
 10
180.2605734829
 20
103.6341068945
 30
0.0
 10
180.1109609239
 20
103.6576817266
 30
0.0
 10
179.9040207263
 20
103.6882605754
 30
0.0
 10
179.646919905
 20
103.7229849489
 30
0.0
 10
179.3402859945
 20
103.7595988376
 30
0.0
 10
178.9967520351
 20
103.794406046
 30
0.0
 10
178.6176315626
 20
103.8251369359
 30
0.0
 10
178.2173457192
 20
103.84879045
 30
0.0
 10
177.7987803518
 20
103.8638530865
 30
0.0
 10
177.3735778626
 20
103.8689665776
 30
0.0
 10
176.9483677769
 20
103.863855879
 30
0.0
 10
176.5298033901
 20
103.8487958864
 30
0.0
 10
176.1295172201
 20
103.8251451013
 30
0.0
 10
175.7503771379
 20
103.7944147498
 30
0.0
 10
175.4068519501
 20
103.7596104164
 30
0.0
 10
175.1001814972
 20
103.7229936308
 30
0.0
 10
174.8430917524
 20
103.6882717249
 30
0.0
 10
174.6361139455
 20
103.6576881
 30
0.0
 10
174.4864991421
 20
103.6341131511
 30
0.0
 10
174.3947355566
 20
103.6190555888
 30
0.0
 10
174.3739178155
 20
103.6155686589
 30
0.0
 10
174.3735282021
 20
103.6155037235
 30
0.0
 11
180.3735058575
 21
103.6155036653
 31
0.0
 11
180.3422243897
 21
103.6206908526
 31
0.0
 11
180.2509276739
 21
103.6355271163
 31
0.0
 11
180.1014063175
 21
103.6588490627
 31
0.0
 11
179.8956606224
 21
103.6889514962
 31
0.0
 11
179.6386643902
 21
103.7232998681
 31
0.0
 11
179.3341359864
 21
103.7592977242
 31
0.0
 11
178.9908209496
 21
103.7937266596
 31
0.0
 11
178.6141040008
 21
103.8239573733
 31
0.0
 11
178.2142991318
 21
103.8473586371
 31
0.0
 11
177.7976741649
 21
103.8621948956
 31
0.0
 11
177.3735765965
 21
103.867262546
 31
0.0
 11
176.9494753934
 21
103.8621976633
 31
0.0
 11
176.5328497596
 21
103.8473640876
 31
0.0
 11
176.1330415681
 21
103.8239651736
 31
0.0
 11
175.7563129537
 21
103.7937357528
 31
0.0
 11
175.4129944059
 21
103.7593083411
 31
0.0
 11
175.1084449486
 21
103.7233094441
 31
0.0
 11
174.8514437421
 21
103.6889614384
 31
0.0
 11
174.6456744461
 21
103.6588562127
 31
0.0
 11
174.4961410118
 21
103.6355327155
 31
0.0
 11
174.4048250522
 21
103.6206934501
 31
0.0
 11
174.3735282021
 21
103.6155037235
 31
0.0
  0
SPLINE
  5
309
100
AcDbEntity
  8
0
100
AcDbSpline
 62
2
  6
CONTINUOUS
 70
0
 71
3
 72
29
 73
25
 74
23
 42
0.0000001
 43
0.0000001
 44
0.0000000001
 12
0.0256930562
 22
-0.0042821603
 32
0.0
 13
0.0256959066
 23
0.0042826353
 33
0.0
 40
0.0
 40
0.0
 40
0.0
 40
0.0
 40
0.0454545455
 40
0.0909090909
 40
0.1363636364
 40
0.1818181818
 40
0.2272727273
 40
0.2727272727
 40
0.3181818182
 40
0.3636363636
 40
0.4090909091
 40
0.4545454545
 40
0.5
 40
0.5454545455
 40
0.5909090909
 40
0.6363636364
 40
0.6818181818
 40
0.7272727273
 40
0.7727272727
 40
0.8181818182
 40
0.8636363636
 40
0.9090909091
 40
0.9545454545
 40
1.0
 40
1.0
 40
1.0
 40
1.0
 10
174.3735281836
 20
139.6155000702
 30
0.0
 10
174.3739174723
 20
139.615435189
 30
0.0
 10
174.3947355454
 20
139.6119482275
 30
0.0
 10
174.486481671
 20
139.5968934382
 30
0.0
 10
174.6360985955
 20
139.5733181129
 30
0.0
 10
174.8430387678
 20
139.5427396091
 30
0.0
 10
175.1001381833
 20
139.5080156359
 30
0.0
 10
175.4067920205
 20
139.4714001552
 30
0.0
 10
175.7503004904
 20
139.4365959332
 30
0.0
 10
176.1294544989
 20
139.4058632909
 30
0.0
 10
176.529697142
 20
139.3822128515
 30
0.0
 10
176.9483061953
 20
139.3671495123
 30
0.0
 10
177.3734531058
 20
139.3620372663
 30
0.0
 10
177.7987113171
 20
139.367148891
 30
0.0
 10
178.2172377181
 20
139.3822083833
 30
0.0
 10
178.6175490291
 20
139.405860885
 30
0.0
 10
178.9966675376
 20
139.4365901402
 30
0.0
 10
179.3402012524
 20
139.4713954899
 30
0.0
 10
179.6468612293
 20
139.5080113609
 30
0.0
 10
179.9039506372
 20
139.5427332878
 30
0.0
 10
180.1109245987
 20
139.5733164456
 30
0.0
 10
180.2605371198
 20
139.5968910533
 30
0.0
 10
180.3522991949
 20
139.6119483782
 30
0.0
 10
180.37311618
 20
139.6154351814
 30
0.0
 10
180.3735055119
 20
139.6155000698
 30
0.0
 11
174.3735281836
 21
139.6155000702
 31
0.0
 11
174.404822048
 21
139.6103108363
 31
0.0
 11
174.4961268041
 21
139.5954733489
 31
0.0
 11
174.6456524701
 21
139.5721509165
 31
0.0
 11
174.8513986417
 21
139.5420486976
 31
0.0
 11
175.1083972536
 21
139.5077003847
 31
0.0
 11
175.4129344593
 21
139.4717020316
 31
0.0
 11
175.7562414135
 21
139.4372745298
 31
0.0
 11
176.1329692713
 21
139.407043658
 31
0.0
 11
176.5327582104
 21
139.3836440348
 31
0.0
 11
176.9493958382
 21
139.3688080278
 31
0.0
 11
177.3734716559
 21
139.3637412447
 31
0.0
 11
177.7975893487
 21
139.368806869
 31
0.0
 11
178.2142018698
 21
139.3836405515
 31
0.0
 11
178.6140168954
 21
139.4070403439
 31
0.0
 11
178.9907367386
 21
139.4372694893
 31
0.0
 11
179.3340556294
 21
139.4716972435
 31
0.0
 11
179.6385994678
 21
139.5076957036
 31
0.0
 11
179.8955980628
 21
139.5420434929
 31
0.0
 11
180.1013643587
 21
139.5721483539
 31
0.0
 11
180.2508953788
 21
139.5954715061
 31
0.0
 11
180.342209762
 21
139.6103105249
 31
0.0
 11
180.3735055119
 21
139.6155000698
 31
0.0
  0
SPLINE
  5
30A
100
AcDbEntity
  8
BEZUGSACHSEN
100
AcDbSpline
 62
7
  6
CONTINUOUS
 70
0
 71
3
 72
19
 73
15
 74
13
 42
0.0000001
 43
0.0000001
 44
0.0000000001
 12
-0.8939002816
 22
0.3305664543
 32
0.0
 13
0.0
 23
0.9530644753
 33
0.0
 40
0.0
 40
0.0
 40
0.0
 40
0.0
 40
0.1217181457
 40
0.2412117709
 40
0.3499481467
 40
0.4477039725
 40
0.5373829645
 40
0.6199208207
 40
0.6964779373
 40
0.7678297527
 40
0.8343908613
 40
0.8961956983
 40
0.9521075556
 40
1.0
 40
1.0
 40
1.0
 40
1.0
 10
119.1735168489
 20
147.5123554883
 30
0.0
 10
119.1372488873
 20
147.5257674669
 30
0.0
 10
119.0682410847
 20
147.5605448146
 30
0.0
 10
118.9793061263
 20
147.6280025439
 30
0.0
 10
118.9064107731
 20
147.7019667783
 30
0.0
 10
118.8483211067
 20
147.7761881509
 30
0.0
 10
118.8019857231
 20
147.848490332
 30
0.0
 10
118.7648588827
 20
147.9183465114
 30
0.0
 10
118.735288779
 20
147.9853848236
 30
0.0
 10
118.7121006868
 20
148.0495068647
 30
0.0
 10
118.6945581474
 20
148.1105313131
 30
0.0
 10
118.6823081786
 20
148.167830992
 30
0.0
 10
118.6752042259
 20
148.2200137155
 30
0.0
 10
118.6735168489
 20
148.2530007258
 30
0.0
 10
118.6735168489
 20
148.2682155883
 30
0.0
 11
119.1735168489
 21
147.5123554883
 31
0.0
 11
119.0695670867
 21
147.5638497872
 31
0.0
 11
118.9784818768
 21
147.6322113786
 31
0.0
 11
118.9055288226
 21
147.7058157559
 31
0.0
 11
118.8479863468
 21
147.779089667
 31
0.0
 11
118.8018057073
 21
147.8510093845
 31
0.0
 11
118.7648622445
 21
147.9204585709
 31
0.0
 11
118.7354212253
 21
147.9872189817
 31
0.0
 11
118.712331418
 21
148.0511818816
 31
0.0
 11
118.6948776226
 21
148.1121705818
 31
0.0
 11
118.6826815856
 21
148.1697981555
 31
0.0
 11
118.6756625233
 21
148.222621461
 31
0.0
 11
118.6735168489
 21
148.2682155883
 31
0.0
  0
SPLINE
  5
30B
100
AcDbEntity
  8
0
100
AcDbSpline
 62
7
  6
CONTINUOUS
 70
0
 71
3
 72
13
 73
9
 74
7
 42
0.0000001
 43
0.0000001
 44
0.0000000001
 12
1.2051265831
 22
-0.2853287653
 32
0.0
 13
1.1985437208
 23
0.1523127974
 33
0.0
 40
0.0
 40
0.0
 40
0.0
 40
0.0
 40
0.0747667179
 40
0.2287683246
 40
0.4326213182
 40
0.6592318627
 40
0.8872959946
 40
1.0
 40
1.0
 40
1.0
 40
1.0
 10
161.558756444
 20
100.8708322938
 30
0.0
 10
161.5887908971
 20
100.863721262
 30
0.0
 10
161.6765703168
 20
100.8521152687
 30
0.0
 10
161.8538001438
 20
100.8491268784
 30
0.0
 10
162.0877954636
 20
100.8604278487
 30
0.0
 10
162.3524470165
 20
100.8830740323
 30
0.0
 10
162.5794861177
 20
100.9081298422
 30
0.0
 10
162.7156865287
 20
100.9249214958
 30
0.0
 10
162.7607134214
 20
100.9306435832
 30
0.0
 11
161.558756444
 21
100.8708322938
 31
0.0
 11
161.6468018985
 21
100.8572059359
 31
0.0
 11
161.8327609609
 21
100.8512104791
 31
0.0
 11
162.0788315816
 21
100.8614410552
 31
0.0
 11
162.3516675332
 21
100.8841276713
 31
0.0
 11
162.6255765543
 21
100.9140049868
 31
0.0
 11
162.7607134214
 21
100.9306435832
 31
0.0
  0
SPLINE
  5
30C
100
AcDbEntity
  8
0
100
AcDbSpline
 62
7
  6
CONTINUOUS
 70
0
 71
3
 72
11
 73
7
 74
5
 42
0.0000001
 43
0.0000001
 44
0.0000000001
 12
1.0749266306
 22
0.1442072987
 32
0.0
 13
1.0682986881
 23
0.1868024347
 33
0.0
 40
0.0
 40
0.0
 40
0.0
 40
0.0
 40
0.2482395444
 40
0.4964641451
 40
0.7463593068
 40
1.0
 40
1.0
 40
1.0
 40
1.0
 10
162.8949385218
 20
100.9481864222
 30
0.0
 10
162.9838849542
 20
100.9601190735
 30
0.0
 10
163.1616060187
 20
100.9851286693
 30
0.0
 10
163.4283729418
 20
101.0255858849
 30
0.0
 10
163.6966693014
 20
101.0688758044
 30
0.0
 10
163.8761141849
 20
101.0994587568
 30
0.0
 10
163.9664355249
 20
101.1152523232
 30
0.0
 11
162.8949385218
 21
100.9481864222
 31
0.0
 11
163.1615431804
 21
100.9856048961
 31
0.0
 11
163.4277098508
 21
101.025913255
 31
0.0
 11
163.6952679256
 21
101.0690509832
 31
0.0
 11
163.9664355249
 21
101.1152523232
 31
0.0
  0
SPLINE
  5
30D
100
AcDbEntity
  8
BEZUGSACHSEN
100
AcDbSpline
 62
7
  6
CONTINUOUS
 70
0
 71
3
 72
18
 73
14
 74
12
 42
0.0000001
 43
0.0000001
 44
0.0000000001
 12
-2.6242089124
 22
-0.9704387092
 32
0.0
 13
-2.6242089124
 23
0.9704387092
 33
0.0
 40
0.0
 40
0.0
 40
0.0
 40
0.0
 40
0.0799679098
 40
0.1663286595
 40
0.257944786
 40
0.3532485422
 40
0.4508026001
 40
0.549197501
 40
0.6467509057
 40
0.7420528253
 40
0.8336699519
 40
0.920031171
 40
1.0
 40
1.0
 40
1.0
 40
1.0
 10
121.9235168489
 20
147.5123554883
 30
0.0
 10
121.853566015
 20
147.4864875032
 30
0.0
 10
121.7056777543
 20
147.4390425833
 30
0.0
 10
121.4717538216
 20
147.3821764443
 30
0.0
 10
121.2205528474
 20
147.3380947723
 30
0.0
 10
120.9568024976
 20
147.308014378
 30
0.0
 10
120.685453552
 20
147.2927610296
 30
0.0
 10
120.4115804728
 20
147.2927610374
 30
0.0
 10
120.1402338462
 20
147.3080142206
 30
0.0
 10
119.8764848588
 20
147.3380942243
 30
0.0
 10
119.6252841607
 20
147.382175511
 30
0.0
 10
119.3913580093
 20
147.4390419613
 30
0.0
 10
119.2434684868
 20
147.4864872059
 30
0.0
 10
119.1735168489
 20
147.5123554883
 30
0.0
 11
121.9235168489
 21
147.5123554883
 31
0.0
 11
121.7106796608
 21
147.4433570991
 31
0.0
 11
121.4760031376
 21
147.3858138655
 31
0.0
 11
121.2235857261
 21
147.3411847212
 31
0.0
 11
120.9586764494
 21
147.3107657804
 31
0.0
 11
120.6861660723
 21
147.2953486326
 31
0.0
 11
120.4108673432
 21
147.2953486406
 31
0.0
 11
120.1383587886
 21
147.3107656488
 31
0.0
 11
119.8734545891
 21
147.34118376
 31
0.0
 11
119.6210343646
 21
147.3858130662
 31
0.0
 11
119.386356513
 21
147.4433563981
 31
0.0
 11
119.1735168489
 21
147.5123554883
 31
0.0
  0
SPLINE
  5
30E
100
AcDbEntity
  8
0
100
AcDbSpline
 62
7
  6
CONTINUOUS
 70
0
 71
3
 72
20
 73
16
 74
14
 42
0.0000001
 43
0.0000001
 44
0.0000000001
 12
3.7257395742
 22
2.4434995907
 32
0.0
 13
3.8795196655
 23
2.3392822134
 33
0.0
 40
0.0
 40
0.0
 40
0.0
 40
0.0
 40
0.0016833542
 40
0.0455637877
 40
0.1039384852
 40
0.1747492479
 40
0.2561859957
 40
0.3467985407
 40
0.4448845756
 40
0.5481385392
 40
0.6541378055
 40
0.7603889913
 40
0.8635346879
 40
0.9579329916
 40
1.0
 40
1.0
 40
1.0
 40
1.0
 10
160.4575462599
 20
100.8902493639
 30
0.0
 10
160.4596368397
 20
100.8916204557
 30
0.0
 10
160.5163728655
 20
100.9285808583
 30
0.0
 10
160.6559257015
 20
101.0044120074
 30
0.0
 10
160.8900399471
 20
101.1184741856
 30
0.0
 10
161.1808811404
 20
101.24798391
 30
0.0
 10
161.5181529235
 20
101.3915703761
 30
0.0
 10
161.8948808857
 20
101.5479391979
 30
0.0
 10
162.3024730871
 20
101.7157373222
 30
0.0
 10
162.731069557
 20
101.8935786593
 30
0.0
 10
163.1694104843
 20
102.0800657825
 30
0.0
 10
163.6045585778
 20
102.2735374549
 30
0.0
 10
164.0189164151
 20
102.4703916291
 30
0.0
 10
164.3397883559
 20
102.6377363348
 30
0.0
 10
164.5182470717
 20
102.7408685005
 30
0.0
 10
164.5726470005
 20
102.773670702
 30
0.0
 11
160.4575462599
 21
100.8902493639
 31
0.0
 11
160.4638351254
 21
100.8943463851
 31
0.0
 11
160.6366551486
 21
100.9925096134
 31
0.0
 11
160.8739588557
 21
101.1091126951
 31
0.0
 11
161.1664676861
 21
101.2406708668
 31
0.0
 11
161.5056351625
 21
101.3856682395
 31
0.0
 11
161.8845237375
 21
101.5434343446
 31
0.0
 11
162.2951840296
 21
101.7129536215
 31
0.0
 11
162.7269759398
 21
101.8926232884
 31
0.0
 11
163.1685498388
 21
102.0810999206
 31
0.0
 11
163.607994084
 21
102.2773056258
 31
0.0
 11
164.0295116091
 21
102.4787751519
 31
0.0
 11
164.407815777
 21
102.6780286701
 31
0.0
 11
164.5726470005
 21
102.773670702
 31
0.0
  0
SPLINE
  5
30F
100
AcDbEntity
  8
0
100
AcDbSpline
 62
7
  6
CONTINUOUS
 70
0
 71
3
 72
13
 73
9
 74
7
 42
0.0000001
 43
0.0000001
 44
0.0000000001
 12
-1.0492006536
 22
0.6875675017
 32
0.0
 13
-1.2032181721
 23
0.2702908302
 33
0.0
 40
0.0
 40
0.0
 40
0.0
 40
0.0
 40
0.0660231131
 40
0.212659362
 40
0.4139975435
 40
0.6455123026
 40
0.8824335988
 40
1.0
 40
1.0
 40
1.0
 40
1.0
 10
165.2379015229
 20
141.7115843962
 30
0.0
 10
165.2148110251
 20
141.7267161785
 30
0.0
 10
165.1402305938
 20
141.7658522084
 30
0.0
 10
164.9789061384
 20
141.8284774239
 30
0.0
 10
164.7524596675
 20
141.8988219748
 30
0.0
 10
164.4862108051
 20
141.9705754901
 30
0.0
 10
164.2521897245
 20
142.027316992
 30
0.0
 10
164.1101432662
 20
142.0597994011
 30
0.0
 10
164.0629905894
 20
142.0703917745
 30
0.0
 11
165.2379015229
 21
141.7115843962
 31
0.0
 11
165.1677030972
 21
141.7503452995
 31
0.0
 11
165.0001544961
 21
141.8183563969
 31
0.0
 11
164.7636194851
 21
141.8938233859
 31
0.0
 11
164.4881504627
 21
141.9688174225
 31
0.0
 11
164.2043102003
 21
142.038051115
 31
0.0
 11
164.0629905894
 21
142.0703917745
 31
0.0
  0
SPLINE
  5
310
100
AcDbEntity
  8
0
100
AcDbSpline
 62
7
  6
CONTINUOUS
 70
0
 71
3
 72
11
 73
7
 74
5
 42
0.0000001
 43
0.0000001
 44
0.0000000001
 12
-1.1125304352
 22
0.2415846827
 32
0.0
 13
-1.1213920584
 23
0.1960863278
 33
0.0
 40
0.0
 40
0.0
 40
0.0
 40
0.0
 40
0.2507224243
 40
0.499393543
 40
0.7481919195
 40
1.0
 40
1.0
 40
1.0
 40
1.0
 10
163.9222417218
 20
142.1014700099
 30
0.0
 10
163.8292629459
 20
142.1216602423
 30
0.0
 10
163.6438142473
 20
142.1606521525
 30
0.0
 10
163.3653487758
 20
142.2160504541
 30
0.0
 10
163.085961106
 20
142.2688383839
 30
0.0
 10
162.8989825546
 20
142.3024060202
 30
0.0
 10
162.8048573607
 20
142.3188647275
 30
0.0
 11
163.9222417218
 21
142.1014700099
 31
0.0
 11
163.6429471741
 21
142.1603043271
 31
0.0
 11
163.3653101817
 21
142.21559464
 31
0.0
 11
163.0870056977
 21
142.2682061994
 31
0.0
 11
162.8048573607
 21
142.3188647275
 31
0.0
  0
SPLINE
  5
311
100
AcDbEntity
  8
0
100
AcDbSpline
 62
7
  6
CONTINUOUS
 70
0
 71
3
 72
18
 73
14
 74
12
 42
0.0000001
 43
0.0000001
 44
0.0000000001
 12
-3.6502866217
 22
-0.8803487032
 32
0.0
 13
-3.7243310786
 23
-0.813218615
 33
0.0
 40
0.0
 40
0.0
 40
0.0
 40
0.0
 40
0.0500783372
 40
0.1171905913
 40
0.197347561
 40
0.2886243676
 40
0.389794761
 40
0.4990780591
 40
0.6137695721
 40
0.7311884833
 40
0.8483990091
 40
0.960614508
 40
1.0
 40
1.0
 40
1.0
 40
1.0
 10
166.2645932465
 20
141.3233571313
 30
0.0
 10
166.2036598184
 20
141.3086616649
 30
0.0
 10
166.0548727327
 20
141.2843534889
 30
0.0
 10
165.8068454051
 20
141.2545166726
 30
0.0
 10
165.5046156728
 20
141.2277339047
 30
0.0
 10
165.1593911793
 20
141.2016423382
 30
0.0
 10
164.7769729613
 20
141.1748328448
 30
0.0
 10
164.3649708675
 20
141.145315672
 30
0.0
 10
163.9326365884
 20
141.1106365657
 30
0.0
 10
163.4908710479
 20
141.0680947975
 30
0.0
 10
163.0534165151
 20
141.0146524211
 30
0.0
 10
162.7161610702
 20
140.9602232485
 30
0.0
 10
162.5273755638
 20
140.9217546596
 30
0.0
 10
162.4784806932
 20
140.9110783212
 30
0.0
 11
166.2645932465
 21
141.3233571313
 31
0.0
 11
166.0767734372
 21
141.28909015
 31
0.0
 11
165.8229292876
 21
141.257679035
 31
0.0
 11
165.5187255418
 21
141.2296031385
 31
0.0
 11
165.1718761317
 21
141.2028862529
 31
0.0
 11
164.7872691986
 21
141.175459876
 31
0.0
 11
164.3718639091
 21
141.1452307864
 31
0.0
 11
163.9361890891
 21
141.1097686625
 31
0.0
 11
163.4908073836
 21
141.0661715797
 31
0.0
 11
163.0475131652
 21
141.0109845691
 31
0.0
 11
162.6255629516
 21
140.9412181248
 31
0.0
 11
162.4784806932
 21
140.9110783212
 31
0.0
  0
SPLINE
  5
312
100
AcDbEntity
  8
BEZUGSACHSEN
100
AcDbSpline
 62
7
  6
CONTINUOUS
 70
0
 71
3
 72
11
 73
7
 74
5
 42
0.0000001
 43
0.0000001
 44
0.0000000001
 12
0.0
 22
-0.4680658555
 32
0.0
 13
-0.1674374283
 23
-0.437093071
 33
0.0
 40
0.0
 40
0.0
 40
0.0
 40
0.0
 40
0.1445461367
 40
0.3576974325
 40
0.6432572252
 40
1.0
 40
1.0
 40
1.0
 40
1.0
 10
122.5485168489
 20
148.9738083439
 30
0.0
 10
122.5485168489
 20
148.9512559735
 30
0.0
 10
122.5414182336
 20
148.895577485
 30
0.0
 10
122.5179684815
 20
148.7979611917
 30
0.0
 10
122.4778732306
 20
148.6705491952
 30
0.0
 10
122.4434275465
 20
148.5764229756
 30
0.0
 10
122.4235168489
 20
148.5244463773
 30
0.0
 11
122.5485168489
 21
148.9738083439
 31
0.0
 11
122.5418095469
 21
148.9064845236
 31
0.0
 11
122.5196592461
 21
148.8092056135
 31
0.0
 11
122.4803515799
 21
148.6814554128
 31
0.0
 11
122.4235168489
 21
148.5244463773
 31
0.0
  0
SPLINE
  5
313
100
AcDbEntity
  8
BEZUGSACHSEN
100
AcDbSpline
 62
7
  6
CONTINUOUS
 70
0
 71
3
 72
12
 73
8
 74
6
 42
0.0000001
 43
0.0000001
 44
0.0000000001
 12
-0.1674556245
 22
0.4371405719
 32
0.0
 13
0.0
 23
0.4681167224
 33
0.0
 40
0.0
 40
0.0
 40
0.0
 40
0.0
 40
0.2995620764
 40
0.5419687552
 40
0.7353081792
 40
0.886011903
 40
1.0
 40
1.0
 40
1.0
 40
1.0
 10
118.6735168489
 20
148.5244463773
 30
0.0
 10
118.6567957307
 20
148.5680966231
 30
0.0
 10
118.6275455299
 20
148.6474645709
 30
0.0
 10
118.5917348579
 20
148.7564950129
 30
0.0
 10
118.567284277
 20
148.8447400259
 30
0.0
 10
118.5528150038
 20
148.9147661998
 30
0.0
 10
118.5485168489
 20
148.9560217658
 30
0.0
 10
118.5485168489
 20
148.9738083439
 30
0.0
 11
118.6735168489
 21
148.5244463773
 31
0.0
 11
118.6253332101
 21
148.6561384223
 31
0.0
 11
118.590290385
 21
148.7640665919
 31
0.0
 11
118.5666043069
 21
148.8514176096
 31
0.0
 11
118.5529723981
 21
148.9206349546
 31
0.0
 11
118.5485168489
 21
148.9738083439
 31
0.0
  0
SPLINE
  5
314
100
AcDbEntity
  8
BEZUGSACHSEN
100
AcDbSpline
 62
7
  6
CONTINUOUS
 70
0
 71
3
 72
19
 73
15
 74
13
 42
0.0000001
 43
0.0000001
 44
0.0000000001
 12
0.0
 22
-0.9530644332
 32
0.0
 13
-0.8939002421
 23
-0.3305664397
 33
0.0
 40
0.0
 40
0.0
 40
0.0
 40
0.0
 40
0.0479048512
 40
0.1038186277
 40
0.1656371908
 40
0.2321998811
 40
0.3035488221
 40
0.3800991219
 40
0.4626240486
 40
0.5522943159
 40
0.6500533187
 40
0.7587572076
 40
0.8782694549
 40
1.0
 40
1.0
 40
1.0
 40
1.0
 10
122.4235168489
 20
148.2682155883
 30
0.0
 10
122.4235168489
 20
148.252996785
 30
0.0
 10
122.4218288119
 20
148.2200052196
 30
0.0
 10
122.4147226613
 20
148.1678138056
 30
0.0
 10
122.4024700968
 20
148.1105090595
 30
0.0
 10
122.3849246845
 20
148.049481333
 30
0.0
 10
122.3617357733
 20
147.9853623384
 30
0.0
 10
122.3321671455
 20
147.9183312517
 30
0.0
 10
122.295043688
 20
147.8484835569
 30
0.0
 10
122.2487113
 20
147.7761864755
 30
0.0
 10
122.1906290892
 20
147.7019745939
 30
0.0
 10
122.1177374837
 20
147.6280117764
 30
0.0
 10
122.0288048802
 20
147.5605514841
 30
0.0
 10
121.9597885034
 20
147.5257688326
 30
0.0
 10
121.9235168489
 20
147.5123554883
 30
0.0
 11
122.4235168489
 21
148.2682155883
 31
0.0
 11
122.4213701114
 21
148.2226096755
 31
0.0
 11
122.414349787
 21
148.1697846949
 31
0.0
 11
122.402149614
 21
148.1121446275
 31
0.0
 11
122.3846935999
 21
148.0511549973
 31
0.0
 11
122.3616030114
 21
147.9871952951
 31
0.0
 11
122.3321631777
 21
147.9204414657
 31
0.0
 11
122.2952246343
 21
147.8510036239
 31
0.0
 11
122.2490483086
 21
147.7790910228
 31
0.0
 11
122.1915039751
 21
147.7058147258
 31
0.0
 11
122.1185740433
 21
147.632231031
 31
0.0
 11
122.0274766763
 21
147.5638560791
 31
0.0
 11
121.9235168489
 21
147.5123554883
 31
0.0
  0
SPLINE
  5
315
100
AcDbEntity
  8
0
100
AcDbSpline
 62
7
  6
CONTINUOUS
 70
0
 71
3
 72
80
 73
76
 74
74
 42
0.0000001
 43
0.0000001
 44
0.0000000001
 12
-27.1186727144
 22
-5.9214417302
 32
0.0
 13
-21.4592042641
 23
-17.5967038308
 33
0.0
 40
0.0
 40
0.0
 40
0.0
 40
0.0
 40
0.008219148
 40
0.0192893462
 40
0.0279608685
 40
0.0347464823
 40
0.0401911479
 40
0.0450219689
 40
0.050166651
 40
0.056360345
 40
0.0641403472
 40
0.073835528
 40
0.0853825015
 40
0.0986916439
 40
0.1137004324
 40
0.1301975721
 40
0.1478285975
 40
0.1661579665
 40
0.1846597326
 40
0.2027592045
 40
0.2200283336
 40
0.2361587182
 40
0.2507746205
 40
0.2633851999
 40
0.2740027591
 40
0.2829122667
 40
0.2905844372
 40
0.2976883964
 40
0.3050294694
 40
0.3133287079
 40
0.3229883474
 40
0.334048573
 40
0.3465250372
 40
0.360396263
 40
0.3755667952
 40
0.3919078846
 40
0.4092370346
 40
0.4272044303
 40
0.4453478231
 40
0.4631551175
 40
0.4800709998
 40
0.4956477632
 40
0.509484127
 40
0.5215930012
 40
0.5323586053
 40
0.5424265224
 40
0.5522801769
 40
0.5621783448
 40
0.5725752189
 40
0.5840858494
 40
0.5972027776
 40
0.6121956846
 40
0.6293669183
 40
0.6487719667
 40
0.6695159283
 40
0.6907244094
 40
0.7119912699
 40
0.7330059189
 40
0.7533774368
 40
0.7726936452
 40
0.7904303081
 40
0.8061324827
 40
0.8198787892
 40
0.8320741152
 40
0.8432980083
 40
0.8539141369
 40
0.8644962755
 40
0.8758287607
 40
0.8884766662
 40
0.902984105
 40
0.9196513115
 40
0.9384267024
 40
0.9586579978
 40
0.9794976793
 40
1.0
 40
1.0
 40
1.0
 40
1.0
 10
162.4784806932
 20
140.9110783212
 30
0.0
 10
162.4041832316
 20
140.8948552526
 30
0.0
 10
162.2306345986
 20
140.853084284
 30
0.0
 10
161.9834064569
 20
140.7755387631
 30
0.0
 10
161.7593671308
 20
140.6732948941
 30
0.0
 10
161.5995129655
 20
140.5619199955
 30
0.0
 10
161.4979953893
 20
140.4368890026
 30
0.0
 10
161.4579483429
 20
140.2956279007
 30
0.0
 10
161.4787304278
 20
140.1441226865
 30
0.0
 10
161.5556253903
 20
139.9828418973
 30
0.0
 10
161.6891223083
 20
139.8080663816
 30
0.0
 10
161.879305444
 20
139.6178906494
 30
0.0
 10
162.1242422555
 20
139.4121536144
 30
0.0
 10
162.4203000322
 20
139.1920417739
 30
0.0
 10
162.762982302
 20
138.958610368
 30
0.0
 10
163.1450542399
 20
138.7123369504
 30
0.0
 10
163.5565120013
 20
138.455078516
 30
0.0
 10
163.9847334625
 20
138.1896726048
 30
0.0
 10
164.415049986
 20
137.9194194433
 30
0.0
 10
164.8326717236
 20
137.6474624625
 30
0.0
 10
165.2242000991
 20
137.3758896043
 30
0.0
 10
165.5776534527
 20
137.1065645608
 30
0.0
 10
165.8807613807
 20
136.8433246414
 30
0.0
 10
166.1230946314
 20
136.5896956259
 30
0.0
 10
166.2993935498
 20
136.3489667037
 30
0.0
 10
166.4125417818
 20
136.1225840601
 30
0.0
 10
166.4679006078
 20
135.9085856088
 30
0.0
 10
166.4688105271
 20
135.7017627822
 30
0.0
 10
166.4155786264
 20
135.4960242817
 30
0.0
 10
166.3059813838
 20
135.2872931304
 30
0.0
 10
166.1379799429
 20
135.0763326968
 30
0.0
 10
165.913670426
 20
134.8655505957
 30
0.0
 10
165.6391915242
 20
134.6542378741
 30
0.0
 10
165.3197920014
 20
134.4406194871
 30
0.0
 10
164.9606450515
 20
134.2230672623
 30
0.0
 10
164.5678543372
 20
133.9997705993
 30
0.0
 10
164.1500572495
 20
133.7682233249
 30
0.0
 10
163.7186013315
 20
133.5269141598
 30
0.0
 10
163.2879536122
 20
133.2751833624
 30
0.0
 10
162.8745194163
 20
133.0136875879
 30
0.0
 10
162.4950437706
 20
132.743849171
 30
0.0
 10
162.1662071764
 20
132.4680525292
 30
0.0
 10
161.8990087201
 20
132.1908831854
 30
0.0
 10
161.6970569109
 20
131.9163101948
 30
0.0
 10
161.5587148626
 20
131.6429622674
 30
0.0
 10
161.4803691059
 20
131.368213042
 30
0.0
 10
161.4586488053
 20
131.0913976476
 30
0.0
 10
161.4912133443
 20
130.8127702817
 30
0.0
 10
161.5771021904
 20
130.5299789018
 30
0.0
 10
161.7172448188
 20
130.2367713578
 30
0.0
 10
161.9147980686
 20
129.9271945453
 30
0.0
 10
162.1744728591
 20
129.5978138705
 30
0.0
 10
162.4991477254
 20
129.2477934822
 30
0.0
 10
162.8819438485
 20
128.8805916363
 30
0.0
 10
163.3069010486
 20
128.5042032627
 30
0.0
 10
163.7537722519
 20
128.1269349664
 30
0.0
 10
164.2055871431
 20
127.7517091697
 30
0.0
 10
164.6488648322
 20
127.3783095678
 30
0.0
 10
165.0697807947
 20
127.0064990816
 30
0.0
 10
165.4534923572
 20
126.638848915
 30
0.0
 10
165.7849982062
 20
126.2801240973
 30
0.0
 10
166.0523744186
 20
125.9341647051
 30
0.0
 10
166.251826084
 20
125.6033825849
 30
0.0
 10
166.3870115657
 20
125.2858262782
 30
0.0
 10
166.4603187286
 20
124.9778230056
 30
0.0
 10
166.4730298079
 20
124.6763392695
 30
0.0
 10
166.429390233
 20
124.3769619501
 30
0.0
 10
166.3284311341
 20
124.0720288204
 30
0.0
 10
166.1638785225
 20
123.7548533094
 30
0.0
 10
165.9300981006
 20
123.4225252032
 30
0.0
 10
165.6267426982
 20
123.0732114582
 30
0.0
 10
165.2600749693
 20
122.7110518095
 30
0.0
 10
164.8460668915
 20
122.3433013319
 30
0.0
 10
164.4092127927
 20
121.9777640644
 30
0.0
 10
164.113090021
 20
121.7357596506
 30
0.0
 10
163.9664355249
 20
121.6155018954
 30
0.0
 11
162.4784806932
 21
140.9110783212
 31
0.0
 11
162.2568293503
 21
140.8571293774
 31
0.0
 11
161.9646577994
 21
140.7621763937
 31
0.0
 11
161.7473202998
 21
140.6588544368
 31
0.0
 11
161.5956488083
 21
140.547245395
 31
0.0
 11
161.5040166639
 21
140.4271041532
 31
0.0
 11
161.4678458698
 21
140.2980137403
 31
0.0
 11
161.4837706937
 21
140.1561324048
 31
0.0
 11
161.5536874626
 21
139.9991110935
 31
0.0
 11
161.6814821408
 21
139.8250881787
 31
0.0
 11
161.8695425851
 21
139.63267224
 31
0.0
 11
162.1135602417
 21
139.4249697143
 31
0.0
 11
162.4090540686
 21
139.2033821009
 31
0.0
 11
162.7525243212
 21
138.9677698758
 31
0.0
 11
163.1367796563
 21
138.7188800327
 31
0.0
 11
163.5511995412
 21
138.4587704848
 31
0.0
 11
163.9831142125
 21
138.1900868866
 31
0.0
 11
164.4174394912
 21
137.9162387821
 31
0.0
 11
164.8377222437
 21
137.6411865647
 31
0.0
 11
165.2307021596
 21
137.3668864822
 31
0.0
 11
165.5856687422
 21
137.0941571444
 31
0.0
 11
165.8901707157
 21
136.8262024779
 31
0.0
 11
166.1295738476
 21
136.5709394748
 31
0.0
 11
166.3011096437
 21
136.3313659204
 31
0.0
 11
166.4089632796
 21
136.1088779386
 31
0.0
 11
166.4600819394
 21
135.9021919413
 31
0.0
 11
166.4604802585
 21
135.7050473721
 31
0.0
 11
166.4109592469
 21
135.5074325126
 31
0.0
 11
166.306284893
 21
135.3022774782
 31
0.0
 11
166.1417304441
 21
135.0906582919
 31
0.0
 11
165.9202234999
 21
134.8781847898
 31
0.0
 11
165.6473249889
 21
134.6650926029
 31
0.0
 11
165.3283252236
 21
134.4496331864
 31
0.0
 11
164.9689696049
 21
134.230298335
 31
0.0
 11
164.5754145928
 21
134.0049846781
 31
0.0
 11
164.1553682829
 21
133.7708177699
 31
0.0
 11
163.7207963478
 21
133.5263389008
 31
0.0
 11
163.2867959316
 21
133.2710726145
 31
0.0
 11
162.870069472
 21
133.0054587947
 31
0.0
 11
162.4888723565
 21
132.7314834744
 31
0.0
 11
162.1593212445
 21
132.4517340119
 31
0.0
 11
161.8947836288
 21
132.1734184549
 31
0.0
 11
161.6980108297
 21
131.9010174177
 31
0.0
 11
161.5649443274
 21
131.6335266039
 31
0.0
 11
161.4891061309
 21
131.3646169904
 31
0.0
 11
161.4675714015
 21
131.092013326
 31
0.0
 11
161.4984966013
 21
130.8190714647
 31
0.0
 11
161.5805131995
 21
130.5424458913
 31
0.0
 11
161.7161160481
 21
130.253220269
 31
0.0
 11
161.9100261213
 21
129.9451542903
 31
0.0
 11
162.1659026602
 21
129.6170610421
 31
0.0
 11
162.4881656037
 21
129.2660286024
 31
0.0
 11
162.8753256794
 21
128.8917180654
 31
0.0
 11
163.3051471668
 21
128.5087630464
 31
0.0
 11
163.7538650253
 21
128.127893456
 31
0.0
 11
164.2069412829
 21
127.7496858734
 31
0.0
 11
164.6519102266
 21
127.3727123818
 31
0.0
 11
165.0744626919
 21
126.9971366382
 31
0.0
 11
165.460037516
 21
126.6247335292
 31
0.0
 11
165.7919748292
 21
126.2612836633
 31
0.0
 11
166.0561141486
 21
125.9147073035
 31
0.0
 11
166.2508626232
 21
125.5866833969
 31
0.0
 11
166.3811237126
 21
125.2743180909
 31
0.0
 11
166.4514654708
 21
124.9708857234
 31
0.0
 11
166.4638266592
 21
124.6765324911
 31
0.0
 11
166.4223253613
 21
124.3858103617
 31
0.0
 11
166.3250202211
 21
124.0867496785
 31
0.0
 11
166.1655888532
 21
123.7740504776
 31
0.0
 11
165.9366342732
 21
123.4428885577
 31
0.0
 11
165.6355266896
 21
123.09178137
 31
0.0
 11
165.2666644442
 21
122.7237769046
 31
0.0
 11
164.8485115197
 21
122.3491155759
 31
0.0
 11
164.4061060306
 21
121.9766321583
 31
0.0
 11
163.9664355249
 21
121.6155018954
 31
0.0
  0
SPLINE
  5
316
100
AcDbEntity
  8
0
100
AcDbSpline
 62
7
  6
CONTINUOUS
 70
0
 71
3
 72
93
 73
89
 74
87
 42
0.0000001
 43
0.0000001
 44
0.0000000001
 12
-24.7966103643
 22
-20.3334011467
 32
0.0
 13
33.0660805747
 23
-9.9678569027
 33
0.0
 40
0.0
 40
0.0
 40
0.0
 40
0.0
 40
0.0187173032
 40
0.0382273137
 40
0.057057005
 40
0.0742333168
 40
0.0891934979
 40
0.1020754249
 40
0.1133672965
 40
0.1235268013
 40
0.1330786682
 40
0.1427272353
 40
0.1529406911
 40
0.1640910749
 40
0.1766858198
 40
0.190908154
 40
0.2066130812
 40
0.2232329646
 40
0.2404214877
 40
0.2580859005
 40
0.2759423784
 40
0.2934195275
 40
0.3098704606
 40
0.324563328
 40
0.3372125716
 40
0.3483242084
 40
0.3580593184
 40
0.3667699494
 40
0.37495454
 40
0.3831702335
 40
0.3917577062
 40
0.4009677601
 40
0.4112878365
 40
0.4230541809
 40
0.4364110761
 40
0.4510966595
 40
0.466753445
 40
0.4833862403
 40
0.5010798844
 40
0.5195483141
 40
0.5382479688
 40
0.5560446753
 40
0.5716553844
 40
0.5848989744
 40
0.5961726376
 40
0.6057471567
 40
0.6137706971
 40
0.6206833599
 40
0.6271302795
 40
0.6338012339
 40
0.6412817589
 40
0.6500169598
 40
0.6603430024
 40
0.6721779066
 40
0.6850486246
 40
0.6987848666
 40
0.7133423738
 40
0.7282713414
 40
0.742825799
 40
0.7564551983
 40
0.7687866438
 40
0.7796354807
 40
0.789025037
 40
0.7970553393
 40
0.8036425728
 40
0.8088875532
 40
0.8132841922
 40
0.8174850664
 40
0.8222145011
 40
0.8281247579
 40
0.835597671
 40
0.8449427379
 40
0.8562813066
 40
0.8693253136
 40
0.8834004787
 40
0.8978552534
 40
0.9123100827
 40
0.926482072
 40
0.9400928788
 40
0.9528641976
 40
0.9645077798
 40
0.9746945908
 40
0.9831303142
 40
0.9895324044
 40
0.9939018308
 40
0.996479484
 40
0.9979562291
 40
1.0
 40
1.0
 40
1.0
 40
1.0
 10
163.9664355249
 20
121.6155018954
 30
0.0
 10
163.8117269669
 20
121.4886397508
 30
0.0
 10
163.4962770776
 20
121.2288994684
 30
0.0
 10
163.0335796215
 20
120.8314253042
 30
0.0
 10
162.5999869144
 20
120.425854837
 30
0.0
 10
162.2274524087
 20
120.0275987116
 30
0.0
 10
161.9305787134
 20
119.6478796581
 30
0.0
 10
161.7111310914
 20
119.2904284617
 30
0.0
 10
161.5645291258
 20
118.9524681231
 30
0.0
 10
161.48196899
 20
118.6299751457
 30
0.0
 10
161.4571730205
 20
118.3154693547
 30
0.0
 10
161.4905727545
 20
118.0010176036
 30
0.0
 10
161.5852822061
 20
117.6816011914
 30
0.0
 10
161.7439895227
 20
117.3536249913
 30
0.0
 10
161.9711922965
 20
117.0159285956
 30
0.0
 10
162.2688676227
 20
116.6713227666
 30
0.0
 10
162.6271623148
 20
116.325409251
 30
0.0
 10
163.0310697899
 20
115.9830106379
 30
0.0
 10
163.4662735436
 20
115.6462086682
 30
0.0
 10
163.9205758259
 20
115.3129298442
 30
0.0
 10
164.3802462582
 20
114.9818353624
 30
0.0
 10
164.8265156683
 20
114.6543143148
 30
0.0
 10
165.2370290002
 20
114.3354139088
 30
0.0
 10
165.5927941109
 20
114.0307472082
 30
0.0
 10
165.8850474349
 20
113.7410399847
 30
0.0
 10
166.1144308827
 20
113.46521396
 30
0.0
 10
166.2858945453
 20
113.1987061974
 30
0.0
 10
166.4023236586
 20
112.9374467196
 30
0.0
 10
166.4643285589
 20
112.6744927724
 30
0.0
 10
166.4713378956
 20
112.4055568319
 30
0.0
 10
166.4210882514
 20
112.1301791113
 30
0.0
 10
166.3117944595
 20
111.8485632336
 30
0.0
 10
166.1423736763
 20
111.5588487856
 30
0.0
 10
165.9123861784
 20
111.2569046252
 30
0.0
 10
165.6236649938
 20
110.9436693307
 30
0.0
 10
165.2832908006
 20
110.6233721137
 30
0.0
 10
164.9011072361
 20
110.2975059908
 30
0.0
 10
164.4838556555
 20
109.9637297555
 30
0.0
 10
164.0369303516
 20
109.6191442923
 30
0.0
 10
163.5708242568
 20
109.2632858533
 30
0.0
 10
163.107249919
 20
108.9022927955
 30
0.0
 10
162.6770946713
 20
108.5482747396
 30
0.0
 10
162.3067502757
 20
108.2139904553
 30
0.0
 10
162.0071822854
 20
107.9064337696
 30
0.0
 10
161.777183502
 20
107.6229092709
 30
0.0
 10
161.6129639471
 20
107.3604469717
 30
0.0
 10
161.509678143
 20
107.1182552849
 30
0.0
 10
161.4618407828
 20
106.8929620931
 30
0.0
 10
161.4677760241
 20
106.6767160899
 30
0.0
 10
161.5305701914
 20
106.4631773404
 30
0.0
 10
161.6561320758
 20
106.2506500945
 30
0.0
 10
161.8502761466
 20
106.0413876149
 30
0.0
 10
162.1132348985
 20
105.8397518232
 30
0.0
 10
162.4357389684
 20
105.6483003916
 30
0.0
 10
162.8056264025
 20
105.4685661714
 30
0.0
 10
163.21223666
 20
105.299959155
 30
0.0
 10
163.6457344833
 20
105.1399510965
 30
0.0
 10
164.091130007
 20
104.9874536823
 30
0.0
 10
164.5285487944
 20
104.8424157649
 30
0.0
 10
164.9391799964
 20
104.7047982548
 30
0.0
 10
165.3101439767
 20
104.5735422703
 30
0.0
 10
165.6343479117
 20
104.4463816341
 30
0.0
 10
165.9093407211
 20
104.3206045167
 30
0.0
 10
166.1333290383
 20
104.1944914347
 30
0.0
 10
166.3036983843
 20
104.0661460277
 30
0.0
 10
166.4174092061
 20
103.9322867906
 30
0.0
 10
166.4715883574
 20
103.7904657838
 30
0.0
 10
166.4622411924
 20
103.6442434941
 30
0.0
 10
166.3934146948
 20
103.4984017814
 30
0.0
 10
166.2683049165
 20
103.3490177292
 30
0.0
 10
166.0839495699
 20
103.1897771759
 30
0.0
 10
165.8357719042
 20
103.0187874042
 30
0.0
 10
165.5239187726
 20
102.8374271244
 30
0.0
 10
165.1582181015
 20
102.6494143516
 30
0.0
 10
164.7560757794
 20
102.460159761
 30
0.0
 10
164.3357696846
 20
102.2744680507
 30
0.0
 10
163.9116947576
 20
102.0949284202
 30
0.0
 10
163.4943928364
 20
101.9225893903
 30
0.0
 10
163.0932215375
 20
101.7583736491
 30
0.0
 10
162.7173859186
 20
101.6035136061
 30
0.0
 10
162.3766682652
 20
101.4598046303
 30
0.0
 10
162.0802447701
 20
101.3295061102
 30
0.0
 10
161.8396241698
 20
101.2140990886
 30
0.0
 10
161.6565390755
 20
101.1173310199
 30
0.0
 10
161.5422130482
 20
101.0366483454
 30
0.0
 10
161.4678481252
 20
100.9764514555
 30
0.0
 10
161.4675637834
 20
100.9005042094
 30
0.0
 10
161.508138869
 20
100.8851727926
 30
0.0
 10
161.530665367
 20
100.8783821206
 30
0.0
 11
163.9664355249
 21
121.6155018954
 31
0.0
 11
163.5041249723
 21
121.2327126223
 31
0.0
 11
163.0310327535
 21
120.823318368
 31
0.0
 11
162.5920049399
 21
120.4087672962
 31
0.0
 11
162.2178172548
 21
120.004584019
 31
0.0
 11
161.9248067798
 21
119.6247289256
 31
0.0
 11
161.7113970552
 21
119.2710345442
 31
0.0
 11
161.5692459951
 21
118.9380025562
 31
0.0
 11
161.4898726515
 21
118.622030439
 31
0.0
 11
161.4666636968
 21
118.31660731
 31
0.0
 11
161.4989230669
 21
118.0088890268
 31
0.0
 11
161.5903291981
 21
117.6943835494
 31
0.0
 11
161.7441015528
 21
117.3715739084
 31
0.0
 11
161.9674644876
 21
117.0350790562
 31
0.0
 11
162.2631993826
 21
116.6878847299
 31
0.0
 11
162.623630068
 21
116.3361473102
 31
0.0
 11
163.0288614735
 21
115.9899821105
 31
0.0
 11
163.4636398997
 21
115.6511904491
 31
0.0
 11
163.9193978591
 21
115.3148088063
 31
0.0
 11
164.3830351147
 21
114.9787672216
 31
0.0
 11
164.8337868543
 21
114.6457151275
 31
0.0
 11
165.2490974549
 21
114.3204238897
 31
0.0
 11
165.6052615289
 21
114.0119744776
 31
0.0
 11
165.8916692854
 21
113.7247374489
 31
0.0
 11
166.1176561674
 21
113.4492471327
 31
0.0
 11
166.2844955582
 21
113.1853894962
 31
0.0
 11
166.3960781743
 21
112.929316996
 31
0.0
 11
166.455311815
 21
112.6736298356
 31
0.0
 11
166.462347263
 21
112.4102677407
 31
0.0
 11
166.4141889201
 21
112.1391333733
 31
0.0
 11
166.3094795812
 21
111.8629754192
 31
0.0
 11
166.1450168605
 21
111.5757958843
 31
0.0
 11
165.9184979327
 21
111.2740398133
 31
0.0
 11
165.6298894802
 21
110.9575526528
 31
0.0
 11
165.2883901808
 21
110.6332810666
 31
0.0
 11
164.9074387073
 21
110.3062445126
 31
0.0
 11
164.4917645901
 21
109.9720299434
 31
0.0
 11
164.0432233917
 21
109.6245510909
 31
0.0
 11
163.5733576336
 21
109.2640400357
 31
0.0
 11
163.1013475912
 21
108.8941939336
 31
0.0
 11
162.6620503756
 21
108.5299000712
 31
0.0
 11
162.2919559488
 21
108.1928161738
 31
0.0
 11
161.9976187537
 21
107.8866703732
 31
0.0
 11
161.7721735111
 21
107.6040590617
 31
0.0
 11
161.6118204581
 21
107.3422301755
 31
0.0
 11
161.5135170827
 21
107.1044555977
 31
0.0
 11
161.4698606064
 21
106.8871257932
 31
0.0
 11
161.4764296936
 21
106.6804941396
 31
0.0
 11
161.5357681043
 21
106.4749683983
 31
0.0
 11
161.6555582456
 21
106.2671385062
 31
0.0
 11
161.8434289278
 21
106.0593665345
 31
0.0
 11
162.1037369788
 21
105.8547047204
 31
0.0
 11
162.4285612007
 21
105.6584378235
 31
0.0
 11
162.7988903575
 21
105.4762211728
 31
0.0
 11
163.205136086
 21
105.3059504461
 31
0.0
 11
163.6426113749
 21
105.143046189
 31
0.0
 11
164.0951646323
 21
104.9869013423
 31
0.0
 11
164.5378539578
 21
104.8390592191
 31
0.0
 11
164.9519248791
 21
104.6991793925
 31
0.0
 11
165.3242735635
 21
104.5660353596
 31
0.0
 11
165.6475577333
 21
104.4375142059
 31
0.0
 11
165.9205503396
 21
104.3104885275
 31
0.0
 11
166.1434726176
 21
104.1815792938
 31
0.0
 11
166.3094512385
 21
104.0509211367
 31
0.0
 11
166.4145289851
 21
103.919591249
 31
0.0
 11
166.4619775451
 21
103.7868264621
 31
0.0
 11
166.4548332104
 21
103.6523048674
 31
0.0
 11
166.3941196936
 21
103.5133269919
 31
0.0
 11
166.2759562739
 21
103.3651454801
 31
0.0
 11
166.0968011066
 21
103.2059936046
 31
0.0
 11
165.8515190124
 21
103.033830649
 31
0.0
 11
165.5383012192
 21
102.8491727388
 31
0.0
 11
165.1669959603
 21
102.6565671676
 31
0.0
 11
164.7590180285
 21
102.4635008997
 31
0.0
 11
164.3352967865
 21
102.2755705306
 31
0.0
 11
163.908645425
 21
102.0943862125
 31
0.0
 11
163.4887589041
 21
101.920523209
 31
0.0
 11
163.0849769568
 21
101.7548113314
 31
0.0
 11
162.706486066
 21
101.5983816026
 31
0.0
 11
162.3626524271
 21
101.4528112114
 31
0.0
 11
162.0640897402
 21
101.3202587919
 31
0.0
 11
161.8204694058
 21
101.2026756767
 31
0.0
 11
161.6408461559
 21
101.1032626237
 31
0.0
 11
161.5261432443
 21
101.0227903068
 31
0.0
 11
161.4725200711
 21
100.9598855255
 31
0.0
 11
161.4747584424
 21
100.9125830589
 31
0.0
 11
161.530665367
 21
100.8783821206
 31
0.0
  0
SPLINE
  5
317
100
AcDbEntity
  8
0
100
AcDbSpline
 62
7
  6
CONTINUOUS
 70
0
 71
3
 72
93
 73
89
 74
87
 42
0.0000001
 43
0.0000001
 44
0.0000000001
 12
24.6569383261
 22
20.4191944438
 32
0.0
 13
-27.3089425526
 23
20.9665202924
 33
0.0
 40
0.0
 40
0.0
 40
0.0
 40
0.0
 40
0.0182998814
 40
0.0372496524
 40
0.0555265777
 40
0.0721785512
 40
0.086627289
 40
0.099059256
 40
0.1099683983
 40
0.1198251678
 40
0.1291253968
 40
0.1385519219
 40
0.1485849634
 40
0.1595786526
 40
0.1720254592
 40
0.18612039
 40
0.2017737149
 40
0.218492365
 40
0.2359699893
 40
0.2543143014
 40
0.2734429801
 40
0.2927235829
 40
0.3113269877
 40
0.3281460096
 40
0.3425446606
 40
0.3551651488
 40
0.3661997764
 40
0.3759593106
 40
0.3849082883
 40
0.3935870625
 40
0.402312446
 40
0.4113527823
 40
0.421254669
 40
0.4324518484
 40
0.4451603041
 40
0.4591259385
 40
0.4739614472
 40
0.4895452531
 40
0.5057326979
 40
0.5219074174
 40
0.5372969908
 40
0.5515165427
 40
0.5643771978
 40
0.5758557183
 40
0.5860393387
 40
0.5950610512
 40
0.6028646276
 40
0.6096178373
 40
0.6158838126
 40
0.6223895543
 40
0.6297797902
 40
0.6385372932
 40
0.6489227074
 40
0.6610724536
 40
0.6745591042
 40
0.6890175147
 40
0.7045419403
 40
0.7210945759
 40
0.7379375331
 40
0.7542230622
 40
0.7693655586
 40
0.7829238052
 40
0.7948201248
 40
0.8051698489
 40
0.8139716563
 40
0.821094669
 40
0.8267412818
 40
0.8313739206
 40
0.8356153152
 40
0.84028155
 40
0.8460762866
 40
0.8535001054
 40
0.8629351439
 40
0.8744711857
 40
0.8875164815
 40
0.9011793898
 40
0.9149033604
 40
0.9283863134
 40
0.9413678045
 40
0.9535763
 40
0.9647680592
 40
0.9746909017
 40
0.9830729592
 40
0.9895367654
 40
0.9939519243
 40
0.9965553593
 40
0.9980292528
 40
1.0
 40
1.0
 40
1.0
 40
1.0
 10
162.8048573604
 20
121.6155018951
 30
0.0
 10
162.9552637098
 20
121.7400581743
 30
0.0
 10
163.2618427288
 20
121.9930793787
 30
0.0
 10
163.7141500692
 20
122.3759287032
 30
0.0
 10
164.1408874876
 20
122.7615286582
 30
0.0
 10
164.5111099896
 20
123.1370840182
 30
0.0
 10
164.8095750658
 20
123.4939413806
 30
0.0
 10
165.0341690426
 20
123.8301106808
 30
0.0
 10
165.1886204408
 20
124.1504455531
 30
0.0
 10
165.2799859705
 20
124.459619424
 30
0.0
 10
165.31359301
 20
124.7644807763
 30
0.0
 10
165.2893844201
 20
125.0723071871
 30
0.0
 10
165.2030878654
 20
125.3874032107
 30
0.0
 10
165.0536345001
 20
125.7132542941
 30
0.0
 10
164.8386022882
 20
126.0523870777
 30
0.0
 10
164.5567301761
 20
126.4044049478
 30
0.0
 10
164.2162380614
 20
126.7653926447
 30
0.0
 10
163.8302450239
 20
127.1317010523
 30
0.0
 10
163.4096890791
 20
127.5026127655
 30
0.0
 10
162.962056652
 20
127.8814310474
 30
0.0
 10
162.4979832188
 20
128.2705727503
 30
0.0
 10
162.0363754264
 20
128.6669564961
 30
0.0
 10
161.6045475943
 20
129.0599593638
 30
0.0
 10
161.2281947638
 20
129.4358843495
 30
0.0
 10
160.9196243368
 20
129.7881009455
 30
0.0
 10
160.6793162627
 20
130.116242923
 30
0.0
 10
160.5002800164
 20
130.425567084
 30
0.0
 10
160.3783212657
 20
130.7198362082
 30
0.0
 10
160.3113422997
 20
131.0058324757
 30
0.0
 10
160.2985899934
 20
131.2885119977
 30
0.0
 10
160.3418359503
 20
131.5692678948
 30
0.0
 10
160.4436212669
 20
131.8483431629
 30
0.0
 10
160.6080286341
 20
132.1265643781
 30
0.0
 10
160.837261976
 20
132.4065699688
 30
0.0
 10
161.1298887604
 20
132.6864587328
 30
0.0
 10
161.478051837
 20
132.9611081335
 30
0.0
 10
161.8692536046
 20
133.2285641132
 30
0.0
 10
162.292386367
 20
133.4901629979
 30
0.0
 10
162.7352604814
 20
133.7464539555
 30
0.0
 10
163.1796740331
 20
133.995782123
 30
0.0
 10
163.6050845829
 20
134.2360732274
 30
0.0
 10
163.995225884
 20
134.4668216839
 30
0.0
 10
164.3412662647
 20
134.6897370633
 30
0.0
 10
164.6392875649
 20
134.9067872432
 30
0.0
 10
164.8874258516
 20
135.121272549
 30
0.0
 10
165.0811394904
 20
135.3360878971
 30
0.0
 10
165.2161938057
 20
135.5502574951
 30
0.0
 10
165.2925268358
 20
135.7610738194
 30
0.0
 10
165.3133136479
 20
135.9706718168
 30
0.0
 10
165.2789082186
 20
136.1852283332
 30
0.0
 10
165.1874246351
 20
136.4108107525
 30
0.0
 10
165.0338260302
 20
136.6501847366
 30
0.0
 10
164.8143120429
 20
136.9029744268
 30
0.0
 10
164.532352343
 20
137.1649866157
 30
0.0
 10
164.1983602743
 20
137.4328166675
 30
0.0
 10
163.8221078666
 20
137.7043763955
 30
0.0
 10
163.4094789911
 20
137.9807973211
 30
0.0
 10
162.9696318115
 20
138.2620181122
 30
0.0
 10
162.5201418134
 20
138.543150704
 30
0.0
 10
162.0837151762
 20
138.8167953232
 30
0.0
 10
161.6800087011
 20
139.0766126969
 30
0.0
 10
161.3212497714
 20
139.3195855172
 30
0.0
 10
161.0133305916
 20
139.5460247023
 30
0.0
 10
160.7576194603
 20
139.7570902825
 30
0.0
 10
160.5563004169
 20
139.9528742449
 30
0.0
 10
160.4118187243
 20
140.1332571419
 30
0.0
 10
160.3253034196
 20
140.2994756083
 30
0.0
 10
160.2956236743
 20
140.4547729718
 30
0.0
 10
160.3267826055
 20
140.6001651486
 30
0.0
 10
160.420856012
 20
140.7301126165
 30
0.0
 10
160.5749991546
 20
140.8455764505
 30
0.0
 10
160.7934781095
 20
140.9512525268
 30
0.0
 10
161.0817332542
 20
141.0465756061
 30
0.0
 10
161.4356114182
 20
141.1288957532
 30
0.0
 10
161.8380833546
 20
141.1974870355
 30
0.0
 10
162.2660556978
 20
141.2528925007
 30
0.0
 10
162.699965772
 20
141.2972384375
 30
0.0
 10
163.1273083793
 20
141.3335219069
 30
0.0
 10
163.5388384809
 20
141.3644386282
 30
0.0
 10
163.9260954611
 20
141.3924123001
 30
0.0
 10
164.2805945819
 20
141.4195124086
 30
0.0
 10
164.5944026614
 20
141.446993651
 30
0.0
 10
164.8563579917
 20
141.4776638274
 30
0.0
 10
165.0611103877
 20
141.5092915296
 30
0.0
 10
165.1969495509
 20
141.5485029574
 30
0.0
 10
165.2871159281
 20
141.5806270777
 30
0.0
 10
165.3141451136
 20
141.6507119325
 30
0.0
 10
165.2825585445
 20
141.6788499687
 30
0.0
 10
165.2646188708
 20
141.6926232054
 30
0.0
 11
162.8048573604
 21
121.6155018951
 31
0.0
 11
163.2557332619
 21
121.9895847082
 31
0.0
 11
163.7174562953
 21
122.3830945679
 31
0.0
 11
164.1497164278
 21
122.7774518008
 31
0.0
 11
164.5219084257
 21
123.1591166599
 31
0.0
 11
164.8163125004
 21
123.5158970295
 31
0.0
 11
165.0346725594
 21
123.8486466811
 31
0.0
 11
165.1842688427
 21
124.1642328621
 31
0.0
 11
165.272228524
 21
124.4672823098
 31
0.0
 11
165.3041261835
 21
124.7633079975
 31
0.0
 11
165.2807988267
 21
125.0641875914
 31
0.0
 11
165.1980015545
 21
125.3745322879
 31
0.0
 11
165.0536053298
 21
125.695501689
 31
0.0
 11
164.8424905416
 21
126.0334549121
 31
0.0
 11
164.5628169978
 21
126.3875709993
 31
0.0
 11
164.2208992101
 21
126.7539341455
 31
0.0
 11
163.8339864793
 21
127.1237637675
 31
0.0
 11
163.415418199
 21
127.495081096
 31
0.0
 11
162.9681686669
 21
127.875690559
 31
0.0
 11
162.4999915008
 21
128.2704443141
 31
0.0
 11
162.0328799037
 21
128.6739387749
 31
0.0
 11
161.5937830121
 21
129.0763079513
 31
0.0
 11
161.2145798723
 21
129.4585781049
 31
0.0
 11
160.9126626248
 21
129.8069042527
 31
0.0
 11
160.6757450013
 21
130.1341870721
 31
0.0
 11
160.500812191
 21
130.441098142
 31
0.0
 11
160.383422436
 21
130.7306505796
 31
0.0
 11
160.3195937329
 21
131.0099440533
 31
0.0
 11
160.307784162
 21
131.2875368511
 31
0.0
 11
160.3500780651
 21
131.5636525073
 31
0.0
 11
160.4481145837
 21
131.8359615274
 31
0.0
 11
160.6071232153
 21
132.1101982707
 31
0.0
 11
160.831977921
 21
132.38937579
 31
0.0
 11
161.1241747636
 21
132.6724811244
 31
0.0
 11
161.4736426517
 21
132.9513524048
 31
0.0
 11
161.8645752009
 21
133.221067339
 31
0.0
 11
162.2881149808
 21
133.484730225
 31
0.0
 11
162.7359432696
 21
133.7455173979
 31
0.0
 11
163.1868565831
 21
134.0001057584
 31
0.0
 11
163.6151130921
 21
134.2436925894
 31
0.0
 11
164.0061265846
 21
134.4768028992
 31
0.0
 11
164.3513475092
 21
134.7011657173
 31
0.0
 11
164.6471470188
 21
134.9192044439
 31
0.0
 11
164.8918827578
 21
135.1345963351
 31
0.0
 11
165.0828892495
 21
135.3512414803
 31
0.0
 11
165.2135840811
 21
135.5641533539
 31
0.0
 11
165.2852009742
 21
135.7681455529
 31
0.0
 11
165.3045396026
 21
135.967811317
 31
0.0
 11
165.2733149032
 21
136.1737334378
 31
0.0
 11
165.1870254335
 21
136.3940288892
 31
0.0
 11
165.038338315
 21
136.6317183877
 31
0.0
 11
164.8227993679
 21
136.8848711105
 31
0.0
 11
164.5399229927
 21
137.1518432687
 31
0.0
 11
164.2043365027
 21
137.4235084706
 31
0.0
 11
163.8298607375
 21
137.6955754929
 31
0.0
 11
163.4176631352
 21
137.9732515214
 31
0.0
 11
162.9717798052
 21
138.2596120749
 31
0.0
 11
162.5151526113
 21
138.5463922607
 31
0.0
 11
162.073947799
 21
138.8241743039
 31
0.0
 11
161.6668855837
 21
139.0874362654
 31
0.0
 11
161.3082747806
 21
139.3319829919
 31
0.0
 11
161.0023456221
 21
139.5588195527
 31
0.0
 11
160.74808066
 21
139.7712676546
 31
0.0
 11
160.5481284759
 21
139.9698139053
 31
0.0
 11
160.4087892439
 21
140.1503288856
 31
0.0
 11
160.3293430735
 21
140.3127072046
 31
0.0
 11
160.3053325371
 21
140.4590608774
 31
0.0
 11
160.3340797091
 21
140.59176774
 31
0.0
 11
160.4182563491
 21
140.7151791774
 31
0.0
 11
160.5635641237
 21
140.8305091928
 31
0.0
 11
160.7757396732
 21
140.9375950666
 31
0.0
 11
161.0614722665
 21
141.035544826
 31
0.0
 11
161.4205630594
 21
141.1218514936
 31
0.0
 11
161.8319738505
 21
141.1936829516
 31
0.0
 11
162.2656270288
 21
141.2508643068
 31
0.0
 11
162.7026395337
 21
141.2962384935
 31
0.0
 11
163.1326943518
 21
141.3332644122
 31
0.0
 11
163.5470840393
 21
141.364852231
 31
0.0
 11
163.9368794927
 21
141.3934766111
 31
0.0
 11
164.294096746
 21
141.4212468472
 31
0.0
 11
164.610457413
 21
141.4500783196
 31
0.0
 11
164.8769027033
 21
141.4819501056
 31
0.0
 11
165.0807564409
 21
141.5175187063
 31
0.0
 11
165.2167082848
 21
141.5562004006
 31
0.0
 11
165.2888882416
 21
141.5978747521
 31
0.0
 11
165.3033233227
 21
141.6427980212
 31
0.0
 11
165.2646188708
 21
141.6926232054
 31
0.0
  0
SPLINE
  5
318
100
AcDbEntity
  8
0
100
AcDbSpline
 62
7
  6
CONTINUOUS
 70
0
 71
3
 72
21
 73
17
 74
15
 42
0.0000001
 43
0.0000001
 44
0.0000000001
 12
-2.7255944332
 22
-0.4765967437
 32
0.0
 13
2.2759923889
 23
1.4926932921
 33
0.0
 40
0.0
 40
0.0
 40
0.0
 40
0.0
 40
0.0990534675
 40
0.1969726878
 40
0.2939806815
 40
0.3902804249
 40
0.4866226506
 40
0.5839881183
 40
0.6810295496
 40
0.769745806
 40
0.8386507738
 40
0.8837347271
 40
0.9093191398
 40
0.9263290566
 40
0.9543971804
 40
1.0
 40
1.0
 40
1.0
 40
1.0
 10
162.8048573607
 20
100.9121390632
 30
0.0
 10
162.7148641675
 20
100.8964028765
 30
0.0
 10
162.5357717222
 20
100.8658849279
 30
0.0
 10
162.2680833519
 20
100.822719371
 30
0.0
 10
162.0025035721
 20
100.7824876087
 30
0.0
 10
161.737954508
 20
100.7453134567
 30
0.0
 10
161.472589344
 20
100.7114842331
 30
0.0
 10
161.2061263719
 20
100.6820379144
 30
0.0
 10
160.9456076522
 20
100.6593637124
 30
0.0
 10
160.7120076945
 20
100.6477727869
 30
0.0
 10
160.5221369533
 20
100.6489362355
 30
0.0
 10
160.3995809301
 20
100.6663180268
 30
0.0
 10
160.3124225405
 20
100.6931019378
 30
0.0
 10
160.3009067919
 20
100.7678549641
 30
0.0
 10
160.3695054472
 20
100.8284299058
 30
0.0
 10
160.4229490365
 20
100.867559023
 30
0.0
 10
160.4575462599
 20
100.8902493639
 30
0.0
 11
162.8048573607
 21
100.9121390632
 31
0.0
 11
162.534673702
 21
100.8661128521
 31
0.0
 11
162.2671862548
 21
100.8230128027
 31
0.0
 11
162.0017892225
 21
100.7828670469
 31
0.0
 11
161.737912038
 21
100.7458817598
 31
0.0
 11
161.4734565635
 21
100.712340173
 31
0.0
 11
161.2056494638
 21
100.6830384721
 31
0.0
 11
160.9380925825
 21
100.6604495784
 31
0.0
 11
160.6928666301
 21
100.6494303911
 31
0.0
 11
160.5022653404
 21
100.6540210614
 31
0.0
 11
160.3791226223
 21
100.673950722
 31
0.0
 11
160.3166707271
 21
100.7072838136
 31
0.0
 11
160.3086105172
 21
100.7536540829
 31
0.0
 11
160.3559087045
 21
100.8152530733
 31
0.0
 11
160.4575462599
 21
100.8902493639
 31
0.0
  0
SPLINE
  5
319
100
AcDbEntity
  8
0
100
AcDbSpline
 62
7
  6
CONTINUOUS
 70
0
 71
3
 72
22
 73
18
 74
16
 42
0.0000001
 43
0.0000001
 44
0.0000000001
 12
2.8147614475
 22
-0.4921884649
 32
0.0
 13
-2.7368025286
 23
-0.6600414725
 33
0.0
 40
0.0
 40
0.0
 40
0.0
 40
0.0
 40
0.0999250836
 40
0.1990298336
 40
0.2978024849
 40
0.3965987751
 40
0.4958104412
 40
0.595634698
 40
0.6935560521
 40
0.7802757064
 40
0.8453254285
 40
0.8870946454
 40
0.910852587
 40
0.9267049937
 40
0.9530537988
 40
0.9987502544
 40
1.0
 40
1.0
 40
1.0
 40
1.0
 10
163.9664355249
 20
142.1157514676
 30
0.0
 10
164.0601906158
 20
142.0993574764
 30
0.0
 10
164.2467865901
 20
142.0658704829
 30
0.0
 10
164.5255211563
 20
142.0132551055
 30
0.0
 10
164.8026909796
 20
141.9581973773
 30
0.0
 10
165.0793490051
 20
141.9001624977
 30
0.0
 10
165.356253684
 20
141.8383545865
 30
0.0
 10
165.6311518141
 20
141.7721161822
 30
0.0
 10
165.8933886475
 20
141.7024216835
 30
0.0
 10
166.1198302038
 20
141.6330067543
 30
0.0
 10
166.2953920528
 20
141.5682180394
 30
0.0
 10
166.4010904896
 20
141.5117932699
 30
0.0
 10
166.4708509897
 20
141.4599115574
 30
0.0
 10
166.4585499363
 20
141.388103746
 30
0.0
 10
166.3732527495
 20
141.3535993737
 30
0.0
 10
166.3085260345
 20
141.33401756
 30
0.0
 10
166.2657333488
 20
141.3236320927
 30
0.0
 10
166.2645932465
 20
141.3233571313
 30
0.0
 11
163.9664355249
 21
142.1157514676
 31
0.0
 11
164.2474775931
 21
142.0653096587
 31
0.0
 11
164.5257469617
 21
142.0127544421
 31
0.0
 11
164.8025671183
 21
141.9577097066
 31
0.0
 11
165.0788403656
 21
141.8996532809
 31
0.0
 11
165.3554854489
 21
141.8377136544
 31
0.0
 11
165.6327189877
 21
141.770585876
 31
0.0
 11
165.9029375869
 21
141.6979634285
 31
0.0
 11
166.1394936726
 21
141.624170177
 31
0.0
 11
166.3126421979
 21
141.556567904
 31
0.0
 11
166.4169415022
 21
141.4985412334
 31
0.0
 11
166.4627550115
 21
141.4484428555
 31
0.0
 11
166.4558393957
 21
141.4036761046
 31
0.0
 11
166.3928694097
 21
141.3624026117
 31
0.0
 11
166.2680107545
 21
141.3241865602
 31
0.0
 11
166.2645932465
 21
141.3233571313
 31
0.0
  0
SPLINE
  5
31A
100
AcDbEntity
  8
BEZUGSACHSEN
100
AcDbSpline
 62
7
  6
CONTINUOUS
 70
0
 71
3
 72
18
 73
14
 74
12
 42
0.0000001
 43
0.0000001
 44
0.0000000001
 12
2.6737590161
 22
0.7427664394
 32
0.0
 13
2.6737590161
 23
-0.7427664394
 33
0.0
 40
0.0
 40
0.0
 40
0.0
 40
0.0
 40
0.0788628999
 40
0.1647195541
 40
0.2563676281
 40
0.3521236596
 40
0.4503969613
 40
0.5496032532
 40
0.6478758258
 40
0.7436299262
 40
0.8352788674
 40
0.9211360457
 40
1.0
 40
1.0
 40
1.0
 40
1.0
 10
119.1735168489
 20
148.5058342277
 30
0.0
 10
119.2438036454
 20
148.5253597995
 30
0.0
 10
119.3922545195
 20
148.5603072544
 30
0.0
 10
119.6260334028
 20
148.6007102269
 30
0.0
 10
119.8770462165
 20
148.6312351973
 30
0.0
 10
120.1405811207
 20
148.651678373
 30
0.0
 10
120.4116987493
 20
148.6619270153
 30
0.0
 10
120.6853348684
 20
148.6619270042
 30
0.0
 10
120.9564500374
 20
148.65167847
 30
0.0
 10
121.2199832958
 20
148.6312355833
 30
0.0
 10
121.470995647
 20
148.6007109336
 30
0.0
 10
121.7047767946
 20
148.5603077748
 30
0.0
 10
121.8532291126
 20
148.5253600605
 30
0.0
 10
121.9235168489
 20
148.5058342277
 30
0.0
 11
119.1735168489
 21
148.5058342277
 31
0.0
 11
119.3863538201
 21
148.5567631902
 31
0.0
 11
119.6210302647
 21
148.5978917466
 31
0.0
 11
119.8734478595
 21
148.6289769849
 31
0.0
 11
120.1383573206
 21
148.6497681551
 31
0.0
 11
120.4108678417
 21
148.6601851832
 31
0.0
 11
120.6861664504
 21
148.660185172
 31
0.0
 11
120.9586749505
 21
148.6497682377
 31
0.0
 11
121.2235790826
 21
148.6289776607
 31
0.0
 11
121.475999098
 21
148.5978923881
 31
0.0
 11
121.7106770101
 21
148.5567637789
 31
0.0
 11
121.9235168489
 21
148.5058342277
 31
0.0
  0
SPLINE
  5
31B
100
AcDbEntity
  8
0
100
AcDbSpline
 62
7
  6
CONTINUOUS
 70
0
 71
3
 72
18
 73
14
 74
12
 42
0.0000001
 43
0.0000001
 44
0.0000000001
 12
0.0
 22
-1.7642178701
 32
0.0
 13
-1.7642178701
 23
-0.0
 33
0.0
 40
0.0
 40
0.0
 40
0.0
 40
0.0
 40
0.0948691176
 40
0.1905791476
 40
0.2857584804
 40
0.3791181802
 40
0.470813814
 40
0.5609692284
 40
0.649130721
 40
0.7355549077
 40
0.8230391447
 40
0.9115892404
 40
1.0
 40
1.0
 40
1.0
 40
1.0
 10
128.4735168489
 20
97.021790809
 30
0.0
 10
128.4735168489
 20
96.9660008781
 30
0.0
 10
128.4675253948
 20
96.8538322049
 30
0.0
 10
128.4402901921
 20
96.687671315
 30
0.0
 10
128.3946892688
 20
96.526460129
 30
0.0
 10
128.3313318019
 20
96.3738960874
 30
0.0
 10
128.2510466793
 20
96.2328635509
 30
0.0
 10
128.1547279665
 20
96.1060053477
 30
0.0
 10
128.0436708403
 20
95.9961051108
 30
0.0
 10
127.9185336682
 20
95.9050815349
 30
0.0
 10
127.779865343
 20
95.8355685012
 30
0.0
 10
127.6298447481
 20
95.7914787568
 30
0.0
 10
127.5255087962
 20
95.7814037884
 30
0.0
 10
127.4735168489
 20
95.7814037884
 30
0.0
 11
128.4735168489
 21
97.021790809
 31
0.0
 11
128.4645355389
 21
96.8546621653
 31
0.0
 11
128.437114751
 21
96.6880501831
 31
0.0
 11
128.3912423976
 21
96.5265203938
 31
0.0
 11
128.327864188
 21
96.3744955627
 31
0.0
 11
128.2475921498
 21
96.2340452839
 31
0.0
 11
128.1511553492
 21
96.1075618754
 31
0.0
 11
128.0403598368
 21
95.9984022363
 31
0.0
 11
127.9168559646
 21
95.908991788
 31
0.0
 11
127.7787346257
 21
95.8401171301
 31
0.0
 11
127.6287777833
 21
95.7963204083
 31
0.0
 11
127.4735168489
 21
95.7814037884
 31
0.0
  0
SPLINE
  5
31C
100
AcDbEntity
  8
0
100
AcDbSpline
 62
7
  6
CONTINUOUS
 70
0
 71
3
 72
78
 73
74
 74
72
 42
0.0000001
 43
0.0000001
 44
0.0000000001
 12
23.441905327
 22
14.1350571481
 32
0.0
 13
21.0792208761
 23
17.4563728922
 33
0.0
 40
0.0
 40
0.0
 40
0.0
 40
0.0
 40
0.006317013
 40
0.0170572366
 40
0.0256245938
 40
0.0324333673
 40
0.0379287907
 40
0.0428921176
 40
0.0481653759
 40
0.0544977915
 40
0.0624463429
 40
0.0721168217
 40
0.0834210528
 40
0.0963175755
 40
0.1106159525
 40
0.1260663434
 40
0.1423594637
 40
0.1591314635
 40
0.1759380014
 40
0.1923257486
 40
0.20782051
 40
0.2219667826
 40
0.234232076
 40
0.2445646538
 40
0.2533923136
 40
0.2612666754
 40
0.2688952139
 40
0.2770938079
 40
0.2866104144
 40
0.2979577296
 40
0.3113157191
 40
0.3270173794
 40
0.3455153819
 40
0.366527975
 40
0.3884627584
 40
0.4100487133
 40
0.4308904039
 40
0.4507578431
 40
0.4695586473
 40
0.487105126
 40
0.5029015817
 40
0.5166600809
 40
0.528654544
 40
0.5394126623
 40
0.5495123065
 40
0.5592210133
 40
0.5689466125
 40
0.5793543001
 40
0.5910198585
 40
0.6043412536
 40
0.6195041514
 40
0.6367669736
 40
0.6556160184
 40
0.6753747133
 40
0.6956921451
 40
0.7164071325
 40
0.7371006459
 40
0.7571553903
 40
0.7759230027
 40
0.7927163754
 40
0.8074527044
 40
0.8204916
 40
0.8325052098
 40
0.8439034218
 40
0.8552255485
 40
0.8673150741
 40
0.8808162245
 40
0.8963003278
 40
0.914143178
 40
0.9342981023
 40
0.9560465814
 40
0.9783644692
 40
1.0
 40
1.0
 40
1.0
 40
1.0
 10
164.5726470005
 20
102.773670702
 30
0.0
 10
164.6220079404
 20
102.8034344817
 30
0.0
 10
164.7539320165
 20
102.8860493493
 30
0.0
 10
164.9449237744
 20
103.0214568866
 30
0.0
 10
165.1228692622
 20
103.1809495006
 30
0.0
 10
165.242115476
 20
103.3311489168
 30
0.0
 10
165.3048094155
 20
103.4787617147
 30
0.0
 10
165.3070848926
 20
103.6263769169
 30
0.0
 10
165.2460710674
 20
103.7686771096
 30
0.0
 10
165.1260325416
 20
103.9033077506
 30
0.0
 10
164.9491295546
 20
104.0331403385
 30
0.0
 10
164.7180504835
 20
104.1613737014
 30
0.0
 10
164.4364706195
 20
104.2891634299
 30
0.0
 10
164.10934123
 20
104.4172770498
 30
0.0
 10
163.7428101514
 20
104.5478114205
 30
0.0
 10
163.34504019
 20
104.682772679
 30
0.0
 10
162.9255581113
 20
104.823960187
 30
0.0
 10
162.4957185761
 20
104.9731523563
 30
0.0
 10
162.0685167405
 20
105.13236591
 30
0.0
 10
161.6584393669
 20
105.3035128251
 30
0.0
 10
161.2809409105
 20
105.4882380973
 30
0.0
 10
160.9524787122
 20
105.6850921541
 30
0.0
 10
160.686771622
 20
105.8913684282
 30
0.0
 10
160.4922216883
 20
106.1043765042
 30
0.0
 10
160.36744563
 20
106.3196884134
 30
0.0
 10
160.3056644463
 20
106.5353576975
 30
0.0
 10
160.3006076719
 20
106.7537155475
 30
0.0
 10
160.3493382356
 20
106.9815039306
 30
0.0
 10
160.4537817937
 20
107.2266075074
 30
0.0
 10
160.6195265149
 20
107.4923515247
 30
0.0
 10
160.851603319
 20
107.7796255051
 30
0.0
 10
161.1538426493
 20
108.0914673672
 30
0.0
 10
161.5270006556
 20
108.4301559784
 30
0.0
 10
161.9588243103
 20
108.7877806598
 30
0.0
 10
162.4220396633
 20
109.1511945851
 30
0.0
 10
162.8872869451
 20
109.5094096708
 30
0.0
 10
163.3358233631
 20
109.8584242756
 30
0.0
 10
163.7580941087
 20
110.1997376367
 30
0.0
 10
164.146281893
 20
110.5350967441
 30
0.0
 10
164.4899123268
 20
110.8645033854
 30
0.0
 10
164.777486837
 20
111.1845047194
 30
0.0
 10
165.0026453544
 20
111.4903735299
 30
0.0
 10
165.1655332571
 20
111.7822171649
 30
0.0
 10
165.267983358
 20
112.0655306078
 30
0.0
 10
165.3117777561
 20
112.3428169763
 30
0.0
 10
165.2985539573
 20
112.6138425237
 30
0.0
 10
165.2303999236
 20
112.8791809983
 30
0.0
 10
165.1078254391
 20
113.1435668509
 30
0.0
 10
164.9298022711
 20
113.4140700534
 30
0.0
 10
164.6932186492
 20
113.6945901803
 30
0.0
 10
164.3952145619
 20
113.9874253111
 30
0.0
 10
164.0394862413
 20
114.2915710601
 30
0.0
 10
163.6376445671
 20
114.605286313
 30
0.0
 10
163.2056753711
 20
114.9253018304
 30
0.0
 10
162.757355043
 20
115.2517692227
 30
0.0
 10
162.3049327348
 20
115.5870996994
 30
0.0
 10
161.8631261445
 20
115.9325715267
 30
0.0
 10
161.4510082582
 20
116.2865042611
 30
0.0
 10
161.0887121654
 20
116.6424703042
 30
0.0
 10
160.7922915351
 20
116.9939197832
 30
0.0
 10
160.5693290815
 20
117.3353627552
 30
0.0
 10
160.415324427
 20
117.6655760328
 30
0.0
 10
160.3248560148
 20
117.9873064319
 30
0.0
 10
160.2954770765
 20
118.3046214533
 30
0.0
 10
160.3240824973
 20
118.6225253435
 30
0.0
 10
160.4108163544
 20
118.9494528942
 30
0.0
 10
160.5628888428
 20
119.2934548282
 30
0.0
 10
160.788919847
 20
119.6572997436
 30
0.0
 10
161.0911117489
 20
120.0413365767
 30
0.0
 10
161.4640724571
 20
120.4395260978
 30
0.0
 10
161.8913543579
 20
120.8407760116
 30
0.0
 10
162.344501013
 20
121.2332420509
 30
0.0
 10
162.6528373165
 20
121.4896092642
 30
0.0
 10
162.8048573604
 20
121.6155018951
 30
0.0
 11
164.5726470005
 21
102.773670702
 31
0.0
 11
164.7190652314
 21
102.8656574512
 31
0.0
 11
164.9572961396
 21
103.0378542372
 31
0.0
 11
165.1295994273
 21
103.1968893895
 31
0.0
 11
165.2417723516
 21
103.3456950874
 31
0.0
 11
165.2966751865
 21
103.4857200999
 31
0.0
 11
165.2978301711
 21
103.621556152
 31
0.0
 11
165.2440859067
 21
103.7554994749
 31
0.0
 11
165.1324517311
 21
103.8880689786
 31
0.0
 11
164.9596835229
 21
104.0202668035
 31
0.0
 11
164.7296591916
 21
104.1511842596
 31
0.0
 11
164.4487371507
 21
104.2808057389
 31
0.0
 11
164.1206546202
 21
104.4109805757
 31
0.0
 11
163.7524062472
 21
104.5433941045
 31
0.0
 11
163.352267817
 21
104.6801435919
 31
0.0
 11
162.9299189412
 21
104.8232198615
 31
0.0
 11
162.496595236
 21
104.9746817644
 31
0.0
 11
162.066020481
 21
105.1364971965
 31
0.0
 11
161.6527800184
 21
105.3108479043
 31
0.0
 11
161.2728245269
 21
105.499192019
 31
0.0
 11
160.9423327118
 21
105.700871278
 31
0.0
 11
160.6797220729
 21
105.9099695382
 31
0.0
 11
160.4916832605
 21
106.1211862804
 31
0.0
 11
160.3727327047
 21
106.3314791262
 31
0.0
 11
160.3143428955
 21
106.5389313682
 31
0.0
 11
160.3085836345
 21
106.7476368804
 31
0.0
 11
160.3531441565
 21
106.9675545537
 31
0.0
 11
160.4526263951
 21
107.2082667602
 31
0.0
 11
160.6144803678
 21
107.4733200286
 31
0.0
 11
160.8418987331
 21
107.7595713228
 31
0.0
 11
161.1389792702
 21
108.0700832237
 31
0.0
 11
161.5123365143
 21
108.4120105317
 31
0.0
 11
161.9538871191
 21
108.7804724265
 31
0.0
 11
162.4251032547
 21
109.1524313091
 31
0.0
 11
162.8923553941
 21
109.5139583935
 31
0.0
 11
163.341724325
 21
109.8652996143
 31
0.0
 11
163.7637196404
 21
110.2082058503
 31
0.0
 11
164.1518765064
 21
110.5459988884
 31
0.0
 11
164.4969701434
 21
110.87995952
 31
0.0
 11
164.7841344636
 21
111.2031432644
 31
0.0
 11
165.0051650303
 21
111.5080030567
 31
0.0
 11
165.1625582275
 21
111.7960868816
 31
0.0
 11
165.2606827818
 21
112.0736935077
 31
0.0
 11
165.3026542243
 21
112.3469049148
 31
0.0
 11
165.2896562835
 21
112.6123037646
 31
0.0
 11
165.2245777407
 21
112.8704048886
 31
0.0
 11
165.1069081537
 21
113.1298116271
 31
0.0
 11
164.9334312686
 21
113.397844439
 31
0.0
 11
164.7001968269
 21
113.6780752231
 31
0.0
 11
164.4058908064
 21
113.970654456
 31
0.0
 11
164.0483892649
 21
114.279549019
 31
0.0
 11
163.6429131094
 21
114.5984838959
 31
0.0
 11
163.2093431417
 21
114.9216773937
 31
0.0
 11
162.7607419868
 21
115.2502605384
 31
0.0
 11
162.3062405544
 21
115.5891668246
 31
0.0
 11
161.8613051501
 21
115.9395886264
 31
0.0
 11
161.4463454207
 21
116.2988578032
 31
0.0
 11
161.0820013448
 21
116.6609202801
 31
0.0
 11
160.7881353793
 21
117.0143184983
 31
0.0
 11
160.5696888816
 21
117.3533556912
 31
0.0
 11
160.4207794873
 21
117.6776634538
 31
0.0
 11
160.3334147603
 21
117.9946439548
 31
0.0
 11
160.3049483178
 21
118.305299343
 31
0.0
 11
160.3318180834
 21
118.6140067131
 31
0.0
 11
160.4152248109
 21
118.9341991304
 31
0.0
 11
160.5626189389
 21
119.273041502
 31
0.0
 11
160.7834591993
 21
119.6347346595
 31
0.0
 11
161.0830082402
 21
120.0204108297
 31
0.0
 11
161.4581078326
 21
120.4248654914
 31
0.0
 11
161.8901821129
 21
120.8342720733
 31
0.0
 11
162.3505451112
 21
121.2357232561
 31
0.0
 11
162.8048573604
 21
121.6155018951
 31
0.0
  0
SPLINE
  5
31D
100
AcDbEntity
  8
BEZUGSACHSEN
100
AcDbSpline
 62
7
  6
CONTINUOUS
 70
0
 71
3
 72
11
 73
7
 74
5
 42
0.0000001
 43
0.0000001
 44
0.0000000001
 12
0.0
 22
0.1830126193
 32
0.0
 13
0.1451726273
 23
-0.1114384454
 33
0.0
 40
0.0
 40
0.0
 40
0.0
 40
0.0
 40
0.2465776366
 40
0.4184562595
 40
0.6350985973
 40
1.0
 40
1.0
 40
1.0
 40
1.0
 10
118.5485168489
 20
148.9738083439
 30
0.0
 10
118.5485168489
 20
148.988850617
 30
0.0
 10
118.5484893345
 20
149.0152638792
 30
0.0
 10
118.5779073768
 20
149.0485984113
 30
0.0
 10
118.6280701429
 20
149.0338436835
 30
0.0
 10
118.6558589504
 20
149.0140729503
 30
0.0
 10
118.6735168489
 20
149.0005182686
 30
0.0
 11
118.5485168489
 21
148.9738083439
 31
0.0
 11
118.5552242066
 21
149.0184339101
 31
0.0
 11
118.5773743844
 21
149.0407687898
 31
0.0
 11
118.6166821832
 21
149.035583889
 31
0.0
 11
118.6735168489
 21
149.0005182686
 31
0.0
  0
SPLINE
  5
31E
100
AcDbEntity
  8
0
100
AcDbSpline
 62
7
  6
CONTINUOUS
 70
0
 71
3
 72
15
 73
11
 74
9
 42
0.0000001
 43
0.0000001
 44
0.0000000001
 12
-0.9130901403
 22
0.0
 32
0.0
 13
-0.0
 23
-0.9130901403
 33
0.0
 40
0.0
 40
0.0
 40
0.0
 40
0.0
 40
0.095594498
 40
0.1995281968
 40
0.3092175201
 40
0.4273815356
 40
0.5557358605
 40
0.6930947067
 40
0.8403493616
 40
1.0
 40
1.0
 40
1.0
 40
1.0
 10
119.1735168489
 20
100.4314129369
 30
0.0
 10
119.1444213843
 20
100.4314129369
 30
0.0
 10
119.0834748121
 20
100.4242724922
 30
0.0
 10
118.9943543785
 20
100.391506441
 30
0.0
 10
118.9091494976
 20
100.3358276899
 30
0.0
 10
118.8320885129
 20
100.258557972
 30
0.0
 10
118.7663775659
 20
100.1611597335
 30
0.0
 10
118.7151590687
 20
100.0457046723
 30
0.0
 10
118.6814433449
 20
99.9141609909
 30
0.0
 10
118.6735168489
 20
99.8205448845
 30
0.0
 10
118.6735168489
 20
99.7719530766
 30
0.0
 11
119.1735168489
 21
100.4314129369
 31
0.0
 11
119.0868116653
 21
100.421356812
 31
0.0
 11
118.9976013624
 21
100.3889887651
 31
0.0
 11
118.9134627896
 21
100.3346567038
 31
0.0
 11
118.8368509206
 21
100.258684192
 31
0.0
 11
118.7708424421
 21
100.1618415236
 31
0.0
 11
118.7195772898
 21
100.0473761862
 31
0.0
 11
118.685921287
 21
99.9171997774
 31
0.0
 11
118.6735168489
 21
99.7719530766
 31
0.0
  0
SPLINE
  5
31F
100
AcDbEntity
  8
0
100
AcDbSpline
 62
7
  6
CONTINUOUS
 70
0
 71
3
 72
15
 73
11
 74
9
 42
0.0000001
 43
0.0000001
 44
0.0000000001
 12
0.0
 22
0.9130899958
 32
0.0
 13
-0.9130899958
 23
0.0
 33
0.0
 40
0.0
 40
0.0
 40
0.0
 40
0.0
 40
0.1598406322
 40
0.3070906132
 40
0.4443104261
 40
0.5725485626
 40
0.6906434484
 40
0.8001389346
 40
0.9041997491
 40
1.0
 40
1.0
 40
1.0
 40
1.0
 10
122.4235168489
 20
99.7719530766
 30
0.0
 10
122.4235168489
 20
99.8206027039
 30
0.0
 10
122.415576125
 20
99.9142759573
 30
0.0
 10
122.3818292215
 20
100.0458262485
 30
0.0
 10
122.3306262323
 20
100.1611999962
 30
0.0
 10
122.2649726295
 20
100.258515537
 30
0.0
 10
122.1880071873
 20
100.3357155407
 30
0.0
 10
122.1028658006
 20
100.3914079473
 30
0.0
 10
122.0137241092
 20
100.424244708
 30
0.0
 10
121.9526749324
 20
100.4314129369
 30
0.0
 10
121.9235168489
 20
100.4314129369
 30
0.0
 11
122.4235168489
 21
99.7719530766
 31
0.0
 11
122.4110827585
 21
99.917371334
 31
0.0
 11
122.3774002167
 21
100.0475364483
 31
0.0
 11
122.326170599
 21
100.1618785768
 31
0.0
 11
122.2602237392
 21
100.2586348316
 31
0.0
 11
122.1836702397
 21
100.3345765334
 31
0.0
 11
122.0997059752
 21
100.3888522124
 31
0.0
 11
122.0104061497
 21
100.4213137328
 31
0.0
 11
121.9235168489
 21
100.4314129369
 31
0.0
  0
SPLINE
  5
320
100
AcDbEntity
  8
BEZUGSACHSEN
100
AcDbSpline
 62
7
  6
CONTINUOUS
 70
0
 71
3
 72
12
 73
8
 74
6
 42
0.0000001
 43
0.0000001
 44
0.0000000001
 12
0.1458774432
 22
0.1119794812
 32
0.0
 13
-0.0
 23
-0.1839011491
 33
0.0
 40
0.0
 40
0.0
 40
0.0
 40
0.0
 40
0.3119503866
 40
0.5109744676
 40
0.6456308384
 40
0.7914381086
 40
1.0
 40
1.0
 40
1.0
 40
1.0
 10
122.4235168489
 20
149.0005182686
 30
0.0
 10
122.4386856905
 20
149.0121622828
 30
0.0
 10
122.4645408969
 20
149.0296187068
 30
0.0
 10
122.5021102098
 20
149.0454962932
 30
0.0
 10
122.5335964616
 20
149.0376559071
 30
0.0
 10
122.5472912291
 20
149.0081444358
 30
0.0
 10
122.5485168489
 20
148.9865932678
 30
0.0
 10
122.5485168489
 20
148.9738083439
 30
0.0
 11
122.4235168489
 21
149.0005182686
 31
0.0
 11
122.4717004846
 21
149.0316539177
 31
0.0
 11
122.5067432765
 21
149.0422188672
 31
0.0
 11
122.5304293089
 21
149.0349938489
 31
0.0
 11
122.5440612658
 21
149.0119034391
 31
0.0
 11
122.5485168489
 21
148.9738083439
 31
0.0
  0
SPLINE
  5
321
100
AcDbEntity
  8
0
100
AcDbSpline
 62
7
  6
CONTINUOUS
 70
0
 71
3
 72
18
 73
14
 74
12
 42
0.0000001
 43
0.0000001
 44
0.0000000001
 12
-1.7642179932
 22
0.0
 32
0.0
 13
0.0
 23
1.7642179932
 33
0.0
 40
0.0
 40
0.0
 40
0.0
 40
0.0
 40
0.0884356734
 40
0.1769592452
 40
0.264385139
 40
0.3507913626
 40
0.4389518107
 40
0.5291184745
 40
0.6208295728
 40
0.7142209758
 40
0.8094445939
 40
0.905156071
 40
1.0
 40
1.0
 40
1.0
 40
1.0
 10
113.6235168489
 20
95.7814037884
 30
0.0
 10
113.5715102468
 20
95.7814037884
 30
0.0
 10
113.4671750202
 20
95.7914815884
 30
0.0
 10
113.3171900875
 20
95.8355647984
 30
0.0
 10
113.1785726616
 20
95.9050414186
 30
0.0
 10
113.0534610463
 20
95.9960223105
 30
0.0
 10
112.9423928083
 20
96.1059049262
 30
0.0
 10
112.8460507448
 20
96.2327646862
 30
0.0
 10
112.7657367576
 20
96.3738206561
 30
0.0
 10
112.7023514173
 20
96.526431828
 30
0.0
 10
112.6567383938
 20
96.6876874239
 30
0.0
 10
112.6295059658
 20
96.8538610403
 30
0.0
 10
112.6235168489
 20
96.966015687
 30
0.0
 10
112.6235168489
 20
97.021790809
 30
0.0
 11
113.6235168489
 21
95.7814037884
 31
0.0
 11
113.4682125534
 21
95.7963287932
 31
0.0
 11
113.3183016973
 21
95.8401160944
 31
0.0
 11
113.180268349
 21
95.9089365765
 31
0.0
 11
113.0567789796
 21
95.9983130314
 31
0.0
 11
112.9459705445
 21
96.1074569423
 31
0.0
 11
112.8495075869
 21
96.2339453772
 31
0.0
 11
112.7692102117
 21
96.3744126119
 31
0.0
 11
112.705803258
 21
96.5264860689
 31
0.0
 11
112.6599098301
 21
96.688091104
 31
0.0
 11
112.632493378
 21
96.8547063991
 31
0.0
 11
112.6235168489
 21
97.021790809
 31
0.0
  0
SPLINE
  5
322
100
AcDbEntity
  8
BEZUGSACHSEN
100
AcDbSpline
 62
7
  6
CONTINUOUS
 70
0
 71
3
 72
11
 73
7
 74
5
 42
0.0000001
 43
0.0000001
 44
0.0000000001
 12
0.0
 22
-0.1395867963
 32
0.0
 13
0.0661959442
 23
-0.1231095805
 33
0.0
 40
0.0
 40
0.0
 40
0.0
 40
0.0
 40
0.2989089425
 40
0.5912641764
 40
0.8672480948
 40
1.0
 40
1.0
 40
1.0
 40
1.0
 10
118.6735168489
 20
148.7442874796
 30
0.0
 10
118.6735168489
 20
148.7303795657
 30
0.0
 10
118.6748067694
 20
148.7028398464
 30
0.0
 10
118.6815342176
 20
148.6629298847
 30
0.0
 10
118.6917429604
 20
148.6317947527
 30
0.0
 10
118.7000111188
 20
148.6146165455
 30
0.0
 10
118.7029403313
 20
148.6091688684
 30
0.0
 11
118.6735168489
 21
148.7442874796
 31
0.0
 11
118.6756636027
 21
148.7026190015
 31
0.0
 11
118.682684454
 21
148.6624185481
 31
0.0
 11
118.6948847006
 21
148.625877745
 31
0.0
 11
118.7029403313
 21
148.6091688684
 31
0.0
  0
SPLINE
  5
323
100
AcDbEntity
  8
BEZUGSACHSEN
100
AcDbSpline
 62
7
  6
CONTINUOUS
 70
0
 71
3
 72
16
 73
12
 74
10
 42
0.0000001
 43
0.0000001
 44
0.0000000001
 12
0.244791693
 22
-0.4552575388
 32
0.0
 13
0.497355697
 23
0.1381647029
 33
0.0
 40
0.0
 40
0.0
 40
0.0
 40
0.0
 40
0.0354819688
 40
0.1069116572
 40
0.1821577292
 40
0.2654043123
 40
0.3615453499
 40
0.4759438992
 40
0.6177190239
 40
0.7944984177
 40
1.0
 40
1.0
 40
1.0
 40
1.0
 10
118.7029403313
 20
148.6091688684
 30
0.0
 10
118.7058355617
 20
148.6037843905
 30
0.0
 10
118.7152769876
 20
148.5879475812
 30
0.0
 10
118.7350402184
 20
148.5633842392
 30
0.0
 10
118.7652930015
 20
148.5375558185
 30
0.0
 10
118.8032599998
 20
148.5152799822
 30
0.0
 10
118.8505932069
 20
148.4969753082
 30
0.0
 10
118.909942144
 20
148.4836586218
 30
0.0
 10
118.9844427066
 20
148.4776967989
 30
0.0
 10
119.0747385965
 20
148.483131415
 30
0.0
 10
119.1394477213
 20
148.4963698727
 30
0.0
 10
119.1735168489
 20
148.5058342277
 30
0.0
 11
118.7029403313
 21
148.6091688684
 31
0.0
 11
118.7123401151
 21
148.5934289336
 31
0.0
 11
118.7354291186
 21
148.5646819284
 31
0.0
 11
118.7648664088
 21
148.5393424232
 31
0.0
 11
118.8018013473
 21
148.5173805887
 31
0.0
 11
118.8479738908
 21
148.4991888298
 31
0.0
 11
118.9055154285
 21
148.4859208787
 31
0.0
 11
118.9784336303
 21
148.4797020279
 31
0.0
 11
119.0695419399
 21
148.48481677
 31
0.0
 11
119.1735168489
 21
148.5058342277
 31
0.0
  0
SPLINE
  5
324
100
AcDbEntity
  8
BEZUGSACHSEN
100
AcDbSpline
 62
7
  6
CONTINUOUS
 70
0
 71
3
 72
16
 73
12
 74
10
 42
0.0000001
 43
0.0000001
 44
0.0000000001
 12
0.4973714463
 22
-0.1381690781
 32
0.0
 13
0.2447633051
 23
0.4552915049
 33
0.0
 40
0.0
 40
0.0
 40
0.0
 40
0.0
 40
0.2054084362
 40
0.3821123936
 40
0.5239763358
 40
0.6383788277
 40
0.7345406286
 40
0.8178119434
 40
0.8930732946
 40
0.9645140243
 40
1.0
 40
1.0
 40
1.0
 40
1.0
 10
121.9235168489
 20
148.5058342277
 30
0.0
 10
121.9575716125
 20
148.4963738629
 30
0.0
 10
122.0222536655
 20
148.4831390094
 30
0.0
 10
122.1125377579
 20
148.4776965895
 30
0.0
 10
122.1870446301
 20
148.4836505612
 30
0.0
 10
122.2464155035
 20
148.4969675566
 30
0.0
 10
122.2937595397
 20
148.5152725077
 30
0.0
 10
122.3317377897
 20
148.537552923
 30
0.0
 10
122.3619981009
 20
148.5633882358
 30
0.0
 10
122.3817640174
 20
148.5879575308
 30
0.0
 10
122.391205889
 20
148.6037977847
 30
0.0
 10
122.3941011106
 20
148.6091832725
 30
0.0
 11
121.9235168489
 21
148.5058342277
 31
0.0
 11
122.0274472655
 21
148.484822389
 31
0.0
 11
122.1185190717
 21
148.479700611
 31
0.0
 11
122.1914859315
 21
148.4859157334
 31
0.0
 11
122.2490322636
 21
148.4991802719
 31
0.0
 11
122.2952175089
 21
148.5173733177
 31
0.0
 11
122.332165377
 21
148.5393410496
 31
0.0
 11
122.3616093056
 21
148.5646868179
 31
0.0
 11
122.3847011357
 21
148.5934403607
 31
0.0
 11
122.3941011106
 21
148.6091832725
 31
0.0
  0
SPLINE
  5
325
100
AcDbEntity
  8
BEZUGSACHSEN
100
AcDbSpline
 62
7
  6
CONTINUOUS
 70
0
 71
3
 72
11
 73
7
 74
5
 42
0.0000001
 43
0.0000001
 44
0.0000000001
 12
0.0661784389
 22
0.1231004829
 32
0.0
 13
-0.0
 23
0.1395704877
 33
0.0
 40
0.0
 40
0.0
 40
0.0
 40
0.0
 40
0.1327767541
 40
0.408761515
 40
0.7011191023
 40
1.0
 40
1.0
 40
1.0
 40
1.0
 10
122.3941011106
 20
148.6091832725
 30
0.0
 10
122.3970300967
 20
148.6146315667
 30
0.0
 10
122.4052964222
 20
148.6318095185
 30
0.0
 10
122.4155023567
 20
148.6629428531
 30
0.0
 10
122.4222274031
 20
148.7028472083
 30
0.0
 10
122.4235168489
 20
148.7303824954
 30
0.0
 10
122.4235168489
 20
148.7442874796
 30
0.0
 11
122.3941011106
 21
148.6091832725
 31
0.0
 11
122.4021559661
 21
148.6258939732
 31
0.0
 11
122.4143524465
 21
148.6624314125
 31
0.0
 11
122.4213710401
 21
148.7026277535
 31
0.0
 11
122.4235168489
 21
148.7442874796
 31
0.0
  0
ENDSEC
  0
SECTION
  2
OBJECTS
  0
DICTIONARY
  5
C
100
AcDbDictionary
280
0
281
1
  3
ACAD_GROUP
350
D
  3
ACAD_MLINESTYLE
350
17
  3
ACAD_LAYOUT
350
1A
  3
ACAD_PLOTSETTINGS
350
19
  3
ACAD_PLOTSTYLENAME
350
E
  0
DICTIONARY
  5
D
102
{ACAD_REACTORS
330
C
102
}
100
AcDbDictionary
280
0
281
1
  0
ACDBDICTIONARYWDFLT
  5
E
102
{ACAD_REACTORS
330
C
102
}
100
AcDbDictionary
281
1
  3
Normal
350
F
100
AcDbDictionaryWithDefault
340
F
  0
DICTIONARY
  5
17
102
{ACAD_REACTORS
330
C
102
}
100
AcDbDictionary
280
0
281
1
  3
Standard
350
18
  0
DICTIONARY
  5
19
102
{ACAD_REACTORS
330
C
102
}
100
AcDbDictionary
281
1
  0
DICTIONARY
  5
1A
102
{ACAD_REACTORS
330
C
102
}
100
AcDbDictionary
281
1
  3
Model
350
326
  3
Layout1
350
327
  0
ACDBPLACEHOLDER
  5
F
102
{ACAD_REACTORS
330
E
102
}
  0
MLINESTYLE
  5
18
102
{ACAD_REACTORS
330
17
102
}
100
AcDbMlineStyle
  2
STANDARD
 70
0
  3

 62
256
 51
90.0
 52
90.0
 71
2
 49
0.5
 62
256
  6
BYLAYER
 49
-0.5
 62
256
  6
BYLAYER
  0
LAYOUT
  5
326
102
{ACAD_REACTORS
330
1A
102
}
100
AcDbPlotSettings
  1

  2
none_device
  4
ISO_A4_(297.00_x_210.00_MM)
  6

 40
0.0
 41
0.0
 42
0.0
 43
0.0
 44
297.0
 45
210.0
 46
0.0
 47
0.0
 48
0.0
 49
0.0
140
0.0
141
0.0
142
1.0
143
1.0
 70
1024
 72
1
 73
0
 74
0
  7

 75
0
147
1.0
148
0.0
149
0.0
100
AcDbLayout
  1
Model
 70
0
 71
0
 10
0.0
 20
0.0
 11
297.0
 21
210.0
 12
0.0
 22
0.0
 32
0.0
 14
0.0
 24
0.0
 34
0.0
 15
0.0
 25
0.0
 35
0.0
146
0.0
 13
0.0
 23
0.0
 33
0.0
 16
1.0
 26
0.0
 36
0.0
 17
0.0
 27
1.0
 37
0.0
 76
0
330
217
345
0
346
0
  0
LAYOUT
  5
327
102
{ACAD_REACTORS
330
1A
102
}
100
AcDbPlotSettings
  1

  2
none_device
  4
ISO_A4_(297.00_x_210.00_MM)
  6

 40
0.0
 41
0.0
 42
0.0
 43
0.0
 44
297.0
 45
210.0
 46
0.0
 47
0.0
 48
0.0
 49
0.0
140
0.0
141
0.0
142
1.0
143
1.0
 70
0
 72
1
 73
0
 74
0
  7

 75
0
147
1.0
148
0.0
149
0.0
100
AcDbLayout
  1
Layout1
 70
0
 71
1
 10
0.0
 20
0.0
 11
297.0
 21
210.0
 12
0.0
 22
0.0
 32
0.0
 14
0.0
 24
0.0
 34
0.0
 15
0.0
 25
0.0
 35
0.0
146
0.0
 13
0.0
 23
0.0
 33
0.0
 16
1.0
 26
0.0
 36
0.0
 17
0.0
 27
1.0
 37
0.0
 76
0
330
218
345
0
346
0
  0
ENDSEC
  0
EOF
