999
DXF file: 40-484-08-8.dxf
999
Pro/ENGINEER 2009220 by Parametric Technology Corporation
  0
SECTION
  2
HEADER
  9
$ACADVER
  1
AC1021
  9
$DWGCODEPAGE
  3
ANSI_1252
  9
$EXTMAX
 10
297.0
 20
210.0
 30
0.0
  9
$EXTMIN
 10
0.0
 20
0.0
 30
0.0
  9
$LIMMIN
 10
0.0
 20
0.0
  9
$LIMMAX
 10
297.0
 20
210.0
  9
$VIEWCTR
 10
148.5
 20
105.0
  9
$VIEWSIZE
 40
210.0
  9
$CLAYER
  8
0
  9
$LTSCALE
 40
16.335
  9
$CELTYPE
  6
BYLAYER
  9
$DIMSCALE
 40
1.0
  9
$DIMASZ
 40
3.5
  9
$DIMEXO
 40
1.85625
  9
$DIMDLI
 40
11.286
  9
$DIMEXE
 40
5.346
  9
$DIMCEN
 40
2.673
  9
$DIMLFAC
 40
1.0
  9
$DIMBLK
  1
_FILLED
  9
$DIMTXT
 40
3.5
  9
$DIMTOL
 70
1
  9
$DIMLIM
 70
0
  9
$DIMTFAC
 40
1.0
  9
$DIMTP
 40
0.005
  9
$DIMTM
 40
0.005
  9
$PDMODE
 70
3
  9
$PDSIZE
 40
0.3125
  9
$HANDSEED
  5
329
  9
$TILEMODE
 70
1
  9
$MEASUREMENT
 70
1
  9
$INSUNITS
 70
4
  0
ENDSEC
  0
SECTION
  2
CLASSES
  0
CLASS
  1
ACDBDICTIONARYWDFLT
  2
AcDbDictionaryWithDefault
  3
AutoCAD 2000
 90
0
 91
1
280
0
281
0
  0
CLASS
  1
ACDBPLACEHOLDER
  2
AcDbPlaceHolder
  3
AutoCAD 2000
 90
0
 91
1
280
0
281
0
  0
CLASS
  1
LAYOUT
  2
AcDbLayout
  3
AutoCAD 2000
 90
0
 91
0
280
0
281
0
  0
ENDSEC
  0
SECTION
  2
TABLES
  0
TABLE
  2
VPORT
  5
8
100
AcDbSymbolTable
 70
2
  0
VPORT
  5
1F4
100
AcDbSymbolTableRecord
100
AcDbViewportTableRecord
  2
*ACTIVE
 70
0
 10
0.0
 20
0.0
 11
1.0
 21
1.0
 12
148.5
 22
105.0
 13
0.0
 23
0.0
 14
1.0
 24
1.0
 15
0.0
 25
0.0
 16
0.0
 26
0.0
 36
1.0
 17
0.0
 27
0.0
 37
0.0
 40
210.0
 41
1.4142857143
 42
50.0
 43
0.0
 44
0.0
 50
0.0
 51
0.0
 71
0
 72
100
 73
1
 74
1
 75
0
 76
0
 77
0
 78
0
  0
ENDTAB
  0
TABLE
  2
LTYPE
  5
5
100
AcDbSymbolTable
 70
6
  0
LTYPE
  5
14
100
AcDbSymbolTableRecord
100
AcDbLinetypeTableRecord
  2
BYBLOCK
 70
0
  3

 72
65
 73
0
 40
0.0
  0
LTYPE
  5
15
100
AcDbSymbolTableRecord
100
AcDbLinetypeTableRecord
  2
BYLAYER
 70
0
  3

 72
65
 73
0
 40
0.0
  0
LTYPE
  5
16
100
AcDbSymbolTableRecord
100
AcDbLinetypeTableRecord
  2
CONTINUOUS
 70
64
  3
Solid line
 72
65
 73
0
 40
0.0
  0
LTYPE
  5
1F5
100
AcDbSymbolTableRecord
100
AcDbLinetypeTableRecord
  2
CENTER
 70
64
  3
____ _ ____ _ ____ _ ____ _ ____ _ ____ _ ____
 72
65
 73
4
 40
0.6
 49
0.375
 74
0
 49
-0.075
 74
0
 49
0.075
 74
0
 49
-0.075
 74
0
  0
LTYPE
  5
1F6
100
AcDbSymbolTableRecord
100
AcDbLinetypeTableRecord
  2
HIDDEN
 70
64
  3
- - - - - - - - - - - - - - - - - - - -
 72
65
 73
2
 40
0.2
 49
0.1
 74
0
 49
-0.1
 74
0
  0
LTYPE
  5
1F7
100
AcDbSymbolTableRecord
100
AcDbLinetypeTableRecord
  2
PHANTOM
 70
64
  3
_____ _ _ _____ _ _ _____ _ _ _____
 72
65
 73
6
 40
0.8
 49
0.45
 74
0
 49
-0.05
 74
0
 49
0.1
 74
0
 49
-0.05
 74
0
 49
0.1
 74
0
 49
-0.05
 74
0
  0
LTYPE
  5
1F8
100
AcDbSymbolTableRecord
100
AcDbLinetypeTableRecord
  2
DOT
 70
64
  3
. . . . . . . . . . . . . . . . . . . .
 72
65
 73
2
 40
0.2
 49
0.1
 74
0
 49
-0.1
 74
0
  0
LTYPE
  5
1F9
100
AcDbSymbolTableRecord
100
AcDbLinetypeTableRecord
  2
DASHED
 70
64
  3
- - - - - - - - - - - - - - - - - - - -
 72
65
 73
2
 40
0.2
 49
0.1
 74
0
 49
-0.1
 74
0
  0
ENDTAB
  0
TABLE
  2
LAYER
  5
2
100
AcDbSymbolTable
 70
36
  0
LAYER
  5
10
100
AcDbSymbolTableRecord
100
AcDbLayerTableRecord
  2
0
 70
0
 62
7
  6
CONTINUOUS
370
-3
390
F
  0
LAYER
  5
1FA
100
AcDbSymbolTableRecord
100
AcDbLayerTableRecord
  2
DEFAULT_1
 70
0
 62
7
  6
CENTER
370
-3
390
F
  0
LAYER
  5
1FB
100
AcDbSymbolTableRecord
100
AcDbLayerTableRecord
  2
DEFAULT_2
 70
0
 62
8
  6
HIDDEN
370
-3
390
F
  0
LAYER
  5
1FC
100
AcDbSymbolTableRecord
100
AcDbLayerTableRecord
  2
DEFAULT_3
 70
0
 62
7
  6
PHANTOM
370
-3
390
F
  0
LAYER
  5
1FD
100
AcDbSymbolTableRecord
100
AcDbLayerTableRecord
  2
ANALYSEN
 70
0
 62
7
  6
CONTINUOUS
370
-3
390
F
  0
LAYER
  5
1FE
100
AcDbSymbolTableRecord
100
AcDbLayerTableRecord
  2
AUSSENKONTUR
 70
0
 62
7
  6
CONTINUOUS
370
-3
390
F
  0
LAYER
  5
1FF
100
AcDbSymbolTableRecord
100
AcDbLayerTableRecord
  2
BEZUGSACHSEN
 70
0
 62
7
  6
CONTINUOUS
370
-3
390
F
  0
LAYER
  5
200
100
AcDbSymbolTableRecord
100
AcDbLayerTableRecord
  2
BEZUGSACHSENKENNZEICHEN
 70
0
 62
7
  6
CONTINUOUS
370
-3
390
F
  0
LAYER
  5
201
100
AcDbSymbolTableRecord
100
AcDbLayerTableRecord
  2
BEZUGSEBENEN
 70
0
 62
7
  6
CONTINUOUS
370
-3
390
F
  0
LAYER
  5
202
100
AcDbSymbolTableRecord
100
AcDbLayerTableRecord
  2
BEZUGSPUNKTE
 70
0
 62
7
  6
CONTINUOUS
370
-3
390
F
  0
LAYER
  5
203
100
AcDbSymbolTableRecord
100
AcDbLayerTableRecord
  2
BOHRUNGEN
 70
0
 62
7
  6
CONTINUOUS
370
-3
390
F
  0
LAYER
  5
204
100
AcDbSymbolTableRecord
100
AcDbLayerTableRecord
  2
FASEN
 70
0
 62
7
  6
CONTINUOUS
370
-3
390
F
  0
LAYER
  5
205
100
AcDbSymbolTableRecord
100
AcDbLayerTableRecord
  2
FLAECHEN
 70
0
 62
7
  6
CONTINUOUS
370
-3
390
F
  0
LAYER
  5
206
100
AcDbSymbolTableRecord
100
AcDbLayerTableRecord
  2
GEWINDE
 70
0
 62
7
  6
CONTINUOUS
370
-3
390
F
  0
LAYER
  5
207
100
AcDbSymbolTableRecord
100
AcDbLayerTableRecord
  2
HILFEN
 70
0
 62
7
  6
CONTINUOUS
370
-3
390
F
  0
LAYER
  5
208
100
AcDbSymbolTableRecord
100
AcDbLayerTableRecord
  2
INNENKONTUR
 70
0
 62
7
  6
CONTINUOUS
370
-3
390
F
  0
LAYER
  5
209
100
AcDbSymbolTableRecord
100
AcDbLayerTableRecord
  2
KURVEN
 70
0
 62
7
  6
CONTINUOUS
370
-3
390
F
  0
LAYER
  5
20A
100
AcDbSymbolTableRecord
100
AcDbLayerTableRecord
  2
MAKINO
 70
0
 62
7
  6
CONTINUOUS
370
-3
390
F
  0
LAYER
  5
20B
100
AcDbSymbolTableRecord
100
AcDbLayerTableRecord
  2
OELVERDR_RILLE
 70
0
 62
7
  6
CONTINUOUS
370
-3
390
F
  0
LAYER
  5
20C
100
AcDbSymbolTableRecord
100
AcDbLayerTableRecord
  2
PLATZIERUNG
 70
0
 62
7
  6
CONTINUOUS
370
-3
390
F
  0
LAYER
  5
20D
100
AcDbSymbolTableRecord
100
AcDbLayerTableRecord
  2
PUNKTE
 70
0
 62
7
  6
CONTINUOUS
370
-3
390
F
  0
LAYER
  5
20E
100
AcDbSymbolTableRecord
100
AcDbLayerTableRecord
  2
RUNDUNGEN
 70
0
 62
7
  6
CONTINUOUS
370
-3
390
F
  0
LAYER
  5
20F
100
AcDbSymbolTableRecord
100
AcDbLayerTableRecord
  2
TEIL_STARTBEZUEGE
 70
0
 62
7
  6
CONTINUOUS
370
-3
390
F
  0
LAYER
  5
210
100
AcDbSymbolTableRecord
100
AcDbLayerTableRecord
  2
VERERBUNG
 70
0
 62
7
  6
CONTINUOUS
370
-3
390
F
  0
LAYER
  5
211
100
AcDbSymbolTableRecord
100
AcDbLayerTableRecord
  2
VOLUMEN
 70
0
 62
7
  6
CONTINUOUS
370
-3
390
F
  0
LAYER
  5
212
100
AcDbSymbolTableRecord
100
AcDbLayerTableRecord
  2
ZEICHNUNG
 70
0
 62
7
  6
CONTINUOUS
370
-3
390
F
  0
LAYER
  5
213
100
AcDbSymbolTableRecord
100
AcDbLayerTableRecord
  2
ZEICHNUNGSBEMASSUNGEN
 70
0
 62
7
  6
CONTINUOUS
370
-3
390
F
  0
ENDTAB
  0
TABLE
  2
STYLE
  5
3
100
AcDbSymbolTable
 70
1
  0
STYLE
  5
11
100
AcDbSymbolTableRecord
100
AcDbTextStyleTableRecord
  2
STANDARD
 70
0
 40
0.0
 41
0.7
 50
0.0
 71
0
 42
0.2
  3
txt
  4

  0
STYLE
  5
214
100
AcDbSymbolTableRecord
100
AcDbTextStyleTableRecord
  2
TEXTSTYLE_1
 70
0
 40
0.0
 41
0.8
 50
0.0
 71
0
 42
0.2
  3
gdt
  4

  0
STYLE
  5
215
100
AcDbSymbolTableRecord
100
AcDbTextStyleTableRecord
  2
TEXTSTYLE_2
 70
0
 40
0.0
 41
0.7
 50
0.0
 71
0
 42
0.2
  3
gdt
  4

  0
ENDTAB
  0
TABLE
  2
VIEW
  5
6
100
AcDbSymbolTable
 70
0
  0
ENDTAB
  0
TABLE
  2
UCS
  5
7
100
AcDbSymbolTable
 70
0
  0
ENDTAB
  0
TABLE
  2
APPID
  5
9
100
AcDbSymbolTable
 70
1
  0
APPID
  5
216
100
AcDbSymbolTableRecord
100
AcDbRegAppTableRecord
  2
ACAD
 70
0
  0
ENDTAB
  0
TABLE
  2
BLOCK_RECORD
  5
1
100
AcDbSymbolTable
 70
0
  0
BLOCK_RECORD
  5
217
100
AcDbSymbolTableRecord
100
AcDbBlockTableRecord
  2
*Model_Space
  0
BLOCK_RECORD
  5
218
100
AcDbSymbolTableRecord
100
AcDbBlockTableRecord
  2
*Paper_Space
  0
BLOCK_RECORD
  5
219
100
AcDbSymbolTableRecord
100
AcDbBlockTableRecord
  2
_FILLED
  0
BLOCK_RECORD
  5
21A
100
AcDbSymbolTableRecord
100
AcDbBlockTableRecord
  2
*D0
  0
BLOCK_RECORD
  5
21B
100
AcDbSymbolTableRecord
100
AcDbBlockTableRecord
  2
*D1
  0
BLOCK_RECORD
  5
21C
100
AcDbSymbolTableRecord
100
AcDbBlockTableRecord
  2
*D2
  0
BLOCK_RECORD
  5
21D
100
AcDbSymbolTableRecord
100
AcDbBlockTableRecord
  2
*D3
  0
BLOCK_RECORD
  5
21E
100
AcDbSymbolTableRecord
100
AcDbBlockTableRecord
  2
*D4
  0
BLOCK_RECORD
  5
21F
100
AcDbSymbolTableRecord
100
AcDbBlockTableRecord
  2
*D5
  0
ENDTAB
  0
TABLE
  2
DIMSTYLE
  5
A
100
AcDbSymbolTable
 70
1
100
AcDbDimStyleTable
 71
0
  0
DIMSTYLE
105
220
100
AcDbSymbolTableRecord
100
AcDbDimStyleTableRecord
  2
STANDARD
 70
0
  3

  4

 40
1.0
 41
3.5
 42
0.0625
 43
0.38
 44
0.18
 45
0.0
 46
0.0
 47
0.005
 48
0.005
140
3.5
141
0.09
142
0.0
143
25.4
144
1.0
145
0.0
146
1.0
147
0.09
 71
1.0
 72
0.0
 73
0
 74
0
 75
0
 76
0
 77
1
 78
8
170
0
171
2
172
0
173
0
174
0
175
0
176
0
177
0
178
5
270
2
271
3
272
3
273
2
274
2
275
0
280
0
281
0
282
0
283
1
284
8
285
0
286
0
287
3
288
0
340
11
341
219
342
219
343
219
344
219
  0
DIMSTYLE
105
221
100
AcDbSymbolTableRecord
100
AcDbDimStyleTableRecord
  2
DIMSTYLE_1
 70
0
  3

  4

 40
1.0
 41
3.5
 42
0.0625
 43
0.38
 44
0.18
 45
0.0
 46
0.0
 47
0.5
 48
0.5
140
3.5
141
0.09
142
0.0
143
25.4
144
1.0
145
0.0
146
1.0
147
0.09
 71
0.0
 72
0.0
 73
0
 74
0
 75
0
 76
0
 77
1
 78
8
170
0
171
2
172
0
173
0
174
0
175
0
176
0
177
0
178
5
270
2
271
3
272
3
273
2
274
2
275
0
280
0
281
0
282
0
283
1
284
8
285
0
286
0
287
3
288
0
340
11
341
219
342
219
343
219
344
219
  0
DIMSTYLE
105
222
100
AcDbSymbolTableRecord
100
AcDbDimStyleTableRecord
  2
DIMSTYLE_2
 70
0
  3

  4

 40
1.0
 41
3.5
 42
0.0625
 43
0.38
 44
0.18
 45
0.0
 46
0.0
 47
0.5
 48
0.5
140
3.5
141
0.09
142
0.0
143
25.4
144
1.0
145
0.0
146
1.0
147
0.09
 71
0.0
 72
0.0
 73
0
 74
0
 75
0
 76
0
 77
1
 78
8
170
0
171
2
172
0
173
0
174
0
175
0
176
0
177
0
178
5
270
2
271
2
272
2
273
2
274
2
275
0
280
0
281
0
282
0
283
1
284
8
285
0
286
0
287
3
288
0
340
11
341
219
342
219
343
219
344
219
  0
DIMSTYLE
105
223
100
AcDbSymbolTableRecord
100
AcDbDimStyleTableRecord
  2
DIMSTYLE_3
 70
0
  3

  4

 40
1.0
 41
3.5
 42
0.0625
 43
0.38
 44
0.18
 45
0.0
 46
0.0
 47
0.3
 48
0.3
140
3.5
141
0.09
142
0.0
143
25.4
144
1.0
145
0.0
146
1.0
147
0.09
 71
0.0
 72
0.0
 73
0
 74
0
 75
0
 76
0
 77
1
 78
8
170
0
171
2
172
0
173
0
174
0
175
0
176
0
177
0
178
5
270
2
271
2
272
2
273
2
274
2
275
0
280
0
281
0
282
0
283
1
284
8
285
0
286
0
287
3
288
0
340
11
341
219
342
219
343
219
344
219
  0
DIMSTYLE
105
224
100
AcDbSymbolTableRecord
100
AcDbDimStyleTableRecord
  2
DIMSTYLE_4
 70
0
  3

  4

 40
1.0
 41
3.5
 42
0.0625
 43
0.38
 44
0.18
 45
0.0
 46
0.0
 47
0.1
 48
0.0
140
3.5
141
0.09
142
0.0
143
25.4
144
1.0
145
0.0
146
1.0
147
0.09
 71
0.0
 72
0.0
 73
0
 74
0
 75
0
 76
0
 77
1
 78
8
170
0
171
2
172
0
173
0
174
0
175
0
176
0
177
0
178
5
270
2
271
2
272
2
273
2
274
2
275
0
280
0
281
0
282
0
283
1
284
8
285
0
286
0
287
3
288
0
340
11
341
219
342
219
343
219
344
219
  0
DIMSTYLE
105
225
100
AcDbSymbolTableRecord
100
AcDbDimStyleTableRecord
  2
DIMSTYLE_5
 70
0
  3

  4

 40
1.0
 41
3.5
 42
0.0625
 43
0.38
 44
0.18
 45
0.0
 46
0.0
 47
0.0
 48
0.0
140
3.5
141
0.09
142
0.0
143
25.4
144
1.0
145
0.0
146
1.0
147
0.09
 71
0.0
 72
0.0
 73
0
 74
0
 75
0
 76
0
 77
1
 78
8
170
0
171
2
172
0
173
0
174
0
175
0
176
0
177
0
178
5
270
2
271
0
272
0
273
2
274
2
275
0
280
0
281
0
282
0
283
1
284
8
285
0
286
0
287
3
288
0
340
11
341
219
342
219
343
219
344
219
  0
DIMSTYLE
105
226
100
AcDbSymbolTableRecord
100
AcDbDimStyleTableRecord
  2
DIMSTYLE_6
 70
0
  3

  4

 40
1.0
 41
3.5
 42
0.0625
 43
0.38
 44
0.18
 45
0.0
 46
0.0
 47
0.2
 48
0.2
140
3.5
141
0.09
142
0.0
143
25.4
144
1.0
145
0.0
146
1.0
147
0.09
 71
0.0
 72
0.0
 73
0
 74
0
 75
0
 76
0
 77
1
 78
8
170
0
171
2
172
0
173
0
174
0
175
0
176
0
177
0
178
5
270
2
271
2
272
2
273
2
274
2
275
0
280
0
281
0
282
0
283
1
284
8
285
0
286
0
287
3
288
0
340
11
341
219
342
219
343
219
344
219
  0
ENDTAB
  0
ENDSEC
  0
SECTION
  2
BLOCKS
  0
BLOCK
  5
20
100
AcDbEntity
  8
0
100
AcDbBlockBegin
  2
*Model_Space
 70
0
 10
0.0
 20
0.0
 30
0.0
  3
*Model_Space
  1

  0
ENDBLK
  5
21
100
AcDbEntity
  8
0
100
AcDbBlockEnd
  0
BLOCK
  5
1C
100
AcDbEntity
  8
0
100
AcDbBlockBegin
  2
*Paper_Space
 70
0
 10
0.0
 20
0.0
 30
0.0
  3
*Paper_Space
  1

  0
ENDBLK
  5
1D
100
AcDbEntity
  8
0
100
AcDbBlockEnd
  0
BLOCK
  5
227
100
AcDbEntity
  8
0
100
AcDbBlockBegin
  2
_FILLED
 70
64
 10
0.0
 20
0.0
  3
_FILLED
  1

  0
SOLID
  5
228
100
AcDbEntity
  8
0
  6
BYBLOCK
 62
0
100
AcDbTrace
 10
0.0
 20
0.0
 11
-1.0
 21
0.125
 12
-1.0
 22
-0.125
 13
-1.0
 23
-0.125
  0
ENDBLK
  5
229
100
AcDbEntity
  8
0
  6
BYBLOCK
 62
0
100
AcDbBlockEnd
  0
BLOCK
  5
22A
100
AcDbEntity
  8
0
100
AcDbBlockBegin
 62
2
  6
CONTINUOUS
  2
*D0
 70
65
 10
0.0
 20
0.0
  3
*D0
  1

  0
MTEXT
  5
22B
100
AcDbEntity
  8
0
100
AcDbMText
 62
5
  6
CONTINUOUS
  7
STANDARD
 71
2
 72
1
 10
183.7189939713
 20
174.7962624432
 30
0.0
 11
1.0
 21
0.0
 31
0.0
 44
0.9
  1
130
 40
3.5
 41
8.490234375
  0
LINE
  5
22C
100
AcDbEntity
  8
0
100
AcDbLine
 62
2
  6
CONTINUOUS
 10
241.6381231057
 20
121.2616144068
 11
241.6381231057
 21
171.9212624432
  0
LINE
  5
22D
100
AcDbEntity
  8
0
100
AcDbLine
 62
2
  6
CONTINUOUS
 10
111.6381231057
 20
153.8249185079
 11
111.6381231057
 21
171.9212624432
  0
LINE
  5
22E
100
AcDbEntity
  8
0
100
AcDbLine
 62
2
  6
CONTINUOUS
 10
241.6381231057
 20
170.4212624432
 11
176.6381231057
 21
170.4212624432
  0
LINE
  5
22F
100
AcDbEntity
  8
0
100
AcDbLine
 62
2
  6
CONTINUOUS
 10
111.6381231057
 20
170.4212624432
 11
176.6381231057
 21
170.4212624432
  0
INSERT
  5
230
100
AcDbEntity
  8
0
100
AcDbBlockReference
 62
2
  6
CONTINUOUS
  2
_FILLED
 10
241.6381231057
 20
170.4212624432
 41
3.5
 42
3.5
 43
3.5
  0
INSERT
  5
231
100
AcDbEntity
  8
0
100
AcDbBlockReference
 62
2
  6
CONTINUOUS
  2
_FILLED
 10
111.6381231057
 20
170.4212624432
 41
3.5
 42
3.5
 43
3.5
 50
180.0
  0
ENDBLK
  5
232
100
AcDbEntity
  8
0
  6
BYBLOCK
 62
0
100
AcDbBlockEnd
  0
BLOCK
  5
233
100
AcDbEntity
  8
0
100
AcDbBlockBegin
 62
2
  6
CONTINUOUS
  2
*D1
 70
65
 10
0.0
 20
0.0
  3
*D1
  1

  0
MTEXT
  5
234
100
AcDbEntity
  8
0
100
AcDbMText
 62
5
  6
CONTINUOUS
  7
STANDARD
 71
2
 72
1
 10
158.8181257796
 20
181.475843815
 30
0.0
 11
1.0
 21
0.0
 31
0.0
 44
0.9
  1
198.4
 40
3.5
 41
12.7421875
  0
LINE
  5
235
100
AcDbEntity
  8
0
100
AcDbLine
 62
2
  6
CONTINUOUS
 10
43.2381231057
 20
133.2433736116
 11
43.2381231057
 21
178.600843815
  0
LINE
  5
236
100
AcDbEntity
  8
0
100
AcDbLine
 62
2
  6
CONTINUOUS
 10
241.6381231057
 20
123.7616144068
 11
241.6381231057
 21
178.600843815
  0
LINE
  5
237
100
AcDbEntity
  8
0
100
AcDbLine
 62
2
  6
CONTINUOUS
 10
43.2381231057
 20
177.100843815
 11
142.4381231057
 21
177.100843815
  0
LINE
  5
238
100
AcDbEntity
  8
0
100
AcDbLine
 62
2
  6
CONTINUOUS
 10
241.6381231057
 20
177.100843815
 11
142.4381231057
 21
177.100843815
  0
INSERT
  5
239
100
AcDbEntity
  8
0
100
AcDbBlockReference
 62
2
  6
CONTINUOUS
  2
_FILLED
 10
43.2381231057
 20
177.100843815
 41
3.5
 42
3.5
 43
3.5
 50
180.0
  0
INSERT
  5
23A
100
AcDbEntity
  8
0
100
AcDbBlockReference
 62
2
  6
CONTINUOUS
  2
_FILLED
 10
241.6381231057
 20
177.100843815
 41
3.5
 42
3.5
 43
3.5
  0
ENDBLK
  5
23B
100
AcDbEntity
  8
0
  6
BYBLOCK
 62
0
100
AcDbBlockEnd
  0
BLOCK
  5
23C
100
AcDbEntity
  8
0
100
AcDbBlockBegin
 62
2
  6
CONTINUOUS
  2
*D2
 70
65
 10
0.0
 20
0.0
  3
*D2
  1

  0
MTEXT
  5
23D
100
AcDbEntity
  8
0
100
AcDbMText
 62
5
  6
CONTINUOUS
  7
STANDARD
 71
2
 72
1
 10
191.2719634883
 20
167.3714652727
 30
0.0
 11
1.0
 21
0.0
 31
0.0
 44
0.9
  1
110.9
 40
3.5
 41
12.7421875
  0
LINE
  5
23E
100
AcDbEntity
  8
0
100
AcDbLine
 62
2
  6
CONTINUOUS
 10
241.6381231057
 20
123.7616144068
 11
241.6381231057
 21
164.4964652727
  0
LINE
  5
23F
100
AcDbEntity
  8
0
100
AcDbLine
 62
2
  6
CONTINUOUS
 10
130.7381231057
 20
153.8249185079
 11
130.7381231057
 21
164.4964652727
  0
LINE
  5
240
100
AcDbEntity
  8
0
100
AcDbLine
 62
2
  6
CONTINUOUS
 10
241.6381231057
 20
162.9964652727
 11
186.1881231057
 21
162.9964652727
  0
LINE
  5
241
100
AcDbEntity
  8
0
100
AcDbLine
 62
2
  6
CONTINUOUS
 10
130.7381231057
 20
162.9964652727
 11
186.1881231057
 21
162.9964652727
  0
INSERT
  5
242
100
AcDbEntity
  8
0
100
AcDbBlockReference
 62
2
  6
CONTINUOUS
  2
_FILLED
 10
241.6381231057
 20
162.9964652727
 41
3.5
 42
3.5
 43
3.5
  0
INSERT
  5
243
100
AcDbEntity
  8
0
100
AcDbBlockReference
 62
2
  6
CONTINUOUS
  2
_FILLED
 10
130.7381231057
 20
162.9964652727
 41
3.5
 42
3.5
 43
3.5
 50
180.0
  0
ENDBLK
  5
244
100
AcDbEntity
  8
0
  6
BYBLOCK
 62
0
100
AcDbBlockEnd
  0
BLOCK
  5
245
100
AcDbEntity
  8
0
100
AcDbBlockBegin
 62
2
  6
CONTINUOUS
  2
*D3
 70
65
 10
0.0
 20
0.0
  3
*D3
  1

  0
MTEXT
  5
246
100
AcDbEntity
  8
0
100
AcDbMText
 62
5
  6
CONTINUOUS
  7
TEXTSTYLE_2
 71
2
 72
1
 10
262.0682868233
 20
123.7616144068
 30
0.0
 11
0.0
 21
1.0
 31
0.0
 44
0.9
  1
{\Fgdt;n}\Ftxt;14
 40
3.5
 41
10.3268229167
  0
LINE
  5
247
100
AcDbEntity
  8
0
100
AcDbLine
 62
2
  6
CONTINUOUS
 10
241.6381231057
 20
116.7616144068
 11
267.9432868233
 21
116.7616144068
  0
LINE
  5
248
100
AcDbEntity
  8
0
100
AcDbLine
 62
2
  6
CONTINUOUS
 10
241.6381231057
 20
130.7616144068
 11
267.9432868233
 21
130.7616144068
  0
LINE
  5
249
100
AcDbEntity
  8
0
100
AcDbLine
 62
2
  6
CONTINUOUS
 10
266.4432868233
 20
116.7616144068
 11
266.4432868233
 21
123.7616144068
  0
LINE
  5
24A
100
AcDbEntity
  8
0
100
AcDbLine
 62
2
  6
CONTINUOUS
 10
266.4432868233
 20
130.7616144068
 11
266.4432868233
 21
123.7616144068
  0
INSERT
  5
24B
100
AcDbEntity
  8
0
100
AcDbBlockReference
 62
2
  6
CONTINUOUS
  2
_FILLED
 10
266.4432868233
 20
116.7616144068
 41
3.5
 42
3.5
 43
3.5
 50
270.0
  0
INSERT
  5
24C
100
AcDbEntity
  8
0
100
AcDbBlockReference
 62
2
  6
CONTINUOUS
  2
_FILLED
 10
266.4432868233
 20
130.7616144068
 41
3.5
 42
3.5
 43
3.5
 50
90.0
  0
ENDBLK
  5
24D
100
AcDbEntity
  8
0
  6
BYBLOCK
 62
0
100
AcDbBlockEnd
  0
BLOCK
  5
24E
100
AcDbEntity
  8
0
100
AcDbBlockBegin
 62
2
  6
CONTINUOUS
  2
*D4
 70
65
 10
0.0
 20
0.0
  3
*D4
  1

  0
MTEXT
  5
24F
100
AcDbEntity
  8
0
100
AcDbMText
 62
5
  6
CONTINUOUS
  7
STANDARD
 71
2
 72
1
 10
201.8578023984
 20
140.07942174
 30
0.0
 11
0.0937187734
 21
0.9955987101
 31
0.0
 44
0.9
  1
3\Fgdt;{\Fgdt;~}
 40
3.5
 41
5.1634114583
  0
LINE
  5
250
100
AcDbEntity
  8
0
100
AcDbLine
 62
2
  6
CONTINUOUS
 10
217.4304807085
 20
132.0302831865
 11
206.822553995
 21
132.5862210683
  0
LINE
  5
251
100
AcDbEntity
  8
0
100
AcDbLine
 62
2
  6
CONTINUOUS
 10
216.5602944677
 20
123.7616144068
 11
206.5914735371
 21
123.7616144068
  0
ARC
  5
252
100
AcDbEntity
  8
0
100
AcDbCircle
 62
2
  6
CONTINUOUS
 10
375.2060799198
 20
123.7616144068
 40
167.1146063827
100
AcDbArc
 50
174.6224180759
 51
177.0
  0
ARC
  5
253
100
AcDbEntity
  8
0
100
AcDbCircle
 62
2
  6
CONTINUOUS
 10
375.2060799198
 20
123.7616144068
 40
167.1146063827
100
AcDbArc
 50
180.0
 51
182.0571192699
  0
ARC
  5
254
100
AcDbEntity
  8
0
100
AcDbCircle
 62
2
  6
CONTINUOUS
 10
375.2060799198
 20
123.7616144068
 40
167.1146063827
100
AcDbArc
 50
177.0
 51
180.0
  0
SOLID
  5
255
100
AcDbEntity
  8
0
100
AcDbTrace
 62
2
  6
CONTINUOUS
 10
208.1036279991
 20
136.0282815097
 11
208.3204982971
 21
132.507717134
 12
208.976901393
 22
135.97333991
 13
208.976901393
 23
135.97333991
  0
SOLID
  5
256
100
AcDbEntity
  8
0
100
AcDbTrace
 62
2
  6
CONTINUOUS
 10
208.5656003734
 20
120.2663876626
 11
208.0914735371
 21
123.7616144068
 12
207.6906483491
 22
120.2572249566
 13
207.6906483491
 23
120.2572249566
  0
ENDBLK
  5
257
100
AcDbEntity
  8
0
  6
BYBLOCK
 62
0
100
AcDbBlockEnd
  0
BLOCK
  5
258
100
AcDbEntity
  8
0
100
AcDbBlockBegin
 62
2
  6
CONTINUOUS
  2
*D5
 70
65
 10
0.0
 20
0.0
  3
*D5
  1

  0
MTEXT
  5
259
100
AcDbEntity
  8
0
100
AcDbMText
 62
5
  6
CONTINUOUS
  7
TEXTSTYLE_2
 71
1
 72
1
 10
248.7320031425
 20
133.690569639
 30
0.0
 11
0.0
 21
1.0
 31
0.0
 44
0.9
  1
{\Fgdt;n}\Ftxt;8
 40
3.5
 41
7.4967447917
  0
LINE
  5
25A
100
AcDbEntity
  8
0
100
AcDbLine
 62
2
  6
CONTINUOUS
 10
241.6381231057
 20
119.7616144068
 11
254.6070031425
 21
119.7616144068
  0
LINE
  5
25B
100
AcDbEntity
  8
0
100
AcDbLine
 62
2
  6
CONTINUOUS
 10
241.6381231057
 20
127.7616144068
 11
254.6070031425
 21
127.7616144068
  0
LINE
  5
25C
100
AcDbEntity
  8
0
100
AcDbLine
 62
2
  6
CONTINUOUS
 10
253.1070031425
 20
119.7616144068
 11
253.1070031425
 21
113.7616144068
  0
LINE
  5
25D
100
AcDbEntity
  8
0
100
AcDbLine
 62
2
  6
CONTINUOUS
 10
253.1070031425
 20
113.7616144068
 11
253.1070031425
 21
123.7616144068
  0
LINE
  5
25E
100
AcDbEntity
  8
0
100
AcDbLine
 62
2
  6
CONTINUOUS
 10
253.1070031425
 20
127.7616144068
 11
253.1070031425
 21
141.1873144306
  0
LINE
  5
25F
100
AcDbEntity
  8
0
100
AcDbLine
 62
2
  6
CONTINUOUS
 10
253.1070031425
 20
141.1873144306
 11
253.1070031425
 21
123.7616144068
  0
INSERT
  5
260
100
AcDbEntity
  8
0
100
AcDbBlockReference
 62
2
  6
CONTINUOUS
  2
_FILLED
 10
253.1070031425
 20
119.7616144068
 41
3.5
 42
3.5
 43
3.5
 50
90.0
  0
INSERT
  5
261
100
AcDbEntity
  8
0
100
AcDbBlockReference
 62
2
  6
CONTINUOUS
  2
_FILLED
 10
253.1070031425
 20
127.7616144068
 41
3.5
 42
3.5
 43
3.5
 50
270.0
  0
ENDBLK
  5
262
100
AcDbEntity
  8
0
  6
BYBLOCK
 62
0
100
AcDbBlockEnd
  0
ENDSEC
  0
SECTION
  2
ENTITIES
  0
DIMENSION
  5
263
100
AcDbEntity
  8
0
100
AcDbDimension
 62
2
  6
CONTINUOUS
  2
*D0
 10
111.6381231057
 20
170.4212624432
 11
179.4738767838
 21
173.0462624432
 70
160
 71
2
 42
130.0
  3
DIMSTYLE_1
100
AcDbAlignedDimension
 13
241.6381231057
 23
121.2616144068
 14
111.6381231057
 24
153.8249185079
 50
180.0
100
AcDbRotatedDimension
  0
DIMENSION
  5
264
100
AcDbEntity
  8
0
100
AcDbDimension
 62
2
  6
CONTINUOUS
  2
*D1
 10
241.6381231057
 20
177.100843815
 11
152.4470320296
 21
179.725843815
 70
160
 71
2
 42
198.4
  3
DIMSTYLE_2
100
AcDbAlignedDimension
 13
43.2381231057
 23
133.2433736116
 14
241.6381231057
 24
123.7616144068
100
AcDbRotatedDimension
  0
DIMENSION
  5
265
100
AcDbEntity
  8
0
100
AcDbDimension
 62
2
  6
CONTINUOUS
  2
*D2
 10
130.7381231057
 20
162.9964652727
 11
184.9008697383
 21
165.6214652727
 70
160
 71
2
 42
110.9
  3
DIMSTYLE_3
100
AcDbAlignedDimension
 13
241.6381231057
 23
123.7616144068
 14
130.7381231057
 24
153.8249185079
 50
180.0
100
AcDbRotatedDimension
  0
DIMENSION
  5
266
100
AcDbEntity
  8
0
100
AcDbDimension
 62
2
  6
CONTINUOUS
  2
*D3
 10
266.4432868233
 20
130.7616144068
 11
264.9750810451
 21
121.4535780985
 70
160
 71
2
 42
14.0
  1
%%c<>
  3
DIMSTYLE_4
100
AcDbAlignedDimension
 13
241.6381231057
 23
116.7616144068
 14
241.6381231057
 24
130.7616144068
 50
90.0
100
AcDbRotatedDimension
  0
DIMENSION
  5
267
100
AcDbEntity
  8
0
100
AcDbDimension
 62
2
  6
CONTINUOUS
  2
*D4
 10
206.5914735371
 20
123.7616144068
 11
204.8774297711
 21
139.6582227673
 70
162
 71
2
 42
0.0523598776
  3
DIMSTYLE_5
100
AcDb2LineAngularDimension
 13
206.822553995
 23
132.5862210683
 14
217.4304807085
 24
132.0302831865
 15
216.5602944677
 25
123.7616144068
 16
208.1487395389
 26
128.1361648195
  0
DIMENSION
  5
268
100
AcDbEntity
  8
0
100
AcDbDimension
 62
2
  6
CONTINUOUS
  2
*D5
 10
253.1070031425
 20
127.7616144068
 11
250.4820031425
 21
137.4389420348
 70
160
 71
1
 42
8.0
  1
%%c<>
  3
DIMSTYLE_6
100
AcDbAlignedDimension
 13
241.6381231057
 23
119.7616144068
 14
241.6381231057
 24
127.7616144068
 50
90.0
100
AcDbRotatedDimension
  0
MTEXT
  5
269
100
AcDbEntity
  8
0
100
AcDbMText
 62
5
  6
CONTINUOUS
  7
STANDARD
 71
1
 72
1
 10
13.2290761186
 20
82.1243639695
 30
0.0
 11
1.0
 21
0.0
 31
0.0
 44
0.9
  3
Für diese Unterlage behalten wir das Ur-\Pheberrecht. Sie darf nur für den von uns \Pbestimmten Zweck benutzt und ohne unsere \PZustimmung weder vervielfältigt noch\PDritten zugänglich gemacht werden\P \PWe own the copyright of this document. It \Pde
  1
termined and may neither be copied or \Pmade accessible to outsiders without our\Ppermission.\P \PCe plan reste notre propriété. Il ne peut\Pêtre utilisé, copié ou reproduit sans notre\Paccord.\P 
 40
3.5
 41
99.162109375
  0
LINE
  5
26A
100
AcDbEntity
  8
0
100
AcDbLine
 62
7
  6
CONTINUOUS
 10
0.0
 20
0.0
 11
0.0
 21
210.0
  0
LINE
  5
26B
100
AcDbEntity
  8
0
100
AcDbLine
 62
7
  6
CONTINUOUS
 10
0.0
 20
0.0
 11
297.0
 21
0.0
  0
LINE
  5
26C
100
AcDbEntity
  8
0
100
AcDbLine
 62
7
  6
CONTINUOUS
 10
0.0
 20
210.0
 11
297.0
 21
210.0
  0
LINE
  5
26D
100
AcDbEntity
  8
0
100
AcDbLine
 62
7
  6
CONTINUOUS
 10
297.0
 20
0.0
 11
297.0
 21
210.0
  0
LINE
  5
26E
100
AcDbEntity
  8
BEZUGSACHSEN
100
AcDbLine
 62
7
  6
CONTINUOUS
 10
43.2381231057
 20
134.2813150812
 11
43.2381231057
 21
113.2419137323
  0
LINE
  5
26F
100
AcDbEntity
  8
BEZUGSACHSEN
100
AcDbLine
 62
9
  6
CONTINUOUS
 10
44.9494857673
 20
136.2603776085
 11
44.9494857673
 21
111.262851205
  0
LINE
  5
270
100
AcDbEntity
  8
BEZUGSACHSEN
100
AcDbLine
 62
7
  6
CONTINUOUS
 10
111.1808178432
 20
145.919918498
 11
111.1808178432
 21
101.6033103155
  0
LINE
  5
271
100
AcDbEntity
  8
BEZUGSACHSEN
100
AcDbLine
 62
7
  6
CENTER
 10
111.6381231057
 20
94.3937652233
 11
111.6381231057
 21
149.8555648734
  0
LINE
  5
272
100
AcDbEntity
  8
BEZUGSACHSEN
100
AcDbLine
 62
7
  6
CONTINUOUS
 10
112.2381231057
 20
145.6366144068
 11
112.2381231057
 21
101.8866144068
  0
LINE
  5
273
100
AcDbEntity
  8
BEZUGSACHSEN
100
AcDbLine
 62
9
  6
CONTINUOUS
 10
113.8881231057
 20
145.6366144068
 11
113.8881231057
 21
101.8866144068
  0
LINE
  5
274
100
AcDbEntity
  8
BEZUGSACHSEN
100
AcDbLine
 62
7
  6
CONTINUOUS
 10
114.8881231057
 20
154.5187285575
 11
114.8881231057
 21
131.9616144068
  0
LINE
  5
275
100
AcDbEntity
  8
BEZUGSACHSEN
100
AcDbLine
 62
7
  6
CONTINUOUS
 10
114.8881231057
 20
115.5616144068
 11
114.8881231057
 21
105.2616144068
  0
LINE
  5
276
100
AcDbEntity
  8
BEZUGSACHSEN
100
AcDbLine
 62
7
  6
CONTINUOUS
 10
114.8881231057
 20
99.1679033204
 11
114.8881231057
 21
92.9886461907
  0
LINE
  5
277
100
AcDbEntity
  8
0
100
AcDbLine
 62
7
  6
CONTINUOUS
 10
114.8881231057
 20
92.9866169114
 11
114.8881231057
 21
99.1679033204
  0
LINE
  5
278
100
AcDbEntity
  8
FASEN
100
AcDbLine
 62
7
  6
CONTINUOUS
 10
114.8881231057
 20
99.1679033204
 11
114.8881231057
 21
105.2616144068
  0
LINE
  5
279
100
AcDbEntity
  8
0
100
AcDbLine
 62
7
  6
CONTINUOUS
 10
114.8881231057
 20
105.2616144068
 11
114.8881231057
 21
115.5616144068
  0
LINE
  5
27A
100
AcDbEntity
  8
FASEN
100
AcDbLine
 62
7
  6
CONTINUOUS
 10
114.8881231057
 20
115.5616144068
 11
114.8881231057
 21
131.9616144068
  0
LINE
  5
27B
100
AcDbEntity
  8
0
100
AcDbLine
 62
7
  6
CONTINUOUS
 10
114.8881231057
 20
131.9616144068
 11
114.8881231057
 21
154.5366139652
  0
LINE
  5
27C
100
AcDbEntity
  8
0
100
AcDbLine
 62
9
  6
CONTINUOUS
 10
115.8881231057
 20
155.5366144068
 11
115.8881231057
 21
131.9616144068
  0
LINE
  5
27D
100
AcDbEntity
  8
0
100
AcDbLine
 62
9
  6
CONTINUOUS
 10
115.8881231057
 20
115.5616144068
 11
115.8881231057
 21
105.2616144068
  0
LINE
  5
27E
100
AcDbEntity
  8
0
100
AcDbLine
 62
9
  6
CONTINUOUS
 10
115.8881231057
 20
97.9275162998
 11
115.8881231057
 21
91.9866144068
  0
LINE
  5
27F
100
AcDbEntity
  8
BEZUGSACHSEN
100
AcDbLine
 62
7
  6
CONTINUOUS
 10
124.6881231057
 20
152.659209671
 11
126.3493935045
 21
155.5366144068
  0
LINE
  5
280
100
AcDbEntity
  8
BEZUGSACHSEN
100
AcDbLine
 62
7
  6
CONTINUOUS
 10
115.8881231057
 20
91.9866144068
 11
119.2768527069
 21
91.9866144068
  0
LINE
  5
281
100
AcDbEntity
  8
BEZUGSACHSEN
100
AcDbLine
 62
7
  6
CONTINUOUS
 10
126.3493935045
 20
91.9866144068
 11
129.7381231057
 21
91.9866144068
  0
LINE
  5
282
100
AcDbEntity
  8
BEZUGSACHSEN
100
AcDbLine
 62
7
  6
CONTINUOUS
 10
124.6881231057
 20
94.8640191426
 11
126.3493935045
 21
91.9866144068
  0
LINE
  5
283
100
AcDbEntity
  8
0
100
AcDbLine
 62
7
  6
CONTINUOUS
 10
119.2768527069
 20
91.9866144068
 11
119.2768527069
 21
97.9275162998
  0
LINE
  5
284
100
AcDbEntity
  8
0
100
AcDbLine
 62
7
  6
CONTINUOUS
 10
119.2768527069
 20
105.2616144068
 11
119.2768527069
 21
115.5616144068
  0
LINE
  5
285
100
AcDbEntity
  8
0
100
AcDbLine
 62
7
  6
CONTINUOUS
 10
119.2768527069
 20
131.9616144068
 11
119.2768527069
 21
155.5366144068
  0
LINE
  5
286
100
AcDbEntity
  8
0
100
AcDbLine
 62
7
  6
CONTINUOUS
 10
120.9381231057
 20
152.6592092088
 11
120.9381231057
 21
151.14663078
  0
LINE
  5
287
100
AcDbEntity
  8
BEZUGSACHSEN
100
AcDbLine
 62
7
  6
CONTINUOUS
 10
120.9381231057
 20
151.14663078
 11
120.9381231057
 21
150.890399991
  0
LINE
  5
288
100
AcDbEntity
  8
0
100
AcDbLine
 62
7
  6
CONTINUOUS
 10
120.9381231057
 20
150.6705588887
 11
120.9381231057
 21
131.9616144068
  0
LINE
  5
289
100
AcDbEntity
  8
0
100
AcDbLine
 62
7
  6
CONTINUOUS
 10
120.9381231057
 20
115.5616144068
 11
120.9381231057
 21
105.2616144068
  0
LINE
  5
28A
100
AcDbEntity
  8
0
100
AcDbLine
 62
7
  6
CONTINUOUS
 10
120.9381231057
 20
94.8640251832
 11
120.9381231057
 21
101.918065588
  0
LINE
  5
28B
100
AcDbEntity
  8
0
100
AcDbLine
 62
9
  6
CONTINUOUS
 10
121.4381231057
 20
95.6366144068
 11
121.4381231057
 21
102.5775254483
  0
LINE
  5
28C
100
AcDbEntity
  8
0
100
AcDbLine
 62
9
  6
CONTINUOUS
 10
121.4381231057
 20
105.2616144068
 11
121.4381231057
 21
115.5616144068
  0
LINE
  5
28D
100
AcDbEntity
  8
0
100
AcDbLine
 62
9
  6
CONTINUOUS
 10
121.4381231057
 20
131.9616144068
 11
121.4381231057
 21
149.6584679997
  0
LINE
  5
28E
100
AcDbEntity
  8
0
100
AcDbLine
 62
9
  6
CONTINUOUS
 10
121.4381231057
 20
150.6519467391
 11
121.4381231057
 21
151.8866144068
  0
LINE
  5
28F
100
AcDbEntity
  8
BEZUGSACHSEN
100
AcDbLine
 62
7
  6
CONTINUOUS
 10
154.3331922122
 20
101.2616144068
 11
164.0608559259
 21
103.0096150263
  0
LINE
  5
290
100
AcDbEntity
  8
BEZUGSACHSEN
100
AcDbLine
 62
7
  6
CONTINUOUS
 10
165.2267089155
 20
103.2191115517
 11
173.4451704254
 21
104.6959179292
  0
LINE
  5
291
100
AcDbEntity
  8
BEZUGSACHSEN
100
AcDbLine
 62
7
  6
CONTINUOUS
 10
121.4381231057
 20
95.6366144068
 11
124.1881231057
 21
95.6366144068
  0
LINE
  5
292
100
AcDbEntity
  8
0
100
AcDbLine
 62
7
  6
CONTINUOUS
 10
115.8881231057
 20
97.9275162998
 11
119.2768527069
 21
97.9275162998
  0
LINE
  5
293
100
AcDbEntity
  8
0
100
AcDbLine
 62
7
  6
CONTINUOUS
 10
126.3493935045
 20
97.9275162998
 11
129.7381231057
 21
97.9275162998
  0
LINE
  5
294
100
AcDbEntity
  8
BEZUGSACHSEN
100
AcDbLine
 62
7
  6
CONTINUOUS
 10
131.7381231057
 20
101.2616144068
 11
154.3331922122
 21
101.2616144068
  0
LINE
  5
295
100
AcDbEntity
  8
BEZUGSACHSEN
100
AcDbLine
 62
7
  6
CONTINUOUS
 10
112.2381231057
 20
101.8866144068
 11
113.8881231057
 21
101.8866144068
  0
LINE
  5
296
100
AcDbEntity
  8
BEZUGSACHSEN
100
AcDbLine
 62
7
  6
CONTINUOUS
 10
44.9494857673
 20
111.262851205
 11
111.1808178432
 21
101.6033103155
  0
LINE
  5
297
100
AcDbEntity
  8
0
100
AcDbLine
 62
9
  6
CONTINUOUS
 10
124.1881231057
 20
95.6366144068
 11
124.1881231057
 21
102.5775254483
  0
LINE
  5
298
100
AcDbEntity
  8
0
100
AcDbLine
 62
9
  6
CONTINUOUS
 10
124.1881231057
 20
105.2616144068
 11
124.1881231057
 21
115.5616144068
  0
LINE
  5
299
100
AcDbEntity
  8
0
100
AcDbLine
 62
9
  6
CONTINUOUS
 10
124.1881231057
 20
131.9616144068
 11
124.1881231057
 21
149.6584679997
  0
LINE
  5
29A
100
AcDbEntity
  8
0
100
AcDbLine
 62
9
  6
CONTINUOUS
 10
124.1881231057
 20
150.6519467391
 11
124.1881231057
 21
151.8866144068
  0
LINE
  5
29B
100
AcDbEntity
  8
BEZUGSACHSEN
100
AcDbLine
 62
7
  6
CONTINUOUS
 10
124.6881231057
 20
151.14663078
 11
124.6881231057
 21
150.890399991
  0
LINE
  5
29C
100
AcDbEntity
  8
0
100
AcDbLine
 62
7
  6
CONTINUOUS
 10
124.6881231057
 20
150.6705588887
 11
124.6881231057
 21
131.9616144068
  0
LINE
  5
29D
100
AcDbEntity
  8
0
100
AcDbLine
 62
7
  6
CONTINUOUS
 10
124.6881231057
 20
94.8640251832
 11
124.6881231057
 21
101.918065588
  0
LINE
  5
29E
100
AcDbEntity
  8
0
100
AcDbLine
 62
7
  6
CONTINUOUS
 10
124.6881231057
 20
105.2616144068
 11
124.6881231057
 21
115.5616144068
  0
LINE
  5
29F
100
AcDbEntity
  8
0
100
AcDbLine
 62
7
  6
CONTINUOUS
 10
124.6881231057
 20
151.14663078
 11
124.6881231057
 21
152.6592092088
  0
LINE
  5
2A0
100
AcDbEntity
  8
0
100
AcDbLine
 62
7
  6
CONTINUOUS
 10
126.3493935045
 20
155.5366144068
 11
126.3493935045
 21
131.9616144068
  0
LINE
  5
2A1
100
AcDbEntity
  8
0
100
AcDbLine
 62
7
  6
CONTINUOUS
 10
126.3493935045
 20
115.5616144068
 11
126.3493935045
 21
105.2616144068
  0
LINE
  5
2A2
100
AcDbEntity
  8
0
100
AcDbLine
 62
7
  6
CONTINUOUS
 10
126.3493935045
 20
97.9275162998
 11
126.3493935045
 21
91.9866144068
  0
LINE
  5
2A3
100
AcDbEntity
  8
0
100
AcDbLine
 62
9
  6
CONTINUOUS
 10
129.7381231057
 20
91.9866144068
 11
129.7381231057
 21
97.9275162998
  0
LINE
  5
2A4
100
AcDbEntity
  8
0
100
AcDbLine
 62
9
  6
CONTINUOUS
 10
129.7381231057
 20
105.2616144068
 11
129.7381231057
 21
115.5616144068
  0
LINE
  5
2A5
100
AcDbEntity
  8
0
100
AcDbLine
 62
9
  6
CONTINUOUS
 10
129.7381231057
 20
131.9616144068
 11
129.7381231057
 21
155.5366144068
  0
LINE
  5
2A6
100
AcDbEntity
  8
0
100
AcDbLine
 62
7
  6
CONTINUOUS
 10
121.4381231057
 20
102.5775254483
 11
124.1881231057
 21
102.5775254483
  0
LINE
  5
2A7
100
AcDbEntity
  8
FASEN
100
AcDbLine
 62
7
  6
CONTINUOUS
 10
114.8881231057
 20
104.8616144068
 11
130.7381231057
 21
104.8616144068
  0
LINE
  5
2A8
100
AcDbEntity
  8
0
100
AcDbLine
 62
7
  6
CONTINUOUS
 10
114.8881231057
 20
105.2616144068
 11
130.7381231057
 21
105.2616144068
  0
LINE
  5
2A9
100
AcDbEntity
  8
BEZUGSACHSEN
100
AcDbLine
 62
7
  6
CONTINUOUS
 10
174.850003321
 20
105.7616144068
 11
176.1381231057
 21
105.7616144068
  0
LINE
  5
2AA
100
AcDbEntity
  8
BEZUGSACHSEN
100
AcDbLine
 62
7
  6
CONTINUOUS
 10
181.1381231057
 20
105.7616144068
 11
182.8442985074
 21
105.7616144068
  0
LWPOLYLINE
  5
2AB
100
AcDbEntity
  8
0
100
AcDbPolyline
 62
7
  6
CONTINUOUS
 90
10
 70
0
 10
162.7097802403
 20
102.9837291595
 10
162.6990890602
 20
102.9838115993
 10
162.6906618052
 20
102.9840020105
 10
162.6890935744
 20
102.9840570442
 10
162.694808448
 20
102.9836604375
 10
162.7084673626
 20
102.9823825474
 10
162.7294723613
 20
102.9798230531
 10
162.7576676418
 20
102.9755029722
 10
162.7917647448
 20
102.9691161298
 10
162.8181525086
 20
102.9633730571
  0
LINE
  5
2AC
100
AcDbEntity
  8
BEZUGSACHSEN
100
AcDbLine
 62
7
  6
CONTINUOUS
 10
130.7381231057
 20
154.5187285575
 11
130.7381231057
 21
131.9616144068
  0
LINE
  5
2AD
100
AcDbEntity
  8
0
100
AcDbLine
 62
7
  6
CONTINUOUS
 10
130.7381231057
 20
154.5366139652
 11
130.7381231057
 21
131.9616144068
  0
LINE
  5
2AE
100
AcDbEntity
  8
0
100
AcDbLine
 62
7
  6
CONTINUOUS
 10
130.7381231057
 20
115.5616144068
 11
130.7381231057
 21
105.2616144068
  0
LINE
  5
2AF
100
AcDbEntity
  8
BEZUGSACHSEN
100
AcDbLine
 62
7
  6
CONTINUOUS
 10
130.7381231057
 20
99.1679033204
 11
130.7381231057
 21
92.9886461907
  0
LINE
  5
2B0
100
AcDbEntity
  8
0
100
AcDbLine
 62
7
  6
CONTINUOUS
 10
130.7381231057
 20
99.1679033204
 11
130.7381231057
 21
92.9866169114
  0
LINE
  5
2B1
100
AcDbEntity
  8
FASEN
100
AcDbLine
 62
7
  6
CONTINUOUS
 10
130.7381231057
 20
99.1679033204
 11
130.7381231057
 21
105.2616144068
  0
LINE
  5
2B2
100
AcDbEntity
  8
FASEN
100
AcDbLine
 62
7
  6
CONTINUOUS
 10
130.7381231057
 20
115.5616144068
 11
130.7381231057
 21
131.9616144068
  0
LINE
  5
2B3
100
AcDbEntity
  8
RUNDUNGEN
100
AcDbLine
 62
9
  6
CONTINUOUS
 10
131.7381231057
 20
146.2616144068
 11
131.7381231057
 21
101.2616144068
  0
LINE
  5
2B4
100
AcDbEntity
  8
BEZUGSACHSEN
100
AcDbLine
 62
7
  6
CONTINUOUS
 10
111.1808178432
 20
101.6033103155
 11
112.2381231057
 21
101.8866144068
  0
LINE
  5
2B5
100
AcDbEntity
  8
BEZUGSACHSEN
100
AcDbLine
 62
7
  6
CONTINUOUS
 10
192.4047990311
 20
114.1814052253
 11
241.3538238925
 21
116.7467149164
  0
LINE
  5
2B6
100
AcDbEntity
  8
0
100
AcDbLine
 62
7
  6
CONTINUOUS
 10
114.8881231057
 20
115.5616144068
 11
130.7381231057
 21
115.5616144068
  0
LINE
  5
2B7
100
AcDbEntity
  8
FASEN
100
AcDbLine
 62
7
  6
CONTINUOUS
 10
130.7381231057
 20
115.9616144068
 11
114.8881231057
 21
115.9616144068
  0
LINE
  5
2B8
100
AcDbEntity
  8
BEZUGSACHSEN
100
AcDbLine
 62
7
  6
CONTINUOUS
 10
119.2768527069
 20
91.9866144068
 11
120.9381231057
 21
94.8640191426
  0
LINE
  5
2B9
100
AcDbEntity
  8
DEFAULT_2
100
AcDbLine
 62
8
  6
HIDDEN
 10
240.1381231057
 20
119.7616144068
 11
215.6382952295
 21
119.7616144068
  0
LINE
  5
2BA
100
AcDbEntity
  8
BEZUGSACHSEN
100
AcDbLine
 62
7
  6
CONTINUOUS
 10
119.2768527069
 20
155.5366144068
 11
120.9381231057
 21
152.659209671
  0
LINE
  5
2BB
100
AcDbEntity
  8
DEFAULT_1
100
AcDbLine
 62
7
  6
CENTER
 10
178.6381231057
 20
123.7616144068
 11
165.2270333102
 21
123.7616144068
  0
LINE
  5
2BC
100
AcDbEntity
  8
DEFAULT_1
100
AcDbLine
 62
7
  6
CENTER
 10
164.0611803206
 20
123.7616144068
 11
159.1567670037
 21
123.7616144068
  0
LINE
  5
2BD
100
AcDbEntity
  8
BEZUGSACHSEN
100
AcDbLine
 62
7
  6
CENTER
 10
246.6381231057
 20
123.7616144068
 11
40.2381231057
 21
123.7616144068
  0
LINE
  5
2BE
100
AcDbEntity
  8
0
100
AcDbLine
 62
9
  6
CONTINUOUS
 10
164.0611803206
 20
123.7616144068
 11
165.2270333102
 21
123.7616144068
  0
LINE
  5
2BF
100
AcDbEntity
  8
DEFAULT_1
100
AcDbLine
 62
7
  6
CENTER
 10
178.6381231057
 20
123.7616144068
 11
198.1194792077
 21
123.7616144068
  0
LINE
  5
2C0
100
AcDbEntity
  8
DEFAULT_2
100
AcDbLine
 62
8
  6
HIDDEN
 10
240.1381231057
 20
127.7616144068
 11
215.6382952295
 21
127.7616144068
  0
LINE
  5
2C1
100
AcDbEntity
  8
BEZUGSACHSEN
100
AcDbLine
 62
7
  6
CONTINUOUS
 10
154.3331922122
 20
146.2616144068
 11
154.3331922122
 21
101.2616144068
  0
LINE
  5
2C2
100
AcDbEntity
  8
FASEN
100
AcDbLine
 62
7
  6
CONTINUOUS
 10
114.8881231057
 20
131.5616144068
 11
130.7381231057
 21
131.5616144068
  0
LINE
  5
2C3
100
AcDbEntity
  8
0
100
AcDbLine
 62
7
  6
CONTINUOUS
 10
114.8881231057
 20
131.9616144068
 11
130.7381231057
 21
131.9616144068
  0
LINE
  5
2C4
100
AcDbEntity
  8
BEZUGSACHSEN
100
AcDbLine
 62
7
  6
CONTINUOUS
 10
192.4047990311
 20
133.3418235882
 11
241.3538238925
 21
130.7765138972
  0
LINE
  5
2C5
100
AcDbEntity
  8
BEZUGSACHSEN
100
AcDbLine
 62
7
  6
CONTINUOUS
 10
111.1808178432
 20
145.919918498
 11
112.2381231057
 21
145.6366144068
  0
LINE
  5
2C6
100
AcDbEntity
  8
BEZUGSACHSEN
100
AcDbLine
 62
7
  6
CONTINUOUS
 10
174.850003321
 20
141.7616144068
 11
176.1381231057
 21
141.7616144068
  0
LINE
  5
2C7
100
AcDbEntity
  8
BEZUGSACHSEN
100
AcDbLine
 62
7
  6
CONTINUOUS
 10
181.1381231057
 20
141.7616144068
 11
182.8442985074
 21
141.7616144068
  0
LINE
  5
2C8
100
AcDbEntity
  8
BEZUGSACHSEN
100
AcDbLine
 62
7
  6
CONTINUOUS
 10
44.9494857673
 20
136.2603776085
 11
111.1808178432
 21
145.919918498
  0
LINE
  5
2C9
100
AcDbEntity
  8
BEZUGSACHSEN
100
AcDbLine
 62
7
  6
CONTINUOUS
 10
112.2381231057
 20
145.6366144068
 11
113.8881231057
 21
145.6366144068
  0
LINE
  5
2CA
100
AcDbEntity
  8
BEZUGSACHSEN
100
AcDbLine
 62
7
  6
CONTINUOUS
 10
131.7381231057
 20
146.2616144068
 11
154.3331922122
 21
146.2616144068
  0
LINE
  5
2CB
100
AcDbEntity
  8
BEZUGSACHSEN
100
AcDbLine
 62
7
  6
CONTINUOUS
 10
154.3331922122
 20
146.2616144068
 11
164.0608559259
 21
144.5136137873
  0
LINE
  5
2CC
100
AcDbEntity
  8
BEZUGSACHSEN
100
AcDbLine
 62
7
  6
CONTINUOUS
 10
165.2267089155
 20
144.3041172619
 11
173.4451704254
 21
142.8273108843
  0
LWPOLYLINE
  5
2CD
100
AcDbEntity
  8
0
100
AcDbPolyline
 62
7
  6
CONTINUOUS
 90
10
 70
0
 10
166.5783193414
 20
143.8424032935
 10
166.5905020155
 20
143.8378732772
 10
166.6001964026
 20
143.8340922857
 10
166.6024809611
 20
143.8331576254
 10
166.5973973145
 20
143.8354416654
 10
166.5847589145
 20
143.8415134161
 10
166.5655491129
 20
143.851455548
 10
166.540369759
 20
143.8655442419
 10
166.5108018879
 20
143.8834602352
 10
166.4941468792
 20
143.8941696929
  0
LINE
  5
2CE
100
AcDbEntity
  8
BEZUGSACHSEN
100
AcDbLine
 62
9
  6
CONTINUOUS
 10
173.4451704254
 20
142.8273108843
 11
173.4451704254
 21
104.6959179292
  0
LINE
  5
2CF
100
AcDbEntity
  8
BEZUGSACHSEN
100
AcDbLine
 62
9
  6
CONTINUOUS
 10
173.9965019067
 20
142.4399222207
 11
173.9965019067
 21
105.0833065929
  0
LINE
  5
2D0
100
AcDbEntity
  8
BEZUGSACHSEN
100
AcDbLine
 62
9
  6
CONTINUOUS
 10
174.157182998
 20
142.1616144068
 11
174.157182998
 21
105.3616144068
  0
LINE
  5
2D1
100
AcDbEntity
  8
BEZUGSACHSEN
100
AcDbLine
 62
9
  6
CONTINUOUS
 10
174.850003321
 20
141.7616144068
 11
174.850003321
 21
105.7616144068
  0
LINE
  5
2D2
100
AcDbEntity
  8
DEFAULT_1
100
AcDbLine
 62
7
  6
CENTER
 10
178.6381231057
 20
123.7616144068
 11
178.6381231057
 21
104.2802583048
  0
LINE
  5
2D3
100
AcDbEntity
  8
DEFAULT_1
100
AcDbLine
 62
7
  6
CENTER
 10
178.6381231057
 20
123.7616144068
 11
178.6381231057
 21
143.2429705088
  0
LINE
  5
2D4
100
AcDbEntity
  8
BEZUGSACHSEN
100
AcDbLine
 62
7
  6
CONTINUOUS
 10
173.9965019067
 20
105.0833065929
 11
174.157182998
 21
105.3616144068
  0
LINE
  5
2D5
100
AcDbEntity
  8
BEZUGSACHSEN
100
AcDbLine
 62
7
  6
CONTINUOUS
 10
121.4381231057
 20
151.8866144068
 11
124.1881231057
 21
151.8866144068
  0
LINE
  5
2D6
100
AcDbEntity
  8
BEZUGSACHSEN
100
AcDbLine
 62
7
  6
CONTINUOUS
 10
115.8881231057
 20
155.5366144068
 11
119.2768527069
 21
155.5366144068
  0
LINE
  5
2D7
100
AcDbEntity
  8
BEZUGSACHSEN
100
AcDbLine
 62
7
  6
CONTINUOUS
 10
126.3493935045
 20
155.5366144068
 11
129.7381231057
 21
155.5366144068
  0
LINE
  5
2D8
100
AcDbEntity
  8
BEZUGSACHSEN
100
AcDbLine
 62
9
  6
CONTINUOUS
 10
182.8442985074
 20
141.7616144068
 11
182.8442985074
 21
105.7616144068
  0
LINE
  5
2D9
100
AcDbEntity
  8
BEZUGSACHSEN
100
AcDbLine
 62
9
  6
CONTINUOUS
 10
183.5514052886
 20
141.468721188
 11
183.5514052886
 21
106.0545076256
  0
LINE
  5
2DA
100
AcDbEntity
  8
BEZUGSACHSEN
100
AcDbLine
 62
7
  6
CONTINUOUS
 10
183.5514052886
 20
106.0545076256
 11
191.0952573812
 21
113.5983597182
  0
LINE
  5
2DB
100
AcDbEntity
  8
BEZUGSACHSEN
100
AcDbLine
 62
7
  6
CONTINUOUS
 10
183.5514052886
 20
141.468721188
 11
191.0952573812
 21
133.9248690954
  0
LINE
  5
2DC
100
AcDbEntity
  8
BEZUGSACHSEN
100
AcDbLine
 62
7
  6
CONTINUOUS
 10
173.9965019067
 20
142.4399222207
 11
174.157182998
 21
142.1616144068
  0
LINE
  5
2DD
100
AcDbEntity
  8
BEZUGSACHSEN
100
AcDbLine
 62
9
  6
CONTINUOUS
 10
191.0952573812
 20
133.9248690954
 11
191.0952573812
 21
113.5983597182
  0
LINE
  5
2DE
100
AcDbEntity
  8
BEZUGSACHSEN
100
AcDbLine
 62
9
  6
CONTINUOUS
 10
192.4047990311
 20
133.3418235882
 11
192.4047990311
 21
114.1814052253
  0
LINE
  5
2DF
100
AcDbEntity
  8
DEFAULT_2
100
AcDbLine
 62
8
  6
HIDDEN
 10
215.4881231057
 20
128.0116144068
 11
215.4881231057
 21
119.5116144068
  0
LINE
  5
2E0
100
AcDbEntity
  8
BEZUGSACHSEN
100
AcDbLine
 62
9
  6
CONTINUOUS
 10
241.3538238925
 20
130.7765138972
 11
241.3538238925
 21
116.7467149164
  0
LINE
  5
2E1
100
AcDbEntity
  8
BEZUGSACHSEN
100
AcDbLine
 62
7
  6
CONTINUOUS
 10
241.6381231057
 20
130.4769250368
 11
241.6381231057
 21
117.0463037768
  0
CIRCLE
  5
2E2
100
AcDbEntity
  8
BEZUGSACHSEN
100
AcDbCircle
 62
7
  6
CONTINUOUS
 10
122.7381231057
 20
123.7616144068
 40
5.0
  0
CIRCLE
  5
2E3
100
AcDbEntity
  8
BEZUGSACHSEN
100
AcDbCircle
 62
7
  6
CONTINUOUS
 10
122.7381231057
 20
123.7616144068
 40
4.7
  0
CIRCLE
  5
2E4
100
AcDbEntity
  8
BEZUGSACHSEN
100
AcDbCircle
 62
7
  6
CONTINUOUS
 10
122.7381231057
 20
123.7616144068
 40
2.0
  0
ARC
  5
2E5
100
AcDbEntity
  8
BEZUGSACHSEN
100
AcDbCircle
 62
7
  6
CONTINUOUS
 10
45.2381231057
 20
113.2419137323
 40
2.0
100
AcDbArc
 50
180.0
 51
261.7021731718
  0
ARC
  5
2E6
100
AcDbEntity
  8
BEZUGSACHSEN
100
AcDbCircle
 62
7
  6
CONTINUOUS
 10
115.8881231057
 20
92.9866144068
 40
1.0
100
AcDbArc
 50
180.0
 51
270.0
  0
ARC
  5
2E7
100
AcDbEntity
  8
BEZUGSACHSEN
100
AcDbCircle
 62
7
  6
CONTINUOUS
 10
113.8881231057
 20
100.8866144068
 40
1.0
100
AcDbArc
 50
0.0
 51
90.0
  0
ARC
  5
2E8
100
AcDbEntity
  8
BEZUGSACHSEN
100
AcDbCircle
 62
7
  6
CONTINUOUS
 10
121.4381231057
 20
95.1366144068
 40
0.5
100
AcDbArc
 50
90.0
 51
180.0
  0
ARC
  5
2E9
100
AcDbEntity
  8
0
100
AcDbCircle
 62
7
  6
CONTINUOUS
 10
-52.6825834964
 20
178.7290418589
 40
189.9972240794
100
AcDbArc
 50
334.8317727047
 51
336.0368933894
  0
ARC
  5
2EA
100
AcDbEntity
  8
BEZUGSACHSEN
100
AcDbCircle
 62
7
  6
CONTINUOUS
 10
45.2381231057
 20
134.2813150812
 40
2.0
100
AcDbArc
 50
98.2978268282
 51
180.0
  0
ARC
  5
2EB
100
AcDbEntity
  8
BEZUGSACHSEN
100
AcDbCircle
 62
7
  6
CONTINUOUS
 10
113.8881231057
 20
146.6366144068
 40
1.0
100
AcDbArc
 50
270.0
 51
360.0
  0
ARC
  5
2EC
100
AcDbEntity
  8
BEZUGSACHSEN
100
AcDbCircle
 62
7
  6
CONTINUOUS
 10
115.8881231057
 20
154.5366144068
 40
1.0
100
AcDbArc
 50
90.0
 51
180.0
  0
ARC
  5
2ED
100
AcDbEntity
  8
BEZUGSACHSEN
100
AcDbCircle
 62
7
  6
CONTINUOUS
 10
121.4381231057
 20
152.3866144068
 40
0.5
100
AcDbArc
 50
180.0
 51
270.0
  0
ARC
  5
2EE
100
AcDbEntity
  8
0
100
AcDbCircle
 62
7
  6
CONTINUOUS
 10
159.8209295956
 20
114.2488838218
 40
30.5375093348
100
AcDbArc
 50
79.8037129805
 51
80.9117710883
  0
ARC
  5
2EF
100
AcDbEntity
  8
0
100
AcDbCircle
 62
7
  6
CONTINUOUS
 10
160.8020980134
 20
124.5713326958
 40
20.1991850042
100
AcDbArc
 50
77.0616667711
 51
77.4734490554
  0
ARC
  5
2F0
100
AcDbEntity
  8
0
100
AcDbCircle
 62
7
  6
CONTINUOUS
 10
161.495292605
 20
122.1891523269
 40
19.3261562406
100
AcDbArc
 50
277.4957131637
 51
277.8984952617
  0
ARC
  5
2F1
100
AcDbEntity
  8
GEWINDE
100
AcDbCircle
 62
7
  6
CONTINUOUS
 10
178.6381250068
 20
87.9350117638
 40
18.0008522335
100
AcDbArc
 50
82.0169180769
 51
97.983093908
  0
ARC
  5
2F2
100
AcDbEntity
  8
0
100
AcDbCircle
 62
2
  6
CONTINUOUS
 10
178.6381230974
 20
123.7616144068
 40
2.9999999917
100
AcDbArc
 50
0.0
 51
359.8424034203
  0
CIRCLE
  5
2F3
100
AcDbEntity
  8
GEWINDE
100
AcDbCircle
 62
7
  6
CONTINUOUS
 10
178.6381231057
 20
123.7616144068
 40
2.5
  0
ARC
  5
2F4
100
AcDbEntity
  8
BEZUGSACHSEN
100
AcDbCircle
 62
7
  6
CONTINUOUS
 10
192.5094709436
 20
112.1841461558
 40
2.0
100
AcDbArc
 50
93.0
 51
135.0
  0
ARC
  5
2F5
100
AcDbEntity
  8
RUNDUNGEN
100
AcDbCircle
 62
7
  6
CONTINUOUS
 10
131.7381231057
 20
100.2616144068
 40
1.0
100
AcDbArc
 50
90.0
 51
180.0
  0
ARC
  5
2F6
100
AcDbEntity
  8
BEZUGSACHSEN
100
AcDbCircle
 62
7
  6
CONTINUOUS
 10
182.8442985074
 20
106.7616144068
 40
1.0
100
AcDbArc
 50
270.0
 51
315.0
  0
ARC
  5
2F7
100
AcDbEntity
  8
BEZUGSACHSEN
100
AcDbCircle
 62
7
  6
CONTINUOUS
 10
129.7381231057
 20
92.9866144068
 40
1.0
100
AcDbArc
 50
270.0
 51
360.0
  0
ARC
  5
2F8
100
AcDbEntity
  8
BEZUGSACHSEN
100
AcDbCircle
 62
7
  6
CONTINUOUS
 10
173.3036815837
 20
105.4833065929
 40
0.8
100
AcDbArc
 50
280.1869780731
 51
330.0
  0
ARC
  5
2F9
100
AcDbEntity
  8
BEZUGSACHSEN
100
AcDbCircle
 62
7
  6
CONTINUOUS
 10
174.850003321
 20
104.9616144068
 40
0.8
100
AcDbArc
 50
90.0
 51
150.0
  0
ARC
  5
2FA
100
AcDbEntity
  8
BEZUGSACHSEN
100
AcDbCircle
 62
7
  6
CONTINUOUS
 10
124.1881231057
 20
95.1366144068
 40
0.5
100
AcDbArc
 50
0.0
 51
90.0
  0
ARC
  5
2FB
100
AcDbEntity
  8
0
100
AcDbCircle
 62
7
  6
CONTINUOUS
 10
162.9103186784
 20
103.3481394163
 40
0.3956798685
100
AcDbArc
 50
251.7941846656
 51
256.5390288323
  0
ARC
  5
2FC
100
AcDbEntity
  8
BEZUGSACHSEN
100
AcDbCircle
 62
7
  6
CONTINUOUS
 10
241.3381231057
 20
130.4769250368
 40
0.3
100
AcDbArc
 50
0.0
 51
87.0
  0
ARC
  5
2FD
100
AcDbEntity
  8
BEZUGSACHSEN
100
AcDbCircle
 62
7
  6
CONTINUOUS
 10
241.3381231057
 20
117.0463037768
 40
0.3
100
AcDbArc
 50
273.0
 51
360.0
  0
ARC
  5
2FE
100
AcDbEntity
  8
0
100
AcDbCircle
 62
7
  6
CONTINUOUS
 10
298.3088297074
 20
178.7290418577
 40
189.9972240794
100
AcDbArc
 50
203.9631066104
 51
205.168227295
  0
ARC
  5
2FF
100
AcDbEntity
  8
0
100
AcDbCircle
 62
7
  6
CONTINUOUS
 10
158.583433752
 20
133.5066418848
 40
30.9850090431
100
AcDbArc
 50
280.1820573095
 51
281.2805000062
  0
ARC
  5
300
100
AcDbEntity
  8
GEWINDE
100
AcDbCircle
 62
7
  6
CONTINUOUS
 10
178.6381231053
 20
159.5883236933
 40
18.0009585021
100
AcDbArc
 50
262.0169592265
 51
277.9830407756
  0
ARC
  5
301
100
AcDbEntity
  8
BEZUGSACHSEN
100
AcDbCircle
 62
7
  6
CONTINUOUS
 10
192.5094709436
 20
135.3390826577
 40
2.0
100
AcDbArc
 50
225.0
 51
267.0
  0
ARC
  5
302
100
AcDbEntity
  8
RUNDUNGEN
100
AcDbCircle
 62
7
  6
CONTINUOUS
 10
131.7381231057
 20
147.2616144068
 40
1.0
100
AcDbArc
 50
180.0
 51
270.0
  0
ARC
  5
303
100
AcDbEntity
  8
BEZUGSACHSEN
100
AcDbCircle
 62
7
  6
CONTINUOUS
 10
182.8442985074
 20
140.7616144068
 40
1.0
100
AcDbArc
 50
45.0
 51
90.0
  0
ARC
  5
304
100
AcDbEntity
  8
BEZUGSACHSEN
100
AcDbCircle
 62
7
  6
CONTINUOUS
 10
129.7381231057
 20
154.5366144068
 40
1.0
100
AcDbArc
 50
0.0
 51
90.0
  0
ARC
  5
305
100
AcDbEntity
  8
BEZUGSACHSEN
100
AcDbCircle
 62
7
  6
CONTINUOUS
 10
173.3036815837
 20
142.0399222207
 40
0.8
100
AcDbArc
 50
30.0
 51
79.8130219269
  0
ARC
  5
306
100
AcDbEntity
  8
BEZUGSACHSEN
100
AcDbCircle
 62
7
  6
CONTINUOUS
 10
174.850003321
 20
142.5616144068
 40
0.8
100
AcDbArc
 50
210.0
 51
270.0
  0
ARC
  5
307
100
AcDbEntity
  8
BEZUGSACHSEN
100
AcDbCircle
 62
7
  6
CONTINUOUS
 10
124.1881231057
 20
152.3866144068
 40
0.5
100
AcDbArc
 50
270.0
 51
360.0
  0
ARC
  5
308
100
AcDbEntity
  8
0
100
AcDbCircle
 62
7
  6
CONTINUOUS
 10
166.2792138792
 20
143.5720787227
 40
0.3872443537
100
AcDbArc
 50
51.044828697
 51
56.278653106
  0
SPLINE
  5
309
100
AcDbEntity
  8
0
100
AcDbSpline
 62
2
  6
CONTINUOUS
 70
0
 71
3
 72
29
 73
25
 74
23
 42
0.0000001
 43
0.0000001
 44
0.0000000001
 12
-0.0253038713
 22
0.0042172968
 32
0.0
 13
-0.0257144819
 23
-0.0042857312
 33
0.0
 40
0.0
 40
0.0
 40
0.0
 40
0.0
 40
0.0454545455
 40
0.0909090909
 40
0.1363636364
 40
0.1818181818
 40
0.2272727273
 40
0.2727272727
 40
0.3181818182
 40
0.3636363636
 40
0.4090909091
 40
0.4545454545
 40
0.5
 40
0.5454545455
 40
0.5909090909
 40
0.6363636364
 40
0.6818181818
 40
0.7272727273
 40
0.7727272727
 40
0.8181818182
 40
0.8636363636
 40
0.9090909091
 40
0.9545454545
 40
1.0
 40
1.0
 40
1.0
 40
1.0
 10
181.6381121143
 20
105.7616161767
 30
0.0
 10
181.6377287223
 20
105.7616800751
 30
0.0
 10
181.6169174446
 20
105.7651659045
 30
0.0
 10
181.5251797397
 20
105.7802194059
 30
0.0
 10
181.3755671807
 20
105.803794238
 30
0.0
 10
181.1686269831
 20
105.8343730868
 30
0.0
 10
180.9115261618
 20
105.8690974603
 30
0.0
 10
180.6048922513
 20
105.905711349
 30
0.0
 10
180.2613582919
 20
105.9405185574
 30
0.0
 10
179.8822378194
 20
105.9712494473
 30
0.0
 10
179.481951976
 20
105.9949029614
 30
0.0
 10
179.0633866086
 20
106.0099655979
 30
0.0
 10
178.6381841194
 20
106.015079089
 30
0.0
 10
178.2129740337
 20
106.0099683904
 30
0.0
 10
177.7944096469
 20
105.9949083978
 30
0.0
 10
177.3941234769
 20
105.9712576127
 30
0.0
 10
177.0149833947
 20
105.9405272612
 30
0.0
 10
176.6714582069
 20
105.9057229278
 30
0.0
 10
176.364787754
 20
105.8691061422
 30
0.0
 10
176.1076980092
 20
105.8343842363
 30
0.0
 10
175.9007202024
 20
105.8038006114
 30
0.0
 10
175.751105399
 20
105.7802256625
 30
0.0
 10
175.6593418134
 20
105.7651681002
 30
0.0
 10
175.6385240723
 20
105.7616811703
 30
0.0
 10
175.6381344589
 20
105.7616162349
 30
0.0
 11
181.6381121143
 21
105.7616161767
 31
0.0
 11
181.6068306465
 21
105.766803364
 31
0.0
 11
181.5155339307
 21
105.7816396277
 31
0.0
 11
181.3660125743
 21
105.8049615741
 31
0.0
 11
181.1602668792
 21
105.8350640076
 31
0.0
 11
180.903270647
 21
105.8694123795
 31
0.0
 11
180.5987422432
 21
105.9054102356
 31
0.0
 11
180.2554272064
 21
105.939839171
 31
0.0
 11
179.8787102576
 21
105.9700698847
 31
0.0
 11
179.4789053887
 21
105.9934711485
 31
0.0
 11
179.0622804217
 21
106.008307407
 31
0.0
 11
178.6381828534
 21
106.0133750574
 31
0.0
 11
178.2140816502
 21
106.0083101747
 31
0.0
 11
177.7974560164
 21
105.993476599
 31
0.0
 11
177.3976478249
 21
105.970077685
 31
0.0
 11
177.0209192105
 21
105.9398482642
 31
0.0
 11
176.6776006628
 21
105.9054208525
 31
0.0
 11
176.3730512054
 21
105.8694219555
 31
0.0
 11
176.1160499989
 21
105.8350739498
 31
0.0
 11
175.9102807029
 21
105.8049687241
 31
0.0
 11
175.7607472686
 21
105.7816452269
 31
0.0
 11
175.669431309
 21
105.7668059615
 31
0.0
 11
175.6381344589
 21
105.7616162349
 31
0.0
  0
SPLINE
  5
30A
100
AcDbEntity
  8
0
100
AcDbSpline
 62
2
  6
CONTINUOUS
 70
0
 71
3
 72
29
 73
25
 74
23
 42
0.0000001
 43
0.0000001
 44
0.0000000001
 12
0.0256930562
 22
-0.0042821603
 32
0.0
 13
0.0256959066
 23
0.0042826353
 33
0.0
 40
0.0
 40
0.0
 40
0.0
 40
0.0
 40
0.0454545455
 40
0.0909090909
 40
0.1363636364
 40
0.1818181818
 40
0.2272727273
 40
0.2727272727
 40
0.3181818182
 40
0.3636363636
 40
0.4090909091
 40
0.4545454545
 40
0.5
 40
0.5454545455
 40
0.5909090909
 40
0.6363636364
 40
0.6818181818
 40
0.7272727273
 40
0.7727272727
 40
0.8181818182
 40
0.8636363636
 40
0.9090909091
 40
0.9545454545
 40
1.0
 40
1.0
 40
1.0
 40
1.0
 10
175.6381344404
 20
141.7616125816
 30
0.0
 10
175.6385237291
 20
141.7615477004
 30
0.0
 10
175.6593418022
 20
141.7580607389
 30
0.0
 10
175.7510879278
 20
141.7430059496
 30
0.0
 10
175.9007048523
 20
141.7194306243
 30
0.0
 10
176.1076450246
 20
141.6888521205
 30
0.0
 10
176.3647444401
 20
141.6541281473
 30
0.0
 10
176.6713982773
 20
141.6175126666
 30
0.0
 10
177.0149067473
 20
141.5827084446
 30
0.0
 10
177.3940607557
 20
141.5519758023
 30
0.0
 10
177.7943033988
 20
141.5283253629
 30
0.0
 10
178.2129124521
 20
141.5132620237
 30
0.0
 10
178.6380593626
 20
141.5081497777
 30
0.0
 10
179.0633175739
 20
141.5132614024
 30
0.0
 10
179.4818439749
 20
141.5283208947
 30
0.0
 10
179.8821552859
 20
141.5519733964
 30
0.0
 10
180.2612737944
 20
141.5827026516
 30
0.0
 10
180.6048075092
 20
141.6175080013
 30
0.0
 10
180.9114674861
 20
141.6541238723
 30
0.0
 10
181.168556894
 20
141.6888457992
 30
0.0
 10
181.3755308556
 20
141.719428957
 30
0.0
 10
181.5251433766
 20
141.7430035647
 30
0.0
 10
181.6169054517
 20
141.7580608896
 30
0.0
 10
181.6377224368
 20
141.7615476928
 30
0.0
 10
181.6381117687
 20
141.7616125812
 30
0.0
 11
175.6381344404
 21
141.7616125816
 31
0.0
 11
175.6694283048
 21
141.7564233477
 31
0.0
 11
175.7607330609
 21
141.7415858603
 31
0.0
 11
175.9102587269
 21
141.7182634279
 31
0.0
 11
176.1160048985
 21
141.688161209
 31
0.0
 11
176.3730035104
 21
141.6538128961
 31
0.0
 11
176.6775407161
 21
141.617814543
 31
0.0
 11
177.0208476703
 21
141.5833870412
 31
0.0
 11
177.3975755281
 21
141.5531561694
 31
0.0
 11
177.7973644672
 21
141.5297565462
 31
0.0
 11
178.214002095
 21
141.5149205392
 31
0.0
 11
178.6380779127
 21
141.5098537561
 31
0.0
 11
179.0621956055
 21
141.5149193804
 31
0.0
 11
179.4788081266
 21
141.5297530629
 31
0.0
 11
179.8786231522
 21
141.5531528553
 31
0.0
 11
180.2553429954
 21
141.5833820007
 31
0.0
 11
180.5986618862
 21
141.6178097549
 31
0.0
 11
180.9032057246
 21
141.653808215
 31
0.0
 11
181.1602043196
 21
141.6881560043
 31
0.0
 11
181.3659706155
 21
141.7182608653
 31
0.0
 11
181.5155016356
 21
141.7415840175
 31
0.0
 11
181.6068160188
 21
141.7564230363
 31
0.0
 11
181.6381117687
 21
141.7616125812
 31
0.0
  0
SPLINE
  5
30B
100
AcDbEntity
  8
BEZUGSACHSEN
100
AcDbSpline
 62
7
  6
CONTINUOUS
 70
0
 71
3
 72
19
 73
15
 74
13
 42
0.0000001
 43
0.0000001
 44
0.0000000001
 12
-0.8939002816
 22
0.3305664543
 32
0.0
 13
0.0
 23
0.9530644753
 33
0.0
 40
0.0
 40
0.0
 40
0.0
 40
0.0
 40
0.1217181457
 40
0.2412117709
 40
0.3499481467
 40
0.4477039725
 40
0.5373829645
 40
0.6199208207
 40
0.6964779373
 40
0.7678297527
 40
0.8343908613
 40
0.8961956983
 40
0.9521075556
 40
1.0
 40
1.0
 40
1.0
 40
1.0
 10
121.4381231057
 20
149.6584679997
 30
0.0
 10
121.4018551441
 20
149.6718799783
 30
0.0
 10
121.3328473415
 20
149.706657326
 30
0.0
 10
121.2439123831
 20
149.7741150553
 30
0.0
 10
121.1710170299
 20
149.8480792897
 30
0.0
 10
121.1129273635
 20
149.9223006623
 30
0.0
 10
121.0665919799
 20
149.9946028434
 30
0.0
 10
121.0294651395
 20
150.0644590228
 30
0.0
 10
120.9998950358
 20
150.131497335
 30
0.0
 10
120.9767069436
 20
150.1956193761
 30
0.0
 10
120.9591644042
 20
150.2566438245
 30
0.0
 10
120.9469144354
 20
150.3139435034
 30
0.0
 10
120.9398104827
 20
150.3661262268
 30
0.0
 10
120.9381231057
 20
150.3991132372
 30
0.0
 10
120.9381231057
 20
150.4143280997
 30
0.0
 11
121.4381231057
 21
149.6584679997
 31
0.0
 11
121.3341733435
 21
149.7099622986
 31
0.0
 11
121.2430881336
 21
149.77832389
 31
0.0
 11
121.1701350794
 21
149.8519282673
 31
0.0
 11
121.1125926036
 21
149.9252021784
 31
0.0
 11
121.0664119641
 21
149.9971218959
 31
0.0
 11
121.0294685013
 21
150.0665710823
 31
0.0
 11
121.0000274821
 21
150.1333314931
 31
0.0
 11
120.9769376748
 21
150.197294393
 31
0.0
 11
120.9594838794
 21
150.2582830932
 31
0.0
 11
120.9472878424
 21
150.3159106669
 31
0.0
 11
120.9402687801
 21
150.3687339724
 31
0.0
 11
120.9381231057
 21
150.4143280997
 31
0.0
  0
SPLINE
  5
30C
100
AcDbEntity
  8
BEZUGSACHSEN
100
AcDbSpline
 62
7
  6
CONTINUOUS
 70
0
 71
3
 72
18
 73
14
 74
12
 42
0.0000001
 43
0.0000001
 44
0.0000000001
 12
-2.6242089124
 22
-0.9704387092
 32
0.0
 13
-2.6242089124
 23
0.9704387092
 33
0.0
 40
0.0
 40
0.0
 40
0.0
 40
0.0
 40
0.0799679098
 40
0.1663286595
 40
0.257944786
 40
0.3532485422
 40
0.4508026001
 40
0.549197501
 40
0.6467509057
 40
0.7420528253
 40
0.8336699519
 40
0.920031171
 40
1.0
 40
1.0
 40
1.0
 40
1.0
 10
124.1881231057
 20
149.6584679997
 30
0.0
 10
124.1181722718
 20
149.6326000146
 30
0.0
 10
123.9702840111
 20
149.5851550947
 30
0.0
 10
123.7363600784
 20
149.5282889557
 30
0.0
 10
123.4851591042
 20
149.4842072837
 30
0.0
 10
123.2214087544
 20
149.4541268894
 30
0.0
 10
122.9500598088
 20
149.438873541
 30
0.0
 10
122.6761867296
 20
149.4388735488
 30
0.0
 10
122.404840103
 20
149.454126732
 30
0.0
 10
122.1410911156
 20
149.4842067357
 30
0.0
 10
121.8898904175
 20
149.5282880224
 30
0.0
 10
121.6559642661
 20
149.5851544727
 30
0.0
 10
121.5080747436
 20
149.6325997173
 30
0.0
 10
121.4381231057
 20
149.6584679997
 30
0.0
 11
124.1881231057
 21
149.6584679997
 31
0.0
 11
123.9752859176
 21
149.5894696105
 31
0.0
 11
123.7406093944
 21
149.5319263769
 31
0.0
 11
123.4881919829
 21
149.4872972326
 31
0.0
 11
123.2232827062
 21
149.4568782918
 31
0.0
 11
122.9507723291
 21
149.441461144
 31
0.0
 11
122.6754736
 21
149.441461152
 31
0.0
 11
122.4029650454
 21
149.4568781602
 31
0.0
 11
122.1380608459
 21
149.4872962714
 31
0.0
 11
121.8856406214
 21
149.5319255776
 31
0.0
 11
121.6509627698
 21
149.5894689095
 31
0.0
 11
121.4381231057
 21
149.6584679997
 31
0.0
  0
SPLINE
  5
30D
100
AcDbEntity
  8
0
100
AcDbSpline
 62
7
  6
CONTINUOUS
 70
0
 71
3
 72
13
 73
9
 74
7
 42
0.0000001
 43
0.0000001
 44
0.0000000001
 12
1.1954314035
 22
-0.2866089018
 32
0.0
 13
1.1944783024
 23
0.1570691599
 33
0.0
 40
0.0
 40
0.0
 40
0.0
 40
0.0
 40
0.0705447391
 40
0.2242306145
 40
0.4287339957
 40
0.6568908317
 40
0.8865573965
 40
1.0
 40
1.0
 40
1.0
 40
1.0
 10
162.8182111517
 20
102.9633293827
 30
0.0
 10
162.8463216171
 20
102.9565897993
 30
0.0
 10
162.9321770556
 20
102.9460195831
 30
0.0
 10
163.1073617673
 20
102.942829631
 30
0.0
 10
163.3413985004
 20
102.9550341533
 30
0.0
 10
163.6067455909
 20
102.9786485944
 30
0.0
 10
163.8345864251
 20
103.0047583678
 30
0.0
 10
163.9712603383
 20
103.0222059037
 30
0.0
 10
164.0164285811
 20
103.0281453485
 30
0.0
 11
162.8182111517
 21
102.9633293827
 31
0.0
 11
162.9009140633
 21
102.9508199397
 31
0.0
 11
163.0859731304
 21
102.9450708915
 31
0.0
 11
163.3321008326
 21
102.955976201
 31
0.0
 11
163.6059367987
 21
102.9797376272
 31
0.0
 11
163.8808644279
 21
103.010861524
 31
0.0
 11
164.0164285811
 21
103.0281453485
 31
0.0
  0
SPLINE
  5
30E
100
AcDbEntity
  8
0
100
AcDbSpline
 62
7
  6
CONTINUOUS
 70
0
 71
3
 72
11
 73
7
 74
5
 42
0.0000001
 43
0.0000001
 44
0.0000000001
 12
1.0792210283
 22
0.1496386374
 32
0.0
 13
1.0723218595
 23
0.1926895635
 33
0.0
 40
0.0
 40
0.0
 40
0.0
 40
0.0
 40
0.2480814773
 40
0.496318906
 40
0.7463126315
 40
1.0
 40
1.0
 40
1.0
 40
1.0
 10
164.1510646363
 20
103.0463419284
 30
0.0
 10
164.240309552
 20
103.0587161198
 30
0.0
 10
164.4186814211
 20
103.0846350844
 30
0.0
 10
164.6864704661
 20
103.1264990243
 30
0.0
 10
164.9558537506
 20
103.1712434362
 30
0.0
 10
165.1360307453
 20
103.2028172489
 30
0.0
 10
165.2267089155
 20
103.2191115517
 30
0.0
 11
164.1510646363
 21
103.0463419284
 31
0.0
 11
164.4185542643
 21
103.0851070718
 31
0.0
 11
164.6857716468
 21
103.1268225829
 31
0.0
 11
164.9544633483
 21
103.1714181049
 31
0.0
 11
165.2267089155
 21
103.2191115517
 31
0.0
  0
SPLINE
  5
30F
100
AcDbEntity
  8
0
100
AcDbSpline
 62
7
  6
CONTINUOUS
 70
0
 71
3
 72
20
 73
16
 74
14
 42
0.0000001
 43
0.0000001
 44
0.0000000001
 12
3.7356343884
 22
2.4993568709
 32
0.0
 13
3.8886388358
 23
2.3770246484
 33
0.0
 40
0.0
 40
0.0
 40
0.0
 40
0.0
 40
0.0054044305
 40
0.0505156823
 40
0.1100087745
 40
0.1818063989
 40
0.264278588
 40
0.3558009967
 40
0.4545410471
 40
0.558181612
 40
0.6643263197
 40
0.7704342811
 40
0.8728564689
 40
0.9657622986
 40
1.0
 40
1.0
 40
1.0
 40
1.0
 10
161.7103936019
 20
102.9748562772
 30
0.0
 10
161.7171232606
 20
102.9793588107
 30
0.0
 10
161.7804155999
 20
103.0208505627
 30
0.0
 10
161.9288290898
 20
103.1010866251
 30
0.0
 10
162.168787135
 20
103.218675881
 30
0.0
 10
162.4652537801
 20
103.3518219717
 30
0.0
 10
162.808208526
 20
103.4991023757
 30
0.0
 10
163.1902456339
 20
103.6593451273
 30
0.0
 10
163.6022466214
 20
103.8311672536
 30
0.0
 10
164.0341484572
 20
104.0130022582
 30
0.0
 10
164.4745758668
 20
104.2033881632
 30
0.0
 10
164.9101022759
 20
104.4003379808
 30
0.0
 10
165.3221652365
 20
104.6000893553
 30
0.0
 10
165.6297855987
 20
104.764516433
 30
0.0
 10
165.796151741
 20
104.8627223297
 30
0.0
 10
165.8405310928
 20
104.8898502831
 30
0.0
 11
161.7103936019
 21
102.9748562772
 31
0.0
 11
161.7307215595
 21
102.9881836219
 31
0.0
 11
161.9096440677
 21
103.0893760698
 31
0.0
 11
162.1527665846
 21
103.2092947897
 31
0.0
 11
162.4507302604
 21
103.344382493
 31
0.0
 11
162.7957942141
 21
103.4932233805
 31
0.0
 11
163.1801821457
 21
103.654975957
 31
0.0
 11
163.5952837212
 21
103.8285309581
 31
0.0
 11
164.0303530081
 21
104.0122085312
 31
0.0
 11
164.4740869125
 21
104.2046414238
 31
0.0
 11
164.9142829003
 21
104.4046307931
 31
0.0
 11
165.3337245748
 21
104.6092734573
 31
0.0
 11
165.7062617093
 21
104.8103494785
 31
0.0
 11
165.8405310928
 21
104.8898502831
 31
0.0
  0
SPLINE
  5
310
100
AcDbEntity
  8
0
100
AcDbSpline
 62
7
  6
CONTINUOUS
 70
0
 71
3
 72
13
 73
9
 74
7
 42
0.0000001
 43
0.0000001
 44
0.0000000001
 12
-1.0357026718
 22
0.6921938221
 32
0.0
 13
-1.1981385733
 23
0.2753583828
 33
0.0
 40
0.0
 40
0.0
 40
0.0
 40
0.0
 40
0.0631119251
 40
0.2089905006
 40
0.4100453484
 40
0.642431421
 40
0.8812680597
 40
1.0
 40
1.0
 40
1.0
 40
1.0
 10
166.4941942679
 20
143.8941681853
 30
0.0
 10
166.4724058714
 20
143.9087300802
 30
0.0
 10
166.3994179137
 20
143.9474119437
 30
0.0
 10
166.2407382722
 20
144.010668813
 30
0.0
 10
166.0154103607
 20
144.0820072948
 30
0.0
 10
165.7494133568
 20
144.1552950309
 30
0.0
 10
165.5148321532
 20
144.2134250085
 30
0.0
 10
165.3721595093
 20
144.2467950199
 30
0.0
 10
165.3247404034
 20
144.2576929649
 30
0.0
 11
166.4941942679
 21
143.8941681853
 31
0.0
 11
166.4276041009
 21
143.9315053245
 31
0.0
 11
166.2619694626
 21
144.0002476347
 31
0.0
 11
166.0269706949
 21
144.0768315432
 31
0.0
 11
165.7517409596
 21
144.1533906631
 31
0.0
 11
165.4668549604
 21
144.2244284197
 31
0.0
 11
165.3247404034
 21
144.2576929649
 31
0.0
  0
SPLINE
  5
311
100
AcDbEntity
  8
0
100
AcDbSpline
 62
7
  6
CONTINUOUS
 70
0
 71
3
 72
11
 73
7
 74
5
 42
0.0000001
 43
0.0000001
 44
0.0000000001
 12
-1.1172626866
 22
0.2483311828
 32
0.0
 13
-1.1264357765
 23
0.2024134975
 33
0.0
 40
0.0
 40
0.0
 40
0.0
 40
0.0
 40
0.2509942664
 40
0.4996416038
 40
0.7482717945
 40
1.0
 40
1.0
 40
1.0
 40
1.0
 10
165.1831398013
 20
144.2896882988
 30
0.0
 10
165.0896642918
 20
144.3104648664
 30
0.0
 10
164.903326337
 20
144.3505888253
 30
0.0
 10
164.6236164354
 20
144.4076308394
 30
0.0
 10
164.343096067
 20
144.4620149975
 30
0.0
 10
164.1553744781
 20
144.4966293917
 30
0.0
 10
164.0608559259
 20
144.5136137873
 30
0.0
 11
165.1831398013
 21
144.2896882988
 31
0.0
 11
164.9023420437
 21
144.3502636446
 31
0.0
 11
164.6235210358
 21
144.4071816801
 31
0.0
 11
164.3441759687
 21
144.4613663854
 31
0.0
 11
164.0608559259
 21
144.5136137873
 31
0.0
  0
SPLINE
  5
312
100
AcDbEntity
  8
0
100
AcDbSpline
 62
7
  6
CONTINUOUS
 70
0
 71
3
 72
19
 73
15
 74
13
 42
0.0000001
 43
0.0000001
 44
0.0000000001
 12
-3.6541846735
 22
-0.8825992216
 32
0.0
 13
-3.7313485463
 23
-0.8041504744
 33
0.0
 40
0.0
 40
0.0
 40
0.0
 40
0.0
 40
0.0040138857
 40
0.0565061875
 40
0.1249313201
 40
0.2066068788
 40
0.2990560745
 40
0.4000689162
 40
0.5094762276
 40
0.6276531288
 40
0.7503364262
 40
0.8680713199
 40
0.9745177772
 40
1.0
 40
1.0
 40
1.0
 40
1.0
 10
167.5287209583
 20
143.5007848462
 30
0.0
 10
167.5238317984
 20
143.4996039621
 30
0.0
 10
167.4548674121
 20
143.4833778016
 30
0.0
 10
167.2960783066
 20
143.4592923941
 30
0.0
 10
167.0407519943
 20
143.4304529244
 30
0.0
 10
166.7329425216
 20
143.4051375582
 30
0.0
 10
166.3839042031
 20
143.3806100156
 30
0.0
 10
165.9994391292
 20
143.3552863069
 30
0.0
 10
165.5824211533
 20
143.3268156643
 30
0.0
 10
165.1381713732
 20
143.2924576391
 30
0.0
 10
164.6840238287
 20
143.2493076291
 30
0.0
 10
164.2460443347
 20
143.1951041643
 30
0.0
 10
163.9326300073
 20
143.1430115039
 30
0.0
 10
163.7682233274
 20
143.1091067439
 30
0.0
 10
163.7365289757
 20
143.10227623
 30
0.0
 11
167.5287209583
 21
143.5007848462
 31
0.0
 11
167.5140196955
 21
143.4973256361
 31
0.0
 11
167.3165733812
 21
143.4635134292
 31
0.0
 11
167.057178016
 21
143.4335238319
 31
0.0
 11
166.7466325291
 21
143.4068453199
 31
0.0
 11
166.3947320676
 21
143.3816179095
 31
0.0
 11
166.0101107987
 21
143.3558412432
 31
0.0
 11
165.5935910418
 21
143.3269733831
 31
0.0
 11
165.1439943103
 21
143.2916101396
 31
0.0
 11
164.6779936313
 21
143.2464624283
 31
0.0
 11
164.2322441501
 21
143.1901011334
 31
0.0
 11
163.8317792471
 21
143.1219663203
 31
0.0
 11
163.7365289757
 21
143.10227623
 31
0.0
  0
SPLINE
  5
313
100
AcDbEntity
  8
BEZUGSACHSEN
100
AcDbSpline
 62
7
  6
CONTINUOUS
 70
0
 71
3
 72
11
 73
7
 74
5
 42
0.0000001
 43
0.0000001
 44
0.0000000001
 12
0.0
 22
-0.4680658555
 32
0.0
 13
-0.1674374283
 23
-0.437093071
 33
0.0
 40
0.0
 40
0.0
 40
0.0
 40
0.0
 40
0.1445461367
 40
0.3576974325
 40
0.6432572252
 40
1.0
 40
1.0
 40
1.0
 40
1.0
 10
124.8131231057
 20
151.1199208553
 30
0.0
 10
124.8131231057
 20
151.0973684849
 30
0.0
 10
124.8060244904
 20
151.0416899964
 30
0.0
 10
124.7825747383
 20
150.9440737031
 30
0.0
 10
124.7424794874
 20
150.8166617066
 30
0.0
 10
124.7080338033
 20
150.722535487
 30
0.0
 10
124.6881231057
 20
150.6705588887
 30
0.0
 11
124.8131231057
 21
151.1199208553
 31
0.0
 11
124.8064158037
 21
151.052597035
 31
0.0
 11
124.7842655029
 21
150.9553181249
 31
0.0
 11
124.7449578367
 21
150.8275679242
 31
0.0
 11
124.6881231057
 21
150.6705588887
 31
0.0
  0
SPLINE
  5
314
100
AcDbEntity
  8
BEZUGSACHSEN
100
AcDbSpline
 62
7
  6
CONTINUOUS
 70
0
 71
3
 72
12
 73
8
 74
6
 42
0.0000001
 43
0.0000001
 44
0.0000000001
 12
-0.1674556245
 22
0.4371405719
 32
0.0
 13
0.0
 23
0.4681167224
 33
0.0
 40
0.0
 40
0.0
 40
0.0
 40
0.0
 40
0.2995620764
 40
0.5419687552
 40
0.7353081792
 40
0.886011903
 40
1.0
 40
1.0
 40
1.0
 40
1.0
 10
120.9381231057
 20
150.6705588887
 30
0.0
 10
120.9214019875
 20
150.7142091345
 30
0.0
 10
120.8921517867
 20
150.7935770823
 30
0.0
 10
120.8563411147
 20
150.9026075243
 30
0.0
 10
120.8318905339
 20
150.9908525373
 30
0.0
 10
120.8174212606
 20
151.0608787112
 30
0.0
 10
120.8131231057
 20
151.1021342772
 30
0.0
 10
120.8131231057
 20
151.1199208553
 30
0.0
 11
120.9381231057
 21
150.6705588887
 31
0.0
 11
120.8899394669
 21
150.8022509337
 31
0.0
 11
120.8548966418
 21
150.9101791033
 31
0.0
 11
120.8312105637
 21
150.997530121
 31
0.0
 11
120.8175786549
 21
151.066747466
 31
0.0
 11
120.8131231057
 21
151.1199208553
 31
0.0
  0
SPLINE
  5
315
100
AcDbEntity
  8
BEZUGSACHSEN
100
AcDbSpline
 62
7
  6
CONTINUOUS
 70
0
 71
3
 72
19
 73
15
 74
13
 42
0.0000001
 43
0.0000001
 44
0.0000000001
 12
0.0
 22
-0.9530644332
 32
0.0
 13
-0.8939002421
 23
-0.3305664397
 33
0.0
 40
0.0
 40
0.0
 40
0.0
 40
0.0
 40
0.0479048512
 40
0.1038186277
 40
0.1656371908
 40
0.2321998811
 40
0.3035488221
 40
0.3800991219
 40
0.4626240486
 40
0.5522943159
 40
0.6500533187
 40
0.7587572076
 40
0.8782694549
 40
1.0
 40
1.0
 40
1.0
 40
1.0
 10
124.6881231057
 20
150.4143280997
 30
0.0
 10
124.6881231057
 20
150.3991092964
 30
0.0
 10
124.6864350687
 20
150.366117731
 30
0.0
 10
124.6793289181
 20
150.313926317
 30
0.0
 10
124.6670763536
 20
150.2566215709
 30
0.0
 10
124.6495309413
 20
150.1955938444
 30
0.0
 10
124.6263420301
 20
150.1314748498
 30
0.0
 10
124.5967734023
 20
150.0644437631
 30
0.0
 10
124.5596499448
 20
149.9945960683
 30
0.0
 10
124.5133175568
 20
149.9222989869
 30
0.0
 10
124.455235346
 20
149.8480871053
 30
0.0
 10
124.3823437405
 20
149.7741242878
 30
0.0
 10
124.293411137
 20
149.7066639955
 30
0.0
 10
124.2243947602
 20
149.671881344
 30
0.0
 10
124.1881231057
 20
149.6584679997
 30
0.0
 11
124.6881231057
 21
150.4143280997
 31
0.0
 11
124.6859763682
 21
150.3687221869
 31
0.0
 11
124.6789560438
 21
150.3158972063
 31
0.0
 11
124.6667558708
 21
150.2582571389
 31
0.0
 11
124.6492998567
 21
150.1972675087
 31
0.0
 11
124.6262092682
 21
150.1333078065
 31
0.0
 11
124.5967694345
 21
150.0665539771
 31
0.0
 11
124.5598308911
 21
149.9971161353
 31
0.0
 11
124.5136545654
 21
149.9252035342
 31
0.0
 11
124.4561102319
 21
149.8519272372
 31
0.0
 11
124.3831803001
 21
149.7783435424
 31
0.0
 11
124.2920829331
 21
149.7099685905
 31
0.0
 11
124.1881231057
 21
149.6584679997
 31
0.0
  0
SPLINE
  5
316
100
AcDbEntity
  8
0
100
AcDbSpline
 62
7
  6
CONTINUOUS
 70
0
 71
3
 72
21
 73
17
 74
15
 42
0.0000001
 43
0.0000001
 44
0.0000000001
 12
2.8109064139
 22
-0.5051023861
 32
0.0
 13
-2.73468858
 23
-0.6605123243
 33
0.0
 40
0.0
 40
0.0
 40
0.0
 40
0.0
 40
0.1007017702
 40
0.2005421483
 40
0.3000980464
 40
0.3997861801
 40
0.4999533766
 40
0.6005518588
 40
0.6987525446
 40
0.7850592012
 40
0.8493242111
 40
0.8903147989
 40
0.9134955271
 40
0.9297336634
 40
0.9575785556
 40
1.0
 40
1.0
 40
1.0
 40
1.0
 10
165.2267089155
 20
144.3041172619
 30
0.0
 10
165.3210633328
 20
144.2871623604
 30
0.0
 10
165.5088145637
 20
144.2525529567
 30
0.0
 10
165.7892897461
 20
144.1982196852
 30
0.0
 10
166.0682892391
 20
144.1413924032
 30
0.0
 10
166.3469569752
 20
144.0815013117
 30
0.0
 10
166.6258322879
 20
144.0177755042
 30
0.0
 10
166.9020839588
 20
143.9496831372
 30
0.0
 10
167.1643695438
 20
143.8782925633
 30
0.0
 10
167.3893844161
 20
143.8078611204
 30
0.0
 10
167.5625491945
 20
143.7418573347
 30
0.0
 10
167.6657338928
 20
143.685907912
 30
0.0
 10
167.7333717364
 20
143.6312068292
 30
0.0
 10
167.7139023489
 20
143.5594239048
 30
0.0
 10
167.6304391934
 20
143.5285244724
 30
0.0
 10
167.5673907715
 20
143.5101248085
 30
0.0
 10
167.5287209583
 20
143.5007848462
 30
0.0
 11
165.2267089155
 21
144.3041172619
 31
0.0
 11
165.5095397794
 21
144.2519758664
 31
0.0
 11
165.7894673146
 21
144.1977206352
 31
0.0
 11
166.0680601127
 21
144.1409188167
 31
0.0
 11
166.3463848643
 21
144.0809970138
 31
0.0
 11
166.6252241901
 21
144.0170843162
 31
0.0
 11
166.9040927015
 21
143.9479844572
 31
0.0
 11
167.1745036609
 21
143.8736043878
 31
0.0
 11
167.4092943827
 21
143.7985813537
 31
0.0
 11
167.5796422612
 21
143.730264839
 31
0.0
 11
167.681031295
 21
143.6717434848
 31
0.0
 11
167.7237993993
 21
143.6212097507
 31
0.0
 11
167.713222124
 21
143.5760571575
 31
0.0
 11
167.6452487875
 21
143.5347832787
 31
0.0
 11
167.5287209583
 21
143.5007848462
 31
0.0
  0
SPLINE
  5
317
100
AcDbEntity
  8
0
100
AcDbSpline
 62
7
  6
CONTINUOUS
 70
0
 71
3
 72
94
 73
90
 74
88
 42
0.0000001
 43
0.0000001
 44
0.0000000001
 12
-24.801720562
 22
-20.3794517435
 32
0.0
 13
33.0243871071
 23
-10.8674474056
 33
0.0
 40
0.0
 40
0.0
 40
0.0
 40
0.0
 40
0.0188125253
 40
0.0384468731
 40
0.0574025126
 40
0.0746734454
 40
0.0896919884
 40
0.1026152427
 40
0.113956923
 40
0.1241699258
 40
0.1337992067
 40
0.1435514438
 40
0.1538766883
 40
0.1651616192
 40
0.1779118402
 40
0.1923011775
 40
0.2081453625
 40
0.2248654384
 40
0.2421472101
 40
0.2598948073
 40
0.2777800509
 40
0.2952116914
 40
0.311527334
 40
0.3260057375
 40
0.33847649
 40
0.3494173306
 40
0.3590107846
 40
0.3676471299
 40
0.3758452198
 40
0.3841671593
 40
0.3929648156
 40
0.40251486
 40
0.4133383757
 40
0.4257343409
 40
0.4397478333
 40
0.4549888229
 40
0.4711352441
 40
0.4882402628
 40
0.5063184522
 40
0.5249877814
 40
0.5436006267
 40
0.5608744356
 40
0.575751442
 40
0.5883296922
 40
0.5990820343
 40
0.6081904869
 40
0.6158727368
 40
0.6227036424
 40
0.6293771395
 40
0.6361401174
 40
0.6430118436
 40
0.6501059376
 40
0.657493355
 40
0.6654642368
 40
0.6743539321
 40
0.6844924783
 40
0.6961979952
 40
0.7097394102
 40
0.7246686631
 40
0.7396067146
 40
0.7535337552
 40
0.766160138
 40
0.7773835439
 40
0.78718826
 40
0.7956170964
 40
0.8025638557
 40
0.8080820125
 40
0.8126230601
 40
0.8168466921
 40
0.821511217
 40
0.827272661
 40
0.8345545002
 40
0.8437083707
 40
0.8548763986
 40
0.8678135101
 40
0.8818744448
 40
0.8963801563
 40
0.9109165134
 40
0.9251945296
 40
0.9389379451
 40
0.9518707923
 40
0.9636973838
 40
0.9740640968
 40
0.9826850989
 40
0.9892800231
 40
0.9938115791
 40
0.9965065537
 40
0.9980183255
 40
1.0
 40
1.0
 40
1.0
 40
1.0
 10
165.2270333102
 20
123.7616144068
 30
0.0
 10
165.0715056453
 20
123.6338180898
 30
0.0
 10
164.7541964623
 20
123.371974466
 30
0.0
 10
164.2887789986
 20
122.9710224491
 30
0.0
 10
163.8528147081
 20
122.5616707059
 30
0.0
 10
163.4791447916
 20
122.1595844607
 30
0.0
 10
163.1824975432
 20
121.7763952923
 30
0.0
 10
162.9640210432
 20
121.4159452255
 30
0.0
 10
162.8191531697
 20
121.0750785536
 30
0.0
 10
162.7394803732
 20
120.7494495929
 30
0.0
 10
162.7183184832
 20
120.4318331054
 30
0.0
 10
162.7555896222
 20
120.1143032727
 30
0.0
 10
162.8556954535
 20
119.7922005985
 30
0.0
 10
163.0206175993
 20
119.4620905946
 30
0.0
 10
163.2541472619
 20
119.1223336177
 30
0.0
 10
163.5576415005
 20
118.7756388676
 30
0.0
 10
163.921711089
 20
118.4287178098
 30
0.0
 10
164.3303205879
 20
118.0855611224
 30
0.0
 10
164.7691247303
 20
117.7476609219
 30
0.0
 10
165.2261341363
 20
117.4133808058
 30
0.0
 10
165.6868740452
 20
117.081552976
 30
0.0
 10
166.131829476
 20
116.7540137599
 30
0.0
 10
166.5380344036
 20
116.435550882
 30
0.0
 10
166.8877646987
 20
116.1318066283
 30
0.0
 10
167.1740403471
 20
115.844009698
 30
0.0
 10
167.3968643669
 20
115.5690240893
 30
0.0
 10
167.5614660999
 20
115.3026179708
 30
0.0
 10
167.6717115515
 20
115.0407765329
 30
0.0
 10
167.7292569957
 20
114.7759787788
 30
0.0
 10
167.7293117184
 20
114.5029540978
 30
0.0
 10
167.6694436983
 20
114.2220121172
 30
0.0
 10
167.548941029
 20
113.9324779334
 30
0.0
 10
167.3652916991
 20
113.6324506233
 30
0.0
 10
167.116657418
 20
113.3202189649
 30
0.0
 10
166.8087606513
 20
112.9974338477
 30
0.0
 10
166.4513365595
 20
112.6680731561
 30
0.0
 10
166.0540731507
 20
112.3341078034
 30
0.0
 10
165.6237173531
 20
111.9927932391
 30
0.0
 10
165.1672712656
 20
111.6410787678
 30
0.0
 10
164.6979778115
 20
111.2796045407
 30
0.0
 10
164.240637197
 20
110.9167487284
 30
0.0
 10
163.8256444146
 20
110.5660532961
 30
0.0
 10
163.4761939933
 20
110.2385799672
 30
0.0
 10
163.1984903013
 20
109.9379232335
 30
0.0
 10
162.9877320917
 20
109.6612896917
 30
0.0
 10
162.8399182561
 20
109.4050423666
 30
0.0
 10
162.7524881738
 20
109.1662908836
 30
0.0
 10
162.7196375565
 20
108.9401075898
 30
0.0
 10
162.7409474811
 20
108.7219316371
 30
0.0
 10
162.8174697296
 20
108.5160610204
 30
0.0
 10
162.9414274644
 20
108.3302978914
 30
0.0
 10
163.0995441778
 20
108.164260766
 30
0.0
 10
163.2862488245
 20
108.0123220263
 30
0.0
 10
163.5026079237
 20
107.8685502427
 30
0.0
 10
163.7551135873
 20
107.7277152675
 30
0.0
 10
164.0518200278
 20
107.5855203452
 30
0.0
 10
164.4009733487
 20
107.438745589
 30
0.0
 10
164.8034405877
 20
107.2874328258
 30
0.0
 10
165.2425582244
 20
107.1359410605
 30
0.0
 10
165.6876529946
 20
106.9893638539
 30
0.0
 10
166.1093477131
 20
106.8505051899
 30
0.0
 10
166.4913905756
 20
106.7183656745
 30
0.0
 10
166.8281103233
 20
106.5904521714
 30
0.0
 10
167.117150085
 20
106.4642986198
 30
0.0
 10
167.3554739757
 20
106.3377033997
 30
0.0
 10
167.53854714
 20
106.2077344795
 30
0.0
 10
167.6639244374
 20
106.0733325046
 30
0.0
 10
167.7295933565
 20
105.9310303397
 30
0.0
 10
167.7284535556
 20
105.7828126946
 30
0.0
 10
167.6651204477
 20
105.6363194619
 30
0.0
 10
167.5473027726
 20
105.4863898814
 30
0.0
 10
167.3704316163
 20
105.3266904838
 30
0.0
 10
167.1293097422
 20
105.155348372
 30
0.0
 10
166.8234384139
 20
104.9729434101
 30
0.0
 10
166.4618967565
 20
104.782759875
 30
0.0
 10
166.0614129304
 20
104.5906723831
 30
0.0
 10
165.6406440495
 20
104.4017374811
 30
0.0
 10
165.2147963067
 20
104.2186339986
 30
0.0
 10
164.7947828759
 20
104.0426778987
 30
0.0
 10
164.3899962942
 20
103.8748142982
 30
0.0
 10
164.009654866
 20
103.716411906
 30
0.0
 10
163.6638637888
 20
103.56925629
 30
0.0
 10
163.3622628189
 20
103.4354960663
 30
0.0
 10
163.1161412618
 20
103.3167015724
 30
0.0
 10
162.9280997654
 20
103.2174559393
 30
0.0
 10
162.8083186901
 20
103.1339214561
 30
0.0
 10
162.7318749749
 20
103.0734939688
 30
0.0
 10
162.7247327098
 20
102.9963919454
 30
0.0
 10
162.7648813599
 20
102.9794457263
 30
0.0
 10
162.7866958885
 20
102.9722671452
 30
0.0
 11
165.2270333102
 21
123.7616144068
 31
0.0
 11
164.7623159179
 21
123.3759662201
 31
0.0
 11
164.2863080088
 21
122.9628539003
 31
0.0
 11
163.8447511868
 21
122.5441844753
 31
0.0
 11
163.4694706053
 21
122.1361016291
 31
0.0
 11
163.1768192586
 21
121.7529835853
 31
0.0
 11
162.9645841502
 21
121.3965403289
 31
0.0
 11
162.8242386542
 21
121.0606037063
 31
0.0
 11
162.7476606821
 21
120.7418293822
 31
0.0
 11
162.7278296196
 21
120.4333606543
 31
0.0
 11
162.7640474673
 21
120.1224102897
 31
0.0
 11
162.8605644182
 21
119.8053280126
 31
0.0
 11
163.0203552021
 21
119.4802218214
 31
0.0
 11
163.2500738703
 21
119.1414781937
 31
0.0
 11
163.5521162457
 21
118.7920105167
 31
0.0
 11
163.9183394335
 21
118.4390767612
 31
0.0
 11
164.3280344237
 21
118.092345088
 31
0.0
 11
164.7665162492
 21
117.7525116997
 31
0.0
 11
165.2253511333
 21
117.4148165837
 31
0.0
 11
165.6902246212
 21
117.0778979755
 31
0.0
 11
166.1396934421
 21
116.7445937897
 31
0.0
 11
166.5505745123
 21
116.4198137999
 31
0.0
 11
166.8998861334
 21
116.1132390604
 31
0.0
 11
167.1802571216
 21
115.827499767
 31
0.0
 11
167.3994990532
 21
115.5531285142
 31
0.0
 11
167.5594395354
 21
115.2899639116
 31
0.0
 11
167.6651923183
 21
115.0336949648
 31
0.0
 11
167.7196761737
 21
114.7762332872
 31
0.0
 11
167.7202209533
 21
114.5090947368
 31
0.0
 11
167.6631763559
 21
114.2325061249
 31
0.0
 11
167.5476058424
 21
113.9485629791
 31
0.0
 11
167.3686879061
 21
113.6507312628
 31
0.0
 11
167.1233011218
 21
113.3374840378
 31
0.0
 11
166.8146112006
 21
113.0102720261
 31
0.0
 11
166.4560990105
 21
112.6773616319
 31
0.0
 11
166.0604217974
 21
112.3425716875
 31
0.0
 11
165.6311140689
 21
112.0002489023
 31
0.0
 11
165.1722708734
 21
111.6449536708
 31
0.0
 11
164.6983787744
 21
111.2780989567
 31
0.0
 11
164.2314197119
 21
110.9053585926
 31
0.0
 11
163.8094138622
 21
110.5456634891
 31
0.0
 11
163.462622643
 21
110.2173344601
 31
0.0
 11
163.1904490505
 21
109.9190878022
 31
0.0
 11
162.9836319227
 21
109.6427553099
 31
0.0
 11
162.8404930383
 21
109.3878019734
 31
0.0
 11
162.75808299
 21
109.1553746507
 31
0.0
 11
162.7283839924
 21
108.9381191452
 31
0.0
 11
162.7498576658
 21
108.7249749772
 31
0.0
 11
162.8244799229
 21
108.5211074021
 31
0.0
 11
162.9449153004
 21
108.3363002448
 31
0.0
 11
163.1005372711
 21
108.1700466043
 31
0.0
 11
163.2835545374
 21
108.0192478963
 31
0.0
 11
163.4960284205
 21
107.8766846494
 31
0.0
 11
163.7446869753
 21
107.73667835
 31
0.0
 11
164.0376948729
 21
107.5950231986
 31
0.0
 11
164.3836746548
 21
107.4484319559
 31
0.0
 11
164.7901711396
 21
107.2944395407
 31
0.0
 11
165.2428229956
 21
107.1370385118
 31
0.0
 11
165.6979290688
 21
106.9859821006
 31
0.0
 11
166.1221997471
 21
106.8450477082
 31
0.0
 11
166.504857415
 21
106.7114335451
 31
0.0
 11
166.8411489568
 21
106.5821735736
 31
0.0
 11
167.1288180398
 21
106.454478858
 31
0.0
 11
167.3662549503
 21
106.3247401158
 31
0.0
 11
167.5456851001
 21
106.1923331674
 31
0.0
 11
167.6627286756
 21
106.0593746015
 31
0.0
 11
167.7200357002
 21
105.925341481
 31
0.0
 11
167.7199844082
 21
105.7897604429
 31
0.0
 11
167.664999716
 21
105.6504875302
 31
0.0
 11
167.5540726447
 21
105.5025007055
 31
0.0
 11
167.3828740483
 21
105.3433444892
 31
0.0
 11
167.1450006206
 21
105.1708311098
 31
0.0
 11
166.8382788886
 21
104.9852396897
 31
0.0
 11
166.471448489
 21
104.790559807
 31
0.0
 11
166.0649254295
 21
104.5944255761
 31
0.0
 11
165.6404482003
 21
104.4030062479
 31
0.0
 11
165.2119708339
 21
104.2182184496
 31
0.0
 11
164.7894004339
 21
104.0407274274
 31
0.0
 11
164.3820243932
 21
103.8713840442
 31
0.0
 11
163.9989566793
 21
103.7113520218
 31
0.0
 11
163.6498488814
 21
103.5621855481
 31
0.0
 11
163.3461217988
 21
103.4262048848
 31
0.0
 11
163.0971294436
 21
103.3054266288
 31
0.0
 11
162.9117977758
 21
103.2031063125
 31
0.0
 11
162.7921698396
 21
103.1203452485
 31
0.0
 11
162.7346350848
 21
103.0557404809
 31
0.0
 11
162.7335486592
 21
103.0072238866
 31
0.0
 11
162.7866958885
 21
102.9722671452
 31
0.0
  0
SPLINE
  5
318
100
AcDbEntity
  8
0
100
AcDbSpline
 62
7
  6
CONTINUOUS
 70
0
 71
3
 72
94
 73
90
 74
88
 42
0.0000001
 43
0.0000001
 44
0.0000000001
 12
24.6592243131
 22
20.4690034693
 32
0.0
 13
-26.8364794135
 23
21.711328174
 33
0.0
 40
0.0
 40
0.0
 40
0.0
 40
0.0
 40
0.0183873269
 40
0.0374388961
 40
0.0558101172
 40
0.0725277546
 40
0.0870114612
 40
0.0994680204
 40
0.1104121377
 40
0.1203080166
 40
0.1296662357
 40
0.1391716062
 40
0.1492848656
 40
0.1603683028
 40
0.1729168758
 40
0.187117729
 40
0.202864834
 40
0.2196604124
 40
0.2372349142
 40
0.2557115259
 40
0.2749697479
 40
0.2943349964
 40
0.3129348132
 40
0.3296414347
 40
0.34393093
 40
0.3564592263
 40
0.3674025665
 40
0.3771153284
 40
0.3860866802
 40
0.3948532828
 40
0.4037341169
 40
0.4130298058
 40
0.4233238114
 40
0.4350263011
 40
0.4482747691
 40
0.4626844461
 40
0.4778830526
 40
0.4937582218
 40
0.5100745849
 40
0.5261463511
 40
0.5412954905
 40
0.55520731
 40
0.567679523
 40
0.5787222594
 40
0.5884768163
 40
0.5970684375
 40
0.6044982851
 40
0.6110634865
 40
0.6174681094
 40
0.6243306332
 40
0.6316124316
 40
0.6392143619
 40
0.6470795033
 40
0.6553371723
 40
0.664307959
 40
0.6743302518
 40
0.6857748994
 40
0.6990308456
 40
0.7144025716
 40
0.7311158125
 40
0.7477238006
 40
0.7633534166
 40
0.7776331045
 40
0.7904001494
 40
0.8016315252
 40
0.8113205878
 40
0.8192402949
 40
0.8254601772
 40
0.8304124556
 40
0.8346824938
 40
0.8390782243
 40
0.8443912545
 40
0.8512243209
 40
0.859924858
 40
0.8703928477
 40
0.8825593639
 40
0.8964502434
 40
0.9115932565
 40
0.9265957636
 40
0.9404536808
 40
0.9530245955
 40
0.964333199
 40
0.974288552
 40
0.9827266052
 40
0.9893074879
 40
0.9938533697
 40
0.9965485118
 40
0.9980561751
 40
1.0
 40
1.0
 40
1.0
 40
1.0
 10
164.0611803206
 20
123.7616144068
 30
0.0
 10
164.2123193934
 20
123.8870711595
 30
0.0
 10
164.5204942615
 20
124.1419888311
 30
0.0
 10
164.9751295593
 20
124.5277375208
 30
0.0
 10
165.4038453712
 20
124.9162229379
 30
0.0
 10
165.7751097168
 20
125.2944727122
 30
0.0
 10
166.0734808142
 20
125.6538127578
 30
0.0
 10
166.2973470688
 20
125.9922003252
 30
0.0
 10
166.4505720546
 20
126.3147669474
 30
0.0
 10
166.5394455011
 20
126.626556915
 30
0.0
 10
166.5697661054
 20
126.9339903182
 30
0.0
 10
166.5420442196
 20
127.2441595921
 30
0.0
 10
166.4519396084
 20
127.5613202355
 30
0.0
 10
166.2978574748
 20
127.8886342631
 30
0.0
 10
166.0784905285
 20
128.229194823
 30
0.0
 10
165.7930916178
 20
128.5830877932
 30
0.0
 10
165.4490641405
 20
128.9455156576
 30
0.0
 10
165.0599560147
 20
129.3134784059
 30
0.0
 10
164.6365835587
 20
129.687017689
 30
0.0
 10
164.1860885491
 20
130.0693331529
 30
0.0
 10
163.7195572349
 20
130.462289776
 30
0.0
 10
163.2569786746
 20
130.8619805475
 30
0.0
 10
162.8271134462
 20
131.2575727947
 30
0.0
 10
162.4550480211
 20
131.6351681944
 30
0.0
 10
162.1512615614
 20
131.9877475929
 30
0.0
 10
161.9157216401
 20
132.3160652439
 30
0.0
 10
161.7423145298
 20
132.6262749873
 30
0.0
 10
161.6258089526
 20
132.9217314353
 30
0.0
 10
161.5627675235
 20
133.2096654666
 30
0.0
 10
161.5561280347
 20
133.4958795911
 30
0.0
 10
161.6084783747
 20
133.7809055391
 30
0.0
 10
161.7212746202
 20
134.0652404879
 30
0.0
 10
161.8983530884
 20
134.3506077068
 30
0.0
 10
162.1447506522
 20
134.6368803099
 30
0.0
 10
162.4557280046
 20
134.920975414
 30
0.0
 10
162.8201139863
 20
135.1988636835
 30
0.0
 10
163.2248968024
 20
135.4680308679
 30
0.0
 10
163.6582500032
 20
135.729918478
 30
0.0
 10
164.1060731396
 20
135.9854470169
 30
0.0
 10
164.5493162037
 20
136.2332645604
 30
0.0
 10
164.9684225422
 20
136.4716299344
 30
0.0
 10
165.3488944588
 20
136.7000091871
 30
0.0
 10
165.6827971731
 20
136.9202703373
 30
0.0
 10
165.9659802536
 20
137.1356234966
 30
0.0
 10
166.1976535794
 20
137.3483961661
 30
0.0
 10
166.3754505682
 20
137.560023807
 30
0.0
 10
166.4960214934
 20
137.7710400796
 30
0.0
 10
166.5584374698
 20
137.9820703193
 30
0.0
 10
166.5660169692
 20
138.1960514859
 30
0.0
 10
166.5185511281
 20
138.4125500355
 30
0.0
 10
166.4205817386
 20
138.6247109595
 30
0.0
 10
166.2844153102
 20
138.8268369556
 30
0.0
 10
166.1202711908
 20
139.0204065575
 30
0.0
 10
165.930817489
 20
139.2103568503
 30
0.0
 10
165.7127625635
 20
139.4034411395
 30
0.0
 10
165.4586881611
 20
139.6065231608
 30
0.0
 10
165.159795442
 20
139.8263161831
 30
0.0
 10
164.8071408232
 20
140.0690667777
 30
0.0
 10
164.4018763503
 20
140.3343800165
 30
0.0
 10
163.9626624786
 20
140.6130736035
 30
0.0
 10
163.5201068757
 20
140.8916223193
 30
0.0
 10
163.1014439463
 20
141.1593301506
 30
0.0
 10
162.7220682856
 20
141.4122240461
 30
0.0
 10
162.3891532903
 20
141.6498304894
 30
0.0
 10
162.106323174
 20
141.8726510143
 30
0.0
 10
161.8783693983
 20
142.0805133005
 30
0.0
 10
161.710499295
 20
142.2729557935
 30
0.0
 10
161.6034805737
 20
142.4481233708
 30
0.0
 10
161.5546586075
 20
142.6085249093
 30
0.0
 10
161.5666859163
 20
142.7576891316
 30
0.0
 10
161.6415925427
 20
142.8912468255
 30
0.0
 10
161.7751054999
 20
143.0102023598
 30
0.0
 10
161.9711621126
 20
143.118354763
 30
0.0
 10
162.2325575155
 20
143.2143315116
 30
0.0
 10
162.5570048624
 20
143.2980732951
 30
0.0
 10
162.9406563326
 20
143.3702638532
 30
0.0
 10
163.3766898546
 20
143.4310073619
 30
0.0
 10
163.8445960814
 20
143.4801527611
 30
0.0
 10
164.3130562211
 20
143.5192715547
 30
0.0
 10
164.7545053363
 20
143.5510399248
 30
0.0
 10
165.1567220705
 20
143.5784897009
 30
0.0
 10
165.5171813416
 20
143.6043170974
 30
0.0
 10
165.8336109449
 20
143.6303258799
 30
0.0
 10
166.0982982574
 20
143.6597158475
 30
0.0
 10
166.3064946456
 20
143.6900681249
 30
0.0
 10
166.4469139105
 20
143.7285250934
 30
0.0
 10
166.5395030156
 20
143.7599220261
 30
0.0
 10
166.5708869549
 20
143.829722602
 30
0.0
 10
166.5400675829
 20
143.8591470161
 30
0.0
 10
166.5226791106
 20
143.8732146896
 30
0.0
 11
164.0611803206
 21
123.7616144068
 31
0.0
 11
164.514256305
 21
124.1383953744
 31
0.0
 11
164.978465044
 21
124.5349976551
 31
0.0
 11
165.4128104116
 21
124.9324618709
 31
0.0
 11
165.7859731758
 21
125.3168977539
 31
0.0
 11
166.0801313887
 21
125.6759586877
 31
0.0
 11
166.2976154435
 21
126.010719715
 31
0.0
 11
166.4458621094
 21
126.3285835222
 31
0.0
 11
166.5314215982
 21
126.6339647376
 31
0.0
 11
166.560274804
 21
126.9324833237
 31
0.0
 11
166.5335157261
 21
127.2359313711
 31
0.0
 11
166.4469159005
 21
127.548254709
 31
0.0
 11
166.298141766
 21
127.8707956267
 31
0.0
 11
166.0826699017
 21
128.2103529937
 31
0.0
 11
165.7991388587
 21
128.5663458284
 31
0.0
 11
165.4537018135
 21
128.9342507564
 31
0.0
 11
165.0639732905
 21
129.3055132078
 31
0.0
 11
164.6426654163
 21
129.6793043718
 31
0.0
 11
164.1922249289
 21
130.0636552002
 31
0.0
 11
163.7212639031
 21
130.4625409831
 31
0.0
 11
163.2529749158
 21
130.8698064555
 31
0.0
 11
162.8157625486
 21
131.2749720287
 31
0.0
 11
162.4416176521
 21
131.6579587579
 31
0.0
 11
162.1446189044
 21
132.0065362538
 31
0.0
 11
161.9126031134
 21
132.3342156206
 31
0.0
 11
161.7433816328
 21
132.6413981353
 31
0.0
 11
161.6311528702
 21
132.9317341258
 31
0.0
 11
161.5715859449
 21
133.2130074015
 31
0.0
 11
161.5657043722
 21
133.4938956065
 31
0.0
 11
161.6164323142
 21
133.773948976
 31
0.0
 11
161.7248049231
 21
134.0514435505
 31
0.0
 11
161.8968000915
 21
134.3329597978
 31
0.0
 11
162.1389358911
 21
134.6193581063
 31
0.0
 11
162.4503720609
 21
134.9079384092
 31
0.0
 11
162.8161913
 21
135.1897774574
 31
0.0
 11
163.2206955919
 21
135.4611151184
 31
0.0
 11
163.6552675648
 21
135.7256661383
 31
0.0
 11
164.1087155922
 21
135.9860733651
 31
0.0
 11
164.5576042333
 21
136.2386394771
 31
0.0
 11
164.9789220321
 21
136.4798806952
 31
0.0
 11
165.3603277251
 21
136.7107596255
 31
0.0
 11
165.6928399699
 21
136.9325718353
 31
0.0
 11
165.9732582417
 21
137.1484585151
 31
0.0
 11
166.2017110723
 21
137.3618483918
 31
0.0
 11
166.376278547
 21
137.5747789504
 31
0.0
 11
166.4916497356
 21
137.7830714528
 31
0.0
 11
166.5500308788
 21
137.9852093692
 31
0.0
 11
166.5575186602
 21
138.1903264143
 31
0.0
 11
166.5122104976
 21
138.4055371336
 31
0.0
 11
166.4167494924
 21
138.618484295
 31
0.0
 11
166.2825046388
 21
138.8217852951
 31
0.0
 11
166.1205651904
 21
139.0149428731
 31
0.0
 11
165.9344127991
 21
139.2030423342
 31
0.0
 11
165.719712358
 21
139.3942390463
 31
0.0
 11
165.4693417044
 21
139.5954322657
 31
0.0
 11
165.1743661851
 21
139.8134079162
 31
0.0
 11
164.8249153742
 21
140.05498353
 31
0.0
 11
164.4132638233
 21
140.3255872333
 31
0.0
 11
163.9615391748
 21
140.6133984313
 31
0.0
 11
163.5116094756
 21
140.8977426979
 31
0.0
 11
163.0901973602
 21
141.1684943367
 31
0.0
 11
162.7100715081
 21
141.4233101405
 31
0.0
 11
162.3778453978
 21
141.6621271015
 31
0.0
 11
162.0963389246
 21
141.886428323
 31
0.0
 11
161.8689647858
 21
142.0978970713
 31
0.0
 11
161.7049093598
 21
142.2915582933
 31
0.0
 11
161.6048376869
 21
142.4639513496
 31
0.0
 11
161.5632580006
 21
142.6171171973
 31
0.0
 11
161.5759913781
 21
142.7533685535
 31
0.0
 11
161.6420758393
 21
142.8777795927
 31
0.0
 11
161.7659360202
 21
142.9946159319
 31
0.0
 11
161.955547863
 21
143.1041672003
 31
0.0
 11
162.2159782471
 21
143.2037844259
 31
0.0
 11
162.540142121
 21
143.2901644742
 31
0.0
 11
162.9229959848
 21
143.3640034232
 31
0.0
 11
163.3637187533
 21
143.4267798956
 31
0.0
 11
163.8462453187
 21
143.4785826458
 31
0.0
 11
164.3253114439
 21
143.5193359054
 31
0.0
 11
164.7682425532
 21
143.5517405898
 31
0.0
 11
165.1701443172
 21
143.5796457861
 31
0.0
 11
165.5315981164
 21
143.6060255961
 31
0.0
 11
165.8494786612
 21
143.6332772078
 31
0.0
 11
166.1181850055
 21
143.663677077
 31
0.0
 11
166.3262730606
 21
143.6980163147
 31
0.0
 11
166.4669260095
 21
143.7359759275
 31
0.0
 11
166.5426037766
 21
143.7776077188
 31
0.0
 11
166.5594168127
 21
143.8229053281
 31
0.0
 11
166.5226791106
 21
143.8732146896
 31
0.0
  0
SPLINE
  5
319
100
AcDbEntity
  8
0
100
AcDbSpline
 62
7
  6
CONTINUOUS
 70
0
 71
3
 72
21
 73
17
 74
15
 42
0.0000001
 43
0.0000001
 44
0.0000000001
 12
-2.7207203988
 22
-0.4888965205
 32
0.0
 13
2.266231696
 23
1.5162409303
 33
0.0
 40
0.0
 40
0.0
 40
0.0
 40
0.0
 40
0.0996465371
 40
0.1981650966
 40
0.2957324669
 40
0.3925269606
 40
0.4893481545
 40
0.5872567288
 40
0.6848311682
 40
0.7737164618
 40
0.8423752887
 40
0.886822648
 40
0.9116471501
 40
0.928953577
 40
0.9584737747
 40
1.0
 40
1.0
 40
1.0
 40
1.0
 10
164.0608559259
 20
103.0096150263
 30
0.0
 10
163.9704858039
 20
102.9933760779
 30
0.0
 10
163.7906269135
 20
102.9618634159
 30
0.0
 10
163.5218047034
 20
102.9172406029
 30
0.0
 10
163.2551597445
 20
102.8756044409
 30
0.0
 10
162.9896354209
 20
102.8370810953
 30
0.0
 10
162.7232852107
 20
102.8019565496
 30
0.0
 10
162.4557850033
 20
102.7712748451
 30
0.0
 10
162.1944216132
 20
102.7476324845
 30
0.0
 10
161.9607574247
 20
102.7351952753
 30
0.0
 10
161.7714793709
 20
102.7365369159
 30
0.0
 10
161.650954553
 20
102.7528865398
 30
0.0
 10
161.5644646937
 20
102.7824951845
 30
0.0
 10
161.5602515703
 20
102.8591721778
 30
0.0
 10
161.6269046487
 20
102.915598831
 30
0.0
 10
161.6790242525
 20
102.9538683564
 30
0.0
 10
161.7103936019
 20
102.9748562772
 30
0.0
 11
164.0608559259
 21
103.0096150263
 31
0.0
 11
163.7895338248
 21
102.9620915684
 31
0.0
 11
163.5208698852
 21
102.9175291075
 31
0.0
 11
163.2543846672
 21
102.875977564
 31
0.0
 11
162.9895743242
 21
102.8376562929
 31
0.0
 11
162.7242066556
 21
102.8028347421
 31
0.0
 11
162.455285106
 21
102.7723100286
 31
0.0
 11
162.1865986649
 21
102.7486660086
 31
0.0
 11
161.9411710118
 21
102.736987083
 31
0.0
 11
161.7514280165
 21
102.7413612016
 31
0.0
 11
161.6302381883
 21
102.7615851721
 31
0.0
 11
161.5707064342
 21
102.7957171329
 31
0.0
 11
161.5661711162
 21
102.8433417781
 31
0.0
 11
161.6175922492
 21
102.9067046351
 31
0.0
 11
161.7103936019
 21
102.9748562772
 31
0.0
  0
SPLINE
  5
31A
100
AcDbEntity
  8
BEZUGSACHSEN
100
AcDbSpline
 62
7
  6
CONTINUOUS
 70
0
 71
3
 72
18
 73
14
 74
12
 42
0.0000001
 43
0.0000001
 44
0.0000000001
 12
2.6737590161
 22
0.7427664394
 32
0.0
 13
2.6737590161
 23
-0.7427664394
 33
0.0
 40
0.0
 40
0.0
 40
0.0
 40
0.0
 40
0.0788628999
 40
0.1647195541
 40
0.2563676281
 40
0.3521236596
 40
0.4503969613
 40
0.5496032532
 40
0.6478758258
 40
0.7436299262
 40
0.8352788674
 40
0.9211360457
 40
1.0
 40
1.0
 40
1.0
 40
1.0
 10
121.4381231057
 20
150.6519467391
 30
0.0
 10
121.5084099022
 20
150.6714723109
 30
0.0
 10
121.6568607763
 20
150.7064197658
 30
0.0
 10
121.8906396596
 20
150.7468227383
 30
0.0
 10
122.1416524733
 20
150.7773477087
 30
0.0
 10
122.4051873775
 20
150.7977908844
 30
0.0
 10
122.6763050061
 20
150.8080395267
 30
0.0
 10
122.9499411252
 20
150.8080395156
 30
0.0
 10
123.2210562942
 20
150.7977909814
 30
0.0
 10
123.4845895526
 20
150.7773480947
 30
0.0
 10
123.7356019038
 20
150.746823445
 30
0.0
 10
123.9693830514
 20
150.7064202862
 30
0.0
 10
124.1178353694
 20
150.6714725719
 30
0.0
 10
124.1881231057
 20
150.6519467391
 30
0.0
 11
121.4381231057
 21
150.6519467391
 31
0.0
 11
121.6509600769
 21
150.7028757016
 31
0.0
 11
121.8856365215
 21
150.744004258
 31
0.0
 11
122.1380541163
 21
150.7750894963
 31
0.0
 11
122.4029635774
 21
150.7958806665
 31
0.0
 11
122.6754740985
 21
150.8062976946
 31
0.0
 11
122.9507727072
 21
150.8062976834
 31
0.0
 11
123.2232812073
 21
150.7958807491
 31
0.0
 11
123.4881853394
 21
150.7750901721
 31
0.0
 11
123.7406053548
 21
150.7440048995
 31
0.0
 11
123.9752832669
 21
150.7028762903
 31
0.0
 11
124.1881231057
 21
150.6519467391
 31
0.0
  0
SPLINE
  5
31B
100
AcDbEntity
  8
0
100
AcDbSpline
 62
7
  6
CONTINUOUS
 70
0
 71
3
 72
18
 73
14
 74
12
 42
0.0000001
 43
0.0000001
 44
0.0000000001
 12
0.0
 22
-1.7642178701
 32
0.0
 13
-1.7642178701
 23
0.0
 33
0.0
 40
0.0
 40
0.0
 40
0.0
 40
0.0
 40
0.0948691176
 40
0.1905791476
 40
0.2857584804
 40
0.3791181802
 40
0.470813814
 40
0.5609692284
 40
0.649130721
 40
0.7355549077
 40
0.8230391447
 40
0.9115892404
 40
1.0
 40
1.0
 40
1.0
 40
1.0
 10
130.7381231057
 20
99.1679033204
 30
0.0
 10
130.7381231057
 20
99.1121133895
 30
0.0
 10
130.7321316516
 20
98.9999447163
 30
0.0
 10
130.7048964489
 20
98.8337838264
 30
0.0
 10
130.6592955256
 20
98.6725726404
 30
0.0
 10
130.5959380587
 20
98.5200085988
 30
0.0
 10
130.5156529361
 20
98.3789760623
 30
0.0
 10
130.4193342233
 20
98.2521178591
 30
0.0
 10
130.3082770971
 20
98.1422176222
 30
0.0
 10
130.183139925
 20
98.0511940463
 30
0.0
 10
130.0444715998
 20
97.9816810126
 30
0.0
 10
129.8944510049
 20
97.9375912682
 30
0.0
 10
129.790115053
 20
97.9275162998
 30
0.0
 10
129.7381231057
 20
97.9275162998
 30
0.0
 11
130.7381231057
 21
99.1679033204
 31
0.0
 11
130.7291417957
 21
99.0007746767
 31
0.0
 11
130.7017210078
 21
98.8341626945
 31
0.0
 11
130.6558486544
 21
98.6726329052
 31
0.0
 11
130.5924704448
 21
98.5206080741
 31
0.0
 11
130.5121984066
 21
98.3801577953
 31
0.0
 11
130.415761606
 21
98.2536743868
 31
0.0
 11
130.3049660936
 21
98.1445147477
 31
0.0
 11
130.1814622214
 21
98.0551042994
 31
0.0
 11
130.0433408825
 21
97.9862296415
 31
0.0
 11
129.8933840401
 21
97.9424329197
 31
0.0
 11
129.7381231057
 21
97.9275162998
 31
0.0
  0
SPLINE
  5
31C
100
AcDbEntity
  8
0
100
AcDbSpline
 62
7
  6
CONTINUOUS
 70
0
 71
3
 72
81
 73
77
 74
75
 42
0.0000001
 43
0.0000001
 44
0.0000000001
 12
-27.165097656
 22
-5.854405156
 32
0.0
 13
-21.4656567032
 23
-17.6382244864
 33
0.0
 40
0.0
 40
0.0
 40
0.0
 40
0.0
 40
0.0092645896
 40
0.0199537174
 40
0.028469627
 40
0.0350756304
 40
0.0403768338
 40
0.0451705841
 40
0.0504181974
 40
0.0568752368
 40
0.0650857655
 40
0.0753636932
 40
0.0875620408
 40
0.1015004967
 40
0.1169880721
 40
0.1338298806
 40
0.1518596611
 40
0.1706912826
 40
0.1890773662
 40
0.2056916869
 40
0.2202111888
 40
0.2327925954
 40
0.2437603885
 40
0.2535886017
 40
0.2627441961
 40
0.2715784855
 40
0.2800536071
 40
0.2881145623
 40
0.295595889
 40
0.3028492112
 40
0.3107142313
 40
0.3197965685
 40
0.3302688203
 40
0.3421484066
 40
0.3555219246
 40
0.3703040132
 40
0.3863541448
 40
0.4034633752
 40
0.4213499407
 40
0.4396080395
 40
0.4577719243
 40
0.47525305
 40
0.4915433402
 40
0.5061612683
 40
0.5189171005
 40
0.5301611124
 40
0.5405035906
 40
0.5505274452
 40
0.5605134871
 40
0.5708888883
 40
0.582281186
 40
0.5952199402
 40
0.6100405527
 40
0.6269864045
 40
0.6462545871
 40
0.6670108436
 40
0.6883262584
 40
0.7097355315
 40
0.7309089815
 40
0.7514545332
 40
0.7709556341
 40
0.7889036103
 40
0.8048176797
 40
0.8187511599
 40
0.8310901433
 40
0.8424390732
 40
0.8531682099
 40
0.8638213003
 40
0.8751957854
 40
0.8878774694
 40
0.9024146725
 40
0.9191363589
 40
0.9380098544
 40
0.9583754882
 40
0.9793618038
 40
1.0
 40
1.0
 40
1.0
 40
1.0
 10
163.7365289757
 20
143.10227623
 30
0.0
 10
163.6526378156
 20
143.0841966764
 30
0.0
 10
163.472877384
 20
143.0410061164
 30
0.0
 10
163.2211827685
 20
142.9609392584
 30
0.0
 10
163.0038515538
 20
142.8590598783
 30
0.0
 10
162.849789946
 20
142.7466273543
 30
0.0
 10
162.7536526513
 20
142.6214605934
 30
0.0
 10
162.7176070164
 20
142.4796463837
 30
0.0
 10
162.7439237365
 20
142.3256685575
 30
0.0
 10
162.8276706788
 20
142.1594939948
 30
0.0
 10
162.97042445
 20
141.9766181588
 30
0.0
 10
163.1738140392
 20
141.7773696709
 30
0.0
 10
163.4344301372
 20
141.5629442711
 30
0.0
 10
163.7453098762
 20
141.3348108603
 30
0.0
 10
164.0999538716
 20
141.0942304592
 30
0.0
 10
164.4920625129
 20
140.8416938359
 30
0.0
 10
164.9133392377
 20
140.57735352
 30
0.0
 10
165.3471578548
 20
140.306098973
 30
0.0
 10
165.7675600611
 20
140.0381203552
 30
0.0
 10
166.1497092552
 20
139.784521837
 30
0.0
 10
166.4808629572
 20
139.5515233617
 30
0.0
 10
166.761768061
 20
139.3383225788
 30
0.0
 10
166.9991489287
 20
139.1401344613
 30
0.0
 10
167.2018629743
 20
138.9505450549
 30
0.0
 10
167.3772876925
 20
138.7615059275
 30
0.0
 10
167.5265781819
 20
138.5665131677
 30
0.0
 10
167.6437379046
 20
138.361696986
 30
0.0
 10
167.7159132484
 20
138.1494008518
 30
0.0
 10
167.7346967388
 20
137.9368763101
 30
0.0
 10
167.699214452
 20
137.7283780487
 30
0.0
 10
167.6083133389
 20
137.5213771676
 30
0.0
 10
167.4596257509
 20
137.3138399426
 30
0.0
 10
167.2556698335
 20
137.1050399887
 30
0.0
 10
166.9996609208
 20
136.8947275672
 30
0.0
 10
166.6953132524
 20
136.6825216964
 30
0.0
 10
166.3472765998
 20
136.4667370797
 30
0.0
 10
165.9626210321
 20
136.2449452529
 30
0.0
 10
165.5494245253
 20
136.0152775005
 30
0.0
 10
165.1180567736
 20
135.7762199615
 30
0.0
 10
164.6815112557
 20
135.5263834954
 30
0.0
 10
164.2557894031
 20
135.2654625191
 30
0.0
 10
163.8586641601
 20
134.9935974061
 30
0.0
 10
163.5079355989
 20
134.7138007375
 30
0.0
 10
163.2176450119
 20
134.4310147369
 30
0.0
 10
162.9959795652
 20
134.1486633191
 30
0.0
 10
162.842293456
 20
133.8683776007
 30
0.0
 10
162.7505054843
 20
133.588499763
 30
0.0
 10
162.717778949
 20
133.3073037885
 30
0.0
 10
162.7430743157
 20
133.0252287121
 30
0.0
 10
162.8224682591
 20
132.740693985
 30
0.0
 10
162.9548825341
 20
132.4467254814
 30
0.0
 10
163.1447654647
 20
132.1368873769
 30
0.0
 10
163.3975286386
 20
131.8082334051
 30
0.0
 10
163.7153136883
 20
131.4578829692
 30
0.0
 10
164.0928797877
 20
131.0890355881
 30
0.0
 10
164.5159865138
 20
130.7098244823
 30
0.0
 10
164.9639451104
 20
130.3290604355
 30
0.0
 10
165.4184419992
 20
129.950111541
 30
0.0
 10
165.8653255699
 20
129.5731518768
 30
0.0
 10
166.2908068869
 20
129.1983295009
 30
0.0
 10
166.6801556963
 20
128.8280957046
 30
0.0
 10
167.0178482309
 20
128.4666871145
 30
0.0
 10
167.2913619277
 20
128.1177568265
 30
0.0
 10
167.4973003001
 20
127.7846042906
 30
0.0
 10
167.6387267061
 20
127.4647183625
 30
0.0
 10
167.7170390403
 20
127.1539237315
 30
0.0
 10
167.734391865
 20
126.8494648509
 30
0.0
 10
167.6947136705
 20
126.5470400839
 30
0.0
 10
167.5967461472
 20
126.2392423285
 30
0.0
 10
167.433804976
 20
125.9196160767
 30
0.0
 10
167.2009984097
 20
125.5846928586
 30
0.0
 10
166.8975754562
 20
125.2324751474
 30
0.0
 10
166.5294322166
 20
124.8671791142
 30
0.0
 10
166.1128588164
 20
124.4960828378
 30
0.0
 10
165.6729498091
 20
124.1271779991
 30
0.0
 10
165.374704122
 20
123.8829547862
 30
0.0
 10
165.2270333102
 20
123.7616144068
 30
0.0
 11
163.7365289757
 21
143.10227623
 31
0.0
 11
163.4864337766
 21
143.0413029137
 31
0.0
 11
163.2044727919
 21
142.9480762821
 31
0.0
 11
162.9919738985
 21
142.8440493108
 31
0.0
 11
162.8464968154
 21
142.732153081
 31
0.0
 11
162.7602161202
 21
142.6127896143
 31
0.0
 11
162.7277004422
 21
142.4836362287
 31
0.0
 11
162.7481352731
 21
142.3392822906
 31
0.0
 11
162.8246103617
 21
142.1770050992
 31
0.0
 11
162.9618943723
 21
141.9948299882
 31
0.0
 11
163.1635717485
 21
141.7926801887
 31
0.0
 11
163.4237515333
 21
141.5755116218
 31
0.0
 11
163.7350361994
 21
141.3451566847
 31
0.0
 11
164.0904730296
 21
141.102644866
 31
0.0
 11
164.4832868337
 21
140.848403294
 31
0.0
 11
164.9071174504
 21
140.5814100492
 31
0.0
 11
165.3502489077
 21
140.3032612037
 31
0.0
 11
165.7805038891
 21
140.0279183967
 31
0.0
 11
166.1646176274
 21
139.7719429715
 31
0.0
 11
166.4940171251
 21
139.5390892301
 31
0.0
 11
166.7718808666
 21
139.3270179482
 31
0.0
 11
167.0052639993
 21
139.1310999972
 31
0.0
 11
167.2040649582
 21
138.9439179602
 31
0.0
 11
167.3762148891
 21
138.7566553432
 31
0.0
 11
167.5239914144
 21
138.5606876808
 31
0.0
 11
167.6386447923
 21
138.3550251973
 31
0.0
 11
167.7085362587
 21
138.1422547531
 31
0.0
 11
167.7257907723
 21
137.9351203153
 31
0.0
 11
167.6925673666
 21
137.7363606321
 31
0.0
 11
167.6068028315
 21
137.5353832667
 31
0.0
 11
167.4626673691
 21
137.3282683848
 31
0.0
 11
167.2614761185
 21
137.1180950924
 31
0.0
 11
167.0079300721
 21
136.9067994902
 31
0.0
 11
166.7042990767
 21
136.6926500997
 31
0.0
 11
166.3561946129
 21
136.4747345324
 31
0.0
 11
165.970565841
 21
136.2508321318
 31
0.0
 11
165.5556698395
 21
136.0188604224
 31
0.0
 11
165.121614733
 21
135.7769026197
 31
0.0
 11
164.6820384052
 21
135.5237512495
 31
0.0
 11
164.2527237002
 21
135.2585095283
 31
0.0
 11
163.8531641831
 21
134.9824094833
 31
0.0
 11
163.500963848
 21
134.6981704466
 31
0.0
 11
163.2123555329
 21
134.4124366487
 31
0.0
 11
162.9958771016
 21
134.1318464175
 31
0.0
 11
162.8474623066
 21
133.8569640496
 31
0.0
 11
162.7591681342
 21
133.5835232645
 31
0.0
 11
162.7273325994
 21
133.3068586046
 31
0.0
 11
162.7509183739
 21
133.0304232246
 31
0.0
 11
162.826428661
 21
132.7522318912
 31
0.0
 11
162.9545014284
 21
132.4627918056
 31
0.0
 11
163.1404877361
 21
132.1551706016
 31
0.0
 11
163.3894735523
 21
131.8272220729
 31
0.0
 11
163.7040292479
 21
131.4769227264
 31
0.0
 11
164.0855252042
 21
131.1013808164
 31
0.0
 11
164.5137561118
 21
130.7151659646
 31
0.0
 11
164.9638809813
 21
130.3303419504
 31
0.0
 11
165.4197549225
 21
129.9482736811
 31
0.0
 11
165.8683847406
 21
129.567777587
 31
0.0
 11
166.295573035
 21
129.1891795266
 31
0.0
 11
166.6866696011
 21
128.8142335123
 31
0.0
 11
167.0249579466
 21
128.4478907384
 31
0.0
 11
167.2955603825
 21
128.0982349777
 31
0.0
 11
167.4967898876
 21
127.7675369563
 31
0.0
 11
167.632911563
 21
127.452909835
 31
0.0
 11
167.7082680478
 21
127.1467426599
 31
0.0
 11
167.7250567646
 21
126.8491308631
 31
0.0
 11
167.6872863308
 21
126.5555786053
 31
0.0
 11
167.5929090535
 21
126.2539859975
 31
0.0
 11
167.4352800661
 21
125.9388812383
 31
0.0
 11
167.2074732561
 21
125.6053756733
 31
0.0
 11
166.9064659704
 21
125.2515055425
 31
0.0
 11
166.5361772309
 21
124.8802411955
 31
0.0
 11
166.1153512876
 21
124.5020212802
 31
0.0
 11
165.6697523768
 21
124.1259922808
 31
0.0
 11
165.2270333102
 21
123.7616144068
 31
0.0
  0
SPLINE
  5
31D
100
AcDbEntity
  8
BEZUGSACHSEN
100
AcDbSpline
 62
7
  6
CONTINUOUS
 70
0
 71
3
 72
11
 73
7
 74
5
 42
0.0000001
 43
0.0000001
 44
0.0000000001
 12
0.0
 22
-0.1395867963
 32
0.0
 13
0.0661959442
 23
-0.1231095805
 33
0.0
 40
0.0
 40
0.0
 40
0.0
 40
0.0
 40
0.2989089425
 40
0.5912641764
 40
0.8672480948
 40
1.0
 40
1.0
 40
1.0
 40
1.0
 10
120.9381231057
 20
150.890399991
 30
0.0
 10
120.9381231057
 20
150.8764920771
 30
0.0
 10
120.9394130262
 20
150.8489523578
 30
0.0
 10
120.9461404744
 20
150.8090423961
 30
0.0
 10
120.9563492172
 20
150.7779072641
 30
0.0
 10
120.9646173756
 20
150.7607290569
 30
0.0
 10
120.9675465881
 20
150.7552813798
 30
0.0
 11
120.9381231057
 21
150.890399991
 31
0.0
 11
120.9402698595
 21
150.8487315129
 31
0.0
 11
120.9472907108
 21
150.8085310595
 31
0.0
 11
120.9594909574
 21
150.7719902564
 31
0.0
 11
120.9675465881
 21
150.7552813798
 31
0.0
  0
SPLINE
  5
31E
100
AcDbEntity
  8
BEZUGSACHSEN
100
AcDbSpline
 62
7
  6
CONTINUOUS
 70
0
 71
3
 72
16
 73
12
 74
10
 42
0.0000001
 43
0.0000001
 44
0.0000000001
 12
0.244791693
 22
-0.4552575388
 32
0.0
 13
0.497355697
 23
0.1381647029
 33
0.0
 40
0.0
 40
0.0
 40
0.0
 40
0.0
 40
0.0354819688
 40
0.1069116572
 40
0.1821577292
 40
0.2654043123
 40
0.3615453499
 40
0.4759438992
 40
0.6177190239
 40
0.7944984177
 40
1.0
 40
1.0
 40
1.0
 40
1.0
 10
120.9675465881
 20
150.7552813798
 30
0.0
 10
120.9704418185
 20
150.7498969019
 30
0.0
 10
120.9798832444
 20
150.7340600926
 30
0.0
 10
120.9996464752
 20
150.7094967506
 30
0.0
 10
121.0298992584
 20
150.6836683299
 30
0.0
 10
121.0678662566
 20
150.6613924936
 30
0.0
 10
121.1151994638
 20
150.6430878196
 30
0.0
 10
121.1745484008
 20
150.6297711332
 30
0.0
 10
121.2490489634
 20
150.6238093103
 30
0.0
 10
121.3393448533
 20
150.6292439264
 30
0.0
 10
121.4040539781
 20
150.6424823841
 30
0.0
 10
121.4381231057
 20
150.6519467391
 30
0.0
 11
120.9675465881
 21
150.7552813798
 31
0.0
 11
120.976946372
 21
150.739541445
 31
0.0
 11
121.0000353754
 21
150.7107944398
 31
0.0
 11
121.0294726656
 21
150.6854549346
 31
0.0
 11
121.0664076041
 21
150.6634931001
 31
0.0
 11
121.1125801476
 21
150.6453013412
 31
0.0
 11
121.1701216853
 21
150.6320333901
 31
0.0
 11
121.2430398871
 21
150.6258145393
 31
0.0
 11
121.3341481967
 21
150.6309292814
 31
0.0
 11
121.4381231057
 21
150.6519467391
 31
0.0
  0
SPLINE
  5
31F
100
AcDbEntity
  8
BEZUGSACHSEN
100
AcDbSpline
 62
7
  6
CONTINUOUS
 70
0
 71
3
 72
11
 73
7
 74
5
 42
0.0000001
 43
0.0000001
 44
0.0000000001
 12
0.0
 22
0.1830126193
 32
0.0
 13
0.1451726273
 23
-0.1114384454
 33
0.0
 40
0.0
 40
0.0
 40
0.0
 40
0.0
 40
0.2465776366
 40
0.4184562595
 40
0.6350985973
 40
1.0
 40
1.0
 40
1.0
 40
1.0
 10
120.8131231057
 20
151.1199208553
 30
0.0
 10
120.8131231057
 20
151.1349631284
 30
0.0
 10
120.8130955913
 20
151.1613763906
 30
0.0
 10
120.8425136336
 20
151.1947109227
 30
0.0
 10
120.8926763997
 20
151.1799561949
 30
0.0
 10
120.9204652072
 20
151.1601854617
 30
0.0
 10
120.9381231057
 20
151.14663078
 30
0.0
 11
120.8131231057
 21
151.1199208553
 31
0.0
 11
120.8198304634
 21
151.1645464215
 31
0.0
 11
120.8419806413
 21
151.1868813012
 31
0.0
 11
120.88128844
 21
151.1816964004
 31
0.0
 11
120.9381231057
 21
151.14663078
 31
0.0
  0
SPLINE
  5
320
100
AcDbEntity
  8
0
100
AcDbSpline
 62
7
  6
CONTINUOUS
 70
0
 71
3
 72
15
 73
11
 74
9
 42
0.0000001
 43
0.0000001
 44
0.0000000001
 12
0.0
 22
0.9130899958
 32
0.0
 13
-0.9130899958
 23
-0.0
 33
0.0
 40
0.0
 40
0.0
 40
0.0
 40
0.0
 40
0.1598406322
 40
0.3070906132
 40
0.4443104261
 40
0.5725485626
 40
0.6906434484
 40
0.8001389346
 40
0.9041997491
 40
1.0
 40
1.0
 40
1.0
 40
1.0
 10
124.6881231057
 20
101.918065588
 30
0.0
 10
124.6881231057
 20
101.9667152153
 30
0.0
 10
124.6801823818
 20
102.0603884687
 30
0.0
 10
124.6464354783
 20
102.1919387599
 30
0.0
 10
124.5952324891
 20
102.3073125076
 30
0.0
 10
124.5295788863
 20
102.4046280484
 30
0.0
 10
124.4526134441
 20
102.4818280521
 30
0.0
 10
124.3674720574
 20
102.5375204587
 30
0.0
 10
124.278330366
 20
102.5703572194
 30
0.0
 10
124.2172811892
 20
102.5775254483
 30
0.0
 10
124.1881231057
 20
102.5775254483
 30
0.0
 11
124.6881231057
 21
101.918065588
 31
0.0
 11
124.6756890154
 21
102.0634838454
 31
0.0
 11
124.6420064735
 21
102.1936489597
 31
0.0
 11
124.5907768558
 21
102.3079910882
 31
0.0
 11
124.524829996
 21
102.404747343
 31
0.0
 11
124.4482764965
 21
102.4806890448
 31
0.0
 11
124.364312232
 21
102.5349647238
 31
0.0
 11
124.2750124065
 21
102.5674262442
 31
0.0
 11
124.1881231057
 21
102.5775254483
 31
0.0
  0
SPLINE
  5
321
100
AcDbEntity
  8
BEZUGSACHSEN
100
AcDbSpline
 62
7
  6
CONTINUOUS
 70
0
 71
3
 72
12
 73
8
 74
6
 42
0.0000001
 43
0.0000001
 44
0.0000000001
 12
0.1458774432
 22
0.1119794812
 32
0.0
 13
0.0
 23
-0.1839011491
 33
0.0
 40
0.0
 40
0.0
 40
0.0
 40
0.0
 40
0.3119503866
 40
0.5109744676
 40
0.6456308384
 40
0.7914381086
 40
1.0
 40
1.0
 40
1.0
 40
1.0
 10
124.6881231057
 20
151.14663078
 30
0.0
 10
124.7032919473
 20
151.1582747942
 30
0.0
 10
124.7291471537
 20
151.1757312182
 30
0.0
 10
124.7667164666
 20
151.1916088046
 30
0.0
 10
124.7982027184
 20
151.1837684185
 30
0.0
 10
124.811897486
 20
151.1542569472
 30
0.0
 10
124.8131231057
 20
151.1327057792
 30
0.0
 10
124.8131231057
 20
151.1199208553
 30
0.0
 11
124.6881231057
 21
151.14663078
 31
0.0
 11
124.7363067414
 21
151.1777664291
 31
0.0
 11
124.7713495333
 21
151.1883313786
 31
0.0
 11
124.7950355657
 21
151.1811063603
 31
0.0
 11
124.8086675226
 21
151.1580159505
 31
0.0
 11
124.8131231057
 21
151.1199208553
 31
0.0
  0
SPLINE
  5
322
100
AcDbEntity
  8
0
100
AcDbSpline
 62
7
  6
CONTINUOUS
 70
0
 71
3
 72
15
 73
11
 74
9
 42
0.0000001
 43
0.0000001
 44
0.0000000001
 12
-0.9130901403
 22
0.0
 32
0.0
 13
0.0
 23
-0.9130901403
 33
0.0
 40
0.0
 40
0.0
 40
0.0
 40
0.0
 40
0.095594498
 40
0.1995281968
 40
0.3092175201
 40
0.4273815356
 40
0.5557358605
 40
0.6930947067
 40
0.8403493616
 40
1.0
 40
1.0
 40
1.0
 40
1.0
 10
121.4381231057
 20
102.5775254483
 30
0.0
 10
121.4090276411
 20
102.5775254483
 30
0.0
 10
121.3480810689
 20
102.5703850036
 30
0.0
 10
121.2589606353
 20
102.5376189524
 30
0.0
 10
121.1737557544
 20
102.4819402013
 30
0.0
 10
121.0966947697
 20
102.4046704834
 30
0.0
 10
121.0309838227
 20
102.3072722449
 30
0.0
 10
120.9797653255
 20
102.1918171837
 30
0.0
 10
120.9460496017
 20
102.0602735023
 30
0.0
 10
120.9381231057
 20
101.9666573959
 30
0.0
 10
120.9381231057
 20
101.918065588
 30
0.0
 11
121.4381231057
 21
102.5775254483
 31
0.0
 11
121.3514179221
 21
102.5674693234
 31
0.0
 11
121.2622076192
 21
102.5351012765
 31
0.0
 11
121.1780690464
 21
102.4807692152
 31
0.0
 11
121.1014571774
 21
102.4047967034
 31
0.0
 11
121.0354486989
 21
102.307954035
 31
0.0
 11
120.9841835466
 21
102.1934886976
 31
0.0
 11
120.9505275438
 21
102.0633122888
 31
0.0
 11
120.9381231057
 21
101.918065588
 31
0.0
  0
SPLINE
  5
323
100
AcDbEntity
  8
BEZUGSACHSEN
100
AcDbSpline
 62
7
  6
CONTINUOUS
 70
0
 71
3
 72
16
 73
12
 74
10
 42
0.0000001
 43
0.0000001
 44
0.0000000001
 12
0.4973714463
 22
-0.1381690781
 32
0.0
 13
0.2447633051
 23
0.4552915049
 33
0.0
 40
0.0
 40
0.0
 40
0.0
 40
0.0
 40
0.2054084362
 40
0.3821123936
 40
0.5239763358
 40
0.6383788277
 40
0.7345406286
 40
0.8178119434
 40
0.8930732946
 40
0.9645140243
 40
1.0
 40
1.0
 40
1.0
 40
1.0
 10
124.1881231057
 20
150.6519467391
 30
0.0
 10
124.2221778693
 20
150.6424863743
 30
0.0
 10
124.2868599223
 20
150.6292515208
 30
0.0
 10
124.3771440147
 20
150.6238091009
 30
0.0
 10
124.4516508869
 20
150.6297630726
 30
0.0
 10
124.5110217603
 20
150.643080068
 30
0.0
 10
124.5583657965
 20
150.6613850191
 30
0.0
 10
124.5963440465
 20
150.6836654344
 30
0.0
 10
124.6266043577
 20
150.7095007472
 30
0.0
 10
124.6463702742
 20
150.7340700422
 30
0.0
 10
124.6558121458
 20
150.7499102961
 30
0.0
 10
124.6587073674
 20
150.7552957839
 30
0.0
 11
124.1881231057
 21
150.6519467391
 31
0.0
 11
124.2920535223
 21
150.6309349004
 31
0.0
 11
124.3831253285
 21
150.6258131224
 31
0.0
 11
124.4560921883
 21
150.6320282448
 31
0.0
 11
124.5136385204
 21
150.6452927833
 31
0.0
 11
124.5598237657
 21
150.6634858291
 31
0.0
 11
124.5967716338
 21
150.685453561
 31
0.0
 11
124.6262155624
 21
150.7107993293
 31
0.0
 11
124.6493073925
 21
150.7395528721
 31
0.0
 11
124.6587073674
 21
150.7552957839
 31
0.0
  0
SPLINE
  5
324
100
AcDbEntity
  8
BEZUGSACHSEN
100
AcDbSpline
 62
7
  6
CONTINUOUS
 70
0
 71
3
 72
11
 73
7
 74
5
 42
0.0000001
 43
0.0000001
 44
0.0000000001
 12
0.0661784389
 22
0.1231004829
 32
0.0
 13
0.0
 23
0.1395704877
 33
0.0
 40
0.0
 40
0.0
 40
0.0
 40
0.0
 40
0.1327767541
 40
0.408761515
 40
0.7011191023
 40
1.0
 40
1.0
 40
1.0
 40
1.0
 10
124.6587073674
 20
150.7552957839
 30
0.0
 10
124.6616363535
 20
150.7607440781
 30
0.0
 10
124.669902679
 20
150.7779220299
 30
0.0
 10
124.6801086135
 20
150.8090553645
 30
0.0
 10
124.6868336599
 20
150.8489597197
 30
0.0
 10
124.6881231057
 20
150.8764950068
 30
0.0
 10
124.6881231057
 20
150.890399991
 30
0.0
 11
124.6587073674
 21
150.7552957839
 31
0.0
 11
124.6667622229
 21
150.7720064846
 31
0.0
 11
124.6789587033
 21
150.8085439239
 31
0.0
 11
124.6859772969
 21
150.8487402649
 31
0.0
 11
124.6881231057
 21
150.890399991
 31
0.0
  0
SPLINE
  5
325
100
AcDbEntity
  8
0
100
AcDbSpline
 62
7
  6
CONTINUOUS
 70
0
 71
3
 72
18
 73
14
 74
12
 42
0.0000001
 43
0.0000001
 44
0.0000000001
 12
-1.7642179932
 22
0.0
 32
0.0
 13
0.0
 23
1.7642179932
 33
0.0
 40
0.0
 40
0.0
 40
0.0
 40
0.0
 40
0.0884356734
 40
0.1769592452
 40
0.264385139
 40
0.3507913626
 40
0.4389518107
 40
0.5291184745
 40
0.6208295728
 40
0.7142209758
 40
0.8094445939
 40
0.905156071
 40
1.0
 40
1.0
 40
1.0
 40
1.0
 10
115.8881231057
 20
97.9275162998
 30
0.0
 10
115.8361165036
 20
97.9275162998
 30
0.0
 10
115.731781277
 20
97.9375940998
 30
0.0
 10
115.5817963443
 20
97.9816773098
 30
0.0
 10
115.4431789184
 20
98.05115393
 30
0.0
 10
115.3180673031
 20
98.1421348219
 30
0.0
 10
115.2069990651
 20
98.2520174376
 30
0.0
 10
115.1106570016
 20
98.3788771976
 30
0.0
 10
115.0303430144
 20
98.5199331675
 30
0.0
 10
114.9669576741
 20
98.6725443394
 30
0.0
 10
114.9213446506
 20
98.8337999353
 30
0.0
 10
114.8941122226
 20
98.9999735517
 30
0.0
 10
114.8881231057
 20
99.1121281984
 30
0.0
 10
114.8881231057
 20
99.1679033204
 30
0.0
 11
115.8881231057
 21
97.9275162998
 31
0.0
 11
115.7328188102
 21
97.9424413046
 31
0.0
 11
115.5829079541
 21
97.9862286058
 31
0.0
 11
115.4448746058
 21
98.0550490879
 31
0.0
 11
115.3213852364
 21
98.1444255428
 31
0.0
 11
115.2105768013
 21
98.2535694537
 31
0.0
 11
115.1141138437
 21
98.3800578886
 31
0.0
 11
115.0338164685
 21
98.5205251233
 31
0.0
 11
114.9704095148
 21
98.6725985803
 31
0.0
 11
114.9245160869
 21
98.8342036154
 31
0.0
 11
114.8970996348
 21
99.0008189105
 31
0.0
 11
114.8881231057
 21
99.1679033204
 31
0.0
  0
SPLINE
  5
326
100
AcDbEntity
  8
0
100
AcDbSpline
 62
7
  6
CONTINUOUS
 70
0
 71
3
 72
79
 73
75
 74
73
 42
0.0000001
 43
0.0000001
 44
0.0000000001
 12
23.37265189
 22
14.287099416
 32
0.0
 13
21.0735267169
 23
17.4926058505
 33
0.0
 40
0.0
 40
0.0
 40
0.0
 40
0.0
 40
0.0073373459
 40
0.0178317538
 40
0.0261762639
 40
0.0328147577
 40
0.0382423596
 40
0.0432490993
 40
0.0487207676
 40
0.0554080257
 40
0.063815014
 40
0.0739898807
 40
0.085800727
 40
0.0990877733
 40
0.1136553213
 40
0.1294183251
 40
0.1461768225
 40
0.1630406453
 40
0.1787866517
 40
0.1928144618
 40
0.2050603318
 40
0.2156755085
 40
0.2250957808
 40
0.2337869461
 40
0.2421398086
 40
0.2502492725
 40
0.2582524031
 40
0.2661603752
 40
0.274266528
 40
0.2833891848
 40
0.2942029092
 40
0.3069689805
 40
0.3219200369
 40
0.3395755494
 40
0.3599745701
 40
0.3817903879
 40
0.4035461993
 40
0.4247316387
 40
0.4451008836
 40
0.4645090243
 40
0.4827788798
 40
0.4994186661
 40
0.5139623149
 40
0.5265624487
 40
0.5377119581
 40
0.5480561875
 40
0.5578894433
 40
0.5676288184
 40
0.5779438955
 40
0.5894349664
 40
0.6025470715
 40
0.6174872378
 40
0.6345376957
 40
0.6532622022
 40
0.6729824557
 40
0.6933019779
 40
0.7140564767
 40
0.734854027
 40
0.7550673505
 40
0.7740472703
 40
0.7910814747
 40
0.8060303991
 40
0.8192406534
 40
0.8313975613
 40
0.8429293712
 40
0.8543512704
 40
0.8665100584
 40
0.8800753933
 40
0.8956174818
 40
0.9135491799
 40
0.9338390414
 40
0.9557565213
 40
0.9782377485
 40
1.0
 40
1.0
 40
1.0
 40
1.0
 10
165.8405310928
 20
104.8898502831
 30
0.0
 10
165.8976955034
 20
104.9247934132
 30
0.0
 10
166.0349256186
 20
105.0124675185
 30
0.0
 10
166.2279221021
 20
105.1540475819
 30
0.0
 10
166.3979264272
 20
105.3140018344
 30
0.0
 10
166.5095973648
 20
105.4648166629
 30
0.0
 10
166.5663406831
 20
105.6133332006
 30
0.0
 10
166.5592370349
 20
105.762933088
 30
0.0
 10
166.4861045907
 20
105.9056052376
 30
0.0
 10
166.3537208877
 20
106.0410914173
 30
0.0
 10
166.1631217353
 20
106.172633808
 30
0.0
 10
165.9169108589
 20
106.3014000904
 30
0.0
 10
165.6212855187
 20
106.4294809535
 30
0.0
 10
165.2827043412
 20
106.5581080554
 30
0.0
 10
164.9066505104
 20
106.6891118638
 30
0.0
 10
164.4988830217
 20
106.8252315829
 30
0.0
 10
164.07133122
 20
106.9682921293
 30
0.0
 10
163.6458993038
 20
107.1171540105
 30
0.0
 10
163.247823277
 20
107.2683973548
 30
0.0
 10
162.8945523257
 20
107.4182207216
 30
0.0
 10
162.5912887555
 20
107.5650594947
 30
0.0
 10
162.3345022247
 20
107.7101633499
 30
0.0
 10
162.1168211312
 20
107.8570029722
 30
0.0
 10
161.9302711797
 20
108.0112773526
 30
0.0
 10
161.772779988
 20
108.1794991152
 30
0.0
 10
161.6496315119
 20
108.3676666556
 30
0.0
 10
161.5741352527
 20
108.5760246322
 30
0.0
 10
161.5539033402
 20
108.796680749
 30
0.0
 10
161.5878707059
 20
109.0254886366
 30
0.0
 10
161.6766602882
 20
109.2671943528
 30
0.0
 10
161.8262424327
 20
109.526839758
 30
0.0
 10
162.0393826737
 20
109.8075075177
 30
0.0
 10
162.3201350993
 20
110.1126869416
 30
0.0
 10
162.6726780431
 20
110.4445934767
 30
0.0
 10
163.0892206787
 20
110.7986951787
 30
0.0
 10
163.5454576268
 20
111.163323002
 30
0.0
 10
164.0123379678
 20
111.525979742
 30
0.0
 10
164.4686028692
 20
111.880776507
 30
0.0
 10
164.9030149239
 20
112.228729193
 30
0.0
 10
165.3066840969
 20
112.5722492881
 30
0.0
 10
165.6687760818
 20
112.9114399017
 30
0.0
 10
165.9769746114
 20
113.2419810028
 30
0.0
 10
166.2216065332
 20
113.5590994023
 30
0.0
 10
166.3988534424
 20
113.861785778
 30
0.0
 10
166.5127596209
 20
114.1530478007
 30
0.0
 10
166.5662946805
 20
114.4359259785
 30
0.0
 10
166.5599345899
 20
114.7110664222
 30
0.0
 10
166.4965606003
 20
114.9782405175
 30
0.0
 10
166.3805710553
 20
115.2432275234
 30
0.0
 10
166.2097515313
 20
115.5135518789
 30
0.0
 10
165.9800261273
 20
115.7929922679
 30
0.0
 10
165.6881942391
 20
116.0841363593
 30
0.0
 10
165.3382858291
 20
116.3877045381
 30
0.0
 10
164.9402606528
 20
116.7013366966
 30
0.0
 10
164.5096711985
 20
117.0213737551
 30
0.0
 10
164.0610582784
 20
117.3481328762
 30
0.0
 10
163.606815512
 20
117.6838815131
 30
0.0
 10
163.1616605495
 20
118.0301530544
 30
0.0
 10
162.7442178096
 20
118.3850577319
 30
0.0
 10
162.3751712544
 20
118.7426017877
 30
0.0
 10
162.0720895856
 20
119.0967560951
 30
0.0
 10
161.8421885314
 20
119.440728249
 30
0.0
 10
161.6816237563
 20
119.7734188749
 30
0.0
 10
161.5855759151
 20
120.0980872052
 30
0.0
 10
161.5521012731
 20
120.4187015649
 30
0.0
 10
161.5768960626
 20
120.7399226179
 30
0.0
 10
161.6605993253
 20
121.0701436716
 30
0.0
 10
161.8108280128
 20
121.4172038086
 30
0.0
 10
162.0357909219
 20
121.7843412979
 30
0.0
 10
162.3378547523
 20
122.1722043311
 30
0.0
 10
162.7121722618
 20
122.5745798202
 30
0.0
 10
163.1420290121
 20
122.9799201497
 30
0.0
 10
163.5980413761
 20
123.3761080378
 30
0.0
 10
163.9083111908
 20
123.6347215772
 30
0.0
 10
164.0611803206
 20
123.7616144068
 30
0.0
 11
165.8405310928
 21
104.8898502831
 31
0.0
 11
166.0096546183
 21
104.9984304194
 31
0.0
 11
166.2396797668
 21
105.1707592244
 31
0.0
 11
166.4037263633
 21
105.3298747601
 31
0.0
 11
166.5083785684
 21
105.4785484065
 31
0.0
 11
166.5570951945
 21
105.6189881964
 31
0.0
 11
166.5503209644
 21
105.7559437255
 31
0.0
 11
166.4859238626
 21
105.8912578704
 31
0.0
 11
166.3615149497
 21
106.0256668725
 31
0.0
 11
166.1743332266
 21
106.1597455185
 31
0.0
 11
165.9288447832
 21
106.291617184
 31
0.0
 11
165.6327973376
 21
106.421962135
 31
0.0
 11
165.2930915306
 21
106.552438692
 31
0.0
 11
164.916692163
 21
106.6847323065
 31
0.0
 11
164.5075190075
 21
106.8224008009
 31
0.0
 11
164.0725768527
 21
106.9689769228
 31
0.0
 11
163.6369816088
 21
107.122509609
 31
0.0
 11
163.2342254726
 21
107.2766558207
 31
0.0
 11
162.8809661194
 21
107.4276826634
 31
0.0
 11
162.5796300489
 21
107.574924934
 31
0.0
 11
162.3271172974
 21
107.7190025058
 31
0.0
 11
162.1138860186
 21
107.8642474481
 31
0.0
 11
161.9313783376
 21
108.0170532621
 31
0.0
 11
161.7764589818
 21
108.1853792637
 31
0.0
 11
161.6568126661
 21
108.3724965759
 31
0.0
 11
161.5830972032
 21
108.5789161391
 31
0.0
 11
161.5626367714
 21
108.7945284983
 31
0.0
 11
161.5934192029
 21
109.0143927709
 31
0.0
 11
161.6771826509
 21
109.2497815803
 31
0.0
 11
161.8220614613
 21
109.5080886091
 31
0.0
 11
162.0311533747
 21
109.7883096335
 31
0.0
 11
162.3065772149
 21
110.091313309
 31
0.0
 11
162.656940311
 21
110.4245699227
 31
0.0
 11
163.0810841313
 21
110.788200691
 31
0.0
 11
163.5467348183
 21
111.1625764687
 31
0.0
 11
164.0164177981
 21
111.5292159721
 31
0.0
 11
164.4736109014
 21
111.8864688966
 31
0.0
 11
164.9080726311
 21
112.2364085901
 31
0.0
 11
165.3117209814
 21
112.5822508818
 31
0.0
 11
165.6754921227
 21
112.9258197594
 31
0.0
 11
165.9843125762
 21
113.2609544607
 31
0.0
 11
166.2249953981
 21
113.5783312145
 31
0.0
 11
166.3969597225
 21
113.8775205561
 31
0.0
 11
166.5060108974
 21
114.1627433648
 31
0.0
 11
166.5569779765
 21
114.4414255148
 31
0.0
 11
166.5504896435
 21
114.7106573679
 31
0.0
 11
166.490419284
 21
114.9705441991
 31
0.0
 11
166.3789661574
 21
115.2301358646
 31
0.0
 11
166.212757537
 21
115.4973799909
 31
0.0
 11
165.9865954922
 21
115.7763258308
 31
0.0
 11
165.698854629
 21
116.0672391315
 31
0.0
 11
165.3476194149
 21
116.3749680061
 31
0.0
 11
164.9459873863
 21
116.6938360026
 31
0.0
 11
164.5135592092
 21
117.0174177432
 31
0.0
 11
164.0646449407
 21
117.3463147216
 31
0.0
 11
163.6085259923
 21
117.6855107446
 31
0.0
 11
163.1600734192
 21
118.0366952253
 31
0.0
 11
162.7397528696
 21
118.3969716633
 31
0.0
 11
162.3685659994
 21
118.7608794392
 31
0.0
 11
162.0674908412
 21
119.1172520525
 31
0.0
 11
161.8421083376
 21
119.459047942
 31
0.0
 11
161.6869198298
 21
119.7858727242
 31
0.0
 11
161.5942403359
 21
120.1056630444
 31
0.0
 11
161.5616111563
 21
120.4198024908
 31
0.0
 11
161.5849355912
 21
120.7317509933
 31
0.0
 11
161.6654016261
 21
121.0548838548
 31
0.0
 11
161.8108513767
 21
121.3967518205
 31
0.0
 11
162.0303948067
 21
121.761427772
 31
0.0
 11
162.3297024339
 21
122.1507882151
 31
0.0
 11
162.7061461676
 21
122.5595471664
 31
0.0
 11
163.140960213
 21
122.9733821805
 31
0.0
 11
163.6043712464
 21
123.3787798222
 31
0.0
 11
164.0611803206
 21
123.7616144068
 31
0.0
  0
ENDSEC
  0
SECTION
  2
OBJECTS
  0
DICTIONARY
  5
C
100
AcDbDictionary
280
0
281
1
  3
ACAD_GROUP
350
D
  3
ACAD_MLINESTYLE
350
17
  3
ACAD_LAYOUT
350
1A
  3
ACAD_PLOTSETTINGS
350
19
  3
ACAD_PLOTSTYLENAME
350
E
  0
DICTIONARY
  5
D
102
{ACAD_REACTORS
330
C
102
}
100
AcDbDictionary
280
0
281
1
  0
ACDBDICTIONARYWDFLT
  5
E
102
{ACAD_REACTORS
330
C
102
}
100
AcDbDictionary
281
1
  3
Normal
350
F
100
AcDbDictionaryWithDefault
340
F
  0
DICTIONARY
  5
17
102
{ACAD_REACTORS
330
C
102
}
100
AcDbDictionary
280
0
281
1
  3
Standard
350
18
  0
DICTIONARY
  5
19
102
{ACAD_REACTORS
330
C
102
}
100
AcDbDictionary
281
1
  0
DICTIONARY
  5
1A
102
{ACAD_REACTORS
330
C
102
}
100
AcDbDictionary
281
1
  3
Model
350
327
  3
Layout1
350
328
  0
ACDBPLACEHOLDER
  5
F
102
{ACAD_REACTORS
330
E
102
}
  0
MLINESTYLE
  5
18
102
{ACAD_REACTORS
330
17
102
}
100
AcDbMlineStyle
  2
STANDARD
 70
0
  3

 62
256
 51
90.0
 52
90.0
 71
2
 49
0.5
 62
256
  6
BYLAYER
 49
-0.5
 62
256
  6
BYLAYER
  0
LAYOUT
  5
327
102
{ACAD_REACTORS
330
1A
102
}
100
AcDbPlotSettings
  1

  2
none_device
  4
ISO_A4_(297.00_x_210.00_MM)
  6

 40
0.0
 41
0.0
 42
0.0
 43
0.0
 44
297.0
 45
210.0
 46
0.0
 47
0.0
 48
0.0
 49
0.0
140
0.0
141
0.0
142
1.0
143
1.0
 70
1024
 72
1
 73
0
 74
0
  7

 75
0
147
1.0
148
0.0
149
0.0
100
AcDbLayout
  1
Model
 70
0
 71
0
 10
0.0
 20
0.0
 11
297.0
 21
210.0
 12
0.0
 22
0.0
 32
0.0
 14
0.0
 24
0.0
 34
0.0
 15
0.0
 25
0.0
 35
0.0
146
0.0
 13
0.0
 23
0.0
 33
0.0
 16
1.0
 26
0.0
 36
0.0
 17
0.0
 27
1.0
 37
0.0
 76
0
330
217
345
0
346
0
  0
LAYOUT
  5
328
102
{ACAD_REACTORS
330
1A
102
}
100
AcDbPlotSettings
  1

  2
none_device
  4
ISO_A4_(297.00_x_210.00_MM)
  6

 40
0.0
 41
0.0
 42
0.0
 43
0.0
 44
297.0
 45
210.0
 46
0.0
 47
0.0
 48
0.0
 49
0.0
140
0.0
141
0.0
142
1.0
143
1.0
 70
0
 72
1
 73
0
 74
0
  7

 75
0
147
1.0
148
0.0
149
0.0
100
AcDbLayout
  1
Layout1
 70
0
 71
1
 10
0.0
 20
0.0
 11
297.0
 21
210.0
 12
0.0
 22
0.0
 32
0.0
 14
0.0
 24
0.0
 34
0.0
 15
0.0
 25
0.0
 35
0.0
146
0.0
 13
0.0
 23
0.0
 33
0.0
 16
1.0
 26
0.0
 36
0.0
 17
0.0
 27
1.0
 37
0.0
 76
0
330
218
345
0
346
0
  0
ENDSEC
  0
EOF
