999
DXF file: 40-484-06-8.dxf
999
Pro/ENGINEER 2010330 by Parametric Technology Corporation
  0
SECTION
  2
HEADER
  9
$ACADVER
  1
AC1021
  9
$DWGCODEPAGE
  3
ANSI_1252
  9
$EXTMAX
 10
297.0
 20
210.0
 30
0.0
  9
$EXTMIN
 10
0.0
 20
0.0
 30
0.0
  9
$LIMMIN
 10
0.0
 20
0.0
  9
$LIMMAX
 10
297.0
 20
210.0
  9
$VIEWCTR
 10
148.5
 20
105.0
  9
$VIEWSIZE
 40
210.0
  9
$CLAYER
  8
0
  9
$LTSCALE
 40
16.335
  9
$CELTYPE
  6
BYLAYER
  9
$DIMSCALE
 40
1.0
  9
$DIMASZ
 40
3.5
  9
$DIMEXO
 40
1.85625
  9
$DIMDLI
 40
11.286
  9
$DIMEXE
 40
5.346
  9
$DIMCEN
 40
2.673
  9
$DIMLFAC
 40
1.0
  9
$DIMBLK
  1
_FILLED
  9
$DIMTXT
 40
3.5
  9
$DIMTOL
 70
1
  9
$DIMLIM
 70
0
  9
$DIMTFAC
 40
1.0
  9
$DIMTP
 40
0.005
  9
$DIMTM
 40
0.005
  9
$PDMODE
 70
3
  9
$PDSIZE
 40
0.3125
  9
$HANDSEED
  5
345
  9
$TILEMODE
 70
1
  9
$MEASUREMENT
 70
1
  9
$INSUNITS
 70
4
  0
ENDSEC
  0
SECTION
  2
CLASSES
  0
CLASS
  1
ACDBDICTIONARYWDFLT
  2
AcDbDictionaryWithDefault
  3
AutoCAD 2000
 90
0
 91
1
280
0
281
0
  0
CLASS
  1
ACDBPLACEHOLDER
  2
AcDbPlaceHolder
  3
AutoCAD 2000
 90
0
 91
1
280
0
281
0
  0
CLASS
  1
LAYOUT
  2
AcDbLayout
  3
AutoCAD 2000
 90
0
 91
0
280
0
281
0
  0
ENDSEC
  0
SECTION
  2
TABLES
  0
TABLE
  2
VPORT
  5
8
100
AcDbSymbolTable
 70
2
  0
VPORT
  5
1F4
100
AcDbSymbolTableRecord
100
AcDbViewportTableRecord
  2
*ACTIVE
 70
0
 10
0.0
 20
0.0
 11
1.0
 21
1.0
 12
148.5
 22
105.0
 13
0.0
 23
0.0
 14
1.0
 24
1.0
 15
0.0
 25
0.0
 16
0.0
 26
0.0
 36
1.0
 17
0.0
 27
0.0
 37
0.0
 40
210.0
 41
1.4142857143
 42
50.0
 43
0.0
 44
0.0
 50
0.0
 51
0.0
 71
0
 72
100
 73
1
 74
1
 75
0
 76
0
 77
0
 78
0
  0
ENDTAB
  0
TABLE
  2
LTYPE
  5
5
100
AcDbSymbolTable
 70
6
  0
LTYPE
  5
14
100
AcDbSymbolTableRecord
100
AcDbLinetypeTableRecord
  2
BYBLOCK
 70
0
  3

 72
65
 73
0
 40
0.0
  0
LTYPE
  5
15
100
AcDbSymbolTableRecord
100
AcDbLinetypeTableRecord
  2
BYLAYER
 70
0
  3

 72
65
 73
0
 40
0.0
  0
LTYPE
  5
16
100
AcDbSymbolTableRecord
100
AcDbLinetypeTableRecord
  2
CONTINUOUS
 70
64
  3
Solid line
 72
65
 73
0
 40
0.0
  0
LTYPE
  5
1F5
100
AcDbSymbolTableRecord
100
AcDbLinetypeTableRecord
  2
CENTER
 70
64
  3
____ _ ____ _ ____ _ ____ _ ____ _ ____ _ ____
 72
65
 73
4
 40
0.6
 49
0.375
 74
0
 49
-0.075
 74
0
 49
0.075
 74
0
 49
-0.075
 74
0
  0
LTYPE
  5
1F6
100
AcDbSymbolTableRecord
100
AcDbLinetypeTableRecord
  2
HIDDEN
 70
64
  3
- - - - - - - - - - - - - - - - - - - -
 72
65
 73
2
 40
0.2
 49
0.1
 74
0
 49
-0.1
 74
0
  0
LTYPE
  5
1F7
100
AcDbSymbolTableRecord
100
AcDbLinetypeTableRecord
  2
PHANTOM
 70
64
  3
_____ _ _ _____ _ _ _____ _ _ _____
 72
65
 73
6
 40
0.8
 49
0.45
 74
0
 49
-0.05
 74
0
 49
0.1
 74
0
 49
-0.05
 74
0
 49
0.1
 74
0
 49
-0.05
 74
0
  0
LTYPE
  5
1F8
100
AcDbSymbolTableRecord
100
AcDbLinetypeTableRecord
  2
DOT
 70
64
  3
. . . . . . . . . . . . . . . . . . . .
 72
65
 73
2
 40
0.2
 49
0.1
 74
0
 49
-0.1
 74
0
  0
LTYPE
  5
1F9
100
AcDbSymbolTableRecord
100
AcDbLinetypeTableRecord
  2
DASHED
 70
64
  3
- - - - - - - - - - - - - - - - - - - -
 72
65
 73
2
 40
0.2
 49
0.1
 74
0
 49
-0.1
 74
0
  0
ENDTAB
  0
TABLE
  2
LAYER
  5
2
100
AcDbSymbolTable
 70
36
  0
LAYER
  5
10
100
AcDbSymbolTableRecord
100
AcDbLayerTableRecord
  2
0
 70
0
 62
7
  6
CONTINUOUS
370
-3
390
F
  0
LAYER
  5
1FA
100
AcDbSymbolTableRecord
100
AcDbLayerTableRecord
  2
DEFAULT_1
 70
0
 62
7
  6
CENTER
370
-3
390
F
  0
LAYER
  5
1FB
100
AcDbSymbolTableRecord
100
AcDbLayerTableRecord
  2
DEFAULT_2
 70
0
 62
8
  6
HIDDEN
370
-3
390
F
  0
LAYER
  5
1FC
100
AcDbSymbolTableRecord
100
AcDbLayerTableRecord
  2
DEFAULT_3
 70
0
 62
7
  6
PHANTOM
370
-3
390
F
  0
LAYER
  5
1FD
100
AcDbSymbolTableRecord
100
AcDbLayerTableRecord
  2
ANALYSEN
 70
0
 62
7
  6
CONTINUOUS
370
-3
390
F
  0
LAYER
  5
1FE
100
AcDbSymbolTableRecord
100
AcDbLayerTableRecord
  2
AUSSENKONTUR
 70
0
 62
7
  6
CONTINUOUS
370
-3
390
F
  0
LAYER
  5
1FF
100
AcDbSymbolTableRecord
100
AcDbLayerTableRecord
  2
BEZUGSACHSEN
 70
0
 62
7
  6
CONTINUOUS
370
-3
390
F
  0
LAYER
  5
200
100
AcDbSymbolTableRecord
100
AcDbLayerTableRecord
  2
BEZUGSACHSENKENNZEICHEN
 70
0
 62
7
  6
CONTINUOUS
370
-3
390
F
  0
LAYER
  5
201
100
AcDbSymbolTableRecord
100
AcDbLayerTableRecord
  2
BEZUGSEBENEN
 70
0
 62
7
  6
CONTINUOUS
370
-3
390
F
  0
LAYER
  5
202
100
AcDbSymbolTableRecord
100
AcDbLayerTableRecord
  2
BEZUGSPUNKTE
 70
0
 62
7
  6
CONTINUOUS
370
-3
390
F
  0
LAYER
  5
203
100
AcDbSymbolTableRecord
100
AcDbLayerTableRecord
  2
BOHRUNGEN
 70
0
 62
7
  6
CONTINUOUS
370
-3
390
F
  0
LAYER
  5
204
100
AcDbSymbolTableRecord
100
AcDbLayerTableRecord
  2
FASEN
 70
0
 62
7
  6
CONTINUOUS
370
-3
390
F
  0
LAYER
  5
205
100
AcDbSymbolTableRecord
100
AcDbLayerTableRecord
  2
FLAECHEN
 70
0
 62
7
  6
CONTINUOUS
370
-3
390
F
  0
LAYER
  5
206
100
AcDbSymbolTableRecord
100
AcDbLayerTableRecord
  2
GEWINDE
 70
0
 62
7
  6
CONTINUOUS
370
-3
390
F
  0
LAYER
  5
207
100
AcDbSymbolTableRecord
100
AcDbLayerTableRecord
  2
HILFEN
 70
0
 62
7
  6
CONTINUOUS
370
-3
390
F
  0
LAYER
  5
208
100
AcDbSymbolTableRecord
100
AcDbLayerTableRecord
  2
INNENKONTUR
 70
0
 62
7
  6
CONTINUOUS
370
-3
390
F
  0
LAYER
  5
209
100
AcDbSymbolTableRecord
100
AcDbLayerTableRecord
  2
KURVEN
 70
0
 62
7
  6
CONTINUOUS
370
-3
390
F
  0
LAYER
  5
20A
100
AcDbSymbolTableRecord
100
AcDbLayerTableRecord
  2
MAKINO
 70
0
 62
7
  6
CONTINUOUS
370
-3
390
F
  0
LAYER
  5
20B
100
AcDbSymbolTableRecord
100
AcDbLayerTableRecord
  2
OELVERDR_RILLE
 70
0
 62
7
  6
CONTINUOUS
370
-3
390
F
  0
LAYER
  5
20C
100
AcDbSymbolTableRecord
100
AcDbLayerTableRecord
  2
PLATZIERUNG
 70
0
 62
7
  6
CONTINUOUS
370
-3
390
F
  0
LAYER
  5
20D
100
AcDbSymbolTableRecord
100
AcDbLayerTableRecord
  2
PUNKTE
 70
0
 62
7
  6
CONTINUOUS
370
-3
390
F
  0
LAYER
  5
20E
100
AcDbSymbolTableRecord
100
AcDbLayerTableRecord
  2
RUNDUNGEN
 70
0
 62
7
  6
CONTINUOUS
370
-3
390
F
  0
LAYER
  5
20F
100
AcDbSymbolTableRecord
100
AcDbLayerTableRecord
  2
TEIL_STARTBEZUEGE
 70
0
 62
7
  6
CONTINUOUS
370
-3
390
F
  0
LAYER
  5
210
100
AcDbSymbolTableRecord
100
AcDbLayerTableRecord
  2
VERERBUNG
 70
0
 62
7
  6
CONTINUOUS
370
-3
390
F
  0
LAYER
  5
211
100
AcDbSymbolTableRecord
100
AcDbLayerTableRecord
  2
VOLUMEN
 70
0
 62
7
  6
CONTINUOUS
370
-3
390
F
  0
LAYER
  5
212
100
AcDbSymbolTableRecord
100
AcDbLayerTableRecord
  2
ZEICHNUNG
 70
0
 62
7
  6
CONTINUOUS
370
-3
390
F
  0
LAYER
  5
213
100
AcDbSymbolTableRecord
100
AcDbLayerTableRecord
  2
ZEICHNUNGSBEMASSUNGEN
 70
0
 62
7
  6
CONTINUOUS
370
-3
390
F
  0
ENDTAB
  0
TABLE
  2
STYLE
  5
3
100
AcDbSymbolTable
 70
1
  0
STYLE
  5
11
100
AcDbSymbolTableRecord
100
AcDbTextStyleTableRecord
  2
STANDARD
 70
0
 40
0.0
 41
0.7
 50
0.0
 71
0
 42
0.2
  3
txt
  4

  0
STYLE
  5
214
100
AcDbSymbolTableRecord
100
AcDbTextStyleTableRecord
  2
TEXTSTYLE_1
 70
0
 40
0.0
 41
0.8
 50
0.0
 71
0
 42
0.2
  3
gdt
  4

  0
STYLE
  5
215
100
AcDbSymbolTableRecord
100
AcDbTextStyleTableRecord
  2
TEXTSTYLE_2
 70
0
 40
0.0
 41
0.7
 50
0.0
 71
0
 42
0.2
  3
gdt
  4

  0
ENDTAB
  0
TABLE
  2
VIEW
  5
6
100
AcDbSymbolTable
 70
0
  0
ENDTAB
  0
TABLE
  2
UCS
  5
7
100
AcDbSymbolTable
 70
0
  0
ENDTAB
  0
TABLE
  2
APPID
  5
9
100
AcDbSymbolTable
 70
1
  0
APPID
  5
216
100
AcDbSymbolTableRecord
100
AcDbRegAppTableRecord
  2
ACAD
 70
0
  0
ENDTAB
  0
TABLE
  2
BLOCK_RECORD
  5
1
100
AcDbSymbolTable
 70
0
  0
BLOCK_RECORD
  5
217
100
AcDbSymbolTableRecord
100
AcDbBlockTableRecord
  2
*Model_Space
  0
BLOCK_RECORD
  5
218
100
AcDbSymbolTableRecord
100
AcDbBlockTableRecord
  2
*Paper_Space
  0
BLOCK_RECORD
  5
219
100
AcDbSymbolTableRecord
100
AcDbBlockTableRecord
  2
_FILLED
  0
BLOCK_RECORD
  5
21A
100
AcDbSymbolTableRecord
100
AcDbBlockTableRecord
  2
*D0
  0
BLOCK_RECORD
  5
21B
100
AcDbSymbolTableRecord
100
AcDbBlockTableRecord
  2
*D1
  0
BLOCK_RECORD
  5
21C
100
AcDbSymbolTableRecord
100
AcDbBlockTableRecord
  2
*D2
  0
BLOCK_RECORD
  5
21D
100
AcDbSymbolTableRecord
100
AcDbBlockTableRecord
  2
*D3
  0
BLOCK_RECORD
  5
21E
100
AcDbSymbolTableRecord
100
AcDbBlockTableRecord
  2
*D4
  0
BLOCK_RECORD
  5
21F
100
AcDbSymbolTableRecord
100
AcDbBlockTableRecord
  2
*D5
  0
BLOCK_RECORD
  5
220
100
AcDbSymbolTableRecord
100
AcDbBlockTableRecord
  2
*D6
  0
BLOCK_RECORD
  5
221
100
AcDbSymbolTableRecord
100
AcDbBlockTableRecord
  2
*D7
  0
BLOCK_RECORD
  5
222
100
AcDbSymbolTableRecord
100
AcDbBlockTableRecord
  2
*D8
  0
ENDTAB
  0
TABLE
  2
DIMSTYLE
  5
A
100
AcDbSymbolTable
 70
1
100
AcDbDimStyleTable
 71
0
  0
DIMSTYLE
105
223
100
AcDbSymbolTableRecord
100
AcDbDimStyleTableRecord
  2
STANDARD
 70
0
  3

  4

 40
1.0
 41
3.5
 42
0.0625
 43
0.38
 44
0.18
 45
0.0
 46
0.0
 47
0.005
 48
0.005
140
3.5
141
0.09
142
0.0
143
25.4
144
1.0
145
0.0
146
1.0
147
0.09
 71
1.0
 72
0.0
 73
0
 74
0
 75
0
 76
0
 77
1
 78
8
170
0
171
2
172
0
173
0
174
0
175
0
176
0
177
0
178
5
270
2
271
3
272
3
273
2
274
2
275
0
280
0
281
0
282
0
283
1
284
8
285
0
286
0
287
3
288
0
340
11
341
219
342
219
343
219
344
219
  0
DIMSTYLE
105
224
100
AcDbSymbolTableRecord
100
AcDbDimStyleTableRecord
  2
DIMSTYLE_1
 70
0
  3

  4

 40
1.0
 41
3.5
 42
0.0625
 43
0.38
 44
0.18
 45
0.0
 46
0.0
 47
0.5
 48
0.5
140
3.5
141
0.09
142
0.0
143
25.4
144
1.0
145
0.0
146
1.0
147
0.09
 71
0.0
 72
0.0
 73
0
 74
0
 75
0
 76
0
 77
1
 78
8
170
0
171
2
172
0
173
0
174
0
175
0
176
0
177
0
178
5
270
2
271
3
272
3
273
2
274
2
275
0
280
0
281
0
282
0
283
1
284
8
285
0
286
0
287
3
288
0
340
11
341
219
342
219
343
219
344
219
  0
DIMSTYLE
105
225
100
AcDbSymbolTableRecord
100
AcDbDimStyleTableRecord
  2
DIMSTYLE_2
 70
0
  3

  4

 40
1.0
 41
3.5
 42
0.0625
 43
0.38
 44
0.18
 45
0.0
 46
0.0
 47
0.5
 48
0.5
140
3.5
141
0.09
142
0.0
143
25.4
144
1.0
145
0.0
146
1.0
147
0.09
 71
0.0
 72
0.0
 73
0
 74
0
 75
0
 76
0
 77
1
 78
8
170
0
171
2
172
0
173
0
174
0
175
0
176
0
177
0
178
5
270
2
271
2
272
2
273
2
274
2
275
0
280
0
281
0
282
0
283
1
284
8
285
0
286
0
287
3
288
0
340
11
341
219
342
219
343
219
344
219
  0
DIMSTYLE
105
226
100
AcDbSymbolTableRecord
100
AcDbDimStyleTableRecord
  2
DIMSTYLE_3
 70
0
  3

  4

 40
1.0
 41
3.5
 42
0.0625
 43
0.38
 44
0.18
 45
0.0
 46
0.0
 47
0.3
 48
0.3
140
3.5
141
0.09
142
0.0
143
25.4
144
1.0
145
0.0
146
1.0
147
0.09
 71
0.0
 72
0.0
 73
0
 74
0
 75
0
 76
0
 77
1
 78
8
170
0
171
2
172
0
173
0
174
0
175
0
176
0
177
0
178
5
270
2
271
2
272
2
273
2
274
2
275
0
280
0
281
0
282
0
283
1
284
8
285
0
286
0
287
3
288
0
340
11
341
219
342
219
343
219
344
219
  0
DIMSTYLE
105
227
100
AcDbSymbolTableRecord
100
AcDbDimStyleTableRecord
  2
DIMSTYLE_4
 70
0
  3

  4

 40
1.0
 41
3.5
 42
0.0625
 43
0.38
 44
0.18
 45
0.0
 46
0.0
 47
0.1
 48
0.1
140
3.5
141
0.09
142
0.0
143
25.4
144
1.0
145
0.0
146
1.0
147
0.09
 71
0.0
 72
0.0
 73
0
 74
0
 75
0
 76
0
 77
1
 78
8
170
0
171
2
172
0
173
0
174
0
175
0
176
0
177
0
178
5
270
2
271
2
272
2
273
2
274
2
275
0
280
0
281
0
282
0
283
1
284
8
285
0
286
0
287
3
288
0
340
11
341
219
342
219
343
219
344
219
  0
DIMSTYLE
105
228
100
AcDbSymbolTableRecord
100
AcDbDimStyleTableRecord
  2
DIMSTYLE_5
 70
0
  3

  4

 40
1.0
 41
3.5
 42
0.0625
 43
0.38
 44
0.18
 45
0.0
 46
0.0
 47
0.1
 48
0.0
140
3.5
141
0.09
142
0.0
143
25.4
144
1.0
145
0.0
146
1.0
147
0.09
 71
0.0
 72
0.0
 73
0
 74
0
 75
0
 76
0
 77
1
 78
8
170
0
171
2
172
0
173
0
174
0
175
0
176
0
177
0
178
5
270
2
271
2
272
2
273
2
274
2
275
0
280
0
281
0
282
0
283
1
284
8
285
0
286
0
287
3
288
0
340
11
341
219
342
219
343
219
344
219
  0
DIMSTYLE
105
229
100
AcDbSymbolTableRecord
100
AcDbDimStyleTableRecord
  2
DIMSTYLE_6
 70
0
  3

  4

 40
1.0
 41
3.5
 42
0.0625
 43
0.38
 44
0.18
 45
0.0
 46
0.0
 47
0.0
 48
0.0
140
3.5
141
0.09
142
0.0
143
25.4
144
1.0
145
0.0
146
1.0
147
0.09
 71
0.0
 72
0.0
 73
0
 74
0
 75
0
 76
0
 77
1
 78
8
170
0
171
2
172
0
173
0
174
0
175
0
176
0
177
0
178
5
270
2
271
0
272
0
273
2
274
2
275
0
280
0
281
0
282
0
283
1
284
8
285
0
286
0
287
3
288
0
340
11
341
219
342
219
343
219
344
219
  0
DIMSTYLE
105
22A
100
AcDbSymbolTableRecord
100
AcDbDimStyleTableRecord
  2
DIMSTYLE_7
 70
0
  3

  4

 40
1.0
 41
3.5
 42
0.0625
 43
0.38
 44
0.18
 45
0.0
 46
0.0
 47
0.1
 48
0.1
140
3.5
141
0.09
142
0.0
143
25.4
144
1.0
145
0.0
146
1.0
147
0.09
 71
0.0
 72
0.0
 73
0
 74
0
 75
0
 76
0
 77
1
 78
8
170
0
171
2
172
0
173
0
174
0
175
0
176
0
177
0
178
5
270
2
271
2
272
2
273
2
274
2
275
0
280
0
281
0
282
0
283
1
284
8
285
0
286
0
287
3
288
0
340
11
341
219
342
219
343
219
344
219
  0
DIMSTYLE
105
22B
100
AcDbSymbolTableRecord
100
AcDbDimStyleTableRecord
  2
DIMSTYLE_8
 70
0
  3

  4

 40
1.0
 41
3.5
 42
0.0625
 43
0.38
 44
0.18
 45
0.0
 46
0.0
 47
0.05
 48
0.05
140
3.5
141
0.09
142
0.0
143
25.4
144
1.0
145
0.0
146
1.0
147
0.09
 71
0.0
 72
0.0
 73
0
 74
0
 75
0
 76
0
 77
1
 78
8
170
0
171
2
172
0
173
0
174
0
175
0
176
0
177
0
178
5
270
2
271
2
272
2
273
2
274
2
275
0
280
0
281
0
282
0
283
1
284
8
285
0
286
0
287
3
288
0
340
11
341
219
342
219
343
219
344
219
  0
DIMSTYLE
105
22C
100
AcDbSymbolTableRecord
100
AcDbDimStyleTableRecord
  2
DIMSTYLE_9
 70
0
  3

  4

 40
1.0
 41
3.5
 42
0.0625
 43
0.38
 44
0.18
 45
0.0
 46
0.0
 47
0.1
 48
0.1
140
3.5
141
0.09
142
0.0
143
25.4
144
1.0
145
0.0
146
1.0
147
0.09
 71
0.0
 72
0.0
 73
0
 74
0
 75
0
 76
0
 77
1
 78
8
170
0
171
2
172
0
173
0
174
0
175
0
176
0
177
0
178
5
270
2
271
3
272
3
273
2
274
2
275
0
280
0
281
0
282
0
283
1
284
8
285
0
286
0
287
3
288
0
340
11
341
219
342
219
343
219
344
219
  0
ENDTAB
  0
ENDSEC
  0
SECTION
  2
BLOCKS
  0
BLOCK
  5
20
100
AcDbEntity
  8
0
100
AcDbBlockBegin
  2
*Model_Space
 70
0
 10
0.0
 20
0.0
 30
0.0
  3
*Model_Space
  1

  0
ENDBLK
  5
21
100
AcDbEntity
  8
0
100
AcDbBlockEnd
  0
BLOCK
  5
1C
100
AcDbEntity
  8
0
100
AcDbBlockBegin
  2
*Paper_Space
 70
0
 10
0.0
 20
0.0
 30
0.0
  3
*Paper_Space
  1

  0
ENDBLK
  5
1D
100
AcDbEntity
  8
0
100
AcDbBlockEnd
  0
BLOCK
  5
22D
100
AcDbEntity
  8
0
100
AcDbBlockBegin
  2
_FILLED
 70
64
 10
0.0
 20
0.0
  3
_FILLED
  1

  0
SOLID
  5
22E
100
AcDbEntity
  8
0
  6
BYBLOCK
 62
0
100
AcDbTrace
 10
0.0
 20
0.0
 11
-1.0
 21
0.125
 12
-1.0
 22
-0.125
 13
-1.0
 23
-0.125
  0
ENDBLK
  5
22F
100
AcDbEntity
  8
0
  6
BYBLOCK
 62
0
100
AcDbBlockEnd
  0
BLOCK
  5
230
100
AcDbEntity
  8
0
100
AcDbBlockBegin
 62
2
  6
CONTINUOUS
  2
*D0
 70
65
 10
0.0
 20
0.0
  3
*D0
  1

  0
MTEXT
  5
231
100
AcDbEntity
  8
0
100
AcDbMText
 62
5
  6
CONTINUOUS
  7
STANDARD
 71
2
 72
1
 10
171.5313104877
 20
190.2767649646
 30
0.0
 11
1.0
 21
0.0
 31
0.0
 44
0.9
  1
130
 40
3.5
 41
8.490234375
  0
LINE
  5
232
100
AcDbEntity
  8
0
100
AcDbLine
 62
2
  6
CONTINUOUS
 10
226.9854220272
 20
116.5159291265
 11
226.9854220272
 21
187.4017649646
  0
LINE
  5
233
100
AcDbEntity
  8
0
100
AcDbLine
 62
2
  6
CONTINUOUS
 10
96.9854220272
 20
149.0792332277
 11
96.9854220272
 21
187.4017649646
  0
LINE
  5
234
100
AcDbEntity
  8
0
100
AcDbLine
 62
2
  6
CONTINUOUS
 10
226.9854220272
 20
185.9017649646
 11
161.9854220272
 21
185.9017649646
  0
LINE
  5
235
100
AcDbEntity
  8
0
100
AcDbLine
 62
2
  6
CONTINUOUS
 10
96.9854220272
 20
185.9017649646
 11
161.9854220272
 21
185.9017649646
  0
INSERT
  5
236
100
AcDbEntity
  8
0
100
AcDbBlockReference
 62
2
  6
CONTINUOUS
  2
_FILLED
 10
226.9854220272
 20
185.9017649646
 41
3.5
 42
3.5
 43
3.5
  0
INSERT
  5
237
100
AcDbEntity
  8
0
100
AcDbBlockReference
 62
2
  6
CONTINUOUS
  2
_FILLED
 10
96.9854220272
 20
185.9017649646
 41
3.5
 42
3.5
 43
3.5
 50
180.0
  0
ENDBLK
  5
238
100
AcDbEntity
  8
0
  6
BYBLOCK
 62
0
100
AcDbBlockEnd
  0
BLOCK
  5
239
100
AcDbEntity
  8
0
100
AcDbBlockBegin
 62
2
  6
CONTINUOUS
  2
*D1
 70
65
 10
0.0
 20
0.0
  3
*D1
  1

  0
MTEXT
  5
23A
100
AcDbEntity
  8
0
100
AcDbMText
 62
5
  6
CONTINUOUS
  7
STANDARD
 71
2
 72
1
 10
146.630442296
 20
196.9563463364
 30
0.0
 11
1.0
 21
0.0
 31
0.0
 44
0.9
  1
198.4
 40
3.5
 41
12.7421875
  0
LINE
  5
23B
100
AcDbEntity
  8
0
100
AcDbLine
 62
2
  6
CONTINUOUS
 10
28.5854220272
 20
129.18538637
 11
28.5854220272
 21
194.0813463364
  0
LINE
  5
23C
100
AcDbEntity
  8
0
100
AcDbLine
 62
2
  6
CONTINUOUS
 10
226.9854220272
 20
119.0159291265
 11
226.9854220272
 21
194.0813463364
  0
LINE
  5
23D
100
AcDbEntity
  8
0
100
AcDbLine
 62
2
  6
CONTINUOUS
 10
28.5854220272
 20
192.5813463364
 11
127.7854220272
 21
192.5813463364
  0
LINE
  5
23E
100
AcDbEntity
  8
0
100
AcDbLine
 62
2
  6
CONTINUOUS
 10
226.9854220272
 20
192.5813463364
 11
127.7854220272
 21
192.5813463364
  0
INSERT
  5
23F
100
AcDbEntity
  8
0
100
AcDbBlockReference
 62
2
  6
CONTINUOUS
  2
_FILLED
 10
28.5854220272
 20
192.5813463364
 41
3.5
 42
3.5
 43
3.5
 50
180.0
  0
INSERT
  5
240
100
AcDbEntity
  8
0
100
AcDbBlockReference
 62
2
  6
CONTINUOUS
  2
_FILLED
 10
226.9854220272
 20
192.5813463364
 41
3.5
 42
3.5
 43
3.5
  0
ENDBLK
  5
241
100
AcDbEntity
  8
0
  6
BYBLOCK
 62
0
100
AcDbBlockEnd
  0
BLOCK
  5
242
100
AcDbEntity
  8
0
100
AcDbBlockBegin
 62
2
  6
CONTINUOUS
  2
*D2
 70
65
 10
0.0
 20
0.0
  3
*D2
  1

  0
MTEXT
  5
243
100
AcDbEntity
  8
0
100
AcDbMText
 62
5
  6
CONTINUOUS
  7
STANDARD
 71
2
 72
1
 10
179.0842800047
 20
182.8519677941
 30
0.0
 11
1.0
 21
0.0
 31
0.0
 44
0.9
  1
110.9
 40
3.5
 41
12.7421875
  0
LINE
  5
244
100
AcDbEntity
  8
0
100
AcDbLine
 62
2
  6
CONTINUOUS
 10
226.9854220272
 20
119.0159291265
 11
226.9854220272
 21
179.9769677941
  0
LINE
  5
245
100
AcDbEntity
  8
0
100
AcDbLine
 62
2
  6
CONTINUOUS
 10
116.0854220272
 20
149.0792332277
 11
116.0854220272
 21
179.9769677941
  0
LINE
  5
246
100
AcDbEntity
  8
0
100
AcDbLine
 62
2
  6
CONTINUOUS
 10
226.9854220272
 20
178.4769677941
 11
171.5354220272
 21
178.4769677941
  0
LINE
  5
247
100
AcDbEntity
  8
0
100
AcDbLine
 62
2
  6
CONTINUOUS
 10
116.0854220272
 20
178.4769677941
 11
171.5354220272
 21
178.4769677941
  0
INSERT
  5
248
100
AcDbEntity
  8
0
100
AcDbBlockReference
 62
2
  6
CONTINUOUS
  2
_FILLED
 10
226.9854220272
 20
178.4769677941
 41
3.5
 42
3.5
 43
3.5
  0
INSERT
  5
249
100
AcDbEntity
  8
0
100
AcDbBlockReference
 62
2
  6
CONTINUOUS
  2
_FILLED
 10
116.0854220272
 20
178.4769677941
 41
3.5
 42
3.5
 43
3.5
 50
180.0
  0
ENDBLK
  5
24A
100
AcDbEntity
  8
0
  6
BYBLOCK
 62
0
100
AcDbBlockEnd
  0
BLOCK
  5
24B
100
AcDbEntity
  8
0
100
AcDbBlockBegin
 62
2
  6
CONTINUOUS
  2
*D3
 70
65
 10
0.0
 20
0.0
  3
*D3
  1

  0
MTEXT
  5
24C
100
AcDbEntity
  8
0
100
AcDbMText
 62
5
  6
CONTINUOUS
  7
STANDARD
 71
1
 72
1
 10
235.3895086838
 20
135.6985341401
 30
0.0
 11
0.8352783935
 21
0.5498272504
 31
0.0
 44
0.9
  1
R0.3
 40
3.5
 41
10.19921875
  0
LINE
  5
24D
100
AcDbEntity
  8
0
100
AcDbLine
 62
2
  6
CONTINUOUS
 10
226.9360055452
 20
124.8961879316
 11
246.3141899571
 21
137.6519995704
  0
INSERT
  5
24E
100
AcDbEntity
  8
0
100
AcDbBlockReference
 62
2
  6
CONTINUOUS
  2
_FILLED
 10
226.9360055452
 20
124.8961879316
 41
3.5
 42
3.5
 43
3.5
 50
213.3551624356
  0
ENDBLK
  5
24F
100
AcDbEntity
  8
0
  6
BYBLOCK
 62
0
100
AcDbBlockEnd
  0
BLOCK
  5
250
100
AcDbEntity
  8
0
100
AcDbBlockBegin
 62
2
  6
CONTINUOUS
  2
*D4
 70
65
 10
0.0
 20
0.0
  3
*D4
  1

  0
MTEXT
  5
251
100
AcDbEntity
  8
0
100
AcDbMText
 62
5
  6
CONTINUOUS
  7
TEXTSTYLE_2
 71
2
 72
1
 10
265.7471064367
 20
119.0159291265
 30
0.0
 11
0.0
 21
1.0
 31
0.0
 44
0.9
  1
{\Fgdt;n}\Ftxt;12
 40
3.5
 41
10.3268229167
  0
LINE
  5
252
100
AcDbEntity
  8
0
100
AcDbLine
 62
2
  6
CONTINUOUS
 10
226.9854220272
 20
113.0159291265
 11
271.6221064367
 21
113.0159291265
  0
LINE
  5
253
100
AcDbEntity
  8
0
100
AcDbLine
 62
2
  6
CONTINUOUS
 10
226.9854220272
 20
125.0159291265
 11
271.6221064367
 21
125.0159291265
  0
LINE
  5
254
100
AcDbEntity
  8
0
100
AcDbLine
 62
2
  6
CONTINUOUS
 10
270.1221064367
 20
113.0159291265
 11
270.1221064367
 21
119.0159291265
  0
LINE
  5
255
100
AcDbEntity
  8
0
100
AcDbLine
 62
2
  6
CONTINUOUS
 10
270.1221064367
 20
125.0159291265
 11
270.1221064367
 21
119.0159291265
  0
INSERT
  5
256
100
AcDbEntity
  8
0
100
AcDbBlockReference
 62
2
  6
CONTINUOUS
  2
_FILLED
 10
270.1221064367
 20
113.0159291265
 41
3.5
 42
3.5
 43
3.5
 50
270.0
  0
INSERT
  5
257
100
AcDbEntity
  8
0
100
AcDbBlockReference
 62
2
  6
CONTINUOUS
  2
_FILLED
 10
270.1221064367
 20
125.0159291265
 41
3.5
 42
3.5
 43
3.5
 50
90.0
  0
ENDBLK
  5
258
100
AcDbEntity
  8
0
  6
BYBLOCK
 62
0
100
AcDbBlockEnd
  0
BLOCK
  5
259
100
AcDbEntity
  8
0
100
AcDbBlockBegin
 62
2
  6
CONTINUOUS
  2
*D5
 70
65
 10
0.0
 20
0.0
  3
*D5
  1

  0
MTEXT
  5
25A
100
AcDbEntity
  8
0
100
AcDbMText
 62
5
  6
CONTINUOUS
  7
STANDARD
 71
2
 72
1
 10
179.4435724837
 20
135.44138196
 30
0.0
 11
0.1008568339
 21
0.9949009494
 31
0.0
 44
0.9
  1
3\Fgdt;{\Fgdt;~}
 40
3.5
 41
5.1634114583
  0
LINE
  5
25B
100
AcDbEntity
  8
0
100
AcDbLine
 62
2
  6
CONTINUOUS
 10
203.296771687
 20
126.257398685
 11
184.3288008786
 21
127.2514679126
  0
LINE
  5
25C
100
AcDbEntity
  8
0
100
AcDbLine
 62
2
  6
CONTINUOUS
 10
203.3824549756
 20
119.0159291265
 11
184.1131457059
 21
119.0159291265
  0
ARC
  5
25D
100
AcDbEntity
  8
0
100
AcDbCircle
 62
2
  6
CONTINUOUS
 10
341.4722421536
 20
119.0159291265
 40
155.8590964477
100
AcDbArc
 50
174.2114870959
 51
180.0
  0
SOLID
  5
25E
100
AcDbEntity
  8
0
100
AcDbTrace
 62
2
  6
CONTINUOUS
 10
186.1199544802
 20
123.6579341695
 11
185.8267451807
 21
127.1729639783
 12
185.2456945489
 22
123.693914336
 13
185.2456945489
 23
123.693914336
  0
SOLID
  5
25F
100
AcDbEntity
  8
0
100
AcDbTrace
 62
2
  6
CONTINUOUS
 10
185.2149707735
 20
122.5206206926
 11
185.6131457059
 21
119.0159291265
 12
186.0899156185
 22
122.51079632
 13
186.0899156185
 23
122.51079632
  0
ENDBLK
  5
260
100
AcDbEntity
  8
0
  6
BYBLOCK
 62
0
100
AcDbBlockEnd
  0
BLOCK
  5
261
100
AcDbEntity
  8
0
100
AcDbBlockBegin
 62
2
  6
CONTINUOUS
  2
*D6
 70
65
 10
0.0
 20
0.0
  3
*D6
  1

  0
MTEXT
  5
262
100
AcDbEntity
  8
0
100
AcDbMText
 62
5
  6
CONTINUOUS
  7
TEXTSTYLE_2
 71
1
 72
1
 10
253.2848904216
 20
127.9448843587
 30
0.0
 11
0.0
 21
1.0
 31
0.0
 44
0.9
  1
{\Fgdt;n}\Ftxt;6
 40
3.5
 41
7.4967447917
  0
LINE
  5
263
100
AcDbEntity
  8
0
100
AcDbLine
 62
2
  6
CONTINUOUS
 10
226.9854220272
 20
116.0159291265
 11
259.1598904216
 21
116.0159291265
  0
LINE
  5
264
100
AcDbEntity
  8
0
100
AcDbLine
 62
2
  6
CONTINUOUS
 10
226.9854220272
 20
122.0159291265
 11
259.1598904216
 21
122.0159291265
  0
LINE
  5
265
100
AcDbEntity
  8
0
100
AcDbLine
 62
2
  6
CONTINUOUS
 10
257.6598904216
 20
116.0159291265
 11
257.6598904216
 21
110.0159291265
  0
LINE
  5
266
100
AcDbEntity
  8
0
100
AcDbLine
 62
2
  6
CONTINUOUS
 10
257.6598904216
 20
110.0159291265
 11
257.6598904216
 21
119.0159291265
  0
LINE
  5
267
100
AcDbEntity
  8
0
100
AcDbLine
 62
2
  6
CONTINUOUS
 10
257.6598904216
 20
122.0159291265
 11
257.6598904216
 21
135.4416291504
  0
LINE
  5
268
100
AcDbEntity
  8
0
100
AcDbLine
 62
2
  6
CONTINUOUS
 10
257.6598904216
 20
135.4416291504
 11
257.6598904216
 21
119.0159291265
  0
INSERT
  5
269
100
AcDbEntity
  8
0
100
AcDbBlockReference
 62
2
  6
CONTINUOUS
  2
_FILLED
 10
257.6598904216
 20
116.0159291265
 41
3.5
 42
3.5
 43
3.5
 50
90.0
  0
INSERT
  5
26A
100
AcDbEntity
  8
0
100
AcDbBlockReference
 62
2
  6
CONTINUOUS
  2
_FILLED
 10
257.6598904216
 20
122.0159291265
 41
3.5
 42
3.5
 43
3.5
 50
270.0
  0
ENDBLK
  5
26B
100
AcDbEntity
  8
0
  6
BYBLOCK
 62
0
100
AcDbBlockEnd
  0
BLOCK
  5
26C
100
AcDbEntity
  8
0
100
AcDbBlockBegin
 62
2
  6
CONTINUOUS
  2
*D7
 70
65
 10
0.0
 20
0.0
  3
*D7
  1

  0
MTEXT
  5
26D
100
AcDbEntity
  8
0
100
AcDbMText
 62
5
  6
CONTINUOUS
  7
TEXTSTYLE_2
 71
2
 72
1
 10
276.9085275523
 20
119.0159291265
 30
0.0
 11
0.0
 21
1.0
 31
0.0
 44
0.9
  1
{\Fgdt;n}\Ftxt;45
 40
3.5
 41
10.3268229167
  0
LINE
  5
26E
100
AcDbEntity
  8
0
100
AcDbLine
 62
2
  6
CONTINUOUS
 10
116.0854220272
 20
96.5159291265
 11
282.7835275523
 21
96.5159291265
  0
LINE
  5
26F
100
AcDbEntity
  8
0
100
AcDbLine
 62
2
  6
CONTINUOUS
 10
116.0854220272
 20
141.5159291265
 11
224.912911376
 21
141.5159291265
  0
LINE
  5
270
100
AcDbEntity
  8
0
100
AcDbLine
 62
2
  6
CONTINUOUS
 10
228.9140756172
 20
141.5159291265
 11
282.7835275523
 21
141.5159291265
  0
LINE
  5
271
100
AcDbEntity
  8
0
100
AcDbLine
 62
2
  6
CONTINUOUS
 10
281.2835275523
 20
96.5159291265
 11
281.2835275523
 21
119.0159291265
  0
LINE
  5
272
100
AcDbEntity
  8
0
100
AcDbLine
 62
2
  6
CONTINUOUS
 10
281.2835275523
 20
141.5159291265
 11
281.2835275523
 21
119.0159291265
  0
INSERT
  5
273
100
AcDbEntity
  8
0
100
AcDbBlockReference
 62
2
  6
CONTINUOUS
  2
_FILLED
 10
281.2835275523
 20
96.5159291265
 41
3.5
 42
3.5
 43
3.5
 50
270.0
  0
INSERT
  5
274
100
AcDbEntity
  8
0
100
AcDbBlockReference
 62
2
  6
CONTINUOUS
  2
_FILLED
 10
281.2835275523
 20
141.5159291265
 41
3.5
 42
3.5
 43
3.5
 50
90.0
  0
ENDBLK
  5
275
100
AcDbEntity
  8
0
  6
BYBLOCK
 62
0
100
AcDbBlockEnd
  0
BLOCK
  5
276
100
AcDbEntity
  8
0
100
AcDbBlockBegin
 62
2
  6
CONTINUOUS
  2
*D8
 70
65
 10
0.0
 20
0.0
  3
*D8
  1

  0
MTEXT
  5
277
100
AcDbEntity
  8
0
100
AcDbMText
 62
5
  6
CONTINUOUS
  7
STANDARD
 71
1
 72
1
 10
117.5668918428
 20
149.1845832775
 30
0.0
 11
0.7071067812
 21
0.7071067812
 31
0.0
 44
0.9
  1
R1
 40
3.5
 41
5.947265625
  0
LINE
  5
278
100
AcDbEntity
  8
0
100
AcDbLine
 62
2
  6
CONTINUOUS
 10
116.378315246
 20
141.8088223453
 11
124.8658358635
 21
150.2963429628
  0
INSERT
  5
279
100
AcDbEntity
  8
0
100
AcDbBlockReference
 62
2
  6
CONTINUOUS
  2
_FILLED
 10
116.378315246
 20
141.8088223453
 41
3.5
 42
3.5
 43
3.5
 50
225.0
  0
ENDBLK
  5
27A
100
AcDbEntity
  8
0
  6
BYBLOCK
 62
0
100
AcDbBlockEnd
  0
ENDSEC
  0
SECTION
  2
ENTITIES
  0
DIMENSION
  5
27B
100
AcDbEntity
  8
0
100
AcDbDimension
 62
2
  6
CONTINUOUS
  2
*D0
 10
96.9854220272
 20
185.9017649646
 11
167.2861933002
 21
188.5267649646
 70
160
 71
2
 42
130.0
  3
DIMSTYLE_1
100
AcDbAlignedDimension
 13
226.9854220272
 23
116.5159291265
 14
96.9854220272
 24
149.0792332277
 50
180.0
100
AcDbRotatedDimension
  0
DIMENSION
  5
27C
100
AcDbEntity
  8
0
100
AcDbDimension
 62
2
  6
CONTINUOUS
  2
*D1
 10
226.9854220272
 20
192.5813463364
 11
140.259348546
 21
195.2063463364
 70
160
 71
2
 42
198.4
  3
DIMSTYLE_2
100
AcDbAlignedDimension
 13
28.5854220272
 23
129.18538637
 14
226.9854220272
 24
119.0159291265
100
AcDbRotatedDimension
  0
DIMENSION
  5
27D
100
AcDbEntity
  8
0
100
AcDbDimension
 62
2
  6
CONTINUOUS
  2
*D2
 10
116.0854220272
 20
178.4769677941
 11
172.7131862547
 21
181.1019677941
 70
160
 71
2
 42
110.9
  3
DIMSTYLE_3
100
AcDbAlignedDimension
 13
226.9854220272
 23
119.0159291265
 14
116.0854220272
 24
149.0792332277
 50
180.0
100
AcDbRotatedDimension
  0
DIMENSION
  5
27E
100
AcDbEntity
  8
0
100
AcDbDimension
 62
2
  6
CONTINUOUS
  2
*D3
 10
226.6854220272
 20
124.7312397565
 11
240.6112998984
 21
137.0407011524
 70
164
 71
1
 42
0.3
  1
<>
  3
DIMSTYLE_4
100
AcDbRadialDimension
 15
226.9360055452
 25
124.8961879316
  0
DIMENSION
  5
27F
100
AcDbEntity
  8
0
100
AcDbDimension
 62
2
  6
CONTINUOUS
  2
*D4
 10
270.1221064367
 20
125.0159291265
 11
268.6539006585
 21
116.7078928182
 70
160
 71
2
 42
12.0
  1
%%c<>
  3
DIMSTYLE_5
100
AcDbAlignedDimension
 13
226.9854220272
 23
113.0159291265
 14
226.9854220272
 24
125.0159291265
 50
90.0
100
AcDbRotatedDimension
  0
DIMENSION
  5
280
100
AcDbEntity
  8
0
100
AcDbDimension
 62
2
  6
CONTINUOUS
  2
*D5
 10
184.1131457059
 20
119.0159291265
 11
182.2415729321
 21
134.5237932845
 70
162
 71
2
 42
0.0523598776
  3
DIMSTYLE_6
100
AcDb2LineAngularDimension
 13
184.3288008786
 23
127.2514679126
 14
203.296771687
 24
126.257398685
 15
203.3824549756
 25
119.0159291265
 16
185.6665547256
 26
123.0958446375
  0
DIMENSION
  5
281
100
AcDbEntity
  8
0
100
AcDbDimension
 62
2
  6
CONTINUOUS
  2
*D6
 10
257.6598904216
 20
122.0159291265
 11
255.0348904216
 21
131.6932567545
 70
160
 71
1
 42
6.0
  1
%%c<>
  3
DIMSTYLE_7
100
AcDbAlignedDimension
 13
226.9854220272
 23
116.0159291265
 14
226.9854220272
 24
122.0159291265
 50
90.0
100
AcDbRotatedDimension
  0
DIMENSION
  5
282
100
AcDbEntity
  8
0
100
AcDbDimension
 62
2
  6
CONTINUOUS
  2
*D7
 10
281.2835275523
 20
141.5159291265
 11
279.8153217742
 21
116.7078928182
 70
160
 71
2
 42
45.0
  1
%%c<>
  3
DIMSTYLE_8
100
AcDbAlignedDimension
 13
116.0854220272
 23
96.5159291265
 14
116.0854220272
 24
141.5159291265
 50
90.0
100
AcDbRotatedDimension
  0
DIMENSION
  5
283
100
AcDbEntity
  8
0
100
AcDbDimension
 62
2
  6
CONTINUOUS
  2
*D8
 10
117.0854220272
 20
142.5159291265
 11
120.9070046364
 21
150.0498223369
 70
164
 71
1
 42
1.0
  1
<>
  3
DIMSTYLE_9
100
AcDbRadialDimension
 15
116.378315246
 25
141.8088223453
  0
MTEXT
  5
284
100
AcDbEntity
  8
0
100
AcDbMText
 62
5
  6
CONTINUOUS
  7
STANDARD
 71
1
 72
1
 10
9.3595066482
 20
87.0704429941
 30
0.0
 11
1.0
 21
0.0
 31
0.0
 44
0.9
  3
Für diese Unterlage behalten wir das Ur-\Pheberrecht. Sie darf nur für den von uns \Pbestimmten Zweck benutzt und ohne unsere \PZustimmung weder vervielfältigt noch\PDritten zugänglich gemacht werden\P \PWe own the copyright of this document. It \Pde
  1
termined and may neither be copied or \Pmade accessible to outsiders without our\Ppermission.\P \PCe plan reste notre propriété. Il ne peut\Pêtre utilisé, copié ou reproduit sans notre\Paccord.\P 
 40
3.5
 41
99.162109375
  0
LINE
  5
285
100
AcDbEntity
  8
0
100
AcDbLine
 62
7
  6
CONTINUOUS
 10
0.0
 20
0.0
 11
0.0
 21
210.0
  0
LINE
  5
286
100
AcDbEntity
  8
0
100
AcDbLine
 62
7
  6
CONTINUOUS
 10
0.0
 20
0.0
 11
297.0
 21
0.0
  0
LINE
  5
287
100
AcDbEntity
  8
0
100
AcDbLine
 62
7
  6
CONTINUOUS
 10
0.0
 20
210.0
 11
297.0
 21
210.0
  0
LINE
  5
288
100
AcDbEntity
  8
0
100
AcDbLine
 62
7
  6
CONTINUOUS
 10
297.0
 20
0.0
 11
297.0
 21
210.0
  0
LINE
  5
289
100
AcDbEntity
  8
BEZUGSACHSEN
100
AcDbLine
 62
7
  6
CONTINUOUS
 10
28.5854220272
 20
129.535629801
 11
28.5854220272
 21
108.496228452
  0
LINE
  5
28A
100
AcDbEntity
  8
BEZUGSACHSEN
100
AcDbLine
 62
9
  6
CONTINUOUS
 10
30.2967846888
 20
131.5146923283
 11
30.2967846888
 21
106.5171659247
  0
LINE
  5
28B
100
AcDbEntity
  8
BEZUGSACHSEN
100
AcDbLine
 62
7
  6
CONTINUOUS
 10
96.5281167647
 20
141.1742332177
 11
96.5281167647
 21
96.8576250353
  0
LINE
  5
28C
100
AcDbEntity
  8
BEZUGSACHSEN
100
AcDbLine
 62
7
  6
CENTER
 10
96.9854220272
 20
89.648079943
 11
96.9854220272
 21
145.1098795931
  0
LINE
  5
28D
100
AcDbEntity
  8
BEZUGSACHSEN
100
AcDbLine
 62
7
  6
CONTINUOUS
 10
97.5854220272
 20
140.8909291265
 11
97.5854220272
 21
97.1409291265
  0
LINE
  5
28E
100
AcDbEntity
  8
BEZUGSACHSEN
100
AcDbLine
 62
9
  6
CONTINUOUS
 10
99.2354220272
 20
140.8909291265
 11
99.2354220272
 21
97.1409291265
  0
LINE
  5
28F
100
AcDbEntity
  8
BEZUGSACHSEN
100
AcDbLine
 62
7
  6
CONTINUOUS
 10
100.2354220272
 20
149.7730432773
 11
100.2354220272
 21
127.2159291265
  0
LINE
  5
290
100
AcDbEntity
  8
BEZUGSACHSEN
100
AcDbLine
 62
7
  6
CONTINUOUS
 10
100.2354220272
 20
110.8159291265
 11
100.2354220272
 21
100.5159291265
  0
LINE
  5
291
100
AcDbEntity
  8
BEZUGSACHSEN
100
AcDbLine
 62
7
  6
CONTINUOUS
 10
100.2354220272
 20
94.4222180401
 11
100.2354220272
 21
88.2429609104
  0
LINE
  5
292
100
AcDbEntity
  8
0
100
AcDbLine
 62
7
  6
CONTINUOUS
 10
100.2354220272
 20
88.2409316312
 11
100.2354220272
 21
94.4222180401
  0
LINE
  5
293
100
AcDbEntity
  8
FASEN
100
AcDbLine
 62
7
  6
CONTINUOUS
 10
100.2354220272
 20
94.4222180401
 11
100.2354220272
 21
100.5159291265
  0
LINE
  5
294
100
AcDbEntity
  8
0
100
AcDbLine
 62
7
  6
CONTINUOUS
 10
100.2354220272
 20
100.5159291265
 11
100.2354220272
 21
110.8159291265
  0
LINE
  5
295
100
AcDbEntity
  8
FASEN
100
AcDbLine
 62
7
  6
CONTINUOUS
 10
100.2354220272
 20
110.8159291265
 11
100.2354220272
 21
127.2159291265
  0
LINE
  5
296
100
AcDbEntity
  8
0
100
AcDbLine
 62
7
  6
CONTINUOUS
 10
100.2354220272
 20
127.2159291265
 11
100.2354220272
 21
149.7909286849
  0
LINE
  5
297
100
AcDbEntity
  8
0
100
AcDbLine
 62
9
  6
CONTINUOUS
 10
101.2354220272
 20
150.7909291265
 11
101.2354220272
 21
127.2159291265
  0
LINE
  5
298
100
AcDbEntity
  8
0
100
AcDbLine
 62
9
  6
CONTINUOUS
 10
101.2354220272
 20
110.8159291265
 11
101.2354220272
 21
100.5159291265
  0
LINE
  5
299
100
AcDbEntity
  8
0
100
AcDbLine
 62
9
  6
CONTINUOUS
 10
101.2354220272
 20
93.1818310195
 11
101.2354220272
 21
87.2409291265
  0
LINE
  5
29A
100
AcDbEntity
  8
BEZUGSACHSEN
100
AcDbLine
 62
7
  6
CONTINUOUS
 10
110.0354220272
 20
147.9135243907
 11
111.696692426
 21
150.7909291265
  0
LINE
  5
29B
100
AcDbEntity
  8
BEZUGSACHSEN
100
AcDbLine
 62
7
  6
CONTINUOUS
 10
101.2354220272
 20
87.2409291265
 11
104.6241516284
 21
87.2409291265
  0
LINE
  5
29C
100
AcDbEntity
  8
BEZUGSACHSEN
100
AcDbLine
 62
7
  6
CONTINUOUS
 10
111.696692426
 20
87.2409291265
 11
115.0854220272
 21
87.2409291265
  0
LINE
  5
29D
100
AcDbEntity
  8
BEZUGSACHSEN
100
AcDbLine
 62
7
  6
CONTINUOUS
 10
110.0354220272
 20
90.1183338623
 11
111.696692426
 21
87.2409291265
  0
LINE
  5
29E
100
AcDbEntity
  8
0
100
AcDbLine
 62
7
  6
CONTINUOUS
 10
104.6241516284
 20
87.2409291265
 11
104.6241516284
 21
93.1818310195
  0
LINE
  5
29F
100
AcDbEntity
  8
0
100
AcDbLine
 62
7
  6
CONTINUOUS
 10
104.6241516284
 20
100.5159291265
 11
104.6241516284
 21
110.8159291265
  0
LINE
  5
2A0
100
AcDbEntity
  8
0
100
AcDbLine
 62
7
  6
CONTINUOUS
 10
104.6241516284
 20
127.2159291265
 11
104.6241516284
 21
150.7909291265
  0
LINE
  5
2A1
100
AcDbEntity
  8
0
100
AcDbLine
 62
7
  6
CONTINUOUS
 10
106.2854220272
 20
147.9135239286
 11
106.2854220272
 21
146.4009454997
  0
LINE
  5
2A2
100
AcDbEntity
  8
BEZUGSACHSEN
100
AcDbLine
 62
7
  6
CONTINUOUS
 10
106.2854220272
 20
146.4009454997
 11
106.2854220272
 21
146.1447147107
  0
LINE
  5
2A3
100
AcDbEntity
  8
0
100
AcDbLine
 62
7
  6
CONTINUOUS
 10
106.2854220272
 20
145.9248736084
 11
106.2854220272
 21
127.2159291265
  0
LINE
  5
2A4
100
AcDbEntity
  8
0
100
AcDbLine
 62
7
  6
CONTINUOUS
 10
106.2854220272
 20
110.8159291265
 11
106.2854220272
 21
100.5159291265
  0
LINE
  5
2A5
100
AcDbEntity
  8
0
100
AcDbLine
 62
7
  6
CONTINUOUS
 10
106.2854220272
 20
90.1183399029
 11
106.2854220272
 21
97.1723803077
  0
LINE
  5
2A6
100
AcDbEntity
  8
0
100
AcDbLine
 62
9
  6
CONTINUOUS
 10
106.7854220272
 20
90.8909291265
 11
106.7854220272
 21
97.831840168
  0
LINE
  5
2A7
100
AcDbEntity
  8
0
100
AcDbLine
 62
9
  6
CONTINUOUS
 10
106.7854220272
 20
100.5159291265
 11
106.7854220272
 21
110.8159291265
  0
LINE
  5
2A8
100
AcDbEntity
  8
0
100
AcDbLine
 62
9
  6
CONTINUOUS
 10
106.7854220272
 20
127.2159291265
 11
106.7854220272
 21
144.9127827194
  0
LINE
  5
2A9
100
AcDbEntity
  8
0
100
AcDbLine
 62
9
  6
CONTINUOUS
 10
106.7854220272
 20
145.9062614588
 11
106.7854220272
 21
147.1409291265
  0
LINE
  5
2AA
100
AcDbEntity
  8
BEZUGSACHSEN
100
AcDbLine
 62
7
  6
CONTINUOUS
 10
139.062798826
 20
96.5159291265
 11
148.402313877
 21
98.2277822534
  0
LINE
  5
2AB
100
AcDbEntity
  8
BEZUGSACHSEN
100
AcDbLine
 62
7
  6
CONTINUOUS
 10
149.5713918157
 20
98.4420642278
 11
157.7943648199
 21
99.9492647595
  0
LINE
  5
2AC
100
AcDbEntity
  8
BEZUGSACHSEN
100
AcDbLine
 62
7
  6
CONTINUOUS
 10
106.7854220272
 20
90.8909291265
 11
109.5354220272
 21
90.8909291265
  0
LINE
  5
2AD
100
AcDbEntity
  8
0
100
AcDbLine
 62
7
  6
CONTINUOUS
 10
101.2354220272
 20
93.1818310195
 11
104.6241516284
 21
93.1818310195
  0
LINE
  5
2AE
100
AcDbEntity
  8
0
100
AcDbLine
 62
7
  6
CONTINUOUS
 10
111.696692426
 20
93.1818310195
 11
115.0854220272
 21
93.1818310195
  0
LINE
  5
2AF
100
AcDbEntity
  8
BEZUGSACHSEN
100
AcDbLine
 62
7
  6
CONTINUOUS
 10
117.0854220272
 20
96.5159291265
 11
139.062798826
 21
96.5159291265
  0
LINE
  5
2B0
100
AcDbEntity
  8
BEZUGSACHSEN
100
AcDbLine
 62
7
  6
CONTINUOUS
 10
97.5854220272
 20
97.1409291265
 11
99.2354220272
 21
97.1409291265
  0
LINE
  5
2B1
100
AcDbEntity
  8
BEZUGSACHSEN
100
AcDbLine
 62
7
  6
CONTINUOUS
 10
30.2967846888
 20
106.5171659247
 11
96.5281167647
 21
96.8576250353
  0
LINE
  5
2B2
100
AcDbEntity
  8
0
100
AcDbLine
 62
9
  6
CONTINUOUS
 10
109.5354220272
 20
90.8909291265
 11
109.5354220272
 21
97.831840168
  0
LINE
  5
2B3
100
AcDbEntity
  8
0
100
AcDbLine
 62
9
  6
CONTINUOUS
 10
109.5354220272
 20
100.5159291265
 11
109.5354220272
 21
110.8159291265
  0
LINE
  5
2B4
100
AcDbEntity
  8
0
100
AcDbLine
 62
9
  6
CONTINUOUS
 10
109.5354220272
 20
127.2159291265
 11
109.5354220272
 21
144.9127827194
  0
LINE
  5
2B5
100
AcDbEntity
  8
0
100
AcDbLine
 62
9
  6
CONTINUOUS
 10
109.5354220272
 20
145.9062614588
 11
109.5354220272
 21
147.1409291265
  0
LINE
  5
2B6
100
AcDbEntity
  8
BEZUGSACHSEN
100
AcDbLine
 62
7
  6
CONTINUOUS
 10
110.0354220272
 20
146.4009454997
 11
110.0354220272
 21
146.1447147107
  0
LINE
  5
2B7
100
AcDbEntity
  8
0
100
AcDbLine
 62
7
  6
CONTINUOUS
 10
110.0354220272
 20
145.9248736084
 11
110.0354220272
 21
127.2159291265
  0
LINE
  5
2B8
100
AcDbEntity
  8
0
100
AcDbLine
 62
7
  6
CONTINUOUS
 10
110.0354220272
 20
90.1183399029
 11
110.0354220272
 21
97.1723803077
  0
LINE
  5
2B9
100
AcDbEntity
  8
0
100
AcDbLine
 62
7
  6
CONTINUOUS
 10
110.0354220272
 20
100.5159291265
 11
110.0354220272
 21
110.8159291265
  0
LINE
  5
2BA
100
AcDbEntity
  8
0
100
AcDbLine
 62
7
  6
CONTINUOUS
 10
110.0354220272
 20
146.4009454997
 11
110.0354220272
 21
147.9135239286
  0
LINE
  5
2BB
100
AcDbEntity
  8
0
100
AcDbLine
 62
7
  6
CONTINUOUS
 10
111.696692426
 20
150.7909291265
 11
111.696692426
 21
127.2159291265
  0
LINE
  5
2BC
100
AcDbEntity
  8
0
100
AcDbLine
 62
7
  6
CONTINUOUS
 10
111.696692426
 20
110.8159291265
 11
111.696692426
 21
100.5159291265
  0
LINE
  5
2BD
100
AcDbEntity
  8
0
100
AcDbLine
 62
7
  6
CONTINUOUS
 10
111.696692426
 20
93.1818310195
 11
111.696692426
 21
87.2409291265
  0
LINE
  5
2BE
100
AcDbEntity
  8
0
100
AcDbLine
 62
9
  6
CONTINUOUS
 10
115.0854220272
 20
87.2409291265
 11
115.0854220272
 21
93.1818310195
  0
LINE
  5
2BF
100
AcDbEntity
  8
0
100
AcDbLine
 62
9
  6
CONTINUOUS
 10
115.0854220272
 20
100.5159291265
 11
115.0854220272
 21
110.8159291265
  0
LINE
  5
2C0
100
AcDbEntity
  8
0
100
AcDbLine
 62
9
  6
CONTINUOUS
 10
115.0854220272
 20
127.2159291265
 11
115.0854220272
 21
150.7909291265
  0
LINE
  5
2C1
100
AcDbEntity
  8
0
100
AcDbLine
 62
7
  6
CONTINUOUS
 10
106.7854220272
 20
97.831840168
 11
109.5354220272
 21
97.831840168
  0
LINE
  5
2C2
100
AcDbEntity
  8
FASEN
100
AcDbLine
 62
7
  6
CONTINUOUS
 10
100.2354220272
 20
100.1159291265
 11
116.0854220272
 21
100.1159291265
  0
LINE
  5
2C3
100
AcDbEntity
  8
0
100
AcDbLine
 62
7
  6
CONTINUOUS
 10
100.2354220272
 20
100.5159291265
 11
116.0854220272
 21
100.5159291265
  0
LINE
  5
2C4
100
AcDbEntity
  8
BEZUGSACHSEN
100
AcDbLine
 62
7
  6
CONTINUOUS
 10
159.1973022425
 20
101.0159291265
 11
160.4854220272
 21
101.0159291265
  0
LINE
  5
2C5
100
AcDbEntity
  8
BEZUGSACHSEN
100
AcDbLine
 62
7
  6
CONTINUOUS
 10
165.4854220272
 20
101.0159291265
 11
167.191597429
 21
101.0159291265
  0
LWPOLYLINE
  5
2C6
100
AcDbEntity
  8
0
100
AcDbPolyline
 62
7
  6
CONTINUOUS
 90
3
 70
0
 10
147.0498244575
 20
98.1982837292
 10
147.0401738495
 20
98.198355408
 10
147.0329910604
 20
98.1985146134
  0
LWPOLYLINE
  5
2C7
100
AcDbEntity
  8
0
100
AcDbPolyline
 62
7
  6
CONTINUOUS
 90
7
 70
0
 10
147.032348676
 20
98.1985300078
 10
147.0387230573
 20
98.1980957692
 10
147.0528197262
 20
98.1967927191
 10
147.0740835387
 20
98.1942324332
 10
147.1023766412
 20
98.1899474804
 10
147.1365401528
 20
98.1836175604
 10
147.1631564346
 20
98.1778805541
  0
LINE
  5
2C8
100
AcDbEntity
  8
BEZUGSACHSEN
100
AcDbLine
 62
7
  6
CONTINUOUS
 10
116.0854220272
 20
149.7730432773
 11
116.0854220272
 21
127.2159291265
  0
LINE
  5
2C9
100
AcDbEntity
  8
0
100
AcDbLine
 62
7
  6
CONTINUOUS
 10
116.0854220272
 20
149.7909286849
 11
116.0854220272
 21
127.2159291265
  0
LINE
  5
2CA
100
AcDbEntity
  8
0
100
AcDbLine
 62
7
  6
CONTINUOUS
 10
116.0854220272
 20
110.8159291265
 11
116.0854220272
 21
100.5159291265
  0
LINE
  5
2CB
100
AcDbEntity
  8
BEZUGSACHSEN
100
AcDbLine
 62
7
  6
CONTINUOUS
 10
116.0854220272
 20
94.4222180401
 11
116.0854220272
 21
88.2429609104
  0
LINE
  5
2CC
100
AcDbEntity
  8
0
100
AcDbLine
 62
7
  6
CONTINUOUS
 10
116.0854220272
 20
94.4222180401
 11
116.0854220272
 21
88.2409316312
  0
LINE
  5
2CD
100
AcDbEntity
  8
FASEN
100
AcDbLine
 62
7
  6
CONTINUOUS
 10
116.0854220272
 20
94.4222180401
 11
116.0854220272
 21
100.5159291265
  0
LINE
  5
2CE
100
AcDbEntity
  8
FASEN
100
AcDbLine
 62
7
  6
CONTINUOUS
 10
116.0854220272
 20
110.8159291265
 11
116.0854220272
 21
127.2159291265
  0
LINE
  5
2CF
100
AcDbEntity
  8
RUNDUNGEN
100
AcDbLine
 62
9
  6
CONTINUOUS
 10
117.0854220272
 20
141.5159291265
 11
117.0854220272
 21
96.5159291265
  0
LINE
  5
2D0
100
AcDbEntity
  8
BEZUGSACHSEN
100
AcDbLine
 62
7
  6
CONTINUOUS
 10
96.5281167647
 20
96.8576250353
 11
97.5854220272
 21
97.1409291265
  0
LINE
  5
2D1
100
AcDbEntity
  8
BEZUGSACHSEN
100
AcDbLine
 62
7
  6
CONTINUOUS
 10
177.7520979526
 20
110.435719945
 11
226.7011228141
 21
113.0010296361
  0
LINE
  5
2D2
100
AcDbEntity
  8
0
100
AcDbLine
 62
7
  6
CONTINUOUS
 10
100.2354220272
 20
110.8159291265
 11
116.0854220272
 21
110.8159291265
  0
LINE
  5
2D3
100
AcDbEntity
  8
FASEN
100
AcDbLine
 62
7
  6
CONTINUOUS
 10
116.0854220272
 20
111.2159291265
 11
100.2354220272
 21
111.2159291265
  0
LINE
  5
2D4
100
AcDbEntity
  8
BEZUGSACHSEN
100
AcDbLine
 62
7
  6
CONTINUOUS
 10
104.6241516284
 20
87.2409291265
 11
106.2854220272
 21
90.1183338623
  0
LINE
  5
2D5
100
AcDbEntity
  8
DEFAULT_2
100
AcDbLine
 62
8
  6
HIDDEN
 10
224.9854220272
 20
116.0159291265
 11
202.9956371819
 21
116.0159291265
  0
LINE
  5
2D6
100
AcDbEntity
  8
BEZUGSACHSEN
100
AcDbLine
 62
7
  6
CONTINUOUS
 10
104.6241516284
 20
150.7909291265
 11
106.2854220272
 21
147.9135243907
  0
LINE
  5
2D7
100
AcDbEntity
  8
DEFAULT_1
100
AcDbLine
 62
7
  6
CENTER
 10
162.9854220272
 20
119.0159291265
 11
149.5713918157
 21
119.0159291265
  0
LINE
  5
2D8
100
AcDbEntity
  8
DEFAULT_1
100
AcDbLine
 62
7
  6
CENTER
 10
148.402313877
 20
119.0159291265
 11
140.3228483669
 21
119.0159291265
  0
LINE
  5
2D9
100
AcDbEntity
  8
BEZUGSACHSEN
100
AcDbLine
 62
7
  6
CENTER
 10
231.9854220272
 20
119.0159291265
 11
25.5854220272
 21
119.0159291265
  0
LINE
  5
2DA
100
AcDbEntity
  8
0
100
AcDbLine
 62
9
  6
CONTINUOUS
 10
148.402313877
 20
119.0159291265
 11
149.5713918157
 21
119.0159291265
  0
LINE
  5
2DB
100
AcDbEntity
  8
DEFAULT_1
100
AcDbLine
 62
7
  6
CENTER
 10
162.9854220272
 20
119.0159291265
 11
185.6479956875
 21
119.0159291265
  0
LINE
  5
2DC
100
AcDbEntity
  8
DEFAULT_2
100
AcDbLine
 62
8
  6
HIDDEN
 10
224.9854220272
 20
122.0159291265
 11
202.9956371819
 21
122.0159291265
  0
LINE
  5
2DD
100
AcDbEntity
  8
BEZUGSACHSEN
100
AcDbLine
 62
7
  6
CONTINUOUS
 10
139.062798826
 20
141.5159291265
 11
139.062798826
 21
96.5159291265
  0
LINE
  5
2DE
100
AcDbEntity
  8
FASEN
100
AcDbLine
 62
7
  6
CONTINUOUS
 10
100.2354220272
 20
126.8159291265
 11
116.0854220272
 21
126.8159291265
  0
LINE
  5
2DF
100
AcDbEntity
  8
0
100
AcDbLine
 62
7
  6
CONTINUOUS
 10
100.2354220272
 20
127.2159291265
 11
116.0854220272
 21
127.2159291265
  0
LINE
  5
2E0
100
AcDbEntity
  8
BEZUGSACHSEN
100
AcDbLine
 62
7
  6
CONTINUOUS
 10
177.7520979526
 20
127.596138308
 11
226.7011228141
 21
125.0308286169
  0
LINE
  5
2E1
100
AcDbEntity
  8
BEZUGSACHSEN
100
AcDbLine
 62
7
  6
CONTINUOUS
 10
96.5281167647
 20
141.1742332177
 11
97.5854220272
 21
140.8909291265
  0
LINE
  5
2E2
100
AcDbEntity
  8
BEZUGSACHSEN
100
AcDbLine
 62
7
  6
CONTINUOUS
 10
159.1973022425
 20
137.0159291265
 11
160.4854220272
 21
137.0159291265
  0
LINE
  5
2E3
100
AcDbEntity
  8
BEZUGSACHSEN
100
AcDbLine
 62
7
  6
CONTINUOUS
 10
165.4854220272
 20
137.0159291265
 11
167.191597429
 21
137.0159291265
  0
LINE
  5
2E4
100
AcDbEntity
  8
BEZUGSACHSEN
100
AcDbLine
 62
9
  6
CONTINUOUS
 10
157.7943648199
 20
138.0825934935
 11
157.7943648199
 21
99.9492647595
  0
LINE
  5
2E5
100
AcDbEntity
  8
BEZUGSACHSEN
100
AcDbLine
 62
7
  6
CONTINUOUS
 10
30.2967846888
 20
131.5146923283
 11
96.5281167647
 21
141.1742332177
  0
LINE
  5
2E6
100
AcDbEntity
  8
BEZUGSACHSEN
100
AcDbLine
 62
7
  6
CONTINUOUS
 10
97.5854220272
 20
140.8909291265
 11
99.2354220272
 21
140.8909291265
  0
LINE
  5
2E7
100
AcDbEntity
  8
BEZUGSACHSEN
100
AcDbLine
 62
7
  6
CONTINUOUS
 10
117.0854220272
 20
141.5159291265
 11
139.062798826
 21
141.5159291265
  0
LINE
  5
2E8
100
AcDbEntity
  8
BEZUGSACHSEN
100
AcDbLine
 62
7
  6
CONTINUOUS
 10
139.062798826
 20
141.5159291265
 11
148.402313877
 21
139.8040759996
  0
LINE
  5
2E9
100
AcDbEntity
  8
BEZUGSACHSEN
100
AcDbLine
 62
7
  6
CONTINUOUS
 10
149.5713918157
 20
139.5897940252
 11
157.7943648199
 21
138.0825934935
  0
LWPOLYLINE
  5
2EA
100
AcDbEntity
  8
0
100
AcDbPolyline
 62
7
  6
CONTINUOUS
 90
10
 70
0
 10
150.9260724539
 20
139.1204628068
 10
150.9371698071
 20
139.1162431327
 10
150.9456379417
 20
139.1128713482
 10
150.9469361259
 20
139.1123385988
 10
150.9411210417
 20
139.1149925881
 10
150.927977587
 20
139.1213982069
 10
150.908474083
 20
139.1316256157
 10
150.8832472892
 20
139.1459109716
 10
150.8536732428
 20
139.1640261709
 10
150.8367010259
 20
139.1750560275
  0
LINE
  5
2EB
100
AcDbEntity
  8
BEZUGSACHSEN
100
AcDbLine
 62
9
  6
CONTINUOUS
 10
158.3429547444
 20
137.6957024006
 11
158.3429547444
 21
100.3361558524
  0
LINE
  5
2EC
100
AcDbEntity
  8
BEZUGSACHSEN
100
AcDbLine
 62
9
  6
CONTINUOUS
 10
158.5044819195
 20
137.4159291265
 11
158.5044819195
 21
100.6159291265
  0
LINE
  5
2ED
100
AcDbEntity
  8
BEZUGSACHSEN
100
AcDbLine
 62
9
  6
CONTINUOUS
 10
159.1973022425
 20
137.0159291265
 11
159.1973022425
 21
101.0159291265
  0
LINE
  5
2EE
100
AcDbEntity
  8
DEFAULT_1
100
AcDbLine
 62
7
  6
CENTER
 10
162.9854220272
 20
119.0159291265
 11
162.9854220272
 21
96.3533554662
  0
LINE
  5
2EF
100
AcDbEntity
  8
DEFAULT_1
100
AcDbLine
 62
7
  6
CENTER
 10
162.9854220272
 20
119.0159291265
 11
162.9854220272
 21
141.6785027868
  0
LINE
  5
2F0
100
AcDbEntity
  8
BEZUGSACHSEN
100
AcDbLine
 62
7
  6
CONTINUOUS
 10
158.3429547444
 20
100.3361558524
 11
158.5044819195
 21
100.6159291265
  0
LINE
  5
2F1
100
AcDbEntity
  8
BEZUGSACHSEN
100
AcDbLine
 62
7
  6
CONTINUOUS
 10
106.7854220272
 20
147.1409291265
 11
109.5354220272
 21
147.1409291265
  0
LINE
  5
2F2
100
AcDbEntity
  8
BEZUGSACHSEN
100
AcDbLine
 62
7
  6
CONTINUOUS
 10
101.2354220272
 20
150.7909291265
 11
104.6241516284
 21
150.7909291265
  0
LINE
  5
2F3
100
AcDbEntity
  8
BEZUGSACHSEN
100
AcDbLine
 62
7
  6
CONTINUOUS
 10
111.696692426
 20
150.7909291265
 11
115.0854220272
 21
150.7909291265
  0
LINE
  5
2F4
100
AcDbEntity
  8
BEZUGSACHSEN
100
AcDbLine
 62
7
  6
CONTINUOUS
 10
158.3429547444
 20
137.6957024006
 11
158.5044819195
 21
137.4159291265
  0
LINE
  5
2F5
100
AcDbEntity
  8
BEZUGSACHSEN
100
AcDbLine
 62
9
  6
CONTINUOUS
 10
167.191597429
 20
137.0159291265
 11
167.191597429
 21
101.0159291265
  0
LINE
  5
2F6
100
AcDbEntity
  8
BEZUGSACHSEN
100
AcDbLine
 62
9
  6
CONTINUOUS
 10
167.8987042102
 20
136.7230359077
 11
167.8987042102
 21
101.3088223453
  0
LINE
  5
2F7
100
AcDbEntity
  8
BEZUGSACHSEN
100
AcDbLine
 62
7
  6
CONTINUOUS
 10
167.8987042102
 20
101.3088223453
 11
176.4425563027
 21
109.8526744379
  0
LINE
  5
2F8
100
AcDbEntity
  8
BEZUGSACHSEN
100
AcDbLine
 62
7
  6
CONTINUOUS
 10
167.8987042102
 20
136.7230359077
 11
176.4425563027
 21
128.1791838151
  0
LINE
  5
2F9
100
AcDbEntity
  8
BEZUGSACHSEN
100
AcDbLine
 62
9
  6
CONTINUOUS
 10
176.4425563027
 20
128.1791838151
 11
176.4425563027
 21
109.8526744379
  0
LINE
  5
2FA
100
AcDbEntity
  8
BEZUGSACHSEN
100
AcDbLine
 62
9
  6
CONTINUOUS
 10
177.7520979526
 20
127.596138308
 11
177.7520979526
 21
110.435719945
  0
LINE
  5
2FB
100
AcDbEntity
  8
DEFAULT_2
100
AcDbLine
 62
8
  6
HIDDEN
 10
202.8454220272
 20
122.2659291265
 11
202.8454220272
 21
115.7659291265
  0
LINE
  5
2FC
100
AcDbEntity
  8
BEZUGSACHSEN
100
AcDbLine
 62
9
  6
CONTINUOUS
 10
226.7011228141
 20
125.0308286169
 11
226.7011228141
 21
113.0010296361
  0
LINE
  5
2FD
100
AcDbEntity
  8
BEZUGSACHSEN
100
AcDbLine
 62
7
  6
CONTINUOUS
 10
226.9854220272
 20
124.7312397565
 11
226.9854220272
 21
113.3006184965
  0
CIRCLE
  5
2FE
100
AcDbEntity
  8
BEZUGSACHSEN
100
AcDbCircle
 62
7
  6
CONTINUOUS
 10
108.0854220272
 20
119.0159291265
 40
5.0
  0
CIRCLE
  5
2FF
100
AcDbEntity
  8
BEZUGSACHSEN
100
AcDbCircle
 62
7
  6
CONTINUOUS
 10
108.0854220272
 20
119.0159291265
 40
4.7
  0
CIRCLE
  5
300
100
AcDbEntity
  8
BEZUGSACHSEN
100
AcDbCircle
 62
7
  6
CONTINUOUS
 10
108.0854220272
 20
119.0159291265
 40
2.0
  0
ARC
  5
301
100
AcDbEntity
  8
BEZUGSACHSEN
100
AcDbCircle
 62
7
  6
CONTINUOUS
 10
30.5854220272
 20
108.496228452
 40
2.0
100
AcDbArc
 50
180.0
 51
261.7021731718
  0
ARC
  5
302
100
AcDbEntity
  8
BEZUGSACHSEN
100
AcDbCircle
 62
7
  6
CONTINUOUS
 10
101.2354220272
 20
88.2409291265
 40
1.0
100
AcDbArc
 50
180.0
 51
270.0
  0
ARC
  5
303
100
AcDbEntity
  8
BEZUGSACHSEN
100
AcDbCircle
 62
7
  6
CONTINUOUS
 10
99.2354220272
 20
96.1409291265
 40
1.0
100
AcDbArc
 50
0.0
 51
90.0
  0
ARC
  5
304
100
AcDbEntity
  8
BEZUGSACHSEN
100
AcDbCircle
 62
7
  6
CONTINUOUS
 10
106.7854220272
 20
90.3909291265
 40
0.5
100
AcDbArc
 50
90.0
 51
180.0
  0
ARC
  5
305
100
AcDbEntity
  8
0
100
AcDbCircle
 62
7
  6
CONTINUOUS
 10
-64.2776843773
 20
172.5804753986
 40
186.6332632071
100
AcDbArc
 50
334.8223686073
 51
336.049211232
  0
ARC
  5
306
100
AcDbEntity
  8
BEZUGSACHSEN
100
AcDbCircle
 62
7
  6
CONTINUOUS
 10
30.5854220272
 20
129.535629801
 40
2.0
100
AcDbArc
 50
98.2978268282
 51
180.0
  0
ARC
  5
307
100
AcDbEntity
  8
BEZUGSACHSEN
100
AcDbCircle
 62
7
  6
CONTINUOUS
 10
99.2354220272
 20
141.8909291265
 40
1.0
100
AcDbArc
 50
270.0
 51
360.0
  0
ARC
  5
308
100
AcDbEntity
  8
BEZUGSACHSEN
100
AcDbCircle
 62
7
  6
CONTINUOUS
 10
101.2354220272
 20
149.7909291265
 40
1.0
100
AcDbArc
 50
90.0
 51
180.0
  0
ARC
  5
309
100
AcDbEntity
  8
BEZUGSACHSEN
100
AcDbCircle
 62
7
  6
CONTINUOUS
 10
106.7854220272
 20
147.6409291265
 40
0.5
100
AcDbArc
 50
180.0
 51
270.0
  0
ARC
  5
30A
100
AcDbEntity
  8
0
100
AcDbCircle
 62
7
  6
CONTINUOUS
 10
144.1356091743
 20
109.982185502
 40
30.1024619489
100
AcDbArc
 50
79.5966871203
 51
80.7250584725
  0
ARC
  5
30B
100
AcDbEntity
  8
0
100
AcDbCircle
 62
7
  6
CONTINUOUS
 10
145.0789809656
 20
119.8935417627
 40
20.1783439385
100
AcDbArc
 50
76.8981230837
 51
77.3055671263
  0
ARC
  5
30C
100
AcDbEntity
  8
0
100
AcDbCircle
 62
7
  6
CONTINUOUS
 10
145.7859810632
 20
117.3050291417
 40
19.2314339179
100
AcDbArc
 50
277.7008028491
 51
278.1050706364
  0
ARC
  5
30D
100
AcDbEntity
  8
GEWINDE
100
AcDbCircle
 62
7
  6
CONTINUOUS
 10
162.9854220272
 20
83.1900261159
 40
18.0001877077
100
AcDbArc
 50
82.0166028031
 51
97.9833971968
  0
ARC
  5
30E
100
AcDbEntity
  8
0
100
AcDbCircle
 62
2
  6
CONTINUOUS
 10
162.9854220189
 20
119.0159291265
 40
2.9999999917
100
AcDbArc
 50
0.0
 51
359.8424034203
  0
CIRCLE
  5
30F
100
AcDbEntity
  8
GEWINDE
100
AcDbCircle
 62
7
  6
CONTINUOUS
 10
162.9854220272
 20
119.0159291265
 40
2.5
  0
ARC
  5
310
100
AcDbEntity
  8
BEZUGSACHSEN
100
AcDbCircle
 62
7
  6
CONTINUOUS
 10
177.8567698651
 20
108.4384608755
 40
2.0
100
AcDbArc
 50
93.0
 51
135.0
  0
ARC
  5
311
100
AcDbEntity
  8
RUNDUNGEN
100
AcDbCircle
 62
7
  6
CONTINUOUS
 10
117.0854220272
 20
95.5159291265
 40
1.0
100
AcDbArc
 50
90.0
 51
180.0
  0
ARC
  5
312
100
AcDbEntity
  8
BEZUGSACHSEN
100
AcDbCircle
 62
7
  6
CONTINUOUS
 10
167.191597429
 20
102.0159291265
 40
1.0
100
AcDbArc
 50
270.0
 51
315.0
  0
ARC
  5
313
100
AcDbEntity
  8
BEZUGSACHSEN
100
AcDbCircle
 62
7
  6
CONTINUOUS
 10
115.0854220272
 20
88.2409291265
 40
1.0
100
AcDbArc
 50
270.0
 51
360.0
  0
ARC
  5
314
100
AcDbEntity
  8
BEZUGSACHSEN
100
AcDbCircle
 62
7
  6
CONTINUOUS
 10
157.6501344214
 20
100.7361558524
 40
0.8
100
AcDbArc
 50
280.3865353291
 51
330.0
  0
ARC
  5
315
100
AcDbEntity
  8
BEZUGSACHSEN
100
AcDbCircle
 62
7
  6
CONTINUOUS
 10
159.1973022425
 20
100.2159291265
 40
0.8
100
AcDbArc
 50
90.0
 51
150.0
  0
ARC
  5
316
100
AcDbEntity
  8
BEZUGSACHSEN
100
AcDbCircle
 62
7
  6
CONTINUOUS
 10
109.5354220272
 20
90.3909291265
 40
0.5
100
AcDbArc
 50
0.0
 51
90.0
  0
ARC
  5
317
100
AcDbEntity
  8
BEZUGSACHSEN
100
AcDbCircle
 62
7
  6
CONTINUOUS
 10
226.6854220272
 20
124.7312397565
 40
0.3
100
AcDbArc
 50
0.0
 51
87.0
  0
ARC
  5
318
100
AcDbEntity
  8
BEZUGSACHSEN
100
AcDbCircle
 62
7
  6
CONTINUOUS
 10
226.6854220272
 20
113.3006184965
 40
0.3
100
AcDbArc
 50
273.0
 51
360.0
  0
ARC
  5
319
100
AcDbEntity
  8
0
100
AcDbCircle
 62
7
  6
CONTINUOUS
 10
280.5985284317
 20
172.5804753986
 40
186.6332632071
100
AcDbArc
 50
203.950788768
 51
205.1776313927
  0
ARC
  5
31A
100
AcDbEntity
  8
0
100
AcDbCircle
 62
7
  6
CONTINUOUS
 10
142.8675672419
 20
128.452437692
 40
30.7272390021
100
AcDbArc
 50
280.3770459213
 51
281.4882705162
  0
ARC
  5
31B
100
AcDbEntity
  8
GEWINDE
100
AcDbCircle
 62
7
  6
CONTINUOUS
 10
162.9854220272
 20
154.8418352942
 40
18.0001908679
100
AcDbArc
 50
262.0166041989
 51
277.9833958011
  0
ARC
  5
31C
100
AcDbEntity
  8
BEZUGSACHSEN
100
AcDbCircle
 62
7
  6
CONTINUOUS
 10
177.8567698651
 20
129.5933973775
 40
2.0
100
AcDbArc
 50
225.0
 51
267.0
  0
ARC
  5
31D
100
AcDbEntity
  8
RUNDUNGEN
100
AcDbCircle
 62
7
  6
CONTINUOUS
 10
117.0854220272
 20
142.5159291265
 40
1.0
100
AcDbArc
 50
180.0
 51
270.0
  0
ARC
  5
31E
100
AcDbEntity
  8
BEZUGSACHSEN
100
AcDbCircle
 62
7
  6
CONTINUOUS
 10
167.191597429
 20
136.0159291265
 40
1.0
100
AcDbArc
 50
45.0
 51
90.0
  0
ARC
  5
31F
100
AcDbEntity
  8
BEZUGSACHSEN
100
AcDbCircle
 62
7
  6
CONTINUOUS
 10
115.0854220272
 20
149.7909291265
 40
1.0
100
AcDbArc
 50
0.0
 51
90.0
  0
ARC
  5
320
100
AcDbEntity
  8
BEZUGSACHSEN
100
AcDbCircle
 62
7
  6
CONTINUOUS
 10
157.6501344214
 20
137.2957024006
 40
0.8
100
AcDbArc
 50
30.0
 51
79.6134646709
  0
ARC
  5
321
100
AcDbEntity
  8
BEZUGSACHSEN
100
AcDbCircle
 62
7
  6
CONTINUOUS
 10
159.1973022425
 20
137.8159291265
 40
0.8
100
AcDbArc
 50
210.0
 51
270.0
  0
ARC
  5
322
100
AcDbEntity
  8
BEZUGSACHSEN
100
AcDbCircle
 62
7
  6
CONTINUOUS
 10
109.5354220272
 20
147.6409291265
 40
0.5
100
AcDbArc
 50
270.0
 51
360.0
  0
SPLINE
  5
323
100
AcDbEntity
  8
0
100
AcDbSpline
 62
2
  6
CONTINUOUS
 70
0
 71
3
 72
29
 73
25
 74
0
 42
0.0000001
 43
0.0000001
 44
0.0000000001
 40
0.0
 40
0.0
 40
0.0
 40
0.0
 40
0.0454545455
 40
0.0909090909
 40
0.1363636364
 40
0.1818181818
 40
0.2272727273
 40
0.2727272727
 40
0.3181818182
 40
0.3636363636
 40
0.4090909091
 40
0.4545454545
 40
0.5
 40
0.5454545455
 40
0.5909090909
 40
0.6363636364
 40
0.6818181818
 40
0.7272727273
 40
0.7727272727
 40
0.8181818182
 40
0.8636363636
 40
0.9090909091
 40
0.9545454545
 40
1.0
 40
1.0
 40
1.0
 40
1.0
 10
165.9854110358
 20
101.0159308964
 30
0.0
 10
165.9850276438
 20
101.0159947948
 30
0.0
 10
165.9642163661
 20
101.0194806242
 30
0.0
 10
165.8724786612
 20
101.0345341257
 30
0.0
 10
165.7228661023
 20
101.0581089577
 30
0.0
 10
165.5159259046
 20
101.0886878065
 30
0.0
 10
165.2588250833
 20
101.1234121801
 30
0.0
 10
164.9521911728
 20
101.1600260687
 30
0.0
 10
164.6086572134
 20
101.1948332772
 30
0.0
 10
164.2295367409
 20
101.225564167
 30
0.0
 10
163.8292508975
 20
101.2492176811
 30
0.0
 10
163.4106855301
 20
101.2642803176
 30
0.0
 10
162.985483041
 20
101.2693938087
 30
0.0
 10
162.5602729552
 20
101.2642831101
 30
0.0
 10
162.1417085684
 20
101.2492231175
 30
0.0
 10
161.7414223984
 20
101.2255723325
 30
0.0
 10
161.3622823162
 20
101.194841981
 30
0.0
 10
161.0187571285
 20
101.1600376476
 30
0.0
 10
160.7120866755
 20
101.123420862
 30
0.0
 10
160.4549969307
 20
101.088698956
 30
0.0
 10
160.2480191239
 20
101.0581153311
 30
0.0
 10
160.0984043205
 20
101.0345403822
 30
0.0
 10
160.0066407349
 20
101.01948282
 30
0.0
 10
159.9858229938
 20
101.01599589
 30
0.0
 10
159.9854333805
 20
101.0159309547
 30
0.0
  0
SPLINE
  5
324
100
AcDbEntity
  8
0
100
AcDbSpline
 62
2
  6
CONTINUOUS
 70
0
 71
3
 72
29
 73
25
 74
0
 42
0.0000001
 43
0.0000001
 44
0.0000000001
 40
0.0
 40
0.0
 40
0.0
 40
0.0
 40
0.0454545455
 40
0.0909090909
 40
0.1363636364
 40
0.1818181818
 40
0.2272727273
 40
0.2727272727
 40
0.3181818182
 40
0.3636363636
 40
0.4090909091
 40
0.4545454545
 40
0.5
 40
0.5454545455
 40
0.5909090909
 40
0.6363636364
 40
0.6818181818
 40
0.7272727273
 40
0.7727272727
 40
0.8181818182
 40
0.8636363636
 40
0.9090909091
 40
0.9545454545
 40
1.0
 40
1.0
 40
1.0
 40
1.0
 10
159.9854333619
 20
137.0159273013
 30
0.0
 10
159.9858226506
 20
137.0158624201
 30
0.0
 10
160.0066407237
 20
137.0123754586
 30
0.0
 10
160.0983868493
 20
136.9973206694
 30
0.0
 10
160.2480037738
 20
136.9737453441
 30
0.0
 10
160.4549439461
 20
136.9431668403
 30
0.0
 10
160.7120433616
 20
136.9084428671
 30
0.0
 10
161.0186971988
 20
136.8718273863
 30
0.0
 10
161.3622056688
 20
136.8370231643
 30
0.0
 10
161.7413596772
 20
136.806290522
 30
0.0
 10
162.1416023203
 20
136.7826400826
 30
0.0
 10
162.5602113736
 20
136.7675767434
 30
0.0
 10
162.9853582841
 20
136.7624644974
 30
0.0
 10
163.4106164955
 20
136.7675761222
 30
0.0
 10
163.8291428964
 20
136.7826356144
 30
0.0
 10
164.2294542074
 20
136.8062881161
 30
0.0
 10
164.6085727159
 20
136.8370173713
 30
0.0
 10
164.9521064307
 20
136.8718227211
 30
0.0
 10
165.2587664076
 20
136.9084385921
 30
0.0
 10
165.5158558155
 20
136.9431605189
 30
0.0
 10
165.7228297771
 20
136.9737436767
 30
0.0
 10
165.8724422981
 20
136.9973182844
 30
0.0
 10
165.9642043732
 20
137.0123756094
 30
0.0
 10
165.9850213583
 20
137.0158624125
 30
0.0
 10
165.9854106902
 20
137.0159273009
 30
0.0
  0
SPLINE
  5
325
100
AcDbEntity
  8
BEZUGSACHSEN
100
AcDbSpline
 62
7
  6
CONTINUOUS
 70
0
 71
3
 72
12
 73
8
 74
0
 42
0.0000001
 43
0.0000001
 44
0.0000000001
 40
0.0
 40
0.0
 40
0.0
 40
0.0
 40
0.229011285
 40
0.4657297355
 40
0.7172914949
 40
0.854925375
 40
1.0
 40
1.0
 40
1.0
 40
1.0
 10
106.7854220272
 20
144.9127827194
 30
0.0
 10
106.717338417
 20
144.9379602007
 30
0.0
 10
106.5893512651
 20
145.018797713
 30
0.0
 10
106.439673674
 20
145.192653973
 30
0.0
 10
106.3479997383
 20
145.3709290227
 30
0.0
 10
106.2984271268
 20
145.5330854012
 30
0.0
 10
106.2854220272
 20
145.6226584371
 30
0.0
 10
106.2854220272
 20
145.6686428194
 30
0.0
  0
SPLINE
  5
326
100
AcDbEntity
  8
0
100
AcDbSpline
 62
7
  6
CONTINUOUS
 70
0
 71
3
 72
13
 73
9
 74
0
 42
0.0000001
 43
0.0000001
 44
0.0000000001
 40
0.0
 40
0.0
 40
0.0
 40
0.0
 40
0.0778195472
 40
0.1757438263
 40
0.2896374223
 40
0.4159200889
 40
0.6955352096
 40
1.0
 40
1.0
 40
1.0
 40
1.0
 10
147.1631746828
 20
98.1778852909
 30
0.0
 10
147.1936556965
 20
98.1709281691
 30
0.0
 10
147.2640546044
 20
98.1624976371
 30
0.0
 10
147.3803780061
 20
98.1589489309
 30
0.0
 10
147.5162421646
 20
98.162057167
 30
0.0
 10
147.7247409024
 20
98.1741849128
 30
0.0
 10
148.0089145264
 20
98.2015147754
 30
0.0
 10
148.2417749027
 20
98.2306508754
 30
0.0
 10
148.3629945817
 20
98.2470373308
 30
0.0
  0
SPLINE
  5
327
100
AcDbEntity
  8
0
100
AcDbSpline
 62
7
  6
CONTINUOUS
 70
0
 71
3
 72
9
 73
5
 74
0
 42
0.0000001
 43
0.0000001
 44
0.0000000001
 40
0.0
 40
0.0
 40
0.0
 40
0.0
 40
0.2444686914
 40
1.0
 40
1.0
 40
1.0
 40
1.0
 10
148.4973987726
 20
98.2656944751
 30
0.0
 10
148.5852090981
 20
98.2781895658
 30
0.0
 10
148.9440666101
 20
98.3316171493
 30
0.0
 10
149.3017716455
 20
98.3926451596
 30
0.0
 10
149.5713918157
 20
98.4420642278
 30
0.0
  0
SPLINE
  5
328
100
AcDbEntity
  8
BEZUGSACHSEN
100
AcDbSpline
 62
7
  6
CONTINUOUS
 70
0
 71
3
 72
13
 73
9
 74
0
 42
0.0000001
 43
0.0000001
 44
0.0000000001
 40
0.0
 40
0.0
 40
0.0
 40
0.0
 40
0.1115665941
 40
0.2345030678
 40
0.5000000001
 40
0.7654969285
 40
0.8884334041
 40
1.0
 40
1.0
 40
1.0
 40
1.0
 10
109.5354220272
 20
144.9127827194
 30
0.0
 10
109.4378862828
 20
144.8767137687
 30
0.0
 10
109.2282090759
 20
144.8132703043
 30
0.0
 10
108.7709540279
 20
144.7206468249
 30
0.0
 10
108.1604220305
 20
144.6755134412
 30
0.0
 10
107.5498900315
 20
144.7206468251
 30
0.0
 10
107.0926349833
 20
144.8132703027
 30
0.0
 10
106.8829577731
 20
144.8767137682
 30
0.0
 10
106.7854220272
 20
144.9127827194
 30
0.0
  0
SPLINE
  5
329
100
AcDbEntity
  8
0
100
AcDbSpline
 62
7
  6
CONTINUOUS
 70
0
 71
3
 72
17
 73
13
 74
0
 42
0.0000001
 43
0.0000001
 44
0.0000000001
 40
0.0
 40
0.0
 40
0.0
 40
0.0
 40
0.0414432478
 40
0.0910604881
 40
0.1464231869
 40
0.2058847981
 40
0.3326811398
 40
0.4654573535
 40
0.6010379906
 40
0.7371190793
 40
0.8712621368
 40
1.0
 40
1.0
 40
1.0
 40
1.0
 10
146.0496666734
 20
98.1847713329
 30
0.0
 10
146.1024538128
 20
98.2194598914
 30
0.0
 10
146.2232558124
 20
98.2882151244
 30
0.0
 10
146.4224960049
 20
98.388741858
 30
0.0
 10
146.6496050387
 20
98.4948387233
 30
0.0
 10
146.9860946913
 20
98.6444866936
 30
0.0
 10
147.4336078208
 20
98.8347197401
 30
0.0
 10
147.988803418
 20
99.0681128275
 30
0.0
 10
148.5557560362
 20
99.3100544555
 30
0.0
 10
149.1208806394
 20
99.5615610909
 30
0.0
 10
149.6689504626
 20
99.8250766118
 30
0.0
 10
150.0208625037
 20
100.017673799
 30
0.0
 10
150.1877665316
 20
100.1208359487
 30
0.0
  0
SPLINE
  5
32A
100
AcDbEntity
  8
0
100
AcDbSpline
 62
7
  6
CONTINUOUS
 70
0
 71
3
 72
13
 73
9
 74
0
 42
0.0000001
 43
0.0000001
 44
0.0000000001
 40
0.0
 40
0.0
 40
0.0
 40
0.0
 40
0.0785395731
 40
0.1776386499
 40
0.2926964209
 40
0.4197789111
 40
0.6989361256
 40
1.0
 40
1.0
 40
1.0
 40
1.0
 10
150.83669984
 20
139.1750555891
 30
0.0
 10
150.8095620038
 20
139.1930648701
 30
0.0
 10
150.7438865723
 20
139.2271267342
 30
0.0
 10
150.6315972708
 20
139.2732348934
 30
0.0
 10
150.4979750086
 20
139.320021395
 30
0.0
 10
150.2915816458
 20
139.3843844173
 30
0.0
 10
150.0084950114
 20
139.4614881901
 30
0.0
 10
149.774670965
 20
139.5183078762
 30
0.0
 10
149.6530728062
 20
139.5466139891
 30
0.0
  0
SPLINE
  5
32B
100
AcDbEntity
  8
0
100
AcDbSpline
 62
7
  6
CONTINUOUS
 70
0
 71
3
 72
9
 73
5
 74
0
 42
0.0000001
 43
0.0000001
 44
0.0000000001
 40
0.0
 40
0.0
 40
0.0
 40
0.0
 40
0.2462167458
 40
1.0
 40
1.0
 40
1.0
 40
1.0
 10
149.5132006148
 20
139.5786442568
 30
0.0
 10
149.4224422108
 20
139.5990993198
 30
0.0
 10
149.0532968358
 20
139.6798015441
 30
0.0
 10
148.6824696384
 20
139.7527258477
 30
0.0
 10
148.402313877
 20
139.8040759996
 30
0.0
  0
SPLINE
  5
32C
100
AcDbEntity
  8
0
100
AcDbSpline
 62
7
  6
CONTINUOUS
 70
0
 71
3
 72
17
 73
13
 74
0
 42
0.0000001
 43
0.0000001
 44
0.0000000001
 40
0.0
 40
0.0
 40
0.0
 40
0.0
 40
0.0436945108
 40
0.0946780505
 40
0.1508704187
 40
0.2108119128
 40
0.3379278258
 40
0.4704143086
 40
0.6051638431
 40
0.7399137613
 40
0.8724586396
 40
1.0
 40
1.0
 40
1.0
 40
1.0
 10
151.8757052904
 20
138.7783392391
 30
0.0
 10
151.8214546051
 20
138.766110028
 30
0.0
 10
151.7025254996
 20
138.7458910562
 30
0.0
 10
151.511939134
 20
138.7224194187
 30
0.0
 10
151.3001719547
 20
138.7022756847
 30
0.0
 10
150.9915156378
 20
138.6781266952
 30
0.0
 10
150.5856344997
 20
138.6521977848
 30
0.0
 10
150.0847119267
 20
138.6207813381
 30
0.0
 10
149.5743592079
 20
138.5845630679
 30
0.0
 10
149.0646164606
 20
138.5392281226
 30
0.0
 10
148.5655442216
 20
138.4797961633
 30
0.0
 10
148.2388404779
 20
138.4246427251
 30
0.0
 10
148.0800944382
 20
138.3907318509
 30
0.0
  0
SPLINE
  5
32D
100
AcDbEntity
  8
BEZUGSACHSEN
100
AcDbSpline
 62
7
  6
CONTINUOUS
 70
0
 71
3
 72
11
 73
7
 74
0
 42
0.0000001
 43
0.0000001
 44
0.0000000001
 40
0.0
 40
0.0
 40
0.0
 40
0.0
 40
0.1701746458
 40
0.4012547712
 40
0.6820721789
 40
1.0
 40
1.0
 40
1.0
 40
1.0
 10
110.1604220272
 20
146.3742355751
 30
0.0
 10
110.1604220272
 20
146.3476858853
 30
0.0
 10
110.1513490686
 20
146.2852974321
 30
0.0
 10
110.1251876803
 20
146.1821807924
 30
0.0
 10
110.0853955986
 20
146.058875305
 30
0.0
 10
110.0531655036
 20
145.971192706
 30
0.0
 10
110.0354220272
 20
145.9248736084
 30
0.0
  0
SPLINE
  5
32E
100
AcDbEntity
  8
BEZUGSACHSEN
100
AcDbSpline
 62
7
  6
CONTINUOUS
 70
0
 71
3
 72
11
 73
7
 74
0
 42
0.0000001
 43
0.0000001
 44
0.0000000001
 40
0.0
 40
0.0
 40
0.0
 40
0.0
 40
0.3179706993
 40
0.5987587797
 40
0.8298253688
 40
1.0
 40
1.0
 40
1.0
 40
1.0
 10
106.2854220272
 20
145.9248736084
 30
0.0
 10
106.2676761608
 20
145.9711989452
 30
0.0
 10
106.2354455601
 20
146.0588836095
 30
0.0
 10
106.1956547454
 20
146.1821894769
 30
0.0
 10
106.1694950561
 20
146.2852995828
 30
0.0
 10
106.1604220272
 20
146.347685892
 30
0.0
 10
106.1604220272
 20
146.3742355751
 30
0.0
  0
SPLINE
  5
32F
100
AcDbEntity
  8
BEZUGSACHSEN
100
AcDbSpline
 62
7
  6
CONTINUOUS
 70
0
 71
3
 72
12
 73
8
 74
0
 42
0.0000001
 43
0.0000001
 44
0.0000000001
 40
0.0
 40
0.0
 40
0.0
 40
0.0
 40
0.1450746868
 40
0.2827085649
 40
0.5342702787
 40
0.7709886822
 40
1.0
 40
1.0
 40
1.0
 40
1.0
 10
110.0354220272
 20
145.6686428194
 30
0.0
 10
110.0354220272
 20
145.6226584174
 30
0.0
 10
110.0224169233
 20
145.5330853621
 30
0.0
 10
109.9728442974
 20
145.3709289829
 30
0.0
 10
109.8811703689
 20
145.1926539649
 30
0.0
 10
109.7314927969
 20
145.0187977142
 30
0.0
 10
109.6035056472
 20
144.9379602044
 30
0.0
 10
109.5354220272
 20
144.9127827194
 30
0.0
  0
SPLINE
  5
330
100
AcDbEntity
  8
0
100
AcDbSpline
 62
7
  6
CONTINUOUS
 70
0
 71
3
 72
103
 73
99
 74
0
 42
0.0000001
 43
0.0000001
 44
0.0000000001
 40
0.0
 40
0.0
 40
0.0
 40
0.0
 40
0.0186190818
 40
0.0372729784
 40
0.0559658785
 40
0.0747005935
 40
0.0934702192
 40
0.1122290789
 40
0.121595143
 40
0.1309152298
 40
0.1401717589
 40
0.1493568063
 40
0.1584788831
 40
0.1675507202
 40
0.1855759116
 40
0.2035220855
 40
0.2214136643
 40
0.2392561184
 40
0.2570461756
 40
0.2747731955
 40
0.2924186712
 40
0.3099527776
 40
0.3273296635
 40
0.3359423325
 40
0.3444913805
 40
0.3613330749
 40
0.3696739927
 40
0.3780039117
 40
0.3863959499
 40
0.3949165209
 40
0.4035799015
 40
0.4123672567
 40
0.4301993532
 40
0.4482550485
 40
0.4664130074
 40
0.4846076241
 40
0.5027921049
 40
0.5209201354
 40
0.538934328
 40
0.5567520055
 40
0.5742391582
 40
0.5911424242
 40
0.5992435614
 40
0.6070129185
 40
0.6143791826
 40
0.6213148182
 40
0.6278992313
 40
0.6343251741
 40
0.6407809084
 40
0.6473809097
 40
0.6611193434
 40
0.6755002454
 40
0.6902962945
 40
0.705339614
 40
0.7204889342
 40
0.7356162527
 40
0.7505863815
 40
0.7652305944
 40
0.7723580334
 40
0.7792979862
 40
0.7859867234
 40
0.7923438065
 40
0.798277282
 40
0.8036864929
 40
0.8085067392
 40
0.8107252306
 40
0.8128645016
 40
0.8149907202
 40
0.8171748469
 40
0.8219155775
 40
0.8273267687
 40
0.8333822765
 40
0.839953423
 40
0.8469011818
 40
0.8541226028
 40
0.8615447581
 40
0.8767951934
 40
0.8923522791
 40
0.9080022633
 40
0.9235757723
 40
0.9389032312
 40
0.9464111383
 40
0.9537690533
 40
0.9609295157
 40
0.9678255568
 40
0.9743719027
 40
0.9804597567
 40
0.9859386401
 40
0.988387453
 40
0.9906020893
 40
0.9925499095
 40
0.9941991646
 40
0.9955329599
 40
0.9965634221
 40
0.9973545237
 40
0.9980671813
 40
0.9989084814
 40
1.0
 40
1.0
 40
1.0
 40
1.0
 10
149.5713918157
 20
119.0159291265
 30
0.0
 10
149.4174137765
 20
118.8892126083
 30
0.0
 10
149.1096950348
 20
118.634893076
 30
0.0
 10
148.6555516968
 20
118.2435624482
 30
0.0
 10
148.2163050698
 20
117.8335106906
 30
0.0
 10
147.8049859599
 20
117.3930606585
 30
0.0
 10
147.4406586041
 20
116.9114424196
 30
0.0
 10
147.2070038147
 20
116.4615099822
 30
0.0
 10
147.0985076266
 20
116.0738914761
 30
0.0
 10
147.0641435654
 20
115.7752092253
 30
0.0
 10
147.0809579352
 20
115.4768367304
 30
0.0
 10
147.1481890819
 20
115.1879931916
 30
0.0
 10
147.2578655988
 20
114.915016196
 30
0.0
 10
147.446432376
 20
114.5751618162
 30
0.0
 10
147.7408547153
 20
114.1900170966
 30
0.0
 10
148.14706852
 20
113.7792718104
 30
0.0
 10
148.5830433351
 20
113.4038846157
 30
0.0
 10
149.0350860497
 20
113.0511684107
 30
0.0
 10
149.4952833726
 20
112.7122565164
 30
0.0
 10
149.9571987119
 20
112.3793545953
 30
0.0
 10
150.4146766187
 20
112.0449479262
 30
0.0
 10
150.8598302995
 20
111.7002590316
 30
0.0
 10
151.2124420589
 20
111.3946420591
 30
0.0
 10
151.4736341867
 20
111.1322812598
 30
0.0
 10
151.7129951588
 20
110.8578775091
 30
0.0
 10
151.9136359463
 20
110.5520933366
 30
0.0
 10
152.0362937906
 20
110.2129206896
 30
0.0
 10
152.0786406215
 20
109.945960164
 30
0.0
 10
152.0638617976
 20
109.6739364299
 30
0.0
 10
151.9931486624
 20
109.407631032
 30
0.0
 10
151.8783864825
 20
109.1532265325
 30
0.0
 10
151.6810250374
 20
108.8301323329
 30
0.0
 10
151.3753731771
 20
108.4594184007
 30
0.0
 10
150.9612075158
 20
108.054449926
 30
0.0
 10
150.5206488702
 20
107.6726779359
 30
0.0
 10
150.0658021063
 20
107.3061330033
 30
0.0
 10
149.6046409577
 20
106.9481586796
 30
0.0
 10
149.1438129233
 20
106.5929267613
 30
0.0
 10
148.6900640644
 20
106.234972895
 30
0.0
 10
148.2514906003
 20
105.8689875597
 30
0.0
 10
147.8397458215
 20
105.4903771637
 30
0.0
 10
147.5300238372
 20
105.1552650127
 30
0.0
 10
147.3232384347
 20
104.871050564
 30
0.0
 10
147.1982598135
 20
104.6551469883
 30
0.0
 10
147.1091649862
 20
104.4350964996
 30
0.0
 10
147.0652545101
 20
104.2139311182
 30
0.0
 10
147.0753193512
 20
103.9982087179
 30
0.0
 10
147.13758079
 20
103.7971103346
 30
0.0
 10
147.2423189337
 20
103.6150501394
 30
0.0
 10
147.428023547
 20
103.3947439839
 30
0.0
 10
147.7233727201
 20
103.1635981829
 30
0.0
 10
148.1240692463
 20
102.9371946992
 30
0.0
 10
148.5555967533
 20
102.740939376
 30
0.0
 10
149.0049119475
 20
102.5665508021
 30
0.0
 10
149.4631660396
 20
102.4063781609
 30
0.0
 10
149.9234101496
 20
102.2546459741
 30
0.0
 10
150.3789882835
 20
102.1060907282
 30
0.0
 10
150.7516655855
 20
101.9796129376
 30
0.0
 10
151.0402781898
 20
101.8734156384
 30
0.0
 10
151.2469101412
 20
101.7913379273
 30
0.0
 10
151.4427730725
 20
101.7047958713
 30
0.0
 10
151.6239291457
 20
101.6122880081
 30
0.0
 10
151.7855196243
 20
101.5125280364
 30
0.0
 10
151.9211049609
 20
101.404107132
 30
0.0
 10
152.0082234697
 20
101.3009447151
 30
0.0
 10
152.0517460804
 20
101.2122206182
 30
0.0
 10
152.0697106536
 20
101.1446236023
 30
0.0
 10
152.0730329302
 20
101.0751106608
 30
0.0
 10
152.0577012326
 20
100.9787686774
 30
0.0
 10
152.000814995
 20
100.8569596786
 30
0.0
 10
151.8916524516
 20
100.7209153427
 30
0.0
 10
151.7492327021
 20
100.5896558355
 30
0.0
 10
151.5817591438
 20
100.4632134116
 30
0.0
 10
151.3961356118
 20
100.3410053897
 30
0.0
 10
151.1972932636
 20
100.222833527
 30
0.0
 10
150.9166038764
 20
100.0687142034
 30
0.0
 10
150.5501020082
 20
99.8858555292
 30
0.0
 10
150.0980801783
 20
99.6777941386
 30
0.0
 10
149.6389844019
 20
99.477085672
 30
0.0
 10
149.1799661795
 20
99.2824578555
 30
0.0
 10
148.80048595
 20
99.1236534355
 30
0.0
 10
148.5023339353
 20
98.9984398707
 30
0.0
 10
148.2850942354
 20
98.9064658236
 30
0.0
 10
148.0743640457
 20
98.8159297894
 30
0.0
 10
147.8724083421
 20
98.7270077643
 30
0.0
 10
147.6821155433
 20
98.6401356672
 30
0.0
 10
147.5072638462
 20
98.5560760469
 30
0.0
 10
147.3739236709
 20
98.4870270377
 30
0.0
 10
147.2794955563
 20
98.4332995894
 30
0.0
 10
147.2192215572
 20
98.3961020374
 30
0.0
 10
147.1679045472
 20
98.3608097496
 30
0.0
 10
147.1266352762
 20
98.3277534806
 30
0.0
 10
147.0963158301
 20
98.2970540895
 30
0.0
 10
147.0772016629
 20
98.2688934867
 30
0.0
 10
147.0701750087
 20
98.2414940793
 30
0.0
 10
147.0794103352
 20
98.2165485061
 30
0.0
 10
147.1022227784
 20
98.1983733818
 30
0.0
 10
147.1213651429
 20
98.1902672256
 30
0.0
 10
147.1324243918
 20
98.1864778715
 30
0.0
  0
SPLINE
  5
331
100
AcDbEntity
  8
0
100
AcDbSpline
 62
7
  6
CONTINUOUS
 70
0
 71
3
 72
9
 73
5
 74
0
 42
0.0000001
 43
0.0000001
 44
0.0000000001
 40
0.0
 40
0.0
 40
0.0
 40
0.0
 40
0.2349460196
 40
1.0
 40
1.0
 40
1.0
 40
1.0
 10
147.1324243918
 20
98.1864778715
 30
0.0
 10
147.1347905023
 20
98.1856671447
 30
0.0
 10
147.1449177711
 20
98.1823811558
 30
0.0
 10
147.1552343934
 20
98.1796976178
 30
0.0
 10
147.1631746828
 20
98.1778852909
 30
0.0
  0
SPLINE
  5
332
100
AcDbEntity
  8
0
100
AcDbSpline
 62
7
  6
CONTINUOUS
 70
0
 71
3
 72
101
 73
97
 74
0
 42
0.0000001
 43
0.0000001
 44
0.0000000001
 40
0.0
 40
0.0
 40
0.0
 40
0.0
 40
0.0186513046
 40
0.0372728414
 40
0.0558654999
 40
0.0744294395
 40
0.0837041568
 40
0.0929745415
 40
0.1114773828
 40
0.1207563688
 40
0.130053527
 40
0.1393775158
 40
0.1487305253
 40
0.1581073366
 40
0.1674997267
 40
0.1863000638
 40
0.2051219718
 40
0.2239501817
 40
0.2427769032
 40
0.2615962652
 40
0.2804001906
 40
0.299175035
 40
0.3178940685
 40
0.3365057691
 40
0.3549054303
 40
0.3728692309
 40
0.3816104813
 40
0.3901446338
 40
0.3984818964
 40
0.4066769515
 40
0.4148024296
 40
0.4229113259
 40
0.4391683913
 40
0.455556769
 40
0.4720402012
 40
0.4885670787
 40
0.5050872741
 40
0.5215439022
 40
0.5378680504
 40
0.5539655791
 40
0.5697016242
 40
0.5773745839
 40
0.5848685353
 40
0.592142958
 40
0.5991700961
 40
0.6059583985
 40
0.612597663
 40
0.6192801034
 40
0.6262117933
 40
0.6334803412
 40
0.6410722359
 40
0.6569927262
 40
0.6735402534
 40
0.6904091217
 40
0.7074306813
 40
0.7244841352
 40
0.741460569
 40
0.7582432059
 40
0.7746817546
 40
0.7905440976
 40
0.7981387978
 40
0.8054059884
 40
0.8122436515
 40
0.8185321395
 40
0.8241444516
 40
0.8290151
 40
0.8333091248
 40
0.8374517954
 40
0.8418662941
 40
0.8467635045
 40
0.8521690356
 40
0.8580119429
 40
0.8642051363
 40
0.8706702375
 40
0.8841968251
 40
0.8982479624
 40
0.9125679499
 40
0.9269591476
 40
0.9412356478
 40
0.9482661548
 40
0.9551806857
 40
0.9619358029
 40
0.9684696715
 40
0.9747031398
 40
0.9805346396
 40
0.9858272051
 40
0.9882154961
 40
0.9903941321
 40
0.9923307348
 40
0.9939884121
 40
0.9953410685
 40
0.9963909456
 40
0.9971986331
 40
0.9979383888
 40
0.9988312189
 40
1.0
 40
1.0
 40
1.0
 40
1.0
 10
148.4023138773
 20
119.0159291267
 30
0.0
 10
148.555684821
 20
119.1434606153
 30
0.0
 10
148.8626253908
 20
119.3977822607
 30
0.0
 10
149.3178542651
 20
119.7847889425
 30
0.0
 10
149.7597817771
 20
120.1856883235
 30
0.0
 10
150.1067380745
 20
120.5417808334
 30
0.0
 10
150.3606199841
 20
120.8472450256
 30
0.0
 10
150.5925444592
 20
121.1684437386
 30
0.0
 10
150.7811330347
 20
121.5223254008
 30
0.0
 10
150.8840829962
 20
121.9070846078
 30
0.0
 10
150.9102398223
 20
122.2059746647
 30
0.0
 10
150.881213431
 20
122.5053996755
 30
0.0
 10
150.8005073512
 20
122.7957581027
 30
0.0
 10
150.6775274152
 20
123.0711545994
 30
0.0
 10
150.4731750817
 20
123.417798638
 30
0.0
 10
150.163681639
 20
123.8163031923
 30
0.0
 10
149.7464519581
 20
124.2532485702
 30
0.0
 10
149.304021857
 20
124.6647348921
 30
0.0
 10
148.8487849044
 20
125.0616924208
 30
0.0
 10
148.388088893
 20
125.4518512124
 30
0.0
 10
147.9282352238
 20
125.8421412794
 30
0.0
 10
147.4756779789
 20
126.2393384739
 30
0.0
 10
147.0390990503
 20
126.6512409229
 30
0.0
 10
146.6307928668
 20
127.0862495815
 30
0.0
 10
146.2698977902
 20
127.551742453
 30
0.0
 10
146.0382102908
 20
127.9798737689
 30
0.0
 10
145.9297440593
 20
128.3422478695
 30
0.0
 10
145.8948019657
 20
128.615381089
 30
0.0
 10
145.9113414713
 20
128.8846631268
 30
0.0
 10
145.9783304278
 20
129.1412842635
 30
0.0
 10
146.0868265235
 20
129.3800992421
 30
0.0
 10
146.2734536987
 20
129.6742288759
 30
0.0
 10
146.5668411098
 20
130.0002702269
 30
0.0
 10
146.9706587321
 20
130.3377174338
 30
0.0
 10
147.4039206166
 20
130.6407428526
 30
0.0
 10
147.8538300791
 20
130.9205956628
 30
0.0
 10
148.3122993684
 20
131.1854326138
 30
0.0
 10
148.7725691575
 20
131.4426057834
 30
0.0
 10
149.2282608223
 20
131.6987538163
 30
0.0
 10
149.6713419596
 20
131.9613911218
 30
0.0
 10
150.0243464211
 20
132.1942789247
 30
0.0
 10
150.2869799214
 20
132.3951648016
 30
0.0
 10
150.4677307644
 20
132.5534285538
 30
0.0
 10
150.6282245183
 20
132.7230936166
 30
0.0
 10
150.7616138605
 20
132.9059845605
 30
0.0
 10
150.8587248071
 20
133.103594416
 30
0.0
 10
150.9082554151
 20
133.3152704576
 30
0.0
 10
150.8993595744
 20
133.5343231436
 30
0.0
 10
150.8346891018
 20
133.7500069103
 30
0.0
 10
150.7261591202
 20
133.9573913205
 30
0.0
 10
150.5338231134
 20
134.2254976594
 30
0.0
 10
150.2323232537
 20
134.5326224392
 30
0.0
 10
149.8252052075
 20
134.8686940185
 30
0.0
 10
149.3890572889
 20
135.1865104134
 30
0.0
 10
148.9371118669
 20
135.4908630339
 30
0.0
 10
148.4780245351
 20
135.7864027764
 30
0.0
 10
148.0188767365
 20
136.0770541501
 30
0.0
 10
147.5664011912
 20
136.3659765738
 30
0.0
 10
147.1286530862
 20
136.6557084677
 30
0.0
 10
146.7803721885
 20
136.9024870651
 30
0.0
 10
146.5215444493
 20
137.1050290702
 30
0.0
 10
146.3453373516
 20
137.2562104423
 30
0.0
 10
146.1889389516
 20
137.4084964598
 30
0.0
 10
146.058171423
 20
137.5608532652
 30
0.0
 10
145.9600429525
 20
137.7119099211
 30
0.0
 10
145.9032187342
 20
137.8614383362
 30
0.0
 10
145.8989364841
 20
138.0071936522
 30
0.0
 10
145.9507578177
 20
138.1381763036
 30
0.0
 10
146.046731427
 20
138.2479753289
 30
0.0
 10
146.1756393649
 20
138.3398468079
 30
0.0
 10
146.3304947067
 20
138.4172434143
 30
0.0
 10
146.505237861
 20
138.4831118189
 30
0.0
 10
146.6950265132
 20
138.5394757994
 30
0.0
 10
146.9673308055
 20
138.6052010493
 30
0.0
 10
147.3259591812
 20
138.6695149848
 30
0.0
 10
147.7703429573
 20
138.7275279822
 30
0.0
 10
148.2254632774
 20
138.7728628863
 30
0.0
 10
148.6837515855
 20
138.8094624913
 30
0.0
 10
149.0646376374
 20
138.8355489024
 30
0.0
 10
149.3658047878
 20
138.8553184428
 30
0.0
 10
149.5867022887
 20
138.8698979097
 30
0.0
 10
149.8022592484
 20
138.884743214
 30
0.0
 10
150.0104505124
 20
138.9004817969
 30
0.0
 10
150.2086132323
 20
138.9177488829
 30
0.0
 10
150.3932295136
 20
138.9372243462
 30
0.0
 10
150.5364996974
 20
138.9564114671
 30
0.0
 10
150.6404283786
 20
138.9742963262
 30
0.0
 10
150.708554672
 20
138.9883942253
 30
0.0
 10
150.7683893597
 20
139.0037364754
 30
0.0
 10
150.8186570135
 20
139.020433722
 30
0.0
 10
150.8581704673
 20
139.0388101798
 30
0.0
 10
150.8863887368
 20
139.058805402
 30
0.0
 10
150.902651915
 20
139.0828876831
 30
0.0
 10
150.9016622282
 20
139.1105637647
 30
0.0
 10
150.8849639573
 20
139.1364247966
 30
0.0
 10
150.868608217
 20
139.1513244401
 30
0.0
 10
150.8588164785
 20
139.1590936395
 30
0.0
  0
SPLINE
  5
333
100
AcDbEntity
  8
0
100
AcDbSpline
 62
7
  6
CONTINUOUS
 70
0
 71
3
 72
9
 73
5
 74
0
 42
0.0000001
 43
0.0000001
 44
0.0000000001
 40
0.0
 40
0.0
 40
0.0
 40
0.0
 40
0.2375919139
 40
1.0
 40
1.0
 40
1.0
 40
1.0
 10
150.8588164785
 20
139.1590936395
 30
0.0
 10
150.8571240216
 20
139.1604365099
 30
0.0
 10
150.8499292182
 20
139.1659984163
 30
0.0
 10
150.84247637
 20
139.1712221534
 30
0.0
 10
150.83669984
 20
139.1750555891
 30
0.0
  0
SPLINE
  5
334
100
AcDbEntity
  8
0
100
AcDbSpline
 62
7
  6
CONTINUOUS
 70
0
 71
3
 72
27
 73
23
 74
0
 42
0.0000001
 43
0.0000001
 44
0.0000000001
 40
0.0
 40
0.0
 40
0.0
 40
0.0
 40
0.1758185469
 40
0.2625985534
 40
0.3481160913
 40
0.4318931895
 40
0.5133065482
 40
0.5915520044
 40
0.6656294775
 40
0.7342450221
 40
0.7955844065
 40
0.8470891775
 40
0.8682078585
 40
0.8858179644
 40
0.8998052599
 40
0.9105191244
 40
0.9192700407
 40
0.9286081324
 40
0.9407525626
 40
0.956635398
 40
0.9764572149
 40
1.0
 40
1.0
 40
1.0
 40
1.0
 10
148.402313877
 20
98.2277822534
 30
0.0
 10
148.2428300696
 20
98.1985502373
 30
0.0
 10
148.0042903631
 20
98.1566989277
 30
0.0
 10
147.6874130025
 20
98.1051853931
 30
0.0
 10
147.4539786747
 20
98.0694282983
 30
0.0
 10
147.2250857897
 20
98.036784942
 30
0.0
 10
147.0024607078
 20
98.0077999253
 30
0.0
 10
146.7883072965
 20
97.9831786789
 30
0.0
 10
146.5854665869
 20
97.9638199256
 30
0.0
 10
146.3977172935
 20
97.9507700777
 30
0.0
 10
146.2304410891
 20
97.9455087207
 30
0.0
 10
146.1067339936
 20
97.9487443201
 30
0.0
 10
146.0240626159
 20
97.9586936041
 30
0.0
 10
145.9763849204
 20
97.9688715948
 30
0.0
 10
145.9397292028
 20
97.9826150322
 30
0.0
 10
145.9136991957
 20
98.0004743027
 30
0.0
 10
145.9011948963
 20
98.0257032793
 30
0.0
 10
145.9065254015
 20
98.054491245
 30
0.0
 10
145.9253605289
 20
98.0837419232
 30
0.0
 10
145.9560831514
 20
98.1156498201
 30
0.0
 10
145.9986153946
 20
98.1500766189
 30
0.0
 10
146.0315224302
 20
98.1728480189
 30
0.0
 10
146.0496666734
 20
98.1847713329
 30
0.0
  0
SPLINE
  5
335
100
AcDbEntity
  8
0
100
AcDbSpline
 62
7
  6
CONTINUOUS
 70
0
 71
3
 72
81
 73
77
 74
0
 42
0.0000001
 43
0.0000001
 44
0.0000000001
 40
0.0
 40
0.0
 40
0.0
 40
0.0
 40
0.0132126592
 40
0.0193568495
 40
0.0250747107
 40
0.0302908261
 40
0.0349833054
 40
0.0392416871
 40
0.0433174013
 40
0.0475506996
 40
0.0521768834
 40
0.0572584991
 40
0.06276532
 40
0.07480647
 40
0.0878485001
 40
0.1015243621
 40
0.1156005528
 40
0.1299279962
 40
0.1443978881
 40
0.1589202071
 40
0.17341381
 40
0.1877947697
 40
0.2019711833
 40
0.2158383671
 40
0.2292608657
 40
0.2421111644
 40
0.2483505528
 40
0.2545208896
 40
0.2607159583
 40
0.2670616
 40
0.2736780814
 40
0.2806234784
 40
0.2954401366
 40
0.3112477036
 40
0.3276960042
 40
0.3445364021
 40
0.361627396
 40
0.3788832581
 40
0.4136751838
 40
0.4486005491
 40
0.4660396506
 40
0.4834149106
 40
0.5006655584
 40
0.5176949743
 40
0.5260967539
 40
0.5343997686
 40
0.5425931538
 40
0.5506828027
 40
0.5587057433
 40
0.5667081219
 40
0.5827698229
 40
0.599067935
 40
0.6155865711
 40
0.6322729372
 40
0.6490858713
 40
0.6659946639
 40
0.6829771275
 40
0.7171065037
 40
0.7342373502
 40
0.7514076297
 40
0.7686196844
 40
0.7858821943
 40
0.8032180038
 40
0.8206677551
 40
0.8294711156
 40
0.8383284843
 40
0.8472403012
 40
0.8561998049
 40
0.8651952973
 40
0.8742117119
 40
0.8922522965
 40
0.9102871407
 40
0.9282933637
 40
0.9462659491
 40
0.9642063959
 40
1.0
 40
1.0
 40
1.0
 40
1.0
 10
150.1877665316
 20
100.1208359487
 30
0.0
 10
150.2904358072
 20
100.1842950714
 30
0.0
 10
150.4381172499
 20
100.2822277776
 30
0.0
 10
150.6163797176
 20
100.4263736446
 30
0.0
 10
150.7286431864
 20
100.5351240658
 30
0.0
 10
150.8181231895
 20
100.6470240712
 30
0.0
 10
150.8798497359
 20
100.7619038606
 30
0.0
 10
150.9077942478
 20
100.879450439
 30
0.0
 10
150.8957235069
 20
100.9959670949
 30
0.0
 10
150.8445513551
 20
101.1044361164
 30
0.0
 10
150.7629944303
 20
101.2033360236
 30
0.0
 10
150.6577548527
 20
101.2947662131
 30
0.0
 10
150.4869737567
 20
101.4117808882
 30
0.0
 10
150.2384531267
 20
101.5412591842
 30
0.0
 10
149.9119234105
 20
101.6784344852
 30
0.0
 10
149.5622241352
 20
101.8074486278
 30
0.0
 10
149.1986146982
 20
101.9321678976
 30
0.0
 10
148.8269226479
 20
102.0556074258
 30
0.0
 10
148.451453291
 20
102.1805985175
 30
0.0
 10
148.0758761669
 20
102.3100468259
 30
0.0
 10
147.7037786705
 20
102.446926227
 30
0.0
 10
147.3392500336
 20
102.5947953008
 30
0.0
 10
146.9874774359
 20
102.7579211567
 30
0.0
 10
146.6554899633
 20
102.9413069234
 30
0.0
 10
146.3542564905
 20
103.1519364484
 30
0.0
 10
146.141811376
 20
103.3634151481
 30
0.0
 10
146.0138926716
 20
103.5564538993
 30
0.0
 10
145.9439040326
 20
103.7122997488
 30
0.0
 10
145.9040529308
 20
103.8796681694
 30
0.0
 10
145.8987182975
 20
104.0557935962
 30
0.0
 10
145.9286088916
 20
104.2361783312
 30
0.0
 10
146.0119807476
 20
104.4825665265
 30
0.0
 10
146.183737542
 20
104.782891052
 30
0.0
 10
146.4527865115
 20
105.1193474244
 30
0.0
 10
146.7657362026
 20
105.4412664908
 30
0.0
 10
147.105508382
 20
105.751892465
 30
0.0
 10
147.4625629097
 20
106.0539375288
 30
0.0
 10
147.9546724087
 20
106.4498906239
 30
0.0
 10
148.5832733823
 20
106.9357473335
 30
0.0
 10
149.2070967855
 20
107.4307688316
 30
0.0
 10
149.6890595104
 20
107.847588759
 30
0.0
 10
150.0349123273
 20
108.1744407792
 30
0.0
 10
150.3551025527
 20
108.5217025667
 30
0.0
 10
150.5871660713
 20
108.8368454079
 30
0.0
 10
150.7368229998
 20
109.1067414622
 30
0.0
 10
150.8254069804
 20
109.3168221613
 30
0.0
 10
150.8843907996
 20
109.5343819169
 30
0.0
 10
150.9078287471
 20
109.7562320559
 30
0.0
 10
150.8932687189
 20
109.977106372
 30
0.0
 10
150.8266947499
 20
110.2637096146
 30
0.0
 10
150.6656986898
 20
110.6001906665
 30
0.0
 10
150.3946329713
 20
110.9570601711
 30
0.0
 10
150.0785386088
 20
111.2813998683
 30
0.0
 10
149.7356756405
 20
111.5838089616
 30
0.0
 10
149.3758083356
 20
111.8712754782
 30
0.0
 10
149.0057586555
 20
112.1498987595
 30
0.0
 10
148.5044920875
 20
112.5170789612
 30
0.0
 10
148.0010896002
 20
112.8849191053
 30
0.0
 10
147.5088967224
 20
113.2704391798
 30
0.0
 10
147.1489342859
 20
113.5737580148
 30
0.0
 10
146.8047033118
 20
113.8968458464
 30
0.0
 10
146.4863933556
 20
114.2481178922
 30
0.0
 10
146.2085146068
 20
114.6354761361
 30
0.0
 10
146.0305246067
 20
114.9949482019
 30
0.0
 10
145.9400194
 20
115.3034980888
 30
0.0
 10
145.9032139094
 20
115.5442204833
 30
0.0
 10
145.9000089693
 20
115.789145538
 30
0.0
 10
145.9301830572
 20
116.0334365763
 30
0.0
 10
145.9913844688
 20
116.2727361329
 30
0.0
 10
146.1093559828
 20
116.580871115
 30
0.0
 10
146.3122153943
 20
116.9417392412
 30
0.0
 10
146.6084210193
 20
117.3380905135
 30
0.0
 10
146.9377338671
 20
117.7061657303
 30
0.0
 10
147.2887048353
 20
118.0520475598
 30
0.0
 10
147.774364086
 20
118.4917930767
 30
0.0
 10
148.1509003419
 20
118.8068729545
 30
0.0
 10
148.4023138773
 20
119.0159291267
 30
0.0
  0
SPLINE
  5
336
100
AcDbEntity
  8
0
100
AcDbSpline
 62
7
  6
CONTINUOUS
 70
0
 71
3
 72
13
 73
9
 74
0
 42
0.0000001
 43
0.0000001
 44
0.0000000001
 40
0.0
 40
0.0
 40
0.0
 40
0.0
 40
0.1250074242
 40
0.2500787653
 40
0.3752246482
 40
0.5004113155
 40
0.7500778925
 40
1.0
 40
1.0
 40
1.0
 40
1.0
 10
106.7854220272
 20
97.831840168
 30
0.0
 10
106.7474319881
 20
97.831840168
 30
0.0
 10
106.670973503
 20
97.8200354993
 30
0.0
 10
106.5667340075
 20
97.7706503678
 30
0.0
 10
106.4779675404
 20
97.6973957741
 30
0.0
 10
106.3827137314
 20
97.5779185838
 30
0.0
 10
106.3054519622
 20
97.4008389482
 30
0.0
 10
106.2854220272
 20
97.2483322016
 30
0.0
 10
106.2854220272
 20
97.1723803077
 30
0.0
  0
SPLINE
  5
337
100
AcDbEntity
  8
BEZUGSACHSEN
100
AcDbSpline
 62
7
  6
CONTINUOUS
 70
0
 71
3
 72
14
 73
10
 74
0
 42
0.0000001
 43
0.0000001
 44
0.0000000001
 40
0.0
 40
0.0
 40
0.0
 40
0.0
 40
0.154674414
 40
0.2728207722
 40
0.3648308161
 40
0.4502518846
 40
0.5493279305
 40
0.6726679279
 40
1.0
 40
1.0
 40
1.0
 40
1.0
 10
106.1604220272
 20
146.3742355751
 30
0.0
 10
106.1604220272
 20
146.3837564714
 30
0.0
 10
106.1614059773
 20
146.4006011107
 30
0.0
 10
106.1673481506
 20
146.4225226527
 30
0.0
 10
106.1787497942
 20
146.4376655001
 30
0.0
 10
106.1955030151
 20
146.4438250618
 30
0.0
 10
106.2147308212
 20
146.4416054985
 30
0.0
 10
106.2464267396
 20
146.4293153236
 30
0.0
 10
106.2694392732
 20
146.4132142951
 30
0.0
 10
106.2854220272
 20
146.4009454997
 30
0.0
  0
SPLINE
  5
338
100
AcDbEntity
  8
0
100
AcDbSpline
 62
7
  6
CONTINUOUS
 70
0
 71
3
 72
13
 73
9
 74
0
 42
0.0000001
 43
0.0000001
 44
0.0000000001
 40
0.0
 40
0.0
 40
0.0
 40
0.0
 40
0.1251104678
 40
0.2502328326
 40
0.3753896065
 40
0.5005831397
 40
0.7501613149
 40
1.0
 40
1.0
 40
1.0
 40
1.0
 10
101.2354220272
 20
93.1818310195
 30
0.0
 10
101.1620210129
 20
93.1818310195
 30
0.0
 10
101.0144713166
 20
93.2020901102
 30
0.0
 10
100.8095972346
 20
93.2888096334
 30
0.0
 10
100.6312993819
 20
93.4214171161
 30
0.0
 10
100.4367090734
 20
93.6432327741
 30
0.0
 10
100.2764350825
 20
93.9810038533
 30
0.0
 10
100.2354220272
 20
94.275640274
 30
0.0
 10
100.2354220272
 20
94.4222180401
 30
0.0
  0
SPLINE
  5
339
100
AcDbEntity
  8
BEZUGSACHSEN
100
AcDbSpline
 62
7
  6
CONTINUOUS
 70
0
 71
3
 72
14
 73
10
 74
0
 42
0.0000001
 43
0.0000001
 44
0.0000000001
 40
0.0
 40
0.0
 40
0.0
 40
0.0
 40
0.3273623905
 40
0.4506901829
 40
0.5497478581
 40
0.6351734243
 40
0.7271839781
 40
0.8452763252
 40
1.0
 40
1.0
 40
1.0
 40
1.0
 10
110.0354220272
 20
146.4009454997
 30
0.0
 10
110.0514065251
 20
146.4132156338
 30
0.0
 10
110.0744215774
 20
146.4293110844
 30
0.0
 10
110.1061169877
 20
146.4416129433
 30
0.0
 10
110.1253422001
 20
146.4438179141
 30
0.0
 10
110.1421014597
 20
146.4376733284
 30
0.0
 10
110.1534895665
 20
146.4225210668
 30
0.0
 10
110.1594459156
 20
146.4006067698
 30
0.0
 10
110.1604220272
 20
146.3837596606
 30
0.0
 10
110.1604220272
 20
146.3742355751
 30
0.0
  0
SPLINE
  5
33A
100
AcDbEntity
  8
0
100
AcDbSpline
 62
7
  6
CONTINUOUS
 70
0
 71
3
 72
13
 73
9
 74
0
 42
0.0000001
 43
0.0000001
 44
0.0000000001
 40
0.0
 40
0.0
 40
0.0
 40
0.0
 40
0.2499226552
 40
0.4995885843
 40
0.6247750445
 40
0.7499201044
 40
0.8749914886
 40
1.0
 40
1.0
 40
1.0
 40
1.0
 10
110.0354220272
 20
97.1723803077
 30
0.0
 10
110.0354220272
 20
97.2483323707
 30
0.0
 10
110.0153920571
 20
97.400839089
 30
0.0
 10
109.9381303159
 20
97.5779186506
 30
0.0
 10
109.8428767474
 20
97.6973953607
 30
0.0
 10
109.7541107612
 20
97.7706500418
 30
0.0
 10
109.6498712325
 20
97.8200353708
 30
0.0
 10
109.573412398
 20
97.831840168
 30
0.0
 10
109.5354220272
 20
97.831840168
 30
0.0
  0
SPLINE
  5
33B
100
AcDbEntity
  8
BEZUGSACHSEN
100
AcDbSpline
 62
7
  6
CONTINUOUS
 70
0
 71
3
 72
9
 73
5
 74
0
 42
0.0000001
 43
0.0000001
 44
0.0000000001
 40
0.0
 40
0.0
 40
0.0
 40
0.0
 40
0.3082351256
 40
1.0
 40
1.0
 40
1.0
 40
1.0
 10
106.2854220272
 20
146.1447147107
 30
0.0
 10
106.2854220272
 20
146.1304238303
 30
0.0
 10
106.2875794097
 20
146.0841693401
 30
0.0
 10
106.2996511899
 20
146.0378411256
 30
0.0
 10
106.3148400723
 20
146.0095930249
 30
0.0
  0
SPLINE
  5
33C
100
AcDbEntity
  8
BEZUGSACHSEN
100
AcDbSpline
 62
7
  6
CONTINUOUS
 70
0
 71
3
 72
13
 73
9
 74
0
 42
0.0000001
 43
0.0000001
 44
0.0000000001
 40
0.0
 40
0.0
 40
0.0
 40
0.0
 40
0.1126360778
 40
0.2169394541
 40
0.3229652854
 40
0.4357015345
 40
0.6915364492
 40
1.0
 40
1.0
 40
1.0
 40
1.0
 10
106.3148400723
 20
146.0095930249
 30
0.0
 10
106.3240069236
 20
145.9925446253
 30
0.0
 10
106.346628872
 20
145.9620983287
 30
0.0
 10
106.3910515899
 20
145.9279838757
 30
0.0
 10
106.441565147
 20
145.9041530093
 30
0.0
 10
106.5204345067
 20
145.8822289512
 30
0.0
 10
106.6378931913
 20
145.8756612487
 30
0.0
 10
106.7343464216
 20
145.8920727285
 30
0.0
 10
106.7854220272
 20
145.9062614588
 30
0.0
  0
SPLINE
  5
33D
100
AcDbEntity
  8
BEZUGSACHSEN
100
AcDbSpline
 62
7
  6
CONTINUOUS
 70
0
 71
3
 72
13
 73
9
 74
0
 42
0.0000001
 43
0.0000001
 44
0.0000000001
 40
0.0
 40
0.0
 40
0.0
 40
0.0
 40
0.3084625984
 40
0.5642956005
 40
0.6770307462
 40
0.7830558686
 40
0.8873597967
 40
1.0
 40
1.0
 40
1.0
 40
1.0
 10
109.5354220272
 20
145.9062614588
 30
0.0
 10
109.586499071
 20
145.8920723289
 30
0.0
 10
109.6829549188
 20
145.8756607061
 30
0.0
 10
109.8004166324
 20
145.8822297453
 30
0.0
 10
109.8792874064
 20
145.9041560049
 30
0.0
 10
109.9298016106
 20
145.9279891913
 30
0.0
 10
109.9742246228
 20
145.9621074148
 30
0.0
 10
109.9968455624
 20
145.992557072
 30
0.0
 10
110.0060116883
 20
146.0096073531
 30
0.0
  0
SPLINE
  5
33E
100
AcDbEntity
  8
BEZUGSACHSEN
100
AcDbSpline
 62
7
  6
CONTINUOUS
 70
0
 71
3
 72
9
 73
5
 74
0
 42
0.0000001
 43
0.0000001
 44
0.0000000001
 40
0.0
 40
0.0
 40
0.0
 40
0.0
 40
0.2006262516
 40
1.0
 40
1.0
 40
1.0
 40
1.0
 10
110.0060116883
 20
146.0096073531
 30
0.0
 10
110.0104150977
 20
146.0177983128
 30
0.0
 10
110.0295927496
 20
146.060144013
 30
0.0
 10
110.0354220272
 20
146.1076616091
 30
0.0
 10
110.0354220272
 20
146.1447147107
 30
0.0
  0
SPLINE
  5
33F
100
AcDbEntity
  8
0
100
AcDbSpline
 62
7
  6
CONTINUOUS
 70
0
 71
3
 72
83
 73
79
 74
0
 42
0.0000001
 43
0.0000001
 44
0.0000000001
 40
0.0
 40
0.0
 40
0.0
 40
0.0
 40
0.0122149545
 40
0.0179747137
 40
0.0234333926
 40
0.0285256819
 40
0.0332099384
 40
0.0374977317
 40
0.041495795
 40
0.0454433628
 40
0.0496582358
 40
0.0543901448
 40
0.0597149366
 40
0.0655894706
 40
0.071928737
 40
0.0856698894
 40
0.1003947793
 40
0.1157289935
 40
0.1314533686
 40
0.1474329164
 40
0.1635717441
 40
0.1797924343
 40
0.1960258603
 40
0.2121998251
 40
0.2282316094
 40
0.2440074929
 40
0.2593345072
 40
0.2739134471
 40
0.2808384368
 40
0.2874911278
 40
0.293910709
 40
0.3002152883
 40
0.3065553444
 40
0.3130402413
 40
0.3197179356
 40
0.3265950338
 40
0.3408620012
 40
0.3556535805
 40
0.3707965868
 40
0.3861801186
 40
0.4017254474
 40
0.4173735385
 40
0.4488017646
 40
0.4645115117
 40
0.4801742871
 40
0.4957563269
 40
0.5112330674
 40
0.5266342209
 40
0.5343630612
 40
0.5421507543
 40
0.5500467041
 40
0.5580908064
 40
0.5746366442
 40
0.5917436704
 40
0.609200031
 40
0.6268455556
 40
0.6445971912
 40
0.6624100915
 40
0.6802587314
 40
0.7160098269
 40
0.7338984399
 40
0.7517902331
 40
0.7696818144
 40
0.7875678395
 40
0.8054383452
 40
0.8232733071
 40
0.8321788589
 40
0.8410655015
 40
0.8499288594
 40
0.8587697043
 40
0.8675938759
 40
0.8764072275
 40
0.8940008617
 40
0.9116125267
 40
0.9292456092
 40
0.9469006159
 40
0.9645776574
 40
1.0
 40
1.0
 40
1.0
 40
1.0
 10
148.0800944382
 20
138.3907318509
 30
0.0
 10
147.9693692382
 20
138.3670790509
 30
0.0
 10
147.8072786176
 20
138.3274274521
 30
0.0
 10
147.6008224084
 20
138.2595763084
 30
0.0
 10
147.4605803399
 20
138.2026723646
 30
0.0
 10
147.3350842016
 20
138.1372821336
 30
0.0
 10
147.2280849297
 20
138.061890398
 30
0.0
 10
147.143686326
 20
137.9749367791
 30
0.0
 10
147.0873003799
 20
137.8746534681
 30
0.0
 10
147.0658236782
 20
137.7618684911
 30
0.0
 10
147.0823565121
 20
137.6417093501
 30
0.0
 10
147.1337006181
 20
137.5187104556
 30
0.0
 10
147.2135372918
 20
137.393918533
 30
0.0
 10
147.3169579722
 20
137.2681428551
 30
0.0
 10
147.4849374016
 20
137.0956421168
 30
0.0
 10
147.7307971547
 20
136.8858901049
 30
0.0
 10
148.0566884735
 20
136.6435874416
 30
0.0
 10
148.4068359532
 20
136.4036777094
 30
0.0
 10
148.7720619224
 20
136.1655046719
 30
0.0
 10
149.1465461593
 20
135.9279580082
 30
0.0
 10
149.5259193631
 20
135.6895499255
 30
0.0
 10
149.9063717676
 20
135.448432896
 30
0.0
 10
150.2841852911
 20
135.2025773145
 30
0.0
 10
150.6550891405
 20
134.9494373114
 30
0.0
 10
151.0137263216
 20
134.6862236835
 30
0.0
 10
151.3524865118
 20
134.4097816644
 30
0.0
 10
151.6579750539
 20
134.1157898331
 30
0.0
 10
151.870490906
 20
133.8456509762
 30
0.0
 10
151.9929510462
 20
133.6142889934
 30
0.0
 10
152.0535910376
 20
133.4381155163
 30
0.0
 10
152.0777884528
 20
133.2587330711
 30
0.0
 10
152.0614867347
 20
133.0812642132
 30
0.0
 10
152.0075687478
 20
132.9111130169
 30
0.0
 10
151.9226250715
 20
132.7506688806
 30
0.0
 10
151.8130459778
 20
132.6000812911
 30
0.0
 10
151.638850849
 20
132.4093787661
 30
0.0
 10
151.3838762713
 20
132.1933246068
 30
0.0
 10
151.0476690674
 20
131.958790854
 30
0.0
 10
150.6904846508
 20
131.7374420755
 30
0.0
 10
150.3203682909
 20
131.5243463854
 30
0.0
 10
149.9428638358
 20
131.3148388836
 30
0.0
 10
149.4347487771
 20
131.034287634
 30
0.0
 10
148.9289735008
 20
130.7458958783
 30
0.0
 10
148.4388034242
 20
130.4315661929
 30
0.0
 10
148.0848343259
 20
130.1778838116
 30
0.0
 10
147.7525170222
 20
129.8991457979
 30
0.0
 10
147.4561365602
 20
129.5850325926
 30
0.0
 10
147.2562629118
 20
129.2847218901
 30
0.0
 10
147.1433165592
 20
129.0204606651
 30
0.0
 10
147.0872832268
 20
128.8098920287
 30
0.0
 10
147.0658749466
 20
128.5899878053
 30
0.0
 10
147.0849880621
 20
128.2883274218
 30
0.0
 10
147.195376501
 20
127.9128617101
 30
0.0
 10
147.4246042885
 20
127.4957630693
 30
0.0
 10
147.7155224566
 20
127.1077823502
 30
0.0
 10
148.0432578116
 20
126.7431059514
 30
0.0
 10
148.3945529148
 20
126.3966159629
 30
0.0
 10
148.7610398134
 20
126.0636097017
 30
0.0
 10
149.2620921631
 20
125.6309887978
 30
0.0
 10
149.7717563379
 20
125.2074776977
 30
0.0
 10
150.276268966
 20
124.7772282603
 30
0.0
 10
150.6483849007
 20
124.4469397373
 30
0.0
 10
151.0090846859
 20
124.1041339255
 30
0.0
 10
151.3500242767
 20
123.7415310249
 30
0.0
 10
151.6578934129
 20
123.3507282168
 30
0.0
 10
151.8697970378
 20
122.9929821119
 30
0.0
 10
151.9917017157
 20
122.6852545362
 30
0.0
 10
152.0518877628
 20
122.4447674749
 30
0.0
 10
152.0761085538
 20
122.1985269009
 30
0.0
 10
152.0622748744
 20
121.9520469995
 30
0.0
 10
152.0119552728
 20
121.7109552796
 30
0.0
 10
151.9021214781
 20
121.4024884531
 30
0.0
 10
151.6986992109
 20
121.0455452911
 30
0.0
 10
151.3963723173
 20
120.6591558562
 30
0.0
 10
151.0593997374
 20
120.3022696105
 30
0.0
 10
150.7010789762
 20
119.9664106911
 30
0.0
 10
150.2060326024
 20
119.5360990553
 30
0.0
 10
149.8249178212
 20
119.2245688315
 30
0.0
 10
149.5713918157
 20
119.0159291265
 30
0.0
  0
SPLINE
  5
340
100
AcDbEntity
  8
BEZUGSACHSEN
100
AcDbSpline
 62
7
  6
CONTINUOUS
 70
0
 71
3
 72
15
 73
11
 74
0
 42
0.0000001
 43
0.0000001
 44
0.0000000001
 40
0.0
 40
0.0
 40
0.0
 40
0.0
 40
0.1101581966
 40
0.2327743878
 40
0.3641367279
 40
0.5000000002
 40
0.6358632716
 40
0.7672256084
 40
0.8898418014
 40
1.0
 40
1.0
 40
1.0
 40
1.0
 10
106.7854220272
 20
145.9062614588
 30
0.0
 10
106.8835920216
 20
145.9335329432
 30
0.0
 10
107.0942231625
 20
145.9797855879
 30
0.0
 10
107.4279117518
 20
146.0269908554
 30
0.0
 10
107.7875546189
 20
146.0555740037
 30
0.0
 10
108.1604220269
 20
146.0651418712
 30
0.0
 10
108.5332894318
 20
146.0555740039
 30
0.0
 10
108.8929322967
 20
146.0269908558
 30
0.0
 10
109.2266208865
 20
145.9797855891
 30
0.0
 10
109.437252031
 20
145.9335329437
 30
0.0
 10
109.5354220272
 20
145.9062614588
 30
0.0
  0
SPLINE
  5
341
100
AcDbEntity
  8
0
100
AcDbSpline
 62
7
  6
CONTINUOUS
 70
0
 71
3
 72
28
 73
24
 74
0
 42
0.0000001
 43
0.0000001
 44
0.0000000001
 40
0.0
 40
0.0
 40
0.0
 40
0.0
 40
0.1708295467
 40
0.2557607553
 40
0.3398906718
 40
0.4227685444
 40
0.5038102775
 40
0.582272342
 40
0.6572489451
 40
0.7274492776
 40
0.7909623358
 40
0.8193953837
 40
0.8450062989
 40
0.8673430882
 40
0.8860312752
 40
0.900860089
 40
0.9120633527
 40
0.920872105
 40
0.930012
 40
0.9419632999
 40
0.957644211
 40
0.9771111491
 40
1.0
 40
1.0
 40
1.0
 40
1.0
 10
149.5713918157
 20
139.5897940252
 30
0.0
 10
149.7315289526
 20
139.5604422594
 30
0.0
 10
149.9709553317
 20
139.5146856182
 30
0.0
 10
150.2883745865
 20
139.450081209
 30
0.0
 10
150.523235869
 20
139.4001621429
 30
0.0
 10
150.7539865799
 20
139.3487830978
 30
0.0
 10
150.9788856819
 20
139.2960355341
 30
0.0
 10
151.1957283403
 20
139.2420000797
 30
0.0
 10
151.4016205095
 20
139.1868521128
 30
0.0
 10
151.5924848203
 20
139.1308712643
 30
0.0
 10
151.7392794371
 20
139.0823952033
 30
0.0
 10
151.8440549205
 20
139.0426729964
 30
0.0
 10
151.9110789989
 20
139.0141926772
 30
0.0
 10
151.9680572705
 20
138.9860766217
 30
0.0
 10
152.0138099257
 20
138.958618304
 30
0.0
 10
152.0470772555
 20
138.9317914205
 30
0.0
 10
152.0681357739
 20
138.9052913606
 30
0.0
 10
152.0732687448
 20
138.8761483128
 30
0.0
 10
152.0582815412
 20
138.8499569903
 30
0.0
 10
152.0296546506
 20
138.8291033885
 30
0.0
 10
151.9888460666
 20
138.8100466395
 30
0.0
 10
151.9361745342
 20
138.7928975708
 30
0.0
 10
151.8969849864
 20
138.7831361166
 30
0.0
 10
151.8757052904
 20
138.7783392391
 30
0.0
  0
SPLINE
  5
342
100
AcDbEntity
  8
0
100
AcDbSpline
 62
7
  6
CONTINUOUS
 70
0
 71
3
 72
13
 73
9
 74
0
 42
0.0000001
 43
0.0000001
 44
0.0000000001
 40
0.0
 40
0.0
 40
0.0
 40
0.0
 40
0.2498386611
 40
0.499416733
 40
0.6246102377
 40
0.7497670686
 40
0.8748896067
 40
1.0
 40
1.0
 40
1.0
 40
1.0
 10
116.0854220272
 20
94.4222180401
 30
0.0
 10
116.0854220272
 20
94.2756402884
 30
0.0
 10
116.0444089856
 20
93.9810039425
 30
0.0
 10
115.8841350703
 20
93.6432329423
 30
0.0
 10
115.6895448477
 20
93.4214172685
 30
0.0
 10
115.5112469166
 20
93.2888096897
 30
0.0
 10
115.306372749
 20
93.2020901215
 30
0.0
 10
115.1588229976
 20
93.1818310195
 30
0.0
 10
115.0854220272
 20
93.1818310195
 30
0.0
  0
ENDSEC
  0
SECTION
  2
OBJECTS
  0
DICTIONARY
  5
C
100
AcDbDictionary
280
0
281
1
  3
ACAD_GROUP
350
D
  3
ACAD_MLINESTYLE
350
17
  3
ACAD_LAYOUT
350
1A
  3
ACAD_PLOTSETTINGS
350
19
  3
ACAD_PLOTSTYLENAME
350
E
  0
DICTIONARY
  5
D
102
{ACAD_REACTORS
330
C
102
}
100
AcDbDictionary
280
0
281
1
  0
ACDBDICTIONARYWDFLT
  5
E
102
{ACAD_REACTORS
330
C
102
}
100
AcDbDictionary
281
1
  3
Normal
350
F
100
AcDbDictionaryWithDefault
340
F
  0
DICTIONARY
  5
17
102
{ACAD_REACTORS
330
C
102
}
100
AcDbDictionary
280
0
281
1
  3
Standard
350
18
  0
DICTIONARY
  5
19
102
{ACAD_REACTORS
330
C
102
}
100
AcDbDictionary
281
1
  0
DICTIONARY
  5
1A
102
{ACAD_REACTORS
330
C
102
}
100
AcDbDictionary
281
1
  3
Model
350
343
  3
Layout1
350
344
  0
ACDBPLACEHOLDER
  5
F
102
{ACAD_REACTORS
330
E
102
}
  0
MLINESTYLE
  5
18
102
{ACAD_REACTORS
330
17
102
}
100
AcDbMlineStyle
  2
STANDARD
 70
0
  3

 62
256
 51
90.0
 52
90.0
 71
2
 49
0.5
 62
256
  6
BYLAYER
 49
-0.5
 62
256
  6
BYLAYER
  0
LAYOUT
  5
343
102
{ACAD_REACTORS
330
1A
102
}
100
AcDbPlotSettings
  1

  2
none_device
  4
ISO_A4_(297.00_x_210.00_MM)
  6

 40
0.0
 41
0.0
 42
0.0
 43
0.0
 44
297.0
 45
210.0
 46
0.0
 47
0.0
 48
0.0
 49
0.0
140
0.0
141
0.0
142
1.0
143
1.0
 70
1024
 72
1
 73
0
 74
0
  7

 75
0
147
1.0
148
0.0
149
0.0
100
AcDbLayout
  1
Model
 70
0
 71
0
 10
0.0
 20
0.0
 11
297.0
 21
210.0
 12
0.0
 22
0.0
 32
0.0
 14
0.0
 24
0.0
 34
0.0
 15
0.0
 25
0.0
 35
0.0
146
0.0
 13
0.0
 23
0.0
 33
0.0
 16
1.0
 26
0.0
 36
0.0
 17
0.0
 27
1.0
 37
0.0
 76
0
330
217
345
0
346
0
  0
LAYOUT
  5
344
102
{ACAD_REACTORS
330
1A
102
}
100
AcDbPlotSettings
  1

  2
none_device
  4
ISO_A4_(297.00_x_210.00_MM)
  6

 40
0.0
 41
0.0
 42
0.0
 43
0.0
 44
297.0
 45
210.0
 46
0.0
 47
0.0
 48
0.0
 49
0.0
140
0.0
141
0.0
142
1.0
143
1.0
 70
0
 72
1
 73
0
 74
0
  7

 75
0
147
1.0
148
0.0
149
0.0
100
AcDbLayout
  1
Layout1
 70
0
 71
1
 10
0.0
 20
0.0
 11
297.0
 21
210.0
 12
0.0
 22
0.0
 32
0.0
 14
0.0
 24
0.0
 34
0.0
 15
0.0
 25
0.0
 35
0.0
146
0.0
 13
0.0
 23
0.0
 33
0.0
 16
1.0
 26
0.0
 36
0.0
 17
0.0
 27
1.0
 37
0.0
 76
0
330
218
345
0
346
0
  0
ENDSEC
  0
EOF
