999
DXF file: 40-484-05-8.dxf
999
Pro/ENGINEER 2009220 by Parametric Technology Corporation
  0
SECTION
  2
HEADER
  9
$ACADVER
  1
AC1021
  9
$DWGCODEPAGE
  3
ANSI_1252
  9
$EXTMAX
 10
297.0
 20
210.0
 30
0.0
  9
$EXTMIN
 10
0.0
 20
0.0
 30
0.0
  9
$LIMMIN
 10
0.0
 20
0.0
  9
$LIMMAX
 10
297.0
 20
210.0
  9
$VIEWCTR
 10
148.5
 20
105.0
  9
$VIEWSIZE
 40
210.0
  9
$CLAYER
  8
0
  9
$LTSCALE
 40
16.335
  9
$CELTYPE
  6
BYLAYER
  9
$DIMSCALE
 40
1.0
  9
$DIMASZ
 40
3.5
  9
$DIMEXO
 40
1.85625
  9
$DIMDLI
 40
11.286
  9
$DIMEXE
 40
5.346
  9
$DIMCEN
 40
2.673
  9
$DIMLFAC
 40
1.0
  9
$DIMBLK
  1
_FILLED
  9
$DIMTXT
 40
3.5
  9
$DIMTOL
 70
1
  9
$DIMLIM
 70
0
  9
$DIMTFAC
 40
1.0
  9
$DIMTP
 40
0.005
  9
$DIMTM
 40
0.005
  9
$PDMODE
 70
3
  9
$PDSIZE
 40
0.3125
  9
$HANDSEED
  5
329
  9
$TILEMODE
 70
1
  9
$MEASUREMENT
 70
1
  9
$INSUNITS
 70
4
  0
ENDSEC
  0
SECTION
  2
CLASSES
  0
CLASS
  1
ACDBDICTIONARYWDFLT
  2
AcDbDictionaryWithDefault
  3
AutoCAD 2000
 90
0
 91
1
280
0
281
0
  0
CLASS
  1
ACDBPLACEHOLDER
  2
AcDbPlaceHolder
  3
AutoCAD 2000
 90
0
 91
1
280
0
281
0
  0
CLASS
  1
LAYOUT
  2
AcDbLayout
  3
AutoCAD 2000
 90
0
 91
0
280
0
281
0
  0
ENDSEC
  0
SECTION
  2
TABLES
  0
TABLE
  2
VPORT
  5
8
100
AcDbSymbolTable
 70
2
  0
VPORT
  5
1F4
100
AcDbSymbolTableRecord
100
AcDbViewportTableRecord
  2
*ACTIVE
 70
0
 10
0.0
 20
0.0
 11
1.0
 21
1.0
 12
148.5
 22
105.0
 13
0.0
 23
0.0
 14
1.0
 24
1.0
 15
0.0
 25
0.0
 16
0.0
 26
0.0
 36
1.0
 17
0.0
 27
0.0
 37
0.0
 40
210.0
 41
1.4142857143
 42
50.0
 43
0.0
 44
0.0
 50
0.0
 51
0.0
 71
0
 72
100
 73
1
 74
1
 75
0
 76
0
 77
0
 78
0
  0
ENDTAB
  0
TABLE
  2
LTYPE
  5
5
100
AcDbSymbolTable
 70
6
  0
LTYPE
  5
14
100
AcDbSymbolTableRecord
100
AcDbLinetypeTableRecord
  2
BYBLOCK
 70
0
  3

 72
65
 73
0
 40
0.0
  0
LTYPE
  5
15
100
AcDbSymbolTableRecord
100
AcDbLinetypeTableRecord
  2
BYLAYER
 70
0
  3

 72
65
 73
0
 40
0.0
  0
LTYPE
  5
16
100
AcDbSymbolTableRecord
100
AcDbLinetypeTableRecord
  2
CONTINUOUS
 70
64
  3
Solid line
 72
65
 73
0
 40
0.0
  0
LTYPE
  5
1F5
100
AcDbSymbolTableRecord
100
AcDbLinetypeTableRecord
  2
CENTER
 70
64
  3
____ _ ____ _ ____ _ ____ _ ____ _ ____ _ ____
 72
65
 73
4
 40
0.6
 49
0.375
 74
0
 49
-0.075
 74
0
 49
0.075
 74
0
 49
-0.075
 74
0
  0
LTYPE
  5
1F6
100
AcDbSymbolTableRecord
100
AcDbLinetypeTableRecord
  2
HIDDEN
 70
64
  3
- - - - - - - - - - - - - - - - - - - -
 72
65
 73
2
 40
0.2
 49
0.1
 74
0
 49
-0.1
 74
0
  0
LTYPE
  5
1F7
100
AcDbSymbolTableRecord
100
AcDbLinetypeTableRecord
  2
PHANTOM
 70
64
  3
_____ _ _ _____ _ _ _____ _ _ _____
 72
65
 73
6
 40
0.8
 49
0.45
 74
0
 49
-0.05
 74
0
 49
0.1
 74
0
 49
-0.05
 74
0
 49
0.1
 74
0
 49
-0.05
 74
0
  0
LTYPE
  5
1F8
100
AcDbSymbolTableRecord
100
AcDbLinetypeTableRecord
  2
DOT
 70
64
  3
. . . . . . . . . . . . . . . . . . . .
 72
65
 73
2
 40
0.2
 49
0.1
 74
0
 49
-0.1
 74
0
  0
LTYPE
  5
1F9
100
AcDbSymbolTableRecord
100
AcDbLinetypeTableRecord
  2
DASHED
 70
64
  3
- - - - - - - - - - - - - - - - - - - -
 72
65
 73
2
 40
0.2
 49
0.1
 74
0
 49
-0.1
 74
0
  0
ENDTAB
  0
TABLE
  2
LAYER
  5
2
100
AcDbSymbolTable
 70
36
  0
LAYER
  5
10
100
AcDbSymbolTableRecord
100
AcDbLayerTableRecord
  2
0
 70
0
 62
7
  6
CONTINUOUS
370
-3
390
F
  0
LAYER
  5
1FA
100
AcDbSymbolTableRecord
100
AcDbLayerTableRecord
  2
DEFAULT_1
 70
0
 62
7
  6
CENTER
370
-3
390
F
  0
LAYER
  5
1FB
100
AcDbSymbolTableRecord
100
AcDbLayerTableRecord
  2
DEFAULT_2
 70
0
 62
8
  6
HIDDEN
370
-3
390
F
  0
LAYER
  5
1FC
100
AcDbSymbolTableRecord
100
AcDbLayerTableRecord
  2
DEFAULT_3
 70
0
 62
7
  6
PHANTOM
370
-3
390
F
  0
LAYER
  5
1FD
100
AcDbSymbolTableRecord
100
AcDbLayerTableRecord
  2
ANALYSEN
 70
0
 62
7
  6
CONTINUOUS
370
-3
390
F
  0
LAYER
  5
1FE
100
AcDbSymbolTableRecord
100
AcDbLayerTableRecord
  2
AUSSENKONTUR
 70
0
 62
7
  6
CONTINUOUS
370
-3
390
F
  0
LAYER
  5
1FF
100
AcDbSymbolTableRecord
100
AcDbLayerTableRecord
  2
BEZUGSACHSEN
 70
0
 62
7
  6
CONTINUOUS
370
-3
390
F
  0
LAYER
  5
200
100
AcDbSymbolTableRecord
100
AcDbLayerTableRecord
  2
BEZUGSACHSENKENNZEICHEN
 70
0
 62
7
  6
CONTINUOUS
370
-3
390
F
  0
LAYER
  5
201
100
AcDbSymbolTableRecord
100
AcDbLayerTableRecord
  2
BEZUGSEBENEN
 70
0
 62
7
  6
CONTINUOUS
370
-3
390
F
  0
LAYER
  5
202
100
AcDbSymbolTableRecord
100
AcDbLayerTableRecord
  2
BEZUGSPUNKTE
 70
0
 62
7
  6
CONTINUOUS
370
-3
390
F
  0
LAYER
  5
203
100
AcDbSymbolTableRecord
100
AcDbLayerTableRecord
  2
BOHRUNGEN
 70
0
 62
7
  6
CONTINUOUS
370
-3
390
F
  0
LAYER
  5
204
100
AcDbSymbolTableRecord
100
AcDbLayerTableRecord
  2
FASEN
 70
0
 62
7
  6
CONTINUOUS
370
-3
390
F
  0
LAYER
  5
205
100
AcDbSymbolTableRecord
100
AcDbLayerTableRecord
  2
FLAECHEN
 70
0
 62
7
  6
CONTINUOUS
370
-3
390
F
  0
LAYER
  5
206
100
AcDbSymbolTableRecord
100
AcDbLayerTableRecord
  2
GEWINDE
 70
0
 62
7
  6
CONTINUOUS
370
-3
390
F
  0
LAYER
  5
207
100
AcDbSymbolTableRecord
100
AcDbLayerTableRecord
  2
HILFEN
 70
0
 62
7
  6
CONTINUOUS
370
-3
390
F
  0
LAYER
  5
208
100
AcDbSymbolTableRecord
100
AcDbLayerTableRecord
  2
INNENKONTUR
 70
0
 62
7
  6
CONTINUOUS
370
-3
390
F
  0
LAYER
  5
209
100
AcDbSymbolTableRecord
100
AcDbLayerTableRecord
  2
KURVEN
 70
0
 62
7
  6
CONTINUOUS
370
-3
390
F
  0
LAYER
  5
20A
100
AcDbSymbolTableRecord
100
AcDbLayerTableRecord
  2
MAKINO
 70
0
 62
7
  6
CONTINUOUS
370
-3
390
F
  0
LAYER
  5
20B
100
AcDbSymbolTableRecord
100
AcDbLayerTableRecord
  2
OELVERDR_RILLE
 70
0
 62
7
  6
CONTINUOUS
370
-3
390
F
  0
LAYER
  5
20C
100
AcDbSymbolTableRecord
100
AcDbLayerTableRecord
  2
PLATZIERUNG
 70
0
 62
7
  6
CONTINUOUS
370
-3
390
F
  0
LAYER
  5
20D
100
AcDbSymbolTableRecord
100
AcDbLayerTableRecord
  2
PUNKTE
 70
0
 62
7
  6
CONTINUOUS
370
-3
390
F
  0
LAYER
  5
20E
100
AcDbSymbolTableRecord
100
AcDbLayerTableRecord
  2
RUNDUNGEN
 70
0
 62
7
  6
CONTINUOUS
370
-3
390
F
  0
LAYER
  5
20F
100
AcDbSymbolTableRecord
100
AcDbLayerTableRecord
  2
TEIL_STARTBEZUEGE
 70
0
 62
7
  6
CONTINUOUS
370
-3
390
F
  0
LAYER
  5
210
100
AcDbSymbolTableRecord
100
AcDbLayerTableRecord
  2
VERERBUNG
 70
0
 62
7
  6
CONTINUOUS
370
-3
390
F
  0
LAYER
  5
211
100
AcDbSymbolTableRecord
100
AcDbLayerTableRecord
  2
VOLUMEN
 70
0
 62
7
  6
CONTINUOUS
370
-3
390
F
  0
LAYER
  5
212
100
AcDbSymbolTableRecord
100
AcDbLayerTableRecord
  2
ZEICHNUNG
 70
0
 62
7
  6
CONTINUOUS
370
-3
390
F
  0
LAYER
  5
213
100
AcDbSymbolTableRecord
100
AcDbLayerTableRecord
  2
ZEICHNUNGSBEMASSUNGEN
 70
0
 62
7
  6
CONTINUOUS
370
-3
390
F
  0
ENDTAB
  0
TABLE
  2
STYLE
  5
3
100
AcDbSymbolTable
 70
1
  0
STYLE
  5
11
100
AcDbSymbolTableRecord
100
AcDbTextStyleTableRecord
  2
STANDARD
 70
0
 40
0.0
 41
0.7
 50
0.0
 71
0
 42
0.2
  3
txt
  4

  0
STYLE
  5
214
100
AcDbSymbolTableRecord
100
AcDbTextStyleTableRecord
  2
TEXTSTYLE_1
 70
0
 40
0.0
 41
0.8
 50
0.0
 71
0
 42
0.2
  3
gdt
  4

  0
STYLE
  5
215
100
AcDbSymbolTableRecord
100
AcDbTextStyleTableRecord
  2
TEXTSTYLE_2
 70
0
 40
0.0
 41
0.7
 50
0.0
 71
0
 42
0.2
  3
gdt
  4

  0
ENDTAB
  0
TABLE
  2
VIEW
  5
6
100
AcDbSymbolTable
 70
0
  0
ENDTAB
  0
TABLE
  2
UCS
  5
7
100
AcDbSymbolTable
 70
0
  0
ENDTAB
  0
TABLE
  2
APPID
  5
9
100
AcDbSymbolTable
 70
1
  0
APPID
  5
216
100
AcDbSymbolTableRecord
100
AcDbRegAppTableRecord
  2
ACAD
 70
0
  0
ENDTAB
  0
TABLE
  2
BLOCK_RECORD
  5
1
100
AcDbSymbolTable
 70
0
  0
BLOCK_RECORD
  5
217
100
AcDbSymbolTableRecord
100
AcDbBlockTableRecord
  2
*Model_Space
  0
BLOCK_RECORD
  5
218
100
AcDbSymbolTableRecord
100
AcDbBlockTableRecord
  2
*Paper_Space
  0
BLOCK_RECORD
  5
219
100
AcDbSymbolTableRecord
100
AcDbBlockTableRecord
  2
_FILLED
  0
BLOCK_RECORD
  5
21A
100
AcDbSymbolTableRecord
100
AcDbBlockTableRecord
  2
*D0
  0
BLOCK_RECORD
  5
21B
100
AcDbSymbolTableRecord
100
AcDbBlockTableRecord
  2
*D1
  0
BLOCK_RECORD
  5
21C
100
AcDbSymbolTableRecord
100
AcDbBlockTableRecord
  2
*D2
  0
BLOCK_RECORD
  5
21D
100
AcDbSymbolTableRecord
100
AcDbBlockTableRecord
  2
*D3
  0
BLOCK_RECORD
  5
21E
100
AcDbSymbolTableRecord
100
AcDbBlockTableRecord
  2
*D4
  0
BLOCK_RECORD
  5
21F
100
AcDbSymbolTableRecord
100
AcDbBlockTableRecord
  2
*D5
  0
ENDTAB
  0
TABLE
  2
DIMSTYLE
  5
A
100
AcDbSymbolTable
 70
1
100
AcDbDimStyleTable
 71
0
  0
DIMSTYLE
105
220
100
AcDbSymbolTableRecord
100
AcDbDimStyleTableRecord
  2
STANDARD
 70
0
  3

  4

 40
1.0
 41
3.5
 42
0.0625
 43
0.38
 44
0.18
 45
0.0
 46
0.0
 47
0.005
 48
0.005
140
3.5
141
0.09
142
0.0
143
25.4
144
1.0
145
0.0
146
1.0
147
0.09
 71
1.0
 72
0.0
 73
0
 74
0
 75
0
 76
0
 77
1
 78
8
170
0
171
2
172
0
173
0
174
0
175
0
176
0
177
0
178
5
270
2
271
3
272
3
273
2
274
2
275
0
280
0
281
0
282
0
283
1
284
8
285
0
286
0
287
3
288
0
340
11
341
219
342
219
343
219
344
219
  0
DIMSTYLE
105
221
100
AcDbSymbolTableRecord
100
AcDbDimStyleTableRecord
  2
DIMSTYLE_1
 70
0
  3

  4

 40
1.0
 41
3.5
 42
0.0625
 43
0.38
 44
0.18
 45
0.0
 46
0.0
 47
0.5
 48
0.5
140
3.5
141
0.09
142
0.0
143
25.4
144
1.0
145
0.0
146
1.0
147
0.09
 71
0.0
 72
0.0
 73
0
 74
0
 75
0
 76
0
 77
1
 78
8
170
0
171
2
172
0
173
0
174
0
175
0
176
0
177
0
178
5
270
2
271
3
272
3
273
2
274
2
275
0
280
0
281
0
282
0
283
1
284
8
285
0
286
0
287
3
288
0
340
11
341
219
342
219
343
219
344
219
  0
DIMSTYLE
105
222
100
AcDbSymbolTableRecord
100
AcDbDimStyleTableRecord
  2
DIMSTYLE_2
 70
0
  3

  4

 40
1.0
 41
3.5
 42
0.0625
 43
0.38
 44
0.18
 45
0.0
 46
0.0
 47
0.5
 48
0.5
140
3.5
141
0.09
142
0.0
143
25.4
144
1.0
145
0.0
146
1.0
147
0.09
 71
0.0
 72
0.0
 73
0
 74
0
 75
0
 76
0
 77
1
 78
8
170
0
171
2
172
0
173
0
174
0
175
0
176
0
177
0
178
5
270
2
271
2
272
2
273
2
274
2
275
0
280
0
281
0
282
0
283
1
284
8
285
0
286
0
287
3
288
0
340
11
341
219
342
219
343
219
344
219
  0
DIMSTYLE
105
223
100
AcDbSymbolTableRecord
100
AcDbDimStyleTableRecord
  2
DIMSTYLE_3
 70
0
  3

  4

 40
1.0
 41
3.5
 42
0.0625
 43
0.38
 44
0.18
 45
0.0
 46
0.0
 47
0.3
 48
0.3
140
3.5
141
0.09
142
0.0
143
25.4
144
1.0
145
0.0
146
1.0
147
0.09
 71
0.0
 72
0.0
 73
0
 74
0
 75
0
 76
0
 77
1
 78
8
170
0
171
2
172
0
173
0
174
0
175
0
176
0
177
0
178
5
270
2
271
2
272
2
273
2
274
2
275
0
280
0
281
0
282
0
283
1
284
8
285
0
286
0
287
3
288
0
340
11
341
219
342
219
343
219
344
219
  0
DIMSTYLE
105
224
100
AcDbSymbolTableRecord
100
AcDbDimStyleTableRecord
  2
DIMSTYLE_4
 70
0
  3

  4

 40
1.0
 41
3.5
 42
0.0625
 43
0.38
 44
0.18
 45
0.0
 46
0.0
 47
0.1
 48
0.0
140
3.5
141
0.09
142
0.0
143
25.4
144
1.0
145
0.0
146
1.0
147
0.09
 71
0.0
 72
0.0
 73
0
 74
0
 75
0
 76
0
 77
1
 78
8
170
0
171
2
172
0
173
0
174
0
175
0
176
0
177
0
178
5
270
2
271
2
272
2
273
2
274
2
275
0
280
0
281
0
282
0
283
1
284
8
285
0
286
0
287
3
288
0
340
11
341
219
342
219
343
219
344
219
  0
DIMSTYLE
105
225
100
AcDbSymbolTableRecord
100
AcDbDimStyleTableRecord
  2
DIMSTYLE_5
 70
0
  3

  4

 40
1.0
 41
3.5
 42
0.0625
 43
0.38
 44
0.18
 45
0.0
 46
0.0
 47
0.0
 48
0.0
140
3.5
141
0.09
142
0.0
143
25.4
144
1.0
145
0.0
146
1.0
147
0.09
 71
0.0
 72
0.0
 73
0
 74
0
 75
0
 76
0
 77
1
 78
8
170
0
171
2
172
0
173
0
174
0
175
0
176
0
177
0
178
5
270
2
271
0
272
0
273
2
274
2
275
0
280
0
281
0
282
0
283
1
284
8
285
0
286
0
287
3
288
0
340
11
341
219
342
219
343
219
344
219
  0
DIMSTYLE
105
226
100
AcDbSymbolTableRecord
100
AcDbDimStyleTableRecord
  2
DIMSTYLE_6
 70
0
  3

  4

 40
1.0
 41
3.5
 42
0.0625
 43
0.38
 44
0.18
 45
0.0
 46
0.0
 47
0.1
 48
0.1
140
3.5
141
0.09
142
0.0
143
25.4
144
1.0
145
0.0
146
1.0
147
0.09
 71
0.0
 72
0.0
 73
0
 74
0
 75
0
 76
0
 77
1
 78
8
170
0
171
2
172
0
173
0
174
0
175
0
176
0
177
0
178
5
270
2
271
2
272
2
273
2
274
2
275
0
280
0
281
0
282
0
283
1
284
8
285
0
286
0
287
3
288
0
340
11
341
219
342
219
343
219
344
219
  0
ENDTAB
  0
ENDSEC
  0
SECTION
  2
BLOCKS
  0
BLOCK
  5
20
100
AcDbEntity
  8
0
100
AcDbBlockBegin
  2
*Model_Space
 70
0
 10
0.0
 20
0.0
 30
0.0
  3
*Model_Space
  1

  0
ENDBLK
  5
21
100
AcDbEntity
  8
0
100
AcDbBlockEnd
  0
BLOCK
  5
1C
100
AcDbEntity
  8
0
100
AcDbBlockBegin
  2
*Paper_Space
 70
0
 10
0.0
 20
0.0
 30
0.0
  3
*Paper_Space
  1

  0
ENDBLK
  5
1D
100
AcDbEntity
  8
0
100
AcDbBlockEnd
  0
BLOCK
  5
227
100
AcDbEntity
  8
0
100
AcDbBlockBegin
  2
_FILLED
 70
64
 10
0.0
 20
0.0
  3
_FILLED
  1

  0
SOLID
  5
228
100
AcDbEntity
  8
0
  6
BYBLOCK
 62
0
100
AcDbTrace
 10
0.0
 20
0.0
 11
-1.0
 21
0.125
 12
-1.0
 22
-0.125
 13
-1.0
 23
-0.125
  0
ENDBLK
  5
229
100
AcDbEntity
  8
0
  6
BYBLOCK
 62
0
100
AcDbBlockEnd
  0
BLOCK
  5
22A
100
AcDbEntity
  8
0
100
AcDbBlockBegin
 62
2
  6
CONTINUOUS
  2
*D0
 70
65
 10
0.0
 20
0.0
  3
*D0
  1

  0
MTEXT
  5
22B
100
AcDbEntity
  8
0
100
AcDbMText
 62
5
  6
CONTINUOUS
  7
STANDARD
 71
2
 72
1
 10
178.4891677373
 20
166.3756836338
 30
0.0
 11
1.0
 21
0.0
 31
0.0
 44
0.9
  1
130
 40
3.5
 41
8.490234375
  0
LINE
  5
22C
100
AcDbEntity
  8
0
100
AcDbLine
 62
2
  6
CONTINUOUS
 10
233.9432792768
 20
111.8204361532
 11
233.9432792768
 21
163.5006836338
  0
LINE
  5
22D
100
AcDbEntity
  8
0
100
AcDbLine
 62
2
  6
CONTINUOUS
 10
103.9432792768
 20
139.931008459
 11
103.9432792768
 21
163.5006836338
  0
LINE
  5
22E
100
AcDbEntity
  8
0
100
AcDbLine
 62
2
  6
CONTINUOUS
 10
233.9432792768
 20
162.0006836338
 11
168.9432792768
 21
162.0006836338
  0
LINE
  5
22F
100
AcDbEntity
  8
0
100
AcDbLine
 62
2
  6
CONTINUOUS
 10
103.9432792768
 20
162.0006836338
 11
168.9432792768
 21
162.0006836338
  0
INSERT
  5
230
100
AcDbEntity
  8
0
100
AcDbBlockReference
 62
2
  6
CONTINUOUS
  2
_FILLED
 10
233.9432792768
 20
162.0006836338
 41
3.5
 42
3.5
 43
3.5
  0
INSERT
  5
231
100
AcDbEntity
  8
0
100
AcDbBlockReference
 62
2
  6
CONTINUOUS
  2
_FILLED
 10
103.9432792768
 20
162.0006836338
 41
3.5
 42
3.5
 43
3.5
 50
180.0
  0
ENDBLK
  5
232
100
AcDbEntity
  8
0
  6
BYBLOCK
 62
0
100
AcDbBlockEnd
  0
BLOCK
  5
233
100
AcDbEntity
  8
0
100
AcDbBlockBegin
 62
2
  6
CONTINUOUS
  2
*D1
 70
65
 10
0.0
 20
0.0
  3
*D1
  1

  0
MTEXT
  5
234
100
AcDbEntity
  8
0
100
AcDbMText
 62
5
  6
CONTINUOUS
  7
STANDARD
 71
2
 72
1
 10
153.5882995457
 20
173.0552650055
 30
0.0
 11
1.0
 21
0.0
 31
0.0
 44
0.9
  1
198.4
 40
3.5
 41
12.7421875
  0
LINE
  5
235
100
AcDbEntity
  8
0
100
AcDbLine
 62
2
  6
CONTINUOUS
 10
35.5432792768
 20
124.6515809863
 11
35.5432792768
 21
170.1802650055
  0
LINE
  5
236
100
AcDbEntity
  8
0
100
AcDbLine
 62
2
  6
CONTINUOUS
 10
233.9432792768
 20
114.3204361532
 11
233.9432792768
 21
170.1802650055
  0
LINE
  5
237
100
AcDbEntity
  8
0
100
AcDbLine
 62
2
  6
CONTINUOUS
 10
35.5432792768
 20
168.6802650055
 11
134.7432792768
 21
168.6802650055
  0
LINE
  5
238
100
AcDbEntity
  8
0
100
AcDbLine
 62
2
  6
CONTINUOUS
 10
233.9432792768
 20
168.6802650055
 11
134.7432792768
 21
168.6802650055
  0
INSERT
  5
239
100
AcDbEntity
  8
0
100
AcDbBlockReference
 62
2
  6
CONTINUOUS
  2
_FILLED
 10
35.5432792768
 20
168.6802650055
 41
3.5
 42
3.5
 43
3.5
 50
180.0
  0
INSERT
  5
23A
100
AcDbEntity
  8
0
100
AcDbBlockReference
 62
2
  6
CONTINUOUS
  2
_FILLED
 10
233.9432792768
 20
168.6802650055
 41
3.5
 42
3.5
 43
3.5
  0
ENDBLK
  5
23B
100
AcDbEntity
  8
0
  6
BYBLOCK
 62
0
100
AcDbBlockEnd
  0
BLOCK
  5
23C
100
AcDbEntity
  8
0
100
AcDbBlockBegin
 62
2
  6
CONTINUOUS
  2
*D2
 70
65
 10
0.0
 20
0.0
  3
*D2
  1

  0
MTEXT
  5
23D
100
AcDbEntity
  8
0
100
AcDbMText
 62
5
  6
CONTINUOUS
  7
STANDARD
 71
2
 72
1
 10
186.0421372544
 20
158.9508864632
 30
0.0
 11
1.0
 21
0.0
 31
0.0
 44
0.9
  1
110.9
 40
3.5
 41
12.7421875
  0
LINE
  5
23E
100
AcDbEntity
  8
0
100
AcDbLine
 62
2
  6
CONTINUOUS
 10
233.9432792768
 20
114.3204361532
 11
233.9432792768
 21
156.0758864632
  0
LINE
  5
23F
100
AcDbEntity
  8
0
100
AcDbLine
 62
2
  6
CONTINUOUS
 10
123.0432792768
 20
144.3837402544
 11
123.0432792768
 21
156.0758864632
  0
LINE
  5
240
100
AcDbEntity
  8
0
100
AcDbLine
 62
2
  6
CONTINUOUS
 10
233.9432792768
 20
154.5758864632
 11
178.4932792768
 21
154.5758864632
  0
LINE
  5
241
100
AcDbEntity
  8
0
100
AcDbLine
 62
2
  6
CONTINUOUS
 10
123.0432792768
 20
154.5758864632
 11
178.4932792768
 21
154.5758864632
  0
INSERT
  5
242
100
AcDbEntity
  8
0
100
AcDbBlockReference
 62
2
  6
CONTINUOUS
  2
_FILLED
 10
233.9432792768
 20
154.5758864632
 41
3.5
 42
3.5
 43
3.5
  0
INSERT
  5
243
100
AcDbEntity
  8
0
100
AcDbBlockReference
 62
2
  6
CONTINUOUS
  2
_FILLED
 10
123.0432792768
 20
154.5758864632
 41
3.5
 42
3.5
 43
3.5
 50
180.0
  0
ENDBLK
  5
244
100
AcDbEntity
  8
0
  6
BYBLOCK
 62
0
100
AcDbBlockEnd
  0
BLOCK
  5
245
100
AcDbEntity
  8
0
100
AcDbBlockBegin
 62
2
  6
CONTINUOUS
  2
*D3
 70
65
 10
0.0
 20
0.0
  3
*D3
  1

  0
MTEXT
  5
246
100
AcDbEntity
  8
0
100
AcDbMText
 62
5
  6
CONTINUOUS
  7
TEXTSTYLE_2
 71
1
 72
1
 10
249.8387901878
 20
122.0872164477
 30
0.0
 11
0.0
 21
1.0
 31
0.0
 44
0.9
  1
{\Fgdt;n}\Ftxt;11
 40
3.5
 41
10.3268229167
  0
LINE
  5
247
100
AcDbEntity
  8
0
100
AcDbLine
 62
2
  6
CONTINUOUS
 10
233.9432792768
 20
108.8204361532
 11
255.7137901878
 21
108.8204361532
  0
LINE
  5
248
100
AcDbEntity
  8
0
100
AcDbLine
 62
2
  6
CONTINUOUS
 10
233.9432792768
 20
119.8204361532
 11
255.7137901878
 21
119.8204361532
  0
LINE
  5
249
100
AcDbEntity
  8
0
100
AcDbLine
 62
2
  6
CONTINUOUS
 10
254.2137901878
 20
108.8204361532
 11
254.2137901878
 21
114.3204361532
  0
LINE
  5
24A
100
AcDbEntity
  8
0
100
AcDbLine
 62
2
  6
CONTINUOUS
 10
254.2137901878
 20
119.8204361532
 11
254.2137901878
 21
114.3204361532
  0
LINE
  5
24B
100
AcDbEntity
  8
0
100
AcDbLine
 62
2
  6
CONTINUOUS
 10
254.2137901878
 20
114.3204361532
 11
254.2137901878
 21
132.4140393644
  0
INSERT
  5
24C
100
AcDbEntity
  8
0
100
AcDbBlockReference
 62
2
  6
CONTINUOUS
  2
_FILLED
 10
254.2137901878
 20
108.8204361532
 41
3.5
 42
3.5
 43
3.5
 50
270.0
  0
INSERT
  5
24D
100
AcDbEntity
  8
0
100
AcDbBlockReference
 62
2
  6
CONTINUOUS
  2
_FILLED
 10
254.2137901878
 20
119.8204361532
 41
3.5
 42
3.5
 43
3.5
 50
90.0
  0
ENDBLK
  5
24E
100
AcDbEntity
  8
0
  6
BYBLOCK
 62
0
100
AcDbBlockEnd
  0
BLOCK
  5
24F
100
AcDbEntity
  8
0
100
AcDbBlockBegin
 62
2
  6
CONTINUOUS
  2
*D4
 70
65
 10
0.0
 20
0.0
  3
*D4
  1

  0
MTEXT
  5
250
100
AcDbEntity
  8
0
100
AcDbMText
 62
5
  6
CONTINUOUS
  7
STANDARD
 71
2
 72
1
 10
187.3401221587
 20
135.4861866532
 30
0.0
 11
0.138319886
 21
0.9903876055
 31
0.0
 44
0.9
  1
3\Fgdt;{\Fgdt;~}
 40
3.5
 41
5.1634114583
  0
LINE
  5
251
100
AcDbEntity
  8
0
100
AcDbLine
 62
2
  6
CONTINUOUS
 10
228.6052834777
 20
120.1001886589
 11
191.5714021111
 21
122.0410521395
  0
LINE
  5
252
100
AcDbEntity
  8
0
100
AcDbLine
 62
2
  6
CONTINUOUS
 10
228.3708867756
 20
114.3204361532
 11
191.3692306664
 21
114.3204361532
  0
ARC
  5
253
100
AcDbEntity
  8
0
100
AcDbCircle
 62
2
  6
CONTINUOUS
 10
338.8895310593
 20
114.3204361532
 40
146.0203003929
100
AcDbArc
 50
172.0493630631
 51
177.0
  0
ARC
  5
254
100
AcDbEntity
  8
0
100
AcDbCircle
 62
2
  6
CONTINUOUS
 10
338.8895310593
 20
114.3204361532
 40
146.0203003929
100
AcDbArc
 50
180.0
 51
182.354293726
  0
ARC
  5
255
100
AcDbEntity
  8
0
100
AcDbCircle
 62
2
  6
CONTINUOUS
 10
338.8895310593
 20
114.3204361532
 40
146.0203003929
100
AcDbArc
 50
177.0
 51
180.0
  0
SOLID
  5
256
100
AcDbEntity
  8
0
100
AcDbTrace
 62
2
  6
CONTINUOUS
 10
192.857802199
 20
125.4834366293
 11
193.0693464132
 21
121.9625482052
 12
193.7309914793
 22
125.4271740229
 13
193.7309914793
 23
125.4271740229
  0
SOLID
  5
257
100
AcDbEntity
  8
0
100
AcDbTrace
 62
2
  6
CONTINUOUS
 10
193.3486444657
 20
110.8259306576
 11
192.8692306664
 21
114.3204361532
 12
192.4737073037
 22
110.815444353
 13
192.4737073037
 23
110.815444353
  0
ENDBLK
  5
258
100
AcDbEntity
  8
0
  6
BYBLOCK
 62
0
100
AcDbBlockEnd
  0
BLOCK
  5
259
100
AcDbEntity
  8
0
100
AcDbBlockBegin
 62
2
  6
CONTINUOUS
  2
*D5
 70
65
 10
0.0
 20
0.0
  3
*D5
  1

  0
MTEXT
  5
25A
100
AcDbEntity
  8
0
100
AcDbMText
 62
5
  6
CONTINUOUS
  7
TEXTSTYLE_2
 71
1
 72
1
 10
240.5036707481
 20
122.7493913854
 30
0.0
 11
0.0
 21
1.0
 31
0.0
 44
0.9
  1
{\Fgdt;n}\Ftxt;5
 40
3.5
 41
7.4967447917
  0
LINE
  5
25B
100
AcDbEntity
  8
0
100
AcDbLine
 62
2
  6
CONTINUOUS
 10
233.9432792768
 20
111.8204361532
 11
246.3786707481
 21
111.8204361532
  0
LINE
  5
25C
100
AcDbEntity
  8
0
100
AcDbLine
 62
2
  6
CONTINUOUS
 10
233.9432792768
 20
116.8204361532
 11
246.3786707481
 21
116.8204361532
  0
LINE
  5
25D
100
AcDbEntity
  8
0
100
AcDbLine
 62
2
  6
CONTINUOUS
 10
244.8786707481
 20
111.8204361532
 11
244.8786707481
 21
105.8204361532
  0
LINE
  5
25E
100
AcDbEntity
  8
0
100
AcDbLine
 62
2
  6
CONTINUOUS
 10
244.8786707481
 20
105.8204361532
 11
244.8786707481
 21
114.3204361532
  0
LINE
  5
25F
100
AcDbEntity
  8
0
100
AcDbLine
 62
2
  6
CONTINUOUS
 10
244.8786707481
 20
116.8204361532
 11
244.8786707481
 21
130.2461361771
  0
LINE
  5
260
100
AcDbEntity
  8
0
100
AcDbLine
 62
2
  6
CONTINUOUS
 10
244.8786707481
 20
130.2461361771
 11
244.8786707481
 21
114.3204361532
  0
INSERT
  5
261
100
AcDbEntity
  8
0
100
AcDbBlockReference
 62
2
  6
CONTINUOUS
  2
_FILLED
 10
244.8786707481
 20
111.8204361532
 41
3.5
 42
3.5
 43
3.5
 50
90.0
  0
INSERT
  5
262
100
AcDbEntity
  8
0
100
AcDbBlockReference
 62
2
  6
CONTINUOUS
  2
_FILLED
 10
244.8786707481
 20
116.8204361532
 41
3.5
 42
3.5
 43
3.5
 50
270.0
  0
ENDBLK
  5
263
100
AcDbEntity
  8
0
  6
BYBLOCK
 62
0
100
AcDbBlockEnd
  0
ENDSEC
  0
SECTION
  2
ENTITIES
  0
DIMENSION
  5
264
100
AcDbEntity
  8
0
100
AcDbDimension
 62
2
  6
CONTINUOUS
  2
*D0
 10
103.9432792768
 20
162.0006836338
 11
174.2440505498
 21
164.6256836338
 70
160
 71
2
 42
130.0
  3
DIMSTYLE_1
100
AcDbAlignedDimension
 13
233.9432792768
 23
111.8204361532
 14
103.9432792768
 24
139.931008459
 50
180.0
100
AcDbRotatedDimension
  0
DIMENSION
  5
265
100
AcDbEntity
  8
0
100
AcDbDimension
 62
2
  6
CONTINUOUS
  2
*D1
 10
233.9432792768
 20
168.6802650055
 11
147.2172057957
 21
171.3052650055
 70
160
 71
2
 42
198.4
  3
DIMSTYLE_2
100
AcDbAlignedDimension
 13
35.5432792768
 23
124.6515809863
 14
233.9432792768
 24
114.3204361532
100
AcDbRotatedDimension
  0
DIMENSION
  5
266
100
AcDbEntity
  8
0
100
AcDbDimension
 62
2
  6
CONTINUOUS
  2
*D2
 10
123.0432792768
 20
154.5758864632
 11
179.6710435044
 21
157.2008864632
 70
160
 71
2
 42
110.9
  3
DIMSTYLE_3
100
AcDbAlignedDimension
 13
233.9432792768
 23
114.3204361532
 14
123.0432792768
 24
144.3837402544
 50
180.0
100
AcDbRotatedDimension
  0
DIMENSION
  5
267
100
AcDbEntity
  8
0
100
AcDbDimension
 62
2
  6
CONTINUOUS
  2
*D3
 10
254.2137901878
 20
119.8204361532
 11
251.5887901878
 21
127.2506279061
 70
160
 71
1
 42
11.0
  1
%%c<>
  3
DIMSTYLE_4
100
AcDbAlignedDimension
 13
233.9432792768
 23
108.8204361532
 14
233.9432792768
 24
119.8204361532
 50
90.0
100
AcDbRotatedDimension
  0
DIMENSION
  5
268
100
AcDbEntity
  8
0
100
AcDbDimension
 62
2
  6
CONTINUOUS
  2
*D4
 10
191.3692306664
 20
114.3204361532
 11
187.8688505385
 21
134.7797977836
 70
162
 71
2
 42
0.0523598776
  3
DIMSTYLE_5
100
AcDb2LineAngularDimension
 13
191.5714021111
 23
122.0410521395
 14
228.6052834777
 24
120.1001886589
 15
228.3708867756
 25
114.3204361532
 16
192.9192681764
 26
118.1428020085
  0
DIMENSION
  5
269
100
AcDbEntity
  8
0
100
AcDbDimension
 62
2
  6
CONTINUOUS
  2
*D5
 10
244.8786707481
 20
116.8204361532
 11
242.2536707481
 21
126.4977637813
 70
160
 71
1
 42
5.0
  1
%%c<>
  3
DIMSTYLE_6
100
AcDbAlignedDimension
 13
233.9432792768
 23
111.8204361532
 14
233.9432792768
 24
116.8204361532
 50
90.0
100
AcDbRotatedDimension
  0
MTEXT
  5
26A
100
AcDbEntity
  8
0
100
AcDbMText
 62
5
  6
CONTINUOUS
  7
STANDARD
 71
1
 72
1
 10
13.6027428965
 20
79.8538435201
 30
0.0
 11
1.0
 21
0.0
 31
0.0
 44
0.9
  3
Für diese Unterlage behalten wir das Ur-\Pheberrecht. Sie darf nur für den von uns \Pbestimmten Zweck benutzt und ohne unsere \PZustimmung weder vervielfältigt noch\PDritten zugänglich gemacht werden\P \PWe own the copyright of this document. It \Pde
  1
termined and may neither be copied or \Pmade accessible to outsiders without our\Ppermission.\P \PCe plan reste notre propriété. Il ne peut\Pêtre utilisé, copié ou reproduit sans notre\Paccord.\P 
 40
3.5
 41
99.162109375
  0
LINE
  5
26B
100
AcDbEntity
  8
0
100
AcDbLine
 62
7
  6
CONTINUOUS
 10
0.0
 20
0.0
 11
0.0
 21
210.0
  0
LINE
  5
26C
100
AcDbEntity
  8
0
100
AcDbLine
 62
7
  6
CONTINUOUS
 10
0.0
 20
0.0
 11
297.0
 21
0.0
  0
LINE
  5
26D
100
AcDbEntity
  8
0
100
AcDbLine
 62
7
  6
CONTINUOUS
 10
0.0
 20
210.0
 11
297.0
 21
210.0
  0
LINE
  5
26E
100
AcDbEntity
  8
0
100
AcDbLine
 62
7
  6
CONTINUOUS
 10
297.0
 20
0.0
 11
297.0
 21
210.0
  0
LINE
  5
26F
100
AcDbEntity
  8
BEZUGSACHSEN
100
AcDbLine
 62
7
  6
CONTINUOUS
 10
35.5432792768
 20
124.9431355042
 11
35.5432792768
 21
103.6977368022
  0
LINE
  5
270
100
AcDbEntity
  8
BEZUGSACHSEN
100
AcDbLine
 62
9
  6
CONTINUOUS
 10
37.2546419385
 20
126.9221980315
 11
37.2546419385
 21
101.7186742749
  0
LINE
  5
271
100
AcDbEntity
  8
BEZUGSACHSEN
100
AcDbLine
 62
7
  6
CONTINUOUS
 10
103.2370614942
 20
136.5454361532
 11
103.2370614942
 21
92.0954361532
  0
LINE
  5
272
100
AcDbEntity
  8
BEZUGSACHSEN
100
AcDbLine
 62
7
  6
CENTER
 10
103.9432792768
 20
84.9525869698
 11
103.9432792768
 21
140.4143866198
  0
LINE
  5
273
100
AcDbEntity
  8
BEZUGSACHSEN
100
AcDbLine
 62
7
  6
CONTINUOUS
 10
104.5432792768
 20
136.1954361532
 11
104.5432792768
 21
92.4454361532
  0
LINE
  5
274
100
AcDbEntity
  8
BEZUGSACHSEN
100
AcDbLine
 62
9
  6
CONTINUOUS
 10
106.1932792768
 20
136.1954361532
 11
106.1932792768
 21
92.4454361532
  0
LINE
  5
275
100
AcDbEntity
  8
BEZUGSACHSEN
100
AcDbLine
 62
7
  6
CONTINUOUS
 10
107.1932792768
 20
145.077550304
 11
107.1932792768
 21
122.5204361532
  0
LINE
  5
276
100
AcDbEntity
  8
BEZUGSACHSEN
100
AcDbLine
 62
7
  6
CONTINUOUS
 10
107.1932792768
 20
89.7267250669
 11
107.1932792768
 21
83.5474679371
  0
LINE
  5
277
100
AcDbEntity
  8
0
100
AcDbLine
 62
7
  6
CONTINUOUS
 10
107.1932792768
 20
83.5454386579
 11
107.1932792768
 21
89.7267250669
  0
LINE
  5
278
100
AcDbEntity
  8
FASEN
100
AcDbLine
 62
7
  6
CONTINUOUS
 10
107.1932792768
 20
89.7267250669
 11
107.1932792768
 21
95.8204361532
  0
LINE
  5
279
100
AcDbEntity
  8
0
100
AcDbLine
 62
7
  6
CONTINUOUS
 10
107.1932792768
 20
95.8204361532
 11
107.1932792768
 21
106.1204361532
  0
LINE
  5
27A
100
AcDbEntity
  8
FASEN
100
AcDbLine
 62
7
  6
CONTINUOUS
 10
107.1932792768
 20
106.1204361532
 11
107.1932792768
 21
122.5204361532
  0
LINE
  5
27B
100
AcDbEntity
  8
0
100
AcDbLine
 62
7
  6
CONTINUOUS
 10
107.1932792768
 20
122.5204361532
 11
107.1932792768
 21
145.0954357117
  0
LINE
  5
27C
100
AcDbEntity
  8
0
100
AcDbLine
 62
9
  6
CONTINUOUS
 10
108.1932792768
 20
146.0954361532
 11
108.1932792768
 21
122.5204361532
  0
LINE
  5
27D
100
AcDbEntity
  8
0
100
AcDbLine
 62
9
  6
CONTINUOUS
 10
108.1932792768
 20
106.1204361532
 11
108.1932792768
 21
95.8204361532
  0
LINE
  5
27E
100
AcDbEntity
  8
0
100
AcDbLine
 62
9
  6
CONTINUOUS
 10
108.1932792768
 20
88.4863380463
 11
108.1932792768
 21
82.5454361532
  0
LINE
  5
27F
100
AcDbEntity
  8
BEZUGSACHSEN
100
AcDbLine
 62
7
  6
CONTINUOUS
 10
116.9932792768
 20
143.2180314174
 11
118.6545496756
 21
146.0954361532
  0
LINE
  5
280
100
AcDbEntity
  8
BEZUGSACHSEN
100
AcDbLine
 62
7
  6
CONTINUOUS
 10
108.1932792768
 20
82.5454361532
 11
111.582008878
 21
82.5454361532
  0
LINE
  5
281
100
AcDbEntity
  8
BEZUGSACHSEN
100
AcDbLine
 62
7
  6
CONTINUOUS
 10
118.6545496756
 20
82.5454361532
 11
122.0432792768
 21
82.5454361532
  0
LINE
  5
282
100
AcDbEntity
  8
BEZUGSACHSEN
100
AcDbLine
 62
7
  6
CONTINUOUS
 10
116.9932792768
 20
85.422840889
 11
118.6545496756
 21
82.5454361532
  0
LINE
  5
283
100
AcDbEntity
  8
0
100
AcDbLine
 62
7
  6
CONTINUOUS
 10
111.582008878
 20
82.5454361532
 11
111.582008878
 21
88.4863380463
  0
LINE
  5
284
100
AcDbEntity
  8
0
100
AcDbLine
 62
7
  6
CONTINUOUS
 10
111.582008878
 20
95.8204361532
 11
111.582008878
 21
106.1204361532
  0
LINE
  5
285
100
AcDbEntity
  8
0
100
AcDbLine
 62
7
  6
CONTINUOUS
 10
111.582008878
 20
122.5204361532
 11
111.582008878
 21
146.0954361532
  0
LINE
  5
286
100
AcDbEntity
  8
0
100
AcDbLine
 62
7
  6
CONTINUOUS
 10
113.2432792768
 20
143.2180309553
 11
113.2432792768
 21
141.7054525265
  0
LINE
  5
287
100
AcDbEntity
  8
BEZUGSACHSEN
100
AcDbLine
 62
7
  6
CONTINUOUS
 10
113.2432792768
 20
141.7054525265
 11
113.2432792768
 21
141.4492217375
  0
LINE
  5
288
100
AcDbEntity
  8
0
100
AcDbLine
 62
7
  6
CONTINUOUS
 10
113.2432792768
 20
141.2293806351
 11
113.2432792768
 21
122.5204361532
  0
LINE
  5
289
100
AcDbEntity
  8
0
100
AcDbLine
 62
7
  6
CONTINUOUS
 10
113.2432792768
 20
106.1204361532
 11
113.2432792768
 21
95.8204361532
  0
LINE
  5
28A
100
AcDbEntity
  8
0
100
AcDbLine
 62
7
  6
CONTINUOUS
 10
113.2432792768
 20
85.4228469296
 11
113.2432792768
 21
92.4768873344
  0
LINE
  5
28B
100
AcDbEntity
  8
0
100
AcDbLine
 62
9
  6
CONTINUOUS
 10
113.7432792768
 20
86.1954361532
 11
113.7432792768
 21
93.1363471948
  0
LINE
  5
28C
100
AcDbEntity
  8
0
100
AcDbLine
 62
9
  6
CONTINUOUS
 10
113.7432792768
 20
95.8204361532
 11
113.7432792768
 21
106.1204361532
  0
LINE
  5
28D
100
AcDbEntity
  8
0
100
AcDbLine
 62
9
  6
CONTINUOUS
 10
113.7432792768
 20
122.5204361532
 11
113.7432792768
 21
140.2172897462
  0
LINE
  5
28E
100
AcDbEntity
  8
0
100
AcDbLine
 62
9
  6
CONTINUOUS
 10
113.7432792768
 20
141.2107684855
 11
113.7432792768
 21
142.4454361532
  0
LINE
  5
28F
100
AcDbEntity
  8
BEZUGSACHSEN
100
AcDbLine
 62
7
  6
CONTINUOUS
 10
145.946040691
 20
91.8204361532
 11
154.8525610194
 21
93.4901205467
  0
LINE
  5
290
100
AcDbEntity
  8
BEZUGSACHSEN
100
AcDbLine
 62
7
  6
CONTINUOUS
 10
156.0254272907
 20
93.7099950247
 11
164.2544188348
 21
95.2526646924
  0
LINE
  5
291
100
AcDbEntity
  8
BEZUGSACHSEN
100
AcDbLine
 62
7
  6
CONTINUOUS
 10
113.7432792768
 20
86.1954361532
 11
116.4932792768
 21
86.1954361532
  0
LINE
  5
292
100
AcDbEntity
  8
0
100
AcDbLine
 62
7
  6
CONTINUOUS
 10
108.1932792768
 20
88.4863380463
 11
111.582008878
 21
88.4863380463
  0
LINE
  5
293
100
AcDbEntity
  8
0
100
AcDbLine
 62
7
  6
CONTINUOUS
 10
118.6545496756
 20
88.4863380463
 11
122.0432792768
 21
88.4863380463
  0
LINE
  5
294
100
AcDbEntity
  8
BEZUGSACHSEN
100
AcDbLine
 62
7
  6
CONTINUOUS
 10
124.0432792768
 20
91.8204361532
 11
145.946040691
 21
91.8204361532
  0
LINE
  5
295
100
AcDbEntity
  8
BEZUGSACHSEN
100
AcDbLine
 62
7
  6
CONTINUOUS
 10
104.5432792768
 20
92.4454361532
 11
106.1932792768
 21
92.4454361532
  0
LINE
  5
296
100
AcDbEntity
  8
BEZUGSACHSEN
100
AcDbLine
 62
7
  6
CONTINUOUS
 10
37.2546419385
 20
101.7186742749
 11
103.2370614942
 21
92.0954361532
  0
LINE
  5
297
100
AcDbEntity
  8
0
100
AcDbLine
 62
9
  6
CONTINUOUS
 10
116.4932792768
 20
86.1954361532
 11
116.4932792768
 21
93.1363471948
  0
LINE
  5
298
100
AcDbEntity
  8
0
100
AcDbLine
 62
9
  6
CONTINUOUS
 10
116.4932792768
 20
95.8204361532
 11
116.4932792768
 21
106.1204361532
  0
LINE
  5
299
100
AcDbEntity
  8
0
100
AcDbLine
 62
9
  6
CONTINUOUS
 10
116.4932792768
 20
122.5204361532
 11
116.4932792768
 21
140.2172897462
  0
LINE
  5
29A
100
AcDbEntity
  8
0
100
AcDbLine
 62
9
  6
CONTINUOUS
 10
116.4932792768
 20
141.2107684855
 11
116.4932792768
 21
142.4454361532
  0
LINE
  5
29B
100
AcDbEntity
  8
BEZUGSACHSEN
100
AcDbLine
 62
7
  6
CONTINUOUS
 10
116.9932792768
 20
141.7054525265
 11
116.9932792768
 21
141.4492217375
  0
LINE
  5
29C
100
AcDbEntity
  8
0
100
AcDbLine
 62
7
  6
CONTINUOUS
 10
116.9932792768
 20
141.2293806351
 11
116.9932792768
 21
122.5204361532
  0
LINE
  5
29D
100
AcDbEntity
  8
0
100
AcDbLine
 62
7
  6
CONTINUOUS
 10
116.9932792768
 20
85.4228469296
 11
116.9932792768
 21
92.4768873344
  0
LINE
  5
29E
100
AcDbEntity
  8
0
100
AcDbLine
 62
7
  6
CONTINUOUS
 10
116.9932792768
 20
95.8204361532
 11
116.9932792768
 21
106.1204361532
  0
LINE
  5
29F
100
AcDbEntity
  8
0
100
AcDbLine
 62
7
  6
CONTINUOUS
 10
116.9932792768
 20
141.7054525265
 11
116.9932792768
 21
143.2180309553
  0
LINE
  5
2A0
100
AcDbEntity
  8
0
100
AcDbLine
 62
7
  6
CONTINUOUS
 10
118.6545496756
 20
146.0954361532
 11
118.6545496756
 21
122.5204361532
  0
LINE
  5
2A1
100
AcDbEntity
  8
0
100
AcDbLine
 62
7
  6
CONTINUOUS
 10
118.6545496756
 20
106.1204361532
 11
118.6545496756
 21
95.8204361532
  0
LINE
  5
2A2
100
AcDbEntity
  8
0
100
AcDbLine
 62
7
  6
CONTINUOUS
 10
118.6545496756
 20
88.4863380463
 11
118.6545496756
 21
82.5454361532
  0
LINE
  5
2A3
100
AcDbEntity
  8
0
100
AcDbLine
 62
9
  6
CONTINUOUS
 10
122.0432792768
 20
82.5454361532
 11
122.0432792768
 21
88.4863380463
  0
LINE
  5
2A4
100
AcDbEntity
  8
0
100
AcDbLine
 62
9
  6
CONTINUOUS
 10
122.0432792768
 20
95.8204361532
 11
122.0432792768
 21
106.1204361532
  0
LINE
  5
2A5
100
AcDbEntity
  8
0
100
AcDbLine
 62
9
  6
CONTINUOUS
 10
122.0432792768
 20
122.5204361532
 11
122.0432792768
 21
146.0954361532
  0
LINE
  5
2A6
100
AcDbEntity
  8
0
100
AcDbLine
 62
7
  6
CONTINUOUS
 10
113.7432792768
 20
93.1363471948
 11
116.4932792768
 21
93.1363471948
  0
LINE
  5
2A7
100
AcDbEntity
  8
FASEN
100
AcDbLine
 62
7
  6
CONTINUOUS
 10
107.1932792768
 20
95.4204361532
 11
123.0432792768
 21
95.4204361532
  0
LINE
  5
2A8
100
AcDbEntity
  8
0
100
AcDbLine
 62
7
  6
CONTINUOUS
 10
107.1932792768
 20
95.8204361532
 11
123.0432792768
 21
95.8204361532
  0
LINE
  5
2A9
100
AcDbEntity
  8
BEZUGSACHSEN
100
AcDbLine
 62
7
  6
CONTINUOUS
 10
165.6551594922
 20
96.3204361532
 11
166.9432792768
 21
96.3204361532
  0
LINE
  5
2AA
100
AcDbEntity
  8
BEZUGSACHSEN
100
AcDbLine
 62
7
  6
CONTINUOUS
 10
171.9432792768
 20
96.3204361532
 11
173.6494546786
 21
96.3204361532
  0
LWPOLYLINE
  5
2AB
100
AcDbEntity
  8
0
100
AcDbPolyline
 62
7
  6
CONTINUOUS
 90
10
 70
0
 10
153.5004011966
 20
93.4568051581
 10
153.4911611729
 20
93.4568595119
 10
153.4844392912
 20
93.456998254
 10
153.484152022
 20
93.4569982627
 10
153.4907571413
 20
93.4565587807
 10
153.5048650628
 20
93.4552770087
 10
153.5261547353
 20
93.4527499647
 10
153.5547929032
 20
93.4484637939
 10
153.5893142996
 20
93.4421304367
 10
153.6156382158
 20
93.4365129562
  0
LINE
  5
2AC
100
AcDbEntity
  8
BEZUGSACHSEN
100
AcDbLine
 62
7
  6
CONTINUOUS
 10
123.0432792768
 20
145.077550304
 11
123.0432792768
 21
122.5204361532
  0
LINE
  5
2AD
100
AcDbEntity
  8
0
100
AcDbLine
 62
7
  6
CONTINUOUS
 10
123.0432792768
 20
145.0954357117
 11
123.0432792768
 21
122.5204361532
  0
LINE
  5
2AE
100
AcDbEntity
  8
0
100
AcDbLine
 62
7
  6
CONTINUOUS
 10
123.0432792768
 20
106.1204361532
 11
123.0432792768
 21
95.8204361532
  0
LINE
  5
2AF
100
AcDbEntity
  8
BEZUGSACHSEN
100
AcDbLine
 62
7
  6
CONTINUOUS
 10
123.0432792768
 20
89.7267250669
 11
123.0432792768
 21
83.5474679371
  0
LINE
  5
2B0
100
AcDbEntity
  8
0
100
AcDbLine
 62
7
  6
CONTINUOUS
 10
123.0432792768
 20
89.7267250669
 11
123.0432792768
 21
83.5454386579
  0
LINE
  5
2B1
100
AcDbEntity
  8
FASEN
100
AcDbLine
 62
7
  6
CONTINUOUS
 10
123.0432792768
 20
89.7267250669
 11
123.0432792768
 21
95.8204361532
  0
LINE
  5
2B2
100
AcDbEntity
  8
FASEN
100
AcDbLine
 62
7
  6
CONTINUOUS
 10
123.0432792768
 20
106.1204361532
 11
123.0432792768
 21
122.5204361532
  0
LINE
  5
2B3
100
AcDbEntity
  8
RUNDUNGEN
100
AcDbLine
 62
9
  6
CONTINUOUS
 10
124.0432792768
 20
136.8204361532
 11
124.0432792768
 21
91.8204361532
  0
LINE
  5
2B4
100
AcDbEntity
  8
BEZUGSACHSEN
100
AcDbLine
 62
7
  6
CONTINUOUS
 10
103.2370614942
 20
92.0954361532
 11
104.5432792768
 21
92.4454361532
  0
LINE
  5
2B5
100
AcDbEntity
  8
BEZUGSACHSEN
100
AcDbLine
 62
7
  6
CONTINUOUS
 10
184.7099552023
 20
106.2402269718
 11
233.6589800637
 21
108.8055366628
  0
LINE
  5
2B6
100
AcDbEntity
  8
0
100
AcDbLine
 62
7
  6
CONTINUOUS
 10
107.1932792768
 20
106.1204361532
 11
123.0432792768
 21
106.1204361532
  0
LINE
  5
2B7
100
AcDbEntity
  8
FASEN
100
AcDbLine
 62
7
  6
CONTINUOUS
 10
123.0432792768
 20
106.5204361532
 11
107.1932792768
 21
106.5204361532
  0
LINE
  5
2B8
100
AcDbEntity
  8
BEZUGSACHSEN
100
AcDbLine
 62
7
  6
CONTINUOUS
 10
111.582008878
 20
82.5454361532
 11
113.2432792768
 21
85.422840889
  0
LINE
  5
2B9
100
AcDbEntity
  8
DEFAULT_2
100
AcDbLine
 62
8
  6
HIDDEN
 10
232.9432792768
 20
111.8204361532
 11
218.9534944316
 21
111.8204361532
  0
LINE
  5
2BA
100
AcDbEntity
  8
BEZUGSACHSEN
100
AcDbLine
 62
7
  6
CONTINUOUS
 10
111.582008878
 20
146.0954361532
 11
113.2432792768
 21
143.2180314174
  0
LINE
  5
2BB
100
AcDbEntity
  8
DEFAULT_1
100
AcDbLine
 62
7
  6
CENTER
 10
169.4432792768
 20
114.3204361532
 11
156.0258810839
 21
114.3204361532
  0
LINE
  5
2BC
100
AcDbEntity
  8
DEFAULT_1
100
AcDbLine
 62
7
  6
CENTER
 10
154.8530148126
 20
114.3204361532
 11
148.3839588019
 21
114.3204361532
  0
LINE
  5
2BD
100
AcDbEntity
  8
BEZUGSACHSEN
100
AcDbLine
 62
7
  6
CENTER
 10
238.9432792768
 20
114.3204361532
 11
32.5432792768
 21
114.3204361532
  0
LINE
  5
2BE
100
AcDbEntity
  8
0
100
AcDbLine
 62
9
  6
CONTINUOUS
 10
154.8530148126
 20
114.3204361532
 11
156.0258810839
 21
114.3204361532
  0
LINE
  5
2BF
100
AcDbEntity
  8
DEFAULT_1
100
AcDbLine
 62
7
  6
CENTER
 10
169.4432792768
 20
114.3204361532
 11
190.5025997518
 21
114.3204361532
  0
LINE
  5
2C0
100
AcDbEntity
  8
DEFAULT_2
100
AcDbLine
 62
8
  6
HIDDEN
 10
232.9432792768
 20
116.8204361532
 11
218.9534944316
 21
116.8204361532
  0
LINE
  5
2C1
100
AcDbEntity
  8
BEZUGSACHSEN
100
AcDbLine
 62
7
  6
CONTINUOUS
 10
145.946040691
 20
136.8204361532
 11
145.946040691
 21
91.8204361532
  0
LINE
  5
2C2
100
AcDbEntity
  8
FASEN
100
AcDbLine
 62
7
  6
CONTINUOUS
 10
107.1932792768
 20
122.1204361532
 11
123.0432792768
 21
122.1204361532
  0
LINE
  5
2C3
100
AcDbEntity
  8
0
100
AcDbLine
 62
7
  6
CONTINUOUS
 10
107.1932792768
 20
122.5204361532
 11
123.0432792768
 21
122.5204361532
  0
LINE
  5
2C4
100
AcDbEntity
  8
BEZUGSACHSEN
100
AcDbLine
 62
7
  6
CONTINUOUS
 10
184.7099552023
 20
122.4006453347
 11
233.6589800637
 21
119.8353356436
  0
LINE
  5
2C5
100
AcDbEntity
  8
BEZUGSACHSEN
100
AcDbLine
 62
7
  6
CONTINUOUS
 10
103.2370614942
 20
136.5454361532
 11
104.5432792768
 21
136.1954361532
  0
LINE
  5
2C6
100
AcDbEntity
  8
BEZUGSACHSEN
100
AcDbLine
 62
7
  6
CONTINUOUS
 10
165.6551594922
 20
132.3204361532
 11
166.9432792768
 21
132.3204361532
  0
LINE
  5
2C7
100
AcDbEntity
  8
BEZUGSACHSEN
100
AcDbLine
 62
7
  6
CONTINUOUS
 10
171.9432792768
 20
132.3204361532
 11
173.6494546786
 21
132.3204361532
  0
LINE
  5
2C8
100
AcDbEntity
  8
BEZUGSACHSEN
100
AcDbLine
 62
9
  6
CONTINUOUS
 10
164.2544188348
 20
133.3882076141
 11
164.2544188348
 21
95.2526646924
  0
LINE
  5
2C9
100
AcDbEntity
  8
BEZUGSACHSEN
100
AcDbLine
 62
9
  6
CONTINUOUS
 10
164.7998329064
 20
133.0019052568
 11
164.7998329064
 21
95.6389670497
  0
LINE
  5
2CA
100
AcDbEntity
  8
BEZUGSACHSEN
100
AcDbLine
 62
7
  6
CONTINUOUS
 10
37.2546419385
 20
126.9221980315
 11
103.2370614942
 21
136.5454361532
  0
LINE
  5
2CB
100
AcDbEntity
  8
BEZUGSACHSEN
100
AcDbLine
 62
7
  6
CONTINUOUS
 10
104.5432792768
 20
136.1954361532
 11
106.1932792768
 21
136.1954361532
  0
LINE
  5
2CC
100
AcDbEntity
  8
BEZUGSACHSEN
100
AcDbLine
 62
7
  6
CONTINUOUS
 10
124.0432792768
 20
136.8204361532
 11
145.946040691
 21
136.8204361532
  0
LINE
  5
2CD
100
AcDbEntity
  8
BEZUGSACHSEN
100
AcDbLine
 62
7
  6
CONTINUOUS
 10
145.946040691
 20
136.8204361532
 11
154.8525610194
 21
135.1507517598
  0
LINE
  5
2CE
100
AcDbEntity
  8
BEZUGSACHSEN
100
AcDbLine
 62
7
  6
CONTINUOUS
 10
156.0254272907
 20
134.9308772817
 11
164.2544188348
 21
133.3882076141
  0
LWPOLYLINE
  5
2CF
100
AcDbEntity
  8
0
100
AcDbPolyline
 62
7
  6
CONTINUOUS
 90
10
 70
0
 10
157.3800408134
 20
134.4542938433
 10
157.3904975595
 20
134.4502466086
 10
157.3982213396
 20
134.4471188097
 10
157.3990629013
 20
134.4467728139
 10
157.3929465415
 20
134.4496030436
 10
157.3795157058
 20
134.4562367993
 10
157.3597831183
 20
134.466716353
 10
157.3344262607
 20
134.4812513554
 10
157.3047164329
 20
134.4996633872
 10
157.2871997695
 20
134.5111847871
  0
LINE
  5
2D0
100
AcDbEntity
  8
BEZUGSACHSEN
100
AcDbLine
 62
9
  6
CONTINUOUS
 10
164.9623391691
 20
132.7204361532
 11
164.9623391691
 21
95.9204361532
  0
LINE
  5
2D1
100
AcDbEntity
  8
BEZUGSACHSEN
100
AcDbLine
 62
9
  6
CONTINUOUS
 10
165.6551594922
 20
132.3204361532
 11
165.6551594922
 21
96.3204361532
  0
LINE
  5
2D2
100
AcDbEntity
  8
DEFAULT_1
100
AcDbLine
 62
7
  6
CENTER
 10
169.4432792768
 20
114.3204361532
 11
169.4432792768
 21
93.2611156783
  0
LINE
  5
2D3
100
AcDbEntity
  8
DEFAULT_1
100
AcDbLine
 62
7
  6
CENTER
 10
169.4432792768
 20
114.3204361532
 11
169.4432792768
 21
135.3797566282
  0
LINE
  5
2D4
100
AcDbEntity
  8
BEZUGSACHSEN
100
AcDbLine
 62
7
  6
CONTINUOUS
 10
164.7998329064
 20
95.6389670497
 11
164.9623391691
 21
95.9204361532
  0
LINE
  5
2D5
100
AcDbEntity
  8
BEZUGSACHSEN
100
AcDbLine
 62
7
  6
CONTINUOUS
 10
113.7432792768
 20
142.4454361532
 11
116.4932792768
 21
142.4454361532
  0
LINE
  5
2D6
100
AcDbEntity
  8
BEZUGSACHSEN
100
AcDbLine
 62
7
  6
CONTINUOUS
 10
108.1932792768
 20
146.0954361532
 11
111.582008878
 21
146.0954361532
  0
LINE
  5
2D7
100
AcDbEntity
  8
BEZUGSACHSEN
100
AcDbLine
 62
7
  6
CONTINUOUS
 10
118.6545496756
 20
146.0954361532
 11
122.0432792768
 21
146.0954361532
  0
LINE
  5
2D8
100
AcDbEntity
  8
BEZUGSACHSEN
100
AcDbLine
 62
7
  6
CONTINUOUS
 10
164.7998329064
 20
133.0019052568
 11
164.9623391691
 21
132.7204361532
  0
LINE
  5
2D9
100
AcDbEntity
  8
BEZUGSACHSEN
100
AcDbLine
 62
9
  6
CONTINUOUS
 10
173.6494546786
 20
132.3204361532
 11
173.6494546786
 21
96.3204361532
  0
LINE
  5
2DA
100
AcDbEntity
  8
BEZUGSACHSEN
100
AcDbLine
 62
9
  6
CONTINUOUS
 10
174.3565614598
 20
132.0275429344
 11
174.3565614598
 21
96.613329372
  0
LINE
  5
2DB
100
AcDbEntity
  8
BEZUGSACHSEN
100
AcDbLine
 62
7
  6
CONTINUOUS
 10
174.3565614598
 20
96.613329372
 11
183.4004135524
 21
105.6571814646
  0
LINE
  5
2DC
100
AcDbEntity
  8
BEZUGSACHSEN
100
AcDbLine
 62
7
  6
CONTINUOUS
 10
174.3565614598
 20
132.0275429344
 11
183.4004135524
 21
122.9836908418
  0
LINE
  5
2DD
100
AcDbEntity
  8
BEZUGSACHSEN
100
AcDbLine
 62
9
  6
CONTINUOUS
 10
183.4004135524
 20
122.9836908418
 11
183.4004135524
 21
105.6571814646
  0
LINE
  5
2DE
100
AcDbEntity
  8
BEZUGSACHSEN
100
AcDbLine
 62
9
  6
CONTINUOUS
 10
184.7099552023
 20
122.4006453347
 11
184.7099552023
 21
106.2402269718
  0
LINE
  5
2DF
100
AcDbEntity
  8
DEFAULT_2
100
AcDbLine
 62
8
  6
HIDDEN
 10
218.8032792768
 20
117.0704361532
 11
218.8032792768
 21
111.5704361532
  0
LINE
  5
2E0
100
AcDbEntity
  8
BEZUGSACHSEN
100
AcDbLine
 62
9
  6
CONTINUOUS
 10
233.6589800637
 20
119.8353356436
 11
233.6589800637
 21
108.8055366628
  0
LINE
  5
2E1
100
AcDbEntity
  8
BEZUGSACHSEN
100
AcDbLine
 62
7
  6
CONTINUOUS
 10
233.9432792768
 20
119.5357467832
 11
233.9432792768
 21
109.1051255232
  0
CIRCLE
  5
2E2
100
AcDbEntity
  8
BEZUGSACHSEN
100
AcDbCircle
 62
7
  6
CONTINUOUS
 10
115.0432792768
 20
114.3204361532
 40
5.0
  0
CIRCLE
  5
2E3
100
AcDbEntity
  8
BEZUGSACHSEN
100
AcDbCircle
 62
7
  6
CONTINUOUS
 10
115.0432792768
 20
114.3204361532
 40
4.7
  0
CIRCLE
  5
2E4
100
AcDbEntity
  8
BEZUGSACHSEN
100
AcDbCircle
 62
7
  6
CONTINUOUS
 10
115.0432792768
 20
114.3204361532
 40
2.0
  0
ARC
  5
2E5
100
AcDbEntity
  8
BEZUGSACHSEN
100
AcDbCircle
 62
7
  6
CONTINUOUS
 10
37.5432792768
 20
103.6977368022
 40
2.0
100
AcDbArc
 50
180.0
 51
261.7021731718
  0
ARC
  5
2E6
100
AcDbEntity
  8
BEZUGSACHSEN
100
AcDbCircle
 62
7
  6
CONTINUOUS
 10
106.1932792768
 20
91.4454361532
 40
1.0
100
AcDbArc
 50
0.0
 51
90.0
  0
ARC
  5
2E7
100
AcDbEntity
  8
BEZUGSACHSEN
100
AcDbCircle
 62
7
  6
CONTINUOUS
 10
108.1932792768
 20
83.5454361532
 40
1.0
100
AcDbArc
 50
180.0
 51
270.0
  0
ARC
  5
2E8
100
AcDbEntity
  8
BEZUGSACHSEN
100
AcDbCircle
 62
7
  6
CONTINUOUS
 10
113.7432792768
 20
85.6954361532
 40
0.5
100
AcDbArc
 50
90.0
 51
180.0
  0
ARC
  5
2E9
100
AcDbEntity
  8
0
100
AcDbCircle
 62
7
  6
CONTINUOUS
 10
-60.3774273251
 20
169.2878636052
 40
189.9972240795
100
AcDbArc
 50
334.8317727047
 51
336.0368933894
  0
ARC
  5
2EA
100
AcDbEntity
  8
BEZUGSACHSEN
100
AcDbCircle
 62
7
  6
CONTINUOUS
 10
37.5432792768
 20
124.9431355042
 40
2.0
100
AcDbArc
 50
98.2978268282
 51
180.0
  0
ARC
  5
2EB
100
AcDbEntity
  8
BEZUGSACHSEN
100
AcDbCircle
 62
7
  6
CONTINUOUS
 10
106.1932792768
 20
137.1954361532
 40
1.0
100
AcDbArc
 50
270.0
 51
360.0
  0
ARC
  5
2EC
100
AcDbEntity
  8
BEZUGSACHSEN
100
AcDbCircle
 62
7
  6
CONTINUOUS
 10
108.1932792768
 20
145.0954361532
 40
1.0
100
AcDbArc
 50
90.0
 51
180.0
  0
ARC
  5
2ED
100
AcDbEntity
  8
BEZUGSACHSEN
100
AcDbCircle
 62
7
  6
CONTINUOUS
 10
113.7432792768
 20
142.9454361532
 40
0.5
100
AcDbArc
 50
180.0
 51
270.0
  0
ARC
  5
2EE
100
AcDbEntity
  8
0
100
AcDbCircle
 62
7
  6
CONTINUOUS
 10
150.395592389
 20
104.9273308454
 40
30.5271650787
100
AcDbArc
 50
79.3726522946
 51
80.4894450721
  0
ARC
  5
2EF
100
AcDbEntity
  8
0
100
AcDbCircle
 62
7
  6
CONTINUOUS
 10
151.4012425867
 20
115.0402162671
 40
20.3971841925
100
AcDbArc
 50
76.6525997439
 51
77.05867678
  0
ARC
  5
2F0
100
AcDbEntity
  8
GEWINDE
100
AcDbCircle
 62
7
  6
CONTINUOUS
 10
169.4432811777
 20
78.4938335103
 40
18.0008522335
100
AcDbArc
 50
82.016918076
 51
97.9830939071
  0
ARC
  5
2F1
100
AcDbEntity
  8
0
100
AcDbCircle
 62
2
  6
CONTINUOUS
 10
169.4432792768
 20
114.3204361532
 40
3.0
100
AcDbArc
 50
180.0000000001
 51
179.8424099645
  0
CIRCLE
  5
2F2
100
AcDbEntity
  8
GEWINDE
100
AcDbCircle
 62
7
  6
CONTINUOUS
 10
169.4432792768
 20
114.3204361532
 40
2.5
  0
ARC
  5
2F3
100
AcDbEntity
  8
BEZUGSACHSEN
100
AcDbCircle
 62
7
  6
CONTINUOUS
 10
184.8146271147
 20
104.2429679022
 40
2.0
100
AcDbArc
 50
93.0
 51
135.0
  0
ARC
  5
2F4
100
AcDbEntity
  8
RUNDUNGEN
100
AcDbCircle
 62
7
  6
CONTINUOUS
 10
124.0432792768
 20
90.8204361532
 40
1.0
100
AcDbArc
 50
90.0
 51
180.0
  0
ARC
  5
2F5
100
AcDbEntity
  8
BEZUGSACHSEN
100
AcDbCircle
 62
7
  6
CONTINUOUS
 10
173.6494546786
 20
97.3204361532
 40
1.0
100
AcDbArc
 50
270.0
 51
315.0
  0
ARC
  5
2F6
100
AcDbEntity
  8
BEZUGSACHSEN
100
AcDbCircle
 62
7
  6
CONTINUOUS
 10
122.0432792768
 20
83.5454361532
 40
1.0
100
AcDbArc
 50
270.0
 51
360.0
  0
ARC
  5
2F7
100
AcDbEntity
  8
BEZUGSACHSEN
100
AcDbCircle
 62
7
  6
CONTINUOUS
 10
164.1070125834
 20
96.0389670497
 40
0.8
100
AcDbArc
 50
280.6178644346
 51
330.0
  0
ARC
  5
2F8
100
AcDbEntity
  8
BEZUGSACHSEN
100
AcDbCircle
 62
7
  6
CONTINUOUS
 10
165.6551594922
 20
95.5204361532
 40
0.8
100
AcDbArc
 50
90.0
 51
150.0
  0
ARC
  5
2F9
100
AcDbEntity
  8
BEZUGSACHSEN
100
AcDbCircle
 62
7
  6
CONTINUOUS
 10
116.4932792768
 20
85.6954361532
 40
0.5
100
AcDbArc
 50
0.0
 51
90.0
  0
ARC
  5
2FA
100
AcDbEntity
  8
0
100
AcDbCircle
 62
7
  6
CONTINUOUS
 10
153.7055368979
 20
93.8178650061
 40
0.391842217
100
AcDbArc
 50
252.3106792466
 51
256.7572822609
  0
ARC
  5
2FB
100
AcDbEntity
  8
BEZUGSACHSEN
100
AcDbCircle
 62
7
  6
CONTINUOUS
 10
233.6432792768
 20
119.5357467832
 40
0.3
100
AcDbArc
 50
0.0
 51
87.0
  0
ARC
  5
2FC
100
AcDbEntity
  8
BEZUGSACHSEN
100
AcDbCircle
 62
7
  6
CONTINUOUS
 10
233.6432792768
 20
109.1051255232
 40
0.3
100
AcDbArc
 50
273.0
 51
360.0
  0
ARC
  5
2FD
100
AcDbEntity
  8
0
100
AcDbCircle
 62
7
  6
CONTINUOUS
 10
290.6139858786
 20
169.2878636042
 40
189.9972240794
100
AcDbArc
 50
203.9631066104
 51
205.168227295
  0
ARC
  5
2FE
100
AcDbEntity
  8
0
100
AcDbCircle
 62
7
  6
CONTINUOUS
 10
149.1432809221
 20
123.9591129149
 40
30.9992799449
100
AcDbArc
 50
280.6130137041
 51
281.7189354549
  0
ARC
  5
2FF
100
AcDbEntity
  8
GEWINDE
100
AcDbCircle
 62
7
  6
CONTINUOUS
 10
169.4432792765
 20
150.1471454397
 40
18.0009585021
100
AcDbArc
 50
262.0169592265
 51
277.9830407756
  0
ARC
  5
300
100
AcDbEntity
  8
BEZUGSACHSEN
100
AcDbCircle
 62
7
  6
CONTINUOUS
 10
184.8146271147
 20
124.3979044042
 40
2.0
100
AcDbArc
 50
225.0
 51
267.0
  0
ARC
  5
301
100
AcDbEntity
  8
RUNDUNGEN
100
AcDbCircle
 62
7
  6
CONTINUOUS
 10
124.0432792768
 20
137.8204361532
 40
1.0
100
AcDbArc
 50
180.0
 51
270.0
  0
ARC
  5
302
100
AcDbEntity
  8
BEZUGSACHSEN
100
AcDbCircle
 62
7
  6
CONTINUOUS
 10
173.6494546786
 20
131.3204361532
 40
1.0
100
AcDbArc
 50
45.0
 51
90.0
  0
ARC
  5
303
100
AcDbEntity
  8
BEZUGSACHSEN
100
AcDbCircle
 62
7
  6
CONTINUOUS
 10
122.0432792768
 20
145.0954361532
 40
1.0
100
AcDbArc
 50
0.0
 51
90.0
  0
ARC
  5
304
100
AcDbEntity
  8
BEZUGSACHSEN
100
AcDbCircle
 62
7
  6
CONTINUOUS
 10
164.1070125834
 20
132.6019052568
 40
0.8
100
AcDbArc
 50
30.0
 51
79.3821355654
  0
ARC
  5
305
100
AcDbEntity
  8
BEZUGSACHSEN
100
AcDbCircle
 62
7
  6
CONTINUOUS
 10
165.6551594922
 20
133.1204361532
 40
0.8
100
AcDbArc
 50
210.0
 51
270.0
  0
ARC
  5
306
100
AcDbEntity
  8
BEZUGSACHSEN
100
AcDbCircle
 62
7
  6
CONTINUOUS
 10
116.4932792768
 20
142.9454361532
 40
0.5
100
AcDbArc
 50
270.0
 51
360.0
  0
ARC
  5
307
100
AcDbEntity
  8
0
100
AcDbCircle
 62
7
  6
CONTINUOUS
 10
157.0595235375
 20
134.1771770548
 40
0.4041673939
100
AcDbArc
 50
51.1865737821
 51
55.7258132114
  0
SPLINE
  5
308
100
AcDbEntity
  8
0
100
AcDbSpline
 62
2
  6
CONTINUOUS
 70
0
 71
3
 72
29
 73
25
 74
23
 42
0.0000001
 43
0.0000001
 44
0.0000000001
 12
-0.0253038713
 22
0.0042172968
 32
0.0
 13
-0.0257144819
 23
-0.0042857312
 33
0.0
 40
0.0
 40
0.0
 40
0.0
 40
0.0
 40
0.0454545455
 40
0.0909090909
 40
0.1363636364
 40
0.1818181818
 40
0.2272727273
 40
0.2727272727
 40
0.3181818182
 40
0.3636363636
 40
0.4090909091
 40
0.4545454545
 40
0.5
 40
0.5454545455
 40
0.5909090909
 40
0.6363636364
 40
0.6818181818
 40
0.7272727273
 40
0.7727272727
 40
0.8181818182
 40
0.8636363636
 40
0.9090909091
 40
0.9545454545
 40
1.0
 40
1.0
 40
1.0
 40
1.0
 10
172.4432682854
 20
96.3204379231
 30
0.0
 10
172.4428848934
 20
96.3205018216
 30
0.0
 10
172.4220736158
 20
96.3239876509
 30
0.0
 10
172.3303359108
 20
96.3390411524
 30
0.0
 10
172.1807233519
 20
96.3626159844
 30
0.0
 10
171.9737831543
 20
96.3931948333
 30
0.0
 10
171.716682333
 20
96.4279192068
 30
0.0
 10
171.4100484225
 20
96.4645330954
 30
0.0
 10
171.0665144631
 20
96.4993403039
 30
0.0
 10
170.6873939905
 20
96.5300711938
 30
0.0
 10
170.2871081471
 20
96.5537247079
 30
0.0
 10
169.8685427798
 20
96.5687873443
 30
0.0
 10
169.4433402906
 20
96.5739008354
 30
0.0
 10
169.0181302049
 20
96.5687901368
 30
0.0
 10
168.5995658181
 20
96.5537301442
 30
0.0
 10
168.199279648
 20
96.5300793592
 30
0.0
 10
167.8201395659
 20
96.4993490077
 30
0.0
 10
167.4766143781
 20
96.4645446743
 30
0.0
 10
167.1699439252
 20
96.4279278887
 30
0.0
 10
166.9128541804
 20
96.3932059827
 30
0.0
 10
166.7058763735
 20
96.3626223579
 30
0.0
 10
166.5562615701
 20
96.3390474089
 30
0.0
 10
166.4644979845
 20
96.3239898467
 30
0.0
 10
166.4436802435
 20
96.3205029167
 30
0.0
 10
166.4432906301
 20
96.3204379814
 30
0.0
 11
172.4432682854
 21
96.3204379231
 31
0.0
 11
172.4119868177
 21
96.3256251105
 31
0.0
 11
172.3206901018
 21
96.3404613742
 31
0.0
 11
172.1711687454
 21
96.3637833206
 31
0.0
 11
171.9654230503
 21
96.393885754
 31
0.0
 11
171.7084268181
 21
96.428234126
 31
0.0
 11
171.4038984143
 21
96.4642319821
 31
0.0
 11
171.0605833776
 21
96.4986609175
 31
0.0
 11
170.6838664287
 21
96.5288916311
 31
0.0
 11
170.2840615598
 21
96.5522928949
 31
0.0
 11
169.8674365928
 21
96.5671291534
 31
0.0
 11
169.4433390245
 21
96.5721968038
 31
0.0
 11
169.0192378214
 21
96.5671319212
 31
0.0
 11
168.6026121875
 21
96.5522983455
 31
0.0
 11
168.202803996
 21
96.5288994314
 31
0.0
 11
167.8260753816
 21
96.4986700107
 31
0.0
 11
167.4827568339
 21
96.4642425989
 31
0.0
 11
167.1782073765
 21
96.4282437019
 31
0.0
 11
166.92120617
 21
96.3938956962
 31
0.0
 11
166.7154368741
 21
96.3637904705
 31
0.0
 11
166.5659034397
 21
96.3404669734
 31
0.0
 11
166.4745874802
 21
96.3256277079
 31
0.0
 11
166.4432906301
 21
96.3204379814
 31
0.0
  0
SPLINE
  5
309
100
AcDbEntity
  8
0
100
AcDbSpline
 62
2
  6
CONTINUOUS
 70
0
 71
3
 72
29
 73
25
 74
23
 42
0.0000001
 43
0.0000001
 44
0.0000000001
 12
0.0256930562
 22
-0.0042821603
 32
0.0
 13
0.0256959066
 23
0.0042826353
 33
0.0
 40
0.0
 40
0.0
 40
0.0
 40
0.0
 40
0.0454545455
 40
0.0909090909
 40
0.1363636364
 40
0.1818181818
 40
0.2272727273
 40
0.2727272727
 40
0.3181818182
 40
0.3636363636
 40
0.4090909091
 40
0.4545454545
 40
0.5
 40
0.5454545455
 40
0.5909090909
 40
0.6363636364
 40
0.6818181818
 40
0.7272727273
 40
0.7727272727
 40
0.8181818182
 40
0.8636363636
 40
0.9090909091
 40
0.9545454545
 40
1.0
 40
1.0
 40
1.0
 40
1.0
 10
166.4432906115
 20
132.320434328
 30
0.0
 10
166.4436799003
 20
132.3203694468
 30
0.0
 10
166.4644979733
 20
132.3168824853
 30
0.0
 10
166.5562440989
 20
132.3018276961
 30
0.0
 10
166.7058610235
 20
132.2782523708
 30
0.0
 10
166.9128011957
 20
132.247673867
 30
0.0
 10
167.1699006113
 20
132.2129498938
 30
0.0
 10
167.4765544484
 20
132.176334413
 30
0.0
 10
167.8200629184
 20
132.1415301911
 30
0.0
 10
168.1992169268
 20
132.1107975487
 30
0.0
 10
168.59945957
 20
132.0871471093
 30
0.0
 10
169.0180686232
 20
132.0720837701
 30
0.0
 10
169.4432155338
 20
132.0669715241
 30
0.0
 10
169.8684737451
 20
132.0720831489
 30
0.0
 10
170.2870001461
 20
132.0871426411
 30
0.0
 10
170.6873114571
 20
132.1107951428
 30
0.0
 10
171.0664299655
 20
132.1415243981
 30
0.0
 10
171.4099636803
 20
132.1763297478
 30
0.0
 10
171.7166236572
 20
132.2129456188
 30
0.0
 10
171.9737130651
 20
132.2476675456
 30
0.0
 10
172.1806870267
 20
132.2782507034
 30
0.0
 10
172.3302995477
 20
132.3018253111
 30
0.0
 10
172.4220616228
 20
132.3168826361
 30
0.0
 10
172.4428786079
 20
132.3203694393
 30
0.0
 10
172.4432679398
 20
132.3204343277
 30
0.0
 11
166.4432906115
 21
132.320434328
 31
0.0
 11
166.474584476
 21
132.3152450941
 31
0.0
 11
166.5658892321
 21
132.3004076067
 31
0.0
 11
166.7154148981
 21
132.2770851744
 31
0.0
 11
166.9211610696
 21
132.2469829554
 31
0.0
 11
167.1781596815
 21
132.2126346425
 31
0.0
 11
167.4826968872
 21
132.1766362895
 31
0.0
 11
167.8260038415
 21
132.1422087877
 31
0.0
 11
168.2027316993
 21
132.1119779159
 31
0.0
 11
168.6025206383
 21
132.0885782927
 31
0.0
 11
169.0191582661
 21
132.0737422857
 31
0.0
 11
169.4432340839
 21
132.0686755026
 31
0.0
 11
169.8673517767
 21
132.0737411268
 31
0.0
 11
170.2839642977
 21
132.0885748094
 31
0.0
 11
170.6837793233
 21
132.1119746017
 31
0.0
 11
171.0604991666
 21
132.1422037471
 31
0.0
 11
171.4038180573
 21
132.1766315013
 31
0.0
 11
171.7083618957
 21
132.2126299614
 31
0.0
 11
171.9653604907
 21
132.2469777508
 31
0.0
 11
172.1711267866
 21
132.2770826118
 31
0.0
 11
172.3206578067
 21
132.300405764
 31
0.0
 11
172.4119721899
 21
132.3152447827
 31
0.0
 11
172.4432679398
 21
132.3204343277
 31
0.0
  0
SPLINE
  5
30A
100
AcDbEntity
  8
BEZUGSACHSEN
100
AcDbSpline
 62
7
  6
CONTINUOUS
 70
0
 71
3
 72
19
 73
15
 74
13
 42
0.0000001
 43
0.0000001
 44
0.0000000001
 12
-0.8939002816
 22
0.3305664543
 32
0.0
 13
0.0
 23
0.9530644753
 33
0.0
 40
0.0
 40
0.0
 40
0.0
 40
0.0
 40
0.1217181457
 40
0.2412117709
 40
0.3499481467
 40
0.4477039725
 40
0.5373829645
 40
0.6199208207
 40
0.6964779373
 40
0.7678297527
 40
0.8343908613
 40
0.8961956983
 40
0.9521075556
 40
1.0
 40
1.0
 40
1.0
 40
1.0
 10
113.7432792768
 20
140.2172897462
 30
0.0
 10
113.7070113152
 20
140.2307017248
 30
0.0
 10
113.6380035126
 20
140.2654790725
 30
0.0
 10
113.5490685542
 20
140.3329368018
 30
0.0
 10
113.476173201
 20
140.4069010362
 30
0.0
 10
113.4180835347
 20
140.4811224087
 30
0.0
 10
113.3717481511
 20
140.5534245898
 30
0.0
 10
113.3346213106
 20
140.6232807693
 30
0.0
 10
113.305051207
 20
140.6903190814
 30
0.0
 10
113.2818631147
 20
140.7544411225
 30
0.0
 10
113.2643205754
 20
140.8154655709
 30
0.0
 10
113.2520706066
 20
140.8727652498
 30
0.0
 10
113.2449666538
 20
140.9249479733
 30
0.0
 10
113.2432792768
 20
140.9579349837
 30
0.0
 10
113.2432792768
 20
140.9731498461
 30
0.0
 11
113.7432792768
 21
140.2172897462
 31
0.0
 11
113.6393295146
 21
140.268784045
 31
0.0
 11
113.5482443047
 21
140.3371456365
 31
0.0
 11
113.4752912506
 21
140.4107500137
 31
0.0
 11
113.4177487748
 21
140.4840239249
 31
0.0
 11
113.3715681353
 21
140.5559436423
 31
0.0
 11
113.3346246725
 21
140.6253928288
 31
0.0
 11
113.3051836532
 21
140.6921532396
 31
0.0
 11
113.2820938459
 21
140.7561161394
 31
0.0
 11
113.2646400505
 21
140.8171048396
 31
0.0
 11
113.2524440135
 21
140.8747324133
 31
0.0
 11
113.2454249513
 21
140.9275557189
 31
0.0
 11
113.2432792768
 21
140.9731498461
 31
0.0
  0
SPLINE
  5
30B
100
AcDbEntity
  8
0
100
AcDbSpline
 62
7
  6
CONTINUOUS
 70
0
 71
3
 72
13
 73
9
 74
7
 42
0.0000001
 43
0.0000001
 44
0.0000000001
 12
1.2089715659
 22
-0.2849044908
 32
0.0
 13
1.2003164572
 23
0.167323971
 33
0.0
 40
0.0
 40
0.0
 40
0.0
 40
0.0
 40
0.0736644001
 40
0.2285041491
 40
0.4331856204
 40
0.6601843553
 40
0.8877924567
 40
1.0
 40
1.0
 40
1.0
 40
1.0
 10
153.6157749865
 20
93.4364425077
 30
0.0
 10
153.6454610415
 20
93.4294467349
 30
0.0
 10
153.7335476444
 20
93.4197117614
 30
0.0
 10
153.9115946409
 20
93.4178919918
 30
0.0
 10
154.1469979459
 20
93.4321532944
 30
0.0
 10
154.4124939845
 20
93.4579102635
 30
0.0
 10
154.6396903815
 20
93.4857818078
 30
0.0
 10
154.7757173551
 20
93.504226791
 30
0.0
 10
154.8206122087
 20
93.5104851282
 30
0.0
 11
153.6157749865
 21
93.4364425077
 31
0.0
 11
153.7028613377
 21
93.4240820408
 31
0.0
 11
153.8904644919
 21
93.4200030162
 31
0.0
 11
154.1381713067
 21
93.4330423969
 31
0.0
 11
154.412036561
 21
93.4590317651
 31
0.0
 11
154.6858650241
 21
93.4922349031
 31
0.0
 11
154.8206122087
 21
93.5104851282
 31
0.0
  0
LINE
  5
30C
100
AcDbEntity
  8
0
100
AcDbLine
 62
7
  6
CONTINUOUS
 10
154.8206122087
 20
93.5104851282
 11
154.849076121
 21
93.5144756797
  0
SPLINE
  5
30D
100
AcDbEntity
  8
0
100
AcDbSpline
 62
7
  6
CONTINUOUS
 70
0
 71
3
 72
12
 73
8
 74
6
 42
0.0000001
 43
0.0000001
 44
0.0000000001
 12
1.1809550382
 22
0.1664992977
 32
0.0
 13
1.1721570677
 23
0.2197415254
 33
0.0
 40
0.0
 40
0.0
 40
0.0
 40
0.0
 40
0.0892034552
 40
0.3148217183
 40
0.5409682852
 40
0.7688829436
 40
1.0
 40
1.0
 40
1.0
 40
1.0
 10
154.849076121
 20
93.5144756797
 30
0.0
 10
154.8841912109
 20
93.5194264506
 30
0.0
 10
155.0080742943
 20
93.5372516003
 30
0.0
 10
155.2206446906
 20
93.5697998111
 30
0.0
 10
155.4872744631
 20
93.6135562437
 30
0.0
 10
155.7556270929
 20
93.6602157872
 30
0.0
 10
155.9351254603
 20
93.6930663532
 30
0.0
 10
156.0254272907
 20
93.7099950247
 30
0.0
 11
154.849076121
 21
93.5144756797
 31
0.0
 11
154.9543806428
 21
93.529617464
 31
0.0
 11
155.2203630927
 21
93.5702425605
 31
0.0
 11
155.4865094786
 21
93.6138614526
 31
0.0
 11
155.7543030669
 21
93.6603899882
 31
0.0
 11
156.0254272907
 21
93.7099950247
 31
0.0
  0
SPLINE
  5
30E
100
AcDbEntity
  8
BEZUGSACHSEN
100
AcDbSpline
 62
7
  6
CONTINUOUS
 70
0
 71
3
 72
18
 73
14
 74
12
 42
0.0000001
 43
0.0000001
 44
0.0000000001
 12
-2.6242089124
 22
-0.9704387092
 32
0.0
 13
-2.6242089124
 23
0.9704387092
 33
0.0
 40
0.0
 40
0.0
 40
0.0
 40
0.0
 40
0.0799679098
 40
0.1663286595
 40
0.257944786
 40
0.3532485422
 40
0.4508026001
 40
0.549197501
 40
0.6467509057
 40
0.7420528253
 40
0.8336699519
 40
0.920031171
 40
1.0
 40
1.0
 40
1.0
 40
1.0
 10
116.4932792768
 20
140.2172897462
 30
0.0
 10
116.4233284429
 20
140.1914217611
 30
0.0
 10
116.2754401823
 20
140.1439768412
 30
0.0
 10
116.0415162495
 20
140.0871107021
 30
0.0
 10
115.7903152753
 20
140.0430290302
 30
0.0
 10
115.5265649256
 20
140.0129486359
 30
0.0
 10
115.2552159799
 20
139.9976952874
 30
0.0
 10
114.9813429008
 20
139.9976952953
 30
0.0
 10
114.7099962742
 20
140.0129484784
 30
0.0
 10
114.4462472868
 20
140.0430284822
 30
0.0
 10
114.1950465886
 20
140.0871097688
 30
0.0
 10
113.9611204372
 20
140.1439762191
 30
0.0
 10
113.8132309147
 20
140.1914214638
 30
0.0
 10
113.7432792768
 20
140.2172897462
 30
0.0
 11
116.4932792768
 21
140.2172897462
 31
0.0
 11
116.2804420888
 21
140.1482913569
 31
0.0
 11
116.0457655656
 21
140.0907481233
 31
0.0
 11
115.793348154
 21
140.0461189791
 31
0.0
 11
115.5284388773
 21
140.0157000382
 31
0.0
 11
115.2559285003
 21
140.0002828905
 31
0.0
 11
114.9806297711
 21
140.0002828984
 31
0.0
 11
114.7081212165
 21
140.0156999067
 31
0.0
 11
114.4432170171
 21
140.0461180179
 31
0.0
 11
114.1907967926
 21
140.0907473241
 31
0.0
 11
113.956118941
 21
140.1482906559
 31
0.0
 11
113.7432792768
 21
140.2172897462
 31
0.0
  0
SPLINE
  5
30F
100
AcDbEntity
  8
0
100
AcDbSpline
 62
7
  6
CONTINUOUS
 70
0
 71
3
 72
20
 73
16
 74
14
 42
0.0000001
 43
0.0000001
 44
0.0000000001
 12
3.7548783933
 22
2.5745602693
 32
0.0
 13
3.8941427632
 23
2.436507294
 33
0.0
 40
0.0
 40
0.0
 40
0.0
 40
0.0
 40
0.0074462148
 40
0.0517668308
 40
0.1098525259
 40
0.1799609962
 40
0.2609778523
 40
0.3516101937
 40
0.4499772433
 40
0.5536100805
 40
0.6600298557
 40
0.766653795
 40
0.8697549902
 40
0.9631880522
 40
1.0
 40
1.0
 40
1.0
 40
1.0
 10
152.4980206241
 20
93.4362072239
 30
0.0
 10
152.5073405011
 20
93.4425974668
 30
0.0
 10
152.5726410631
 20
93.4861506544
 30
0.0
 10
152.7212795846
 20
93.5673071476
 30
0.0
 10
152.9572054225
 20
93.6848973411
 30
0.0
 10
153.24846062
 20
93.8186613683
 30
0.0
 10
153.5872403378
 20
93.9675202502
 30
0.0
 10
153.9673069549
 20
94.1301116164
 30
0.0
 10
154.3795664605
 20
94.3053944433
 30
0.0
 10
154.8134361782
 20
94.491642274
 30
0.0
 10
155.2570930079
 20
94.687098044
 30
0.0
 10
155.6967505058
 20
94.8895027324
 30
0.0
 10
156.1132297135
 20
95.0944482642
 30
0.0
 10
156.4273152414
 20
95.2649160257
 30
0.0
 10
156.5981739394
 20
95.367845918
 30
0.0
 10
156.6459575994
 20
95.3977434444
 30
0.0
 11
152.4980206241
 21
93.4362072239
 31
0.0
 11
152.526224503
 21
93.4550171257
 31
0.0
 11
152.7029324706
 21
93.5560415432
 31
0.0
 11
152.9414106636
 21
93.6755903465
 31
0.0
 11
153.2335723067
 21
93.8109180384
 31
0.0
 11
153.5740049667
 21
93.9610802885
 31
0.0
 11
153.9564731829
 21
94.1253164765
 31
0.0
 11
154.3720500178
 21
94.3024746012
 31
0.0
 11
154.8092204659
 21
94.4906409309
 31
0.0
 11
155.2562597412
 21
94.6881956484
 31
0.0
 11
155.7007344036
 21
94.893699116
 31
0.0
 11
156.1250084754
 21
95.1039320239
 31
0.0
 11
156.5012366158
 21
95.3102840925
 31
0.0
 11
156.6459575994
 21
95.3977434444
 31
0.0
  0
SPLINE
  5
310
100
AcDbEntity
  8
0
100
AcDbSpline
 62
7
  6
CONTINUOUS
 70
0
 71
3
 72
13
 73
9
 74
7
 42
0.0000001
 43
0.0000001
 44
0.0000000001
 12
-1.0432703083
 22
0.7116184235
 32
0.0
 13
-1.2066622459
 23
0.2864018628
 33
0.0
 40
0.0
 40
0.0
 40
0.0
 40
0.0
 40
0.067096061
 40
0.2146561518
 40
0.4158356829
 40
0.6465336521
 40
0.8827448886
 40
1.0
 40
1.0
 40
1.0
 40
1.0
 10
157.2871319466
 20
134.5111616269
 30
0.0
 10
157.2637988372
 20
134.5270772247
 30
0.0
 10
157.1883204042
 20
134.567518001
 30
0.0
 10
157.0262248618
 20
134.6326150717
 30
0.0
 10
156.7993168892
 20
134.7060694198
 30
0.0
 10
156.5331435279
 20
134.7812650501
 30
0.0
 10
156.2992289372
 20
134.8409570998
 30
0.0
 10
156.1571920876
 20
134.8752422169
 30
0.0
 10
156.110029649
 20
134.8864362443
 30
0.0
 11
157.2871319466
 21
134.5111616269
 31
0.0
 11
157.2158127845
 21
134.5516907109
 31
0.0
 11
157.0470140912
 21
134.6223620547
 31
0.0
 11
156.8102381407
 21
134.7009952644
 31
0.0
 11
156.5351102919
 21
134.7794625036
 31
0.0
 11
156.2513726385
 21
134.8522937157
 31
0.0
 11
156.110029649
 21
134.8864362443
 31
0.0
  0
SPLINE
  5
311
100
AcDbEntity
  8
0
100
AcDbSpline
 62
7
  6
CONTINUOUS
 70
0
 71
3
 72
11
 73
7
 74
5
 42
0.0000001
 43
0.0000001
 44
0.0000000001
 12
-1.1115546185
 22
0.2555199225
 32
0.0
 13
-1.1209687371
 23
0.2101453696
 33
0.0
 40
0.0
 40
0.0
 40
0.0
 40
0.0
 40
0.2508533901
 40
0.4995459316
 40
0.7482917371
 40
1.0
 40
1.0
 40
1.0
 40
1.0
 10
155.9692548353
 20
134.9193104889
 30
0.0
 10
155.8763090872
 20
134.9406765018
 30
0.0
 10
155.6909530252
 20
134.9820136525
 30
0.0
 10
155.4126379771
 20
135.0409242034
 30
0.0
 10
155.1334535276
 20
135.0972162036
 30
0.0
 10
154.946613384
 20
135.1331199845
 30
0.0
 10
154.8525610194
 20
135.1507517598
 30
0.0
 11
155.9692548353
 21
134.9193104889
 31
0.0
 11
155.6900397878
 21
134.9816857209
 31
0.0
 11
155.4125662666
 21
135.0404742497
 31
0.0
 11
155.1344745535
 21
135.0965733479
 31
0.0
 11
154.8525610194
 21
135.1507517598
 31
0.0
  0
SPLINE
  5
312
100
AcDbEntity
  8
0
100
AcDbSpline
 62
7
  6
CONTINUOUS
 70
0
 71
3
 72
19
 73
15
 74
13
 42
0.0000001
 43
0.0000001
 44
0.0000000001
 12
-3.6667774481
 22
-0.8563752801
 32
0.0
 13
-3.73899144
 23
-0.7909732256
 33
0.0
 40
0.0
 40
0.0
 40
0.0
 40
0.0
 40
0.0008150067
 40
0.0499864071
 40
0.114429801
 40
0.1920633105
 40
0.2811079739
 40
0.3794462832
 40
0.4861973671
 40
0.6015642549
 40
0.7228022482
 40
0.8415626159
 40
0.9507251445
 40
1.0
 40
1.0
 40
1.0
 40
1.0
 10
158.3312719753
 20
134.1091662791
 30
0.0
 10
158.3302758259
 20
134.1089336285
 30
0.0
 10
158.2691411857
 20
134.094739178
 30
0.0
 10
158.1234233104
 20
134.0724758152
 30
0.0
 10
157.8820816454
 20
134.0457390195
 30
0.0
 10
157.5883280415
 20
134.0222065703
 30
0.0
 10
157.2515840122
 20
134.0003254971
 30
0.0
 10
156.8775664063
 20
133.9783104808
 30
0.0
 10
156.4701558734
 20
133.9537144427
 30
0.0
 10
156.0338381868
 20
133.9238393833
 30
0.0
 10
155.5827803377
 20
133.8858686651
 30
0.0
 10
155.1406467891
 20
133.8373303865
 30
0.0
 10
154.7912709569
 20
133.7855890524
 30
0.0
 10
154.5930476173
 20
133.7473766956
 30
0.0
 10
154.5316348631
 20
133.7343849985
 30
0.0
 11
158.3312719753
 21
134.1091662791
 31
0.0
 11
158.3282816085
 21
134.1084719479
 31
0.0
 11
158.1431157409
 21
134.0766124139
 31
0.0
 11
157.8984617022
 21
134.0486932714
 31
0.0
 11
157.6028437671
 21
134.0240646308
 31
0.0
 11
157.2633534169
 21
134.0014194103
 31
0.0
 11
156.8882754921
 21
133.9788502645
 31
0.0
 11
156.4811403519
 21
133.9538495566
 31
0.0
 11
156.0413812642
 21
133.9232341339
 31
0.0
 11
155.5798195797
 21
133.8836340387
 31
0.0
 11
155.1288577518
 21
133.8330478783
 31
0.0
 11
154.7164866708
 21
133.7703096133
 31
0.0
 11
154.5316348631
 21
133.7343849985
 31
0.0
  0
SPLINE
  5
313
100
AcDbEntity
  8
BEZUGSACHSEN
100
AcDbSpline
 62
7
  6
CONTINUOUS
 70
0
 71
3
 72
11
 73
7
 74
5
 42
0.0000001
 43
0.0000001
 44
0.0000000001
 12
0.0
 22
-0.4680658555
 32
0.0
 13
-0.1674374283
 23
-0.437093071
 33
0.0
 40
0.0
 40
0.0
 40
0.0
 40
0.0
 40
0.1445461367
 40
0.3576974325
 40
0.6432572252
 40
1.0
 40
1.0
 40
1.0
 40
1.0
 10
117.1182792768
 20
141.6787426018
 30
0.0
 10
117.1182792768
 20
141.6561902314
 30
0.0
 10
117.1111806615
 20
141.6005117429
 30
0.0
 10
117.0877309095
 20
141.5028954495
 30
0.0
 10
117.0476356586
 20
141.3754834531
 30
0.0
 10
117.0131899744
 20
141.2813572335
 30
0.0
 10
116.9932792768
 20
141.2293806351
 30
0.0
 11
117.1182792768
 21
141.6787426018
 31
0.0
 11
117.1115719748
 21
141.6114187814
 31
0.0
 11
117.0894216741
 21
141.5141398714
 31
0.0
 11
117.0501140079
 21
141.3863896706
 31
0.0
 11
116.9932792768
 21
141.2293806351
 31
0.0
  0
SPLINE
  5
314
100
AcDbEntity
  8
BEZUGSACHSEN
100
AcDbSpline
 62
7
  6
CONTINUOUS
 70
0
 71
3
 72
12
 73
8
 74
6
 42
0.0000001
 43
0.0000001
 44
0.0000000001
 12
-0.1674556245
 22
0.4371405719
 32
0.0
 13
-0.0
 23
0.4681167224
 33
0.0
 40
0.0
 40
0.0
 40
0.0
 40
0.0
 40
0.2995620764
 40
0.5419687552
 40
0.7353081792
 40
0.886011903
 40
1.0
 40
1.0
 40
1.0
 40
1.0
 10
113.2432792768
 20
141.2293806351
 30
0.0
 10
113.2265581586
 20
141.2730308809
 30
0.0
 10
113.1973079579
 20
141.3523988287
 30
0.0
 10
113.1614972858
 20
141.4614292708
 30
0.0
 10
113.137046705
 20
141.5496742838
 30
0.0
 10
113.1225774318
 20
141.6197004576
 30
0.0
 10
113.1182792768
 20
141.6609560237
 30
0.0
 10
113.1182792768
 20
141.6787426018
 30
0.0
 11
113.2432792768
 21
141.2293806351
 31
0.0
 11
113.195095638
 21
141.3610726801
 31
0.0
 11
113.160052813
 21
141.4690008497
 31
0.0
 11
113.1363667349
 21
141.5563518674
 31
0.0
 11
113.1227348261
 21
141.6255692124
 31
0.0
 11
113.1182792768
 21
141.6787426018
 31
0.0
  0
SPLINE
  5
315
100
AcDbEntity
  8
BEZUGSACHSEN
100
AcDbSpline
 62
7
  6
CONTINUOUS
 70
0
 71
3
 72
19
 73
15
 74
13
 42
0.0000001
 43
0.0000001
 44
0.0000000001
 12
0.0
 22
-0.9530644332
 32
0.0
 13
-0.8939002421
 23
-0.3305664397
 33
0.0
 40
0.0
 40
0.0
 40
0.0
 40
0.0
 40
0.0479048512
 40
0.1038186277
 40
0.1656371908
 40
0.2321998811
 40
0.3035488221
 40
0.3800991219
 40
0.4626240486
 40
0.5522943159
 40
0.6500533187
 40
0.7587572076
 40
0.8782694549
 40
1.0
 40
1.0
 40
1.0
 40
1.0
 10
116.9932792768
 20
140.9731498461
 30
0.0
 10
116.9932792768
 20
140.9579310428
 30
0.0
 10
116.9915912399
 20
140.9249394774
 30
0.0
 10
116.9844850892
 20
140.8727480634
 30
0.0
 10
116.9722325248
 20
140.8154433173
 30
0.0
 10
116.9546871124
 20
140.7544155909
 30
0.0
 10
116.9314982013
 20
140.6902965963
 30
0.0
 10
116.9019295735
 20
140.6232655096
 30
0.0
 10
116.8648061159
 20
140.5534178148
 30
0.0
 10
116.818473728
 20
140.4811207334
 30
0.0
 10
116.7603915171
 20
140.4069088517
 30
0.0
 10
116.6874999116
 20
140.3329460343
 30
0.0
 10
116.5985673082
 20
140.265485742
 30
0.0
 10
116.5295509314
 20
140.2307030905
 30
0.0
 10
116.4932792768
 20
140.2172897462
 30
0.0
 11
116.9932792768
 21
140.9731498461
 31
0.0
 11
116.9911325393
 21
140.9275439334
 31
0.0
 11
116.9841122149
 21
140.8747189527
 31
0.0
 11
116.971912042
 21
140.8170788854
 31
0.0
 11
116.9544560278
 21
140.7560892551
 31
0.0
 11
116.9313654394
 21
140.692129553
 31
0.0
 11
116.9019256057
 21
140.6253757235
 31
0.0
 11
116.8649870622
 21
140.5559378818
 31
0.0
 11
116.8188107366
 21
140.4840252807
 31
0.0
 11
116.7612664031
 21
140.4107489836
 31
0.0
 11
116.6883364712
 21
140.3371652888
 31
0.0
 11
116.5972391042
 21
140.268790337
 31
0.0
 11
116.4932792768
 21
140.2172897462
 31
0.0
  0
SPLINE
  5
316
100
AcDbEntity
  8
0
100
AcDbSpline
 62
7
  6
CONTINUOUS
 70
0
 71
3
 72
95
 73
91
 74
89
 42
0.0000001
 43
0.0000001
 44
0.0000000001
 12
-24.8150783404
 22
-20.4578367038
 32
0.0
 13
33.2001497922
 23
-10.5937331358
 33
0.0
 40
0.0
 40
0.0
 40
0.0
 40
0.0
 40
0.0187440439
 40
0.0383305688
 40
0.0572656487
 40
0.0745351646
 40
0.0895596985
 40
0.1025019682
 40
0.1138767536
 40
0.1241125606
 40
0.1337312521
 40
0.1434119478
 40
0.1535699284
 40
0.1645702823
 40
0.1769276618
 40
0.1908599134
 40
0.2062688431
 40
0.222634181
 40
0.2396259116
 40
0.257188945
 40
0.2750683532
 40
0.2926617852
 40
0.3092824303
 40
0.3241503218
 40
0.3369408171
 40
0.3481836569
 40
0.358028493
 40
0.3668276315
 40
0.3751006179
 40
0.3834020606
 40
0.392056926
 40
0.4013197355
 40
0.411689122
 40
0.4234999965
 40
0.4368993718
 40
0.4516306246
 40
0.4673579446
 40
0.4840409279
 40
0.5016460071
 40
0.5194954776
 40
0.5366499383
 40
0.5526147213
 40
0.5671337945
 40
0.5801380951
 40
0.5916775411
 40
0.6018821098
 40
0.6106330178
 40
0.6180387479
 40
0.6247303681
 40
0.6313939493
 40
0.6381420886
 40
0.6450274905
 40
0.6521370352
 40
0.6595941969
 40
0.6677085631
 40
0.6768095596
 40
0.6872370236
 40
0.6992810366
 40
0.7131409636
 40
0.7280924768
 40
0.7427529113
 40
0.7563221016
 40
0.7685476521
 40
0.7793270497
 40
0.7886619078
 40
0.7966308494
 40
0.8031734322
 40
0.8084002272
 40
0.8128035467
 40
0.8170336344
 40
0.821807023
 40
0.8277891203
 40
0.8353829057
 40
0.8448784013
 40
0.8563779983
 40
0.8695969977
 40
0.8838389916
 40
0.8984305732
 40
0.9129831258
 40
0.9272100144
 40
0.9408258293
 40
0.9535363543
 40
0.9650303329
 40
0.9750052861
 40
0.9832539659
 40
0.9895547196
 40
0.9938946232
 40
0.9965110653
 40
0.9980139439
 40
1.0
 40
1.0
 40
1.0
 40
1.0
 10
156.0258810839
 20
114.3204361533
 30
0.0
 10
155.8708361109
 20
114.1926152898
 30
0.0
 10
155.554339623
 20
113.9305345458
 30
0.0
 10
155.0898919007
 20
113.5289478061
 30
0.0
 10
154.6542269802
 20
113.1187348373
 30
0.0
 10
154.2807162498
 20
112.7153232395
 30
0.0
 10
153.9842266814
 20
112.3305329513
 30
0.0
 10
153.7654411601
 20
111.9687069558
 30
0.0
 10
153.6189284872
 20
111.6269165735
 30
0.0
 10
153.5389710708
 20
111.3001524397
 30
0.0
 10
153.5177683439
 20
110.9826305268
 30
0.0
 10
153.5531588153
 20
110.667126362
 30
0.0
 10
153.6482712914
 20
110.3487479023
 30
0.0
 10
153.8072111657
 20
110.0249799612
 30
0.0
 10
154.0314433041
 20
109.6928027109
 30
0.0
 10
154.3222088616
 20
109.3522593265
 30
0.0
 10
154.6731466118
 20
109.0095753458
 30
0.0
 10
155.071306639
 20
108.6703898848
 30
0.0
 10
155.5021840197
 20
108.3350745392
 30
0.0
 10
155.9547858892
 20
108.0016873374
 30
0.0
 10
156.4159291113
 20
107.6691227365
 30
0.0
 10
156.8666267583
 20
107.3393319382
 30
0.0
 10
157.2831587393
 20
107.0176547925
 30
0.0
 10
157.6443387705
 20
106.7091876683
 30
0.0
 10
157.9413074723
 20
106.4157285166
 30
0.0
 10
158.1746620035
 20
106.1365253943
 30
0.0
 10
158.3485666408
 20
105.8661381436
 30
0.0
 10
158.4640566589
 20
105.6000729165
 30
0.0
 10
158.524030672
 20
105.3329640983
 30
0.0
 10
158.528716774
 20
105.0606185489
 30
0.0
 10
158.4758868111
 20
104.7826588469
 30
0.0
 10
158.3639546543
 20
104.4992059531
 30
0.0
 10
158.1922109448
 20
104.2079422271
 30
0.0
 10
157.9603970065
 20
103.9042035522
 30
0.0
 10
157.6703121648
 20
103.5886373552
 30
0.0
 10
157.3287761654
 20
103.265130878
 30
0.0
 10
156.9455625562
 20
102.9354870072
 30
0.0
 10
156.5286569505
 20
102.5982585821
 30
0.0
 10
156.0882868601
 20
102.254046743
 30
0.0
 10
155.6425537657
 20
101.9085118626
 30
0.0
 10
155.2137139093
 20
101.5698881888
 30
0.0
 10
154.8199573344
 20
101.2445625042
 30
0.0
 10
154.4718613143
 20
100.9341995217
 30
0.0
 10
154.1747186723
 20
100.6387412886
 30
0.0
 10
153.9299880802
 20
100.3573367161
 30
0.0
 10
153.7403672139
 20
100.0901529893
 30
0.0
 10
153.6093698483
 20
99.8383716416
 30
0.0
 10
153.5370496847
 20
99.6026926505
 30
0.0
 10
153.5184053176
 20
99.378970619
 30
0.0
 10
153.5539892941
 20
99.1639766635
 30
0.0
 10
153.6435899504
 20
98.9633274055
 30
0.0
 10
153.7768994223
 20
98.7837274023
 30
0.0
 10
153.9418821026
 20
98.6225463905
 30
0.0
 10
154.13488279
 20
98.4739722944
 30
0.0
 10
154.3584446574
 20
98.3321014306
 30
0.0
 10
154.6198241544
 20
98.1920083623
 30
0.0
 10
154.9274169693
 20
98.0503957281
 30
0.0
 10
155.2886009793
 20
97.9043578044
 30
0.0
 10
155.7003805846
 20
97.7549471437
 30
0.0
 10
156.1421984937
 20
97.6066216051
 30
0.0
 10
156.5826266287
 20
97.4641090663
 30
0.0
 10
156.9949015201
 20
97.3295049505
 30
0.0
 10
157.3655883764
 20
97.2016348791
 30
0.0
 10
157.6893465062
 20
97.0773429452
 30
0.0
 10
157.964287388
 20
96.9541489284
 30
0.0
 10
158.1884239785
 20
96.8303204355
 30
0.0
 10
158.3593932092
 20
96.7040169828
 30
0.0
 10
158.4743805878
 20
96.5713561698
 30
0.0
 10
158.5299314589
 20
96.4293619809
 30
0.0
 10
158.5217872563
 20
96.2818072547
 30
0.0
 10
158.4539065542
 20
96.1332985784
 30
0.0
 10
158.3282835719
 20
95.9801982829
 30
0.0
 10
158.1415348959
 20
95.8169857398
 30
0.0
 10
157.8901788711
 20
95.640956884
 30
0.0
 10
157.57473487
 20
95.4533428877
 30
0.0
 10
157.204926655
 20
95.2589375821
 30
0.0
 10
156.7987765118
 20
95.063166035
 30
0.0
 10
156.3752512332
 20
94.870871337
 30
0.0
 10
155.949100597
 20
94.6849131538
 30
0.0
 10
155.5310023954
 20
94.5067113468
 30
0.0
 10
155.1305619747
 20
94.3374737427
 30
0.0
 10
154.7574455954
 20
94.1787784574
 30
0.0
 10
154.4217053222
 20
94.0321461305
 30
0.0
 10
154.1316935297
 20
93.8998200935
 30
0.0
 10
153.896420879
 20
93.7833894935
 30
0.0
 10
153.7172671185
 20
93.6864652877
 30
0.0
 10
153.6030425453
 20
93.6046000346
 30
0.0
 10
153.5305429419
 20
93.544389726
 30
0.0
 10
153.5241723857
 20
93.4682098544
 30
0.0
 10
153.5644943686
 20
93.4515630703
 30
0.0
 10
153.5864734887
 20
93.4445498208
 30
0.0
 11
156.0258810839
 21
114.3204361533
 31
0.0
 11
155.5626399195
 21
113.9346879522
 31
0.0
 11
155.0876115101
 21
113.5209938161
 31
0.0
 11
154.6463493832
 21
113.101319149
 31
0.0
 11
154.2711519881
 21
112.6918122071
 31
0.0
 11
153.9785946076
 21
112.3072447983
 31
0.0
 11
153.7658230171
 21
111.94950495
 31
0.0
 11
153.6241568164
 21
111.6122278967
 31
0.0
 11
153.5471136401
 21
111.2921795596
 31
0.0
 11
153.527013745
 21
110.9834893171
 31
0.0
 11
153.5614792969
 21
110.6740648553
 31
0.0
 11
153.653759422
 21
110.3606811685
 31
0.0
 11
153.8073601372
 21
110.0419861304
 31
0.0
 11
154.0275485446
 21
109.7111366492
 31
0.0
 11
154.3165760956
 21
109.3687468518
 31
0.0
 11
154.6694396773
 21
109.0207970106
 31
0.0
 11
155.0685779623
 21
108.6777193438
 31
0.0
 11
155.4987699885
 21
108.3407326691
 31
0.0
 11
155.9526043368
 21
108.0044617003
 31
0.0
 11
156.4180261485
 21
107.6667870889
 31
0.0
 11
156.8735480188
 21
107.3311548784
 31
0.0
 11
157.2951423201
 21
107.002548099
 31
0.0
 11
157.6571039856
 21
106.6901019694
 31
0.0
 11
157.9480449744
 21
106.3993042542
 31
0.0
 11
158.1778821903
 21
106.1201747381
 31
0.0
 11
158.3467071161
 21
105.8523232677
 31
0.0
 11
158.4575750833
 21
105.5919587716
 31
0.0
 11
158.5149700068
 21
105.3321579561
 31
0.0
 11
158.5197071052
 21
105.0652197041
 31
0.0
 11
158.4689927636
 21
104.7915321263
 31
0.0
 11
158.3617558165
 21
104.5136045031
 31
0.0
 11
158.1949782938
 21
104.2248161411
 31
0.0
 11
157.9666111047
 21
103.9212844575
 31
0.0
 11
157.6766371216
 21
103.6025075873
 31
0.0
 11
157.3340985117
 21
103.2752111223
 31
0.0
 11
156.9517547959
 21
102.9440786653
 31
0.0
 11
156.5354439988
 21
102.6056162475
 31
0.0
 11
156.0901216304
 21
102.2559575938
 31
0.0
 11
155.6372002255
 21
101.9032573406
 31
0.0
 11
155.2050214018
 21
101.5603376272
 31
0.0
 11
154.8101912785
 21
101.2321174072
 31
0.0
 11
154.462781714
 21
100.9201190076
 31
0.0
 11
154.167460821
 21
100.623977433
 31
0.0
 11
153.9256378441
 21
100.3424649107
 31
0.0
 11
153.7381884971
 21
100.0730787556
 31
0.0
 11
153.6112361373
 21
99.8219035484
 31
0.0
 11
153.5436097027
 21
99.5935325878
 31
0.0
 11
153.5273258469
 21
99.3789422873
 31
0.0
 11
153.5625946543
 21
99.1675588531
 31
0.0
 11
153.6497051034
 21
98.9687836142
 31
0.0
 11
153.7797409743
 21
98.7895461098
 31
0.0
 11
153.9420491059
 21
98.6284996074
 31
0.0
 11
154.1312611574
 21
98.4811358345
 31
0.0
 11
154.3510132055
 21
98.3403838322
 31
0.0
 11
154.6084982014
 21
98.2012021272
 31
0.0
 11
154.9126304282
 21
98.0598999008
 31
0.0
 11
155.271318653
 21
97.9136872917
 31
0.0
 11
155.6899410586
 21
97.7605730956
 31
0.0
 11
156.1454304314
 21
97.6064712923
 31
0.0
 11
156.593691023
 21
97.4603027926
 31
0.0
 11
157.0081969237
 21
97.3238283911
 31
0.0
 11
157.3794392736
 21
97.1943235851
 31
0.0
 11
157.7025318575
 21
97.0686517986
 31
0.0
 11
157.9756907917
 21
96.9440980548
 31
0.0
 11
158.1986036748
 21
96.8176355068
 31
0.0
 11
158.3651462864
 21
96.6890367023
 31
0.0
 11
158.4714354215
 21
96.5588085681
 31
0.0
 11
158.5202603068
 21
96.4258776809
 31
0.0
 11
158.5143221203
 21
96.2899647257
 31
0.0
 11
158.4544742915
 21
96.1485954759
 31
0.0
 11
158.3360273844
 21
95.9969918417
 31
0.0
 11
158.154573763
 21
95.8335331771
 31
0.0
 11
157.9059626857
 21
95.6561899583
 31
0.0
 11
157.5891313344
 21
95.4654126962
 31
0.0
 11
157.2135785673
 21
95.2661699546
 31
0.0
 11
156.8014239839
 21
95.066363851
 31
0.0
 11
156.3744031786
 21
94.8717544202
 31
0.0
 11
155.9456342603
 21
94.6841369455
 31
0.0
 11
155.5248849547
 21
94.5043617656
 31
0.0
 11
155.1216856947
 21
94.3335351321
 31
0.0
 11
154.7457283196
 21
94.1730461057
 31
0.0
 11
154.4071776448
 21
94.0246281486
 31
0.0
 11
154.1157506039
 21
93.8905239957
 31
0.0
 11
153.8782434961
 21
93.7723476413
 31
0.0
 11
153.7019091475
 21
93.6725086132
 31
0.0
 11
153.5883165559
 21
93.5914054067
 31
0.0
 11
153.5335081286
 21
93.5275564297
 31
0.0
 11
153.5328338047
 21
93.4792274924
 31
0.0
 11
153.5864734887
 21
93.4445498208
 31
0.0
  0
SPLINE
  5
317
100
AcDbEntity
  8
0
100
AcDbSpline
 62
7
  6
CONTINUOUS
 70
0
 71
3
 72
95
 73
91
 74
89
 42
0.0000001
 43
0.0000001
 44
0.0000000001
 12
24.667728133
 22
20.553310934
 32
0.0
 13
-26.8746437368
 23
21.6283654683
 33
0.0
 40
0.0
 40
0.0
 40
0.0
 40
0.0
 40
0.018289822
 40
0.037237851
 40
0.0555186797
 40
0.0721756622
 40
0.0866251361
 40
0.0990652941
 40
0.1099998187
 40
0.1198850743
 40
0.1292083481
 40
0.138604705
 40
0.148443881
 40
0.158991061
 40
0.170608162
 40
0.1833894166
 40
0.1973855927
 40
0.2125337368
 40
0.2287495823
 40
0.2461704193
 40
0.2648966139
 40
0.2843523587
 40
0.3035572778
 40
0.3214361154
 40
0.3369865137
 40
0.3504429292
 40
0.3622520084
 40
0.3726021165
 40
0.3819049311
 40
0.3906993199
 40
0.3993957947
 40
0.4082323555
 40
0.4176315531
 40
0.4281406802
 40
0.4400807309
 40
0.4534300563
 40
0.4678022159
 40
0.4829709074
 40
0.4988482457
 40
0.5150541745
 40
0.5308031663
 40
0.545505316
 40
0.5589182086
 40
0.5709067346
 40
0.5815234708
 40
0.5909296596
 40
0.599172997
 40
0.6063051419
 40
0.612755511
 40
0.6192689759
 40
0.6262801881
 40
0.6336445161
 40
0.6413114208
 40
0.649238157
 40
0.6576379721
 40
0.6668358091
 40
0.6771685447
 40
0.6890174246
 40
0.7027625526
 40
0.7185506584
 40
0.7353341138
 40
0.7517374832
 40
0.7670516272
 40
0.7808953181
 40
0.793130257
 40
0.8037821936
 40
0.8128939012
 40
0.8203601778
 40
0.8263068055
 40
0.8311455126
 40
0.8354296123
 40
0.8399382833
 40
0.8454814717
 40
0.8526579941
 40
0.861707571
 40
0.8724960245
 40
0.884975493
 40
0.8990971822
 40
0.9142077484
 40
0.9289522727
 40
0.9425301884
 40
0.9548207937
 40
0.9657966904
 40
0.975360943
 40
0.9834062961
 40
0.9896586568
 40
0.9939747451
 40
0.9965443279
 40
0.9980322134
 40
1.0
 40
1.0
 40
1.0
 40
1.0
 10
154.8530148126
 20
114.3204361532
 30
0.0
 10
155.003404265
 20
114.4457416195
 30
0.0
 10
155.3100327617
 20
114.7003351806
 30
0.0
 10
155.7625351746
 20
115.0855113306
 30
0.0
 10
156.189681407
 20
115.4732809344
 30
0.0
 10
156.5602920877
 20
115.8507796163
 30
0.0
 10
156.8585040848
 20
116.2098586011
 30
0.0
 10
157.0829198015
 20
116.547923316
 30
0.0
 10
157.2385278591
 20
116.8696212046
 30
0.0
 10
157.3290218031
 20
117.1810106535
 30
0.0
 10
157.3606337497
 20
117.4872149541
 30
0.0
 10
157.3357392074
 20
117.7935515098
 30
0.0
 10
157.2536192473
 20
118.1031812672
 30
0.0
 10
157.1127927615
 20
118.4167877334
 30
0.0
 10
156.9156115385
 20
118.7355724381
 30
0.0
 10
156.6648449435
 20
119.0617817198
 30
0.0
 10
156.3642958029
 20
119.3954399797
 30
0.0
 10
156.0184572142
 20
119.7364284207
 30
0.0
 10
155.6322366646
 20
120.0879104044
 30
0.0
 10
155.2086886452
 20
120.4549424135
 30
0.0
 10
154.7549146837
 20
120.8399507894
 30
0.0
 10
154.2882096476
 20
121.2392465118
 30
0.0
 10
153.836523984
 20
121.6420525043
 30
0.0
 10
153.4308907334
 20
122.0332944108
 30
0.0
 10
153.0912433065
 20
122.403218339
 30
0.0
 10
152.8211550263
 20
122.7472383879
 30
0.0
 10
152.6153906401
 20
123.0689768174
 30
0.0
 10
152.4690826689
 20
123.3734184101
 30
0.0
 10
152.379974362
 20
123.6659674563
 30
0.0
 10
152.3451687513
 20
123.9522347325
 30
0.0
 10
152.3653121965
 20
124.2351186108
 30
0.0
 10
152.4426256275
 20
124.5147492803
 30
0.0
 10
152.5804103135
 20
124.7916494779
 30
0.0
 10
152.7805877933
 20
125.0690523428
 30
0.0
 10
153.0445032594
 20
125.3480310184
 30
0.0
 10
153.3674735343
 20
125.6244388986
 30
0.0
 10
153.7396555127
 20
125.89374825
 30
0.0
 10
154.1490722945
 20
126.1560986356
 30
0.0
 10
154.5846548342
 20
126.4131786166
 30
0.0
 10
155.0306851986
 20
126.6644635818
 30
0.0
 10
155.4668049603
 20
126.907683487
 30
0.0
 10
155.8741931114
 20
127.1410396342
 30
0.0
 10
156.2405335306
 20
127.3648933373
 30
0.0
 10
156.5592695264
 20
127.5821247997
 30
0.0
 10
156.8279171832
 20
127.7954225978
 30
0.0
 10
157.0450044033
 20
128.0071175979
 30
0.0
 10
157.2073064215
 20
128.2185519481
 30
0.0
 10
157.3105284685
 20
128.4302598413
 30
0.0
 10
157.3569203265
 20
128.6424858127
 30
0.0
 10
157.3489064325
 20
128.858353092
 30
0.0
 10
157.2868703538
 20
129.0751281375
 30
0.0
 10
157.1777764
 20
129.2856023483
 30
0.0
 10
157.0338497635
 20
129.4854718899
 30
0.0
 10
156.8634573564
 20
129.67798873
 30
0.0
 10
156.6676282201
 20
129.8687266364
 30
0.0
 10
156.4417819287
 20
130.0647647836
 30
0.0
 10
156.1780400968
 20
130.2728490061
 30
0.0
 10
155.8673477372
 20
130.4995088535
 30
0.0
 10
155.5021251031
 20
130.7501352021
 30
0.0
 10
155.0876619808
 20
131.022117864
 30
0.0
 10
154.6462315534
 20
131.304766019
 30
0.0
 10
154.2088312744
 20
131.5842989682
 30
0.0
 10
153.8005185032
 20
131.850904098
 30
0.0
 10
153.4347401005
 20
132.1009453323
 30
0.0
 10
153.1182860648
 20
132.3343759738
 30
0.0
 10
152.8532968232
 20
132.5516627153
 30
0.0
 10
152.6419678066
 20
132.7528730934
 30
0.0
 10
152.4862284639
 20
132.9378837813
 30
0.0
 10
152.3876561392
 20
133.1081878239
 30
0.0
 10
152.3455759174
 20
133.2667669922
 30
0.0
 10
152.3629935162
 20
133.415655416
 30
0.0
 10
152.4433616001
 20
133.5508897124
 30
0.0
 10
152.5870565069
 20
133.6701626921
 30
0.0
 10
152.7953492707
 20
133.7769538248
 30
0.0
 10
153.0692710895
 20
133.871470847
 30
0.0
 10
153.4057940189
 20
133.9528712716
 30
0.0
 10
153.800343909
 20
134.0208987246
 30
0.0
 10
154.2433665108
 20
134.0767532913
 30
0.0
 10
154.7119874032
 20
134.1211570667
 30
0.0
 10
155.1755549349
 20
134.1559203512
 30
0.0
 10
155.6093251938
 20
134.1838243095
 30
0.0
 10
156.0029456139
 20
134.2078851881
 30
0.0
 10
156.3535089867
 20
134.2309232777
 30
0.0
 10
156.6587065378
 20
134.2550382411
 30
0.0
 10
156.9121468003
 20
134.2823860333
 30
0.0
 10
157.1107080132
 20
134.3109683409
 30
0.0
 10
157.2443687953
 20
134.347350782
 30
0.0
 10
157.3328699543
 20
134.3794625921
 30
0.0
 10
157.3613738569
 20
134.4487119566
 30
0.0
 10
157.330478025
 20
134.4779140261
 30
0.0
 10
157.3128501705
 20
134.4921006953
 30
0.0
 11
154.8530148126
 21
114.3204361532
 31
0.0
 11
155.3038594493
 21
114.6967407364
 31
0.0
 11
155.7658169969
 21
115.0926317504
 31
0.0
 11
156.1985101887
 21
115.4892468827
 31
0.0
 11
156.5710058428
 21
115.8730244686
 31
0.0
 11
156.8651596632
 21
116.2317998117
 31
0.0
 11
157.0835466255
 21
116.5662428588
 31
0.0
 11
157.233809714
 21
116.8835496294
 31
0.0
 11
157.3210583462
 21
117.1887199247
 31
0.0
 11
157.3513737527
 21
117.4865343311
 31
0.0
 11
157.3274702238
 21
117.7872858543
 31
0.0
 11
157.2477690236
 21
118.0929849564
 31
0.0
 11
157.1112662761
 21
118.4029064811
 31
0.0
 11
156.9172641102
 21
118.7214895107
 31
0.0
 11
156.6688918597
 21
119.0481779177
 31
0.0
 11
156.3694912352
 21
119.3833080976
 31
0.0
 11
156.0244573951
 21
119.7261149707
 31
0.0
 11
155.6404326122
 21
120.0777016394
 31
0.0
 11
155.2186403913
 21
120.4450779246
 31
0.0
 11
154.7611292131
 21
120.8352086904
 31
0.0
 11
154.2875773378
 21
121.2426206167
 31
0.0
 11
153.8287367964
 21
121.6545722509
 31
0.0
 11
153.4173686099
 21
122.0549690985
 31
0.0
 11
153.0813005614
 21
122.4242302488
 31
0.0
 11
152.8162734545
 21
122.7654594686
 31
0.0
 11
152.6140545479
 21
123.0862022676
 31
0.0
 11
152.4724862962
 21
123.3868633943
 31
0.0
 11
152.387149124
 21
123.6731100542
 31
0.0
 11
152.3541687753
 21
123.9535492699
 31
0.0
 11
152.374287308
 21
124.2320515548
 31
0.0
 11
152.4492434035
 21
124.5056972641
 31
0.0
 11
152.5817107383
 21
124.7768619857
 31
0.0
 11
152.7769412232
 21
125.0520771221
 31
0.0
 11
153.0384596321
 21
125.3324041313
 31
0.0
 11
153.3625797386
 21
125.6128742208
 31
0.0
 11
153.7350987242
 21
125.8852316377
 31
0.0
 11
154.1441955572
 21
126.1495172507
 31
0.0
 11
154.5824633074
 21
126.4099203092
 31
0.0
 11
155.0351306751
 21
126.6665309313
 31
0.0
 11
155.476102874
 21
126.9140126338
 31
0.0
 11
155.8849934163
 21
127.149912011
 31
0.0
 11
156.2515225543
 21
127.3760259935
 31
0.0
 11
156.5685028091
 21
127.5944165996
 31
0.0
 11
156.8340674535
 21
127.8081393037
 31
0.0
 11
157.0482665132
 21
128.0210529101
 31
0.0
 11
157.2065406756
 21
128.2331944724
 31
0.0
 11
157.3046866277
 21
128.440096547
 31
0.0
 11
157.3480778898
 21
128.6426097504
 31
0.0
 11
157.341048747
 21
128.8516271123
 31
0.0
 11
157.2811502411
 21
129.0686293243
 31
0.0
 11
157.1745117897
 21
129.2796726789
 31
0.0
 11
157.0323405711
 21
129.480638346
 31
0.0
 11
156.8646209526
 21
129.6720725231
 31
0.0
 11
156.6720916985
 21
129.8609430777
 31
0.0
 11
156.4495774839
 21
130.0551202404
 31
0.0
 11
156.189613458
 21
130.2612438992
 31
0.0
 11
155.8827717448
 21
130.4861601549
 31
0.0
 11
155.5193697758
 21
130.7365840628
 31
0.0
 11
155.0960719004
 21
131.0155003324
 31
0.0
 11
154.6427633622
 21
131.3068931296
 31
0.0
 11
154.1994877894
 21
131.5913243131
 31
0.0
 11
153.788346587
 21
131.8610296738
 31
0.0
 11
153.4221496364
 21
132.1129746545
 31
0.0
 11
153.1068339507
 21
132.3472833905
 31
0.0
 11
152.8435292085
 21
132.5655593922
 31
0.0
 11
152.6334382024
 21
132.7691603278
 31
0.0
 11
152.4820113236
 21
132.9550088951
 31
0.0
 11
152.3902245759
 21
133.1224350676
 31
0.0
 11
152.3544730455
 21
133.2736276862
 31
0.0
 11
152.371741209
 21
133.4100941434
 31
0.0
 11
152.443092177
 21
133.5360544999
 31
0.0
 11
152.5763990449
 21
133.6539814571
 31
0.0
 11
152.7792417898
 21
133.7633000037
 31
0.0
 11
153.0527672243
 21
133.8613414658
 31
0.0
 11
153.3888825851
 21
133.9451136975
 31
0.0
 11
153.7834165427
 21
134.0150985558
 31
0.0
 11
154.2331026418
 21
134.0731822885
 31
0.0
 11
154.7160184875
 21
134.119925794
 31
0.0
 11
155.1880631568
 21
134.155984257
 31
0.0
 11
155.6230939766
 21
134.1844662635
 31
0.0
 11
156.0169558902
 21
134.2090598212
 31
0.0
 11
156.3685750978
 21
134.2327460342
 31
0.0
 11
156.6746347024
 21
134.2578908337
 31
0.0
 11
156.9314000498
 21
134.2862040939
 31
0.0
 11
157.1295363537
 21
134.3185049568
 31
0.0
 11
157.2632071244
 21
134.3550703439
 31
0.0
 11
157.3348016868
 21
134.3960731852
 31
0.0
 11
157.3503453074
 21
134.4412471179
 31
0.0
 11
157.3128501705
 21
134.4921006953
 31
0.0
  0
SPLINE
  5
318
100
AcDbEntity
  8
0
100
AcDbSpline
 62
7
  6
CONTINUOUS
 70
0
 71
3
 72
21
 73
17
 74
15
 42
0.0000001
 43
0.0000001
 44
0.0000000001
 12
-2.7146394912
 22
-0.5089070731
 32
0.0
 13
2.2581260505
 23
1.5483009046
 33
0.0
 40
0.0
 40
0.0
 40
0.0
 40
0.0
 40
0.1000054519
 40
0.1989207274
 40
0.2968250424
 40
0.3938425118
 40
0.4908914673
 40
0.589266097
 40
0.687501217
 40
0.7768931093
 40
0.8456645682
 40
0.8898368018
 40
0.9139643791
 40
0.9316139072
 40
0.9618958578
 40
1.0
 40
1.0
 40
1.0
 40
1.0
 10
154.8525610194
 20
93.4901205467
 30
0.0
 10
154.7620681031
 20
93.4731560527
 30
0.0
 10
154.5819203939
 20
93.4401968964
 30
0.0
 10
154.3126782019
 20
93.3934333552
 30
0.0
 10
154.0457091525
 20
93.3497107251
 30
0.0
 10
153.77998763
 20
93.309147287
 30
0.0
 10
153.513294123
 20
93.2719855439
 30
0.0
 10
153.2450191861
 20
93.2392061223
 30
0.0
 10
152.9825348673
 20
93.2137390223
 30
0.0
 10
152.7480134237
 20
93.1995461504
 30
0.0
 10
152.5584709527
 20
93.2007600662
 30
0.0
 10
152.4389077208
 20
93.215301827
 30
0.0
 10
152.3530639058
 20
93.2480643798
 30
0.0
 10
152.355747321
 20
93.3253644799
 30
0.0
 10
152.4191061166
 20
93.3791146172
 30
0.0
 10
152.4693393054
 20
93.4165416646
 30
0.0
 10
152.4980206241
 20
93.4362072239
 30
0.0
 11
154.8525610194
 21
93.4901205467
 31
0.0
 11
154.5808602975
 21
93.440425724
 31
0.0
 11
154.3116872239
 21
93.3937089063
 31
0.0
 11
154.0448279213
 21
93.3500640748
 31
0.0
 11
153.7799260717
 21
93.3097266635
 31
0.0
 11
153.514425782
 21
93.2728986249
 31
0.0
 11
153.2446844232
 21
93.2403019341
 31
0.0
 11
152.9745780556
 21
93.2146843659
 31
0.0
 11
152.7280359988
 21
93.201504522
 31
0.0
 11
152.5381280971
 21
93.2050988957
 31
0.0
 11
152.4178094618
 21
93.2252872602
 31
0.0
 11
152.3610300338
 21
93.2601700382
 31
0.0
 11
152.3598208987
 21
93.3089017903
 31
0.0
 11
152.4133205498
 21
93.3731891901
 31
0.0
 11
152.4980206241
 21
93.4362072239
 31
0.0
  0
SPLINE
  5
319
100
AcDbEntity
  8
0
100
AcDbSpline
 62
7
  6
CONTINUOUS
 70
0
 71
3
 72
79
 73
75
 74
73
 42
0.0000001
 43
0.0000001
 44
0.0000000001
 12
23.251691321
 22
14.5482379428
 32
0.0
 13
21.0676635392
 23
17.5537137853
 33
0.0
 40
0.0
 40
0.0
 40
0.0
 40
0.0
 40
0.0069926488
 40
0.0175958725
 40
0.0260287116
 40
0.0326841611
 40
0.0381064908
 40
0.0431316526
 40
0.0485981459
 40
0.05524123
 40
0.0635498947
 40
0.0735749204
 40
0.0852599008
 40
0.0984821271
 40
0.1130365721
 40
0.1288013735
 40
0.1455502538
 40
0.1623879842
 40
0.1781060543
 40
0.1921089123
 40
0.2043249541
 40
0.2149085189
 40
0.2243109854
 40
0.2329964914
 40
0.2413502178
 40
0.2494629703
 40
0.2574760722
 40
0.2654021372
 40
0.2735551645
 40
0.2827581434
 40
0.2936758008
 40
0.3065578374
 40
0.3216480039
 40
0.3394571377
 40
0.360008024
 40
0.3819396897
 40
0.4037872279
 40
0.4249992671
 40
0.4452800245
 40
0.4644995879
 40
0.4825092156
 40
0.4988590794
 40
0.5131527296
 40
0.5255835134
 40
0.5366440876
 40
0.5469904771
 40
0.5569181083
 40
0.5667831757
 40
0.5772351401
 40
0.5889049485
 40
0.6022279555
 40
0.6173821197
 40
0.6346790104
 40
0.6536597093
 40
0.6735907739
 40
0.6940416604
 40
0.7148008191
 40
0.7354608043
 40
0.7554378461
 40
0.7741226403
 40
0.7908653448
 40
0.8055795401
 40
0.8186378913
 40
0.8307291052
 40
0.8422766712
 40
0.8537497966
 40
0.8659709236
 40
0.8796067306
 40
0.8952019297
 40
0.9131955157
 40
0.9335742847
 40
0.9555970953
 40
0.9781727269
 40
1.0
 40
1.0
 40
1.0
 40
1.0
 10
156.6459575994
 20
95.3977434444
 30
0.0
 10
156.7001545698
 20
95.4316536839
 30
0.0
 10
156.8348906801
 20
95.5195918696
 30
0.0
 10
157.0260166706
 20
95.6619020713
 30
0.0
 10
157.1967326061
 20
95.824407767
 30
0.0
 10
157.3066199094
 20
95.9783596323
 30
0.0
 10
157.3580496034
 20
96.1293777142
 30
0.0
 10
157.3469426814
 20
96.2786851569
 30
0.0
 10
157.2721322008
 20
96.4202441418
 30
0.0
 10
157.1384669717
 20
96.5529612518
 30
0.0
 10
156.9485290979
 20
96.68102345
 30
0.0
 10
156.7046674607
 20
96.8075888753
 30
0.0
 10
156.4110681351
 20
96.9335764237
 30
0.0
 10
156.0730776749
 20
97.0597925017
 30
0.0
 10
155.6965140653
 20
97.188717402
 30
0.0
 10
155.2878633274
 20
97.3232873145
 30
0.0
 10
154.8595479198
 20
97.4648746056
 30
0.0
 10
154.433604904
 20
97.6122262811
 30
0.0
 10
154.0351551955
 20
97.7619619941
 30
0.0
 10
153.6816955141
 20
97.9106522499
 30
0.0
 10
153.3785520368
 20
98.056940462
 30
0.0
 10
153.1222299271
 20
98.2021625817
 30
0.0
 10
152.9048227149
 20
98.3490970226
 30
0.0
 10
152.7184093383
 20
98.5037016135
 30
0.0
 10
152.5611221905
 20
98.6725134488
 30
0.0
 10
152.4385433351
 20
98.8615914777
 30
0.0
 10
152.3642543797
 20
99.0710207682
 30
0.0
 10
152.3455268534
 20
99.2927701886
 30
0.0
 10
152.3810790435
 20
99.5229595441
 30
0.0
 10
152.4717112325
 20
99.7665658126
 30
0.0
 10
152.6233987476
 20
100.0285739266
 30
0.0
 10
152.83871848
 20
100.3122396754
 30
0.0
 10
153.1216946548
 20
100.6211318199
 30
0.0
 10
153.4762007796
 20
100.9577595265
 30
0.0
 10
153.8950096587
 20
101.3162187789
 30
0.0
 10
154.3531514984
 20
101.6848943525
 30
0.0
 10
154.8207977266
 20
102.0512612939
 30
0.0
 10
155.2760253786
 20
102.4090142763
 30
0.0
 10
155.7073183876
 20
102.7583083161
 30
0.0
 10
156.1062581389
 20
103.1008133986
 30
0.0
 10
156.4627965535
 20
103.4369628498
 30
0.0
 10
156.7649689618
 20
103.7639085099
 30
0.0
 10
157.0052025962
 20
104.0767241869
 30
0.0
 10
157.1823777731
 20
104.3744167132
 30
0.0
 10
157.2984333635
 20
104.6627308063
 30
0.0
 10
157.3546961101
 20
104.9454727353
 30
0.0
 10
157.3526787478
 20
105.2229043092
 30
0.0
 10
157.2945016612
 20
105.4949895325
 30
0.0
 10
157.1801969377
 20
105.765757254
 30
0.0
 10
157.0068062999
 20
106.0407740131
 30
0.0
 10
156.7732514524
 20
106.3247629605
 30
0.0
 10
156.4773568549
 20
106.621272457
 30
0.0
 10
156.1217750363
 20
106.9292497057
 30
0.0
 10
155.717312886
 20
107.2462729993
 30
0.0
 10
155.281596068
 20
107.5697035551
 30
0.0
 10
154.8301050002
 20
107.8990862751
 30
0.0
 10
154.3759123719
 20
108.2360829708
 30
0.0
 10
153.9336047942
 20
108.5816671082
 30
0.0
 10
153.5211640485
 20
108.9341176524
 30
0.0
 10
153.1591753016
 20
109.2890789417
 30
0.0
 10
152.8621875612
 20
109.6392321157
 30
0.0
 10
152.6352852289
 20
109.978249104
 30
0.0
 10
152.4753494733
 20
110.3072022069
 30
0.0
 10
152.3798694741
 20
110.6305306097
 30
0.0
 10
152.3447086647
 20
110.9512672995
 30
0.0
 10
152.3668561415
 20
111.27426316
 30
0.0
 10
152.4487044092
 20
111.607212972
 30
0.0
 10
152.5988215069
 20
111.9567249774
 30
0.0
 10
152.8229677661
 20
112.3269294782
 30
0.0
 10
153.1246146219
 20
112.7183016473
 30
0.0
 10
153.4995917982
 20
113.1242323605
 30
0.0
 10
153.9309429846
 20
113.5329292068
 30
0.0
 10
154.3884570412
 20
113.9322390239
 30
0.0
 10
154.699731597
 20
114.1927195847
 30
0.0
 10
154.8530148126
 20
114.3204361532
 30
0.0
 11
156.6459575994
 21
95.3977434444
 31
0.0
 11
156.8063699915
 21
95.5028528922
 31
0.0
 11
157.0378308167
 21
95.6788349426
 31
0.0
 11
157.2024760885
 21
95.8412149618
 31
0.0
 11
157.304605987
 21
95.9924710811
 31
0.0
 11
157.3488171809
 21
96.1344387191
 31
0.0
 11
157.3384220458
 21
96.2718472766
 31
0.0
 11
157.2718888042
 21
96.4061766722
 31
0.0
 11
157.1462471073
 21
96.5380835968
 31
0.0
 11
156.9596267305
 21
96.6687928405
 31
0.0
 11
156.7168508146
 21
96.7977681601
 31
0.0
 11
156.4231101642
 21
96.9257945572
 31
0.0
 11
156.0839635452
 21
97.0540367547
 31
0.0
 11
155.70674609
 21
97.184421473
 31
0.0
 11
155.2964318485
 21
97.3205495832
 31
0.0
 11
154.8606522213
 21
97.4656189052
 31
0.0
 11
154.4246373884
 21
97.6175534085
 31
0.0
 11
154.0215541932
 21
97.7702172193
 31
0.0
 11
153.668066337
 21
97.9201987626
 31
0.0
 11
153.3669198985
 21
98.0669296623
 31
0.0
 11
153.114942176
 21
98.2109359692
 31
0.0
 11
152.9019898764
 21
98.3563013178
 31
0.0
 11
152.7195966925
 21
98.5094696996
 31
0.0
 11
152.5648961266
 21
98.6784206361
 31
0.0
 11
152.4458754118
 21
98.8663751707
 31
0.0
 11
152.3732967147
 21
99.0737800279
 31
0.0
 11
152.3542346061
 21
99.2902929881
 31
0.0
 11
152.3864937751
 21
99.5115277165
 31
0.0
 11
152.472068654
 21
99.7489423178
 31
0.0
 11
152.6190799843
 21
100.0097488097
 31
0.0
 11
152.8303156705
 21
100.2928885221
 31
0.0
 11
153.1080131291
 21
100.5996778317
 31
0.0
 11
153.4606117533
 21
100.937577099
 31
0.0
 11
153.8871615388
 21
101.3058778154
 31
0.0
 11
154.3545613785
 21
101.6843456591
 31
0.0
 11
154.8252760735
 21
102.0549649037
 31
0.0
 11
155.2818169834
 21
102.4154145518
 31
0.0
 11
155.7131181166
 21
102.7665203488
 31
0.0
 11
156.1118488638
 21
103.1111776378
 31
0.0
 11
156.4696530193
 21
103.4515864942
 31
0.0
 11
156.7722127734
 21
103.7824569137
 31
0.0
 11
157.0088021848
 21
104.0949647855
 31
0.0
 11
157.1805193704
 21
104.3894343922
 31
0.0
 11
157.2915436282
 21
104.6716895657
 31
0.0
 11
157.3456140166
 21
104.9502108491
 31
0.0
 11
157.3434295408
 21
105.2224399817
 31
0.0
 11
157.2877272784
 21
105.4871654077
 31
0.0
 11
157.1780384581
 21
105.7519620456
 31
0.0
 11
157.0098497314
 21
106.0242127129
 31
0.0
 11
156.7798729296
 21
106.308094537
 31
0.0
 11
156.4880275037
 21
106.603927791
 31
0.0
 11
156.1310901267
 21
106.9162972917
 31
0.0
 11
155.7228164855
 21
107.2391376781
 31
0.0
 11
155.2849738041
 21
107.5662700115
 31
0.0
 11
154.832821205
 21
107.8980303533
 31
0.0
 11
154.3766089319
 21
108.2385157946
 31
0.0
 11
153.931327014
 21
108.5887943877
 31
0.0
 11
153.5165050628
 21
108.9465992335
 31
0.0
 11
153.1525036035
 21
109.3072030488
 31
0.0
 11
152.8575315086
 21
109.6590338549
 31
0.0
 11
152.6353044268
 21
109.9958191247
 31
0.0
 11
152.4810309212
 21
110.3189717231
 31
0.0
 11
152.3883531765
 21
110.6373241956
 31
0.0
 11
152.3540748687
 21
110.9521235635
 31
0.0
 11
152.3750754441
 21
111.2660407075
 31
0.0
 11
152.453856317
 21
111.5917801048
 31
0.0
 11
152.5988812231
 21
111.9364353323
 31
0.0
 11
152.8176882634
 21
112.3038758621
 31
0.0
 11
153.1165083788
 21
112.6965261292
 31
0.0
 11
153.4935937035
 21
113.1089571267
 31
0.0
 11
153.9299820784
 21
113.5264236554
 31
0.0
 11
154.3950189354
 21
113.9350724668
 31
0.0
 11
154.8530148126
 21
114.3204361532
 31
0.0
  0
SPLINE
  5
31A
100
AcDbEntity
  8
0
100
AcDbSpline
 62
7
  6
CONTINUOUS
 70
0
 71
3
 72
15
 73
11
 74
9
 42
0.0000001
 43
0.0000001
 44
0.0000000001
 12
-0.9130901403
 22
0.0
 32
0.0
 13
0.0
 23
-0.9130901403
 33
0.0
 40
0.0
 40
0.0
 40
0.0
 40
0.0
 40
0.095594498
 40
0.1995281968
 40
0.3092175201
 40
0.4273815356
 40
0.5557358605
 40
0.6930947067
 40
0.8403493616
 40
1.0
 40
1.0
 40
1.0
 40
1.0
 10
113.7432792768
 20
93.1363471948
 30
0.0
 10
113.7141838123
 20
93.1363471948
 30
0.0
 10
113.6532372401
 20
93.1292067501
 30
0.0
 10
113.5641168064
 20
93.0964406989
 30
0.0
 10
113.4789119255
 20
93.0407619478
 30
0.0
 10
113.4018509408
 20
92.9634922299
 30
0.0
 10
113.3361399938
 20
92.8660939914
 30
0.0
 10
113.2849214967
 20
92.7506389302
 30
0.0
 10
113.2512057728
 20
92.6190952487
 30
0.0
 10
113.2432792768
 20
92.5254791423
 30
0.0
 10
113.2432792768
 20
92.4768873344
 30
0.0
 11
113.7432792768
 21
93.1363471948
 31
0.0
 11
113.6565740933
 21
93.1262910699
 31
0.0
 11
113.5673637904
 21
93.0939230229
 31
0.0
 11
113.4832252175
 21
93.0395909616
 31
0.0
 11
113.4066133485
 21
92.9636184498
 31
0.0
 11
113.3406048701
 21
92.8667757814
 31
0.0
 11
113.2893397178
 21
92.752310444
 31
0.0
 11
113.2556837149
 21
92.6221340352
 31
0.0
 11
113.2432792768
 21
92.4768873344
 31
0.0
  0
SPLINE
  5
31B
100
AcDbEntity
  8
0
100
AcDbSpline
 62
7
  6
CONTINUOUS
 70
0
 71
3
 72
18
 73
14
 74
12
 42
0.0000001
 43
0.0000001
 44
0.0000000001
 12
0.0
 22
-1.7642178701
 32
0.0
 13
-1.7642178701
 23
0.0
 33
0.0
 40
0.0
 40
0.0
 40
0.0
 40
0.0
 40
0.0948691176
 40
0.1905791476
 40
0.2857584804
 40
0.3791181802
 40
0.470813814
 40
0.5609692284
 40
0.649130721
 40
0.7355549077
 40
0.8230391447
 40
0.9115892404
 40
1.0
 40
1.0
 40
1.0
 40
1.0
 10
123.0432792768
 20
89.7267250669
 30
0.0
 10
123.0432792768
 20
89.670935136
 30
0.0
 10
123.0372878228
 20
89.5587664628
 30
0.0
 10
123.0100526201
 20
89.3926055729
 30
0.0
 10
122.9644516967
 20
89.2313943868
 30
0.0
 10
122.9010942299
 20
89.0788303452
 30
0.0
 10
122.8208091072
 20
88.9377978088
 30
0.0
 10
122.7244903944
 20
88.8109396055
 30
0.0
 10
122.6134332682
 20
88.7010393686
 30
0.0
 10
122.4882960962
 20
88.6100157927
 30
0.0
 10
122.349627771
 20
88.540502759
 30
0.0
 10
122.199607176
 20
88.4964130146
 30
0.0
 10
122.0952712242
 20
88.4863380463
 30
0.0
 10
122.0432792768
 20
88.4863380463
 30
0.0
 11
123.0432792768
 21
89.7267250669
 31
0.0
 11
123.0342979668
 21
89.5595964231
 31
0.0
 11
123.006877179
 21
89.392984441
 31
0.0
 11
122.9610048256
 21
89.2314546516
 31
0.0
 11
122.897626616
 21
89.0794298206
 31
0.0
 11
122.8173545778
 21
88.9389795417
 31
0.0
 11
122.7209177772
 21
88.8124961333
 31
0.0
 11
122.6101222647
 21
88.7033364942
 31
0.0
 11
122.4866183926
 21
88.6139260458
 31
0.0
 11
122.3484970537
 21
88.545051388
 31
0.0
 11
122.1985402112
 21
88.5012546661
 31
0.0
 11
122.0432792768
 21
88.4863380463
 31
0.0
  0
SPLINE
  5
31C
100
AcDbEntity
  8
BEZUGSACHSEN
100
AcDbSpline
 62
7
  6
CONTINUOUS
 70
0
 71
3
 72
11
 73
7
 74
5
 42
0.0000001
 43
0.0000001
 44
0.0000000001
 12
0.0
 22
0.1830126193
 32
0.0
 13
0.1451726273
 23
-0.1114384454
 33
0.0
 40
0.0
 40
0.0
 40
0.0
 40
0.0
 40
0.2465776366
 40
0.4184562595
 40
0.6350985973
 40
1.0
 40
1.0
 40
1.0
 40
1.0
 10
113.1182792768
 20
141.6787426018
 30
0.0
 10
113.1182792768
 20
141.6937848748
 30
0.0
 10
113.1182517624
 20
141.7201981371
 30
0.0
 10
113.1476698047
 20
141.7535326692
 30
0.0
 10
113.1978325709
 20
141.7387779414
 30
0.0
 10
113.2256213784
 20
141.7190072081
 30
0.0
 10
113.2432792768
 20
141.7054525265
 30
0.0
 11
113.1182792768
 21
141.6787426018
 31
0.0
 11
113.1249866346
 21
141.723368168
 31
0.0
 11
113.1471368124
 21
141.7457030477
 31
0.0
 11
113.1864446112
 21
141.7405181469
 31
0.0
 11
113.2432792768
 21
141.7054525265
 31
0.0
  0
SPLINE
  5
31D
100
AcDbEntity
  8
BEZUGSACHSEN
100
AcDbSpline
 62
7
  6
CONTINUOUS
 70
0
 71
3
 72
12
 73
8
 74
6
 42
0.0000001
 43
0.0000001
 44
0.0000000001
 12
0.1458774432
 22
0.1119794812
 32
0.0
 13
-0.0
 23
-0.1839011491
 33
0.0
 40
0.0
 40
0.0
 40
0.0
 40
0.0
 40
0.3119503866
 40
0.5109744676
 40
0.6456308384
 40
0.7914381086
 40
1.0
 40
1.0
 40
1.0
 40
1.0
 10
116.9932792768
 20
141.7054525265
 30
0.0
 10
117.0084481184
 20
141.7170965406
 30
0.0
 10
117.0343033248
 20
141.7345529646
 30
0.0
 10
117.0718726377
 20
141.7504305511
 30
0.0
 10
117.1033588895
 20
141.742590165
 30
0.0
 10
117.1170536571
 20
141.7130786937
 30
0.0
 10
117.1182792768
 20
141.6915275256
 30
0.0
 10
117.1182792768
 20
141.6787426018
 30
0.0
 11
116.9932792768
 21
141.7054525265
 31
0.0
 11
117.0414629125
 21
141.7365881755
 31
0.0
 11
117.0765057045
 21
141.747153125
 31
0.0
 11
117.1001917368
 21
141.7399281068
 31
0.0
 11
117.1138236937
 21
141.716837697
 31
0.0
 11
117.1182792768
 21
141.6787426018
 31
0.0
  0
SPLINE
  5
31E
100
AcDbEntity
  8
0
100
AcDbSpline
 62
7
  6
CONTINUOUS
 70
0
 71
3
 72
15
 73
11
 74
9
 42
0.0000001
 43
0.0000001
 44
0.0000000001
 12
0.0
 22
0.9130899958
 32
0.0
 13
-0.9130899958
 23
0.0
 33
0.0
 40
0.0
 40
0.0
 40
0.0
 40
0.0
 40
0.1598406322
 40
0.3070906132
 40
0.4443104261
 40
0.5725485626
 40
0.6906434484
 40
0.8001389346
 40
0.9041997491
 40
1.0
 40
1.0
 40
1.0
 40
1.0
 10
116.9932792768
 20
92.4768873344
 30
0.0
 10
116.9932792768
 20
92.5255369618
 30
0.0
 10
116.985338553
 20
92.6192102151
 30
0.0
 10
116.9515916494
 20
92.7507605064
 30
0.0
 10
116.9003886603
 20
92.8661342541
 30
0.0
 10
116.8347350574
 20
92.9634497948
 30
0.0
 10
116.7577696152
 20
93.0406497986
 30
0.0
 10
116.6726282286
 20
93.0963422051
 30
0.0
 10
116.5834865371
 20
93.1291789658
 30
0.0
 10
116.5224373604
 20
93.1363471948
 30
0.0
 10
116.4932792768
 20
93.1363471948
 30
0.0
 11
116.9932792768
 21
92.4768873344
 31
0.0
 11
116.9808451865
 21
92.6223055919
 31
0.0
 11
116.9471626446
 21
92.7524707062
 31
0.0
 11
116.895933027
 21
92.8668128346
 31
0.0
 11
116.8299861672
 21
92.9635690894
 31
0.0
 11
116.7534326676
 21
93.0395107912
 31
0.0
 11
116.6694684032
 21
93.0937864702
 31
0.0
 11
116.5801685777
 21
93.1262479906
 31
0.0
 11
116.4932792768
 21
93.1363471948
 31
0.0
  0
SPLINE
  5
31F
100
AcDbEntity
  8
BEZUGSACHSEN
100
AcDbSpline
 62
7
  6
CONTINUOUS
 70
0
 71
3
 72
11
 73
7
 74
5
 42
0.0000001
 43
0.0000001
 44
0.0000000001
 12
0.0
 22
-0.1395867963
 32
0.0
 13
0.0661959442
 23
-0.1231095805
 33
0.0
 40
0.0
 40
0.0
 40
0.0
 40
0.0
 40
0.2989089425
 40
0.5912641764
 40
0.8672480948
 40
1.0
 40
1.0
 40
1.0
 40
1.0
 10
113.2432792768
 20
141.4492217375
 30
0.0
 10
113.2432792768
 20
141.4353138236
 30
0.0
 10
113.2445691974
 20
141.4077741043
 30
0.0
 10
113.2512966455
 20
141.3678641426
 30
0.0
 10
113.2615053884
 20
141.3367290105
 30
0.0
 10
113.2697735467
 20
141.3195508034
 30
0.0
 10
113.2727027593
 20
141.3141031262
 30
0.0
 11
113.2432792768
 21
141.4492217375
 31
0.0
 11
113.2454260306
 21
141.4075532594
 31
0.0
 11
113.2524468819
 21
141.3673528059
 31
0.0
 11
113.2646471285
 21
141.3308120028
 31
0.0
 11
113.2727027593
 21
141.3141031262
 31
0.0
  0
SPLINE
  5
320
100
AcDbEntity
  8
BEZUGSACHSEN
100
AcDbSpline
 62
7
  6
CONTINUOUS
 70
0
 71
3
 72
16
 73
12
 74
10
 42
0.0000001
 43
0.0000001
 44
0.0000000001
 12
0.244791693
 22
-0.4552575388
 32
0.0
 13
0.497355697
 23
0.1381647029
 33
0.0
 40
0.0
 40
0.0
 40
0.0
 40
0.0
 40
0.0354819688
 40
0.1069116572
 40
0.1821577292
 40
0.2654043123
 40
0.3615453499
 40
0.4759438992
 40
0.6177190239
 40
0.7944984177
 40
1.0
 40
1.0
 40
1.0
 40
1.0
 10
113.2727027593
 20
141.3141031262
 30
0.0
 10
113.2755979897
 20
141.3087186483
 30
0.0
 10
113.2850394155
 20
141.2928818391
 30
0.0
 10
113.3048026464
 20
141.268318497
 30
0.0
 10
113.3350554295
 20
141.2424900764
 30
0.0
 10
113.3730224278
 20
141.22021424
 30
0.0
 10
113.4203556349
 20
141.201909566
 30
0.0
 10
113.4797045719
 20
141.1885928796
 30
0.0
 10
113.5542051346
 20
141.1826310567
 30
0.0
 10
113.6445010245
 20
141.1880656728
 30
0.0
 10
113.7092101492
 20
141.2013041305
 30
0.0
 10
113.7432792768
 20
141.2107684855
 30
0.0
 11
113.2727027593
 21
141.3141031262
 31
0.0
 11
113.2821025431
 21
141.2983631915
 31
0.0
 11
113.3051915465
 21
141.2696161863
 31
0.0
 11
113.3346288367
 21
141.2442766811
 31
0.0
 11
113.3715637753
 21
141.2223148466
 31
0.0
 11
113.4177363187
 21
141.2041230877
 31
0.0
 11
113.4752778564
 21
141.1908551366
 31
0.0
 11
113.5481960583
 21
141.1846362857
 31
0.0
 11
113.6393043678
 21
141.1897510279
 31
0.0
 11
113.7432792768
 21
141.2107684855
 31
0.0
  0
SPLINE
  5
321
100
AcDbEntity
  8
0
100
AcDbSpline
 62
7
  6
CONTINUOUS
 70
0
 71
3
 72
82
 73
78
 74
76
 42
0.0000001
 43
0.0000001
 44
0.0000000001
 12
-27.2357955058
 22
-5.7616566842
 32
0.0
 13
-21.4762867605
 23
-17.7052984287
 33
0.0
 40
0.0
 40
0.0
 40
0.0
 40
0.0
 40
0.0064602246
 40
0.0176603651
 40
0.0267163172
 40
0.0337452399
 40
0.0392864915
 40
0.0441396229
 40
0.0492464462
 40
0.0553385623
 40
0.0629372523
 40
0.0723947413
 40
0.0837139393
 40
0.0968150822
 40
0.111623568
 40
0.1279243007
 40
0.145517059
 40
0.1640933056
 40
0.1827126219
 40
0.1999755171
 40
0.2151654262
 40
0.228381953
 40
0.2398505418
 40
0.25001563
 40
0.259339487
 40
0.268241387
 40
0.2768354574
 40
0.2850561422
 40
0.2927801
 40
0.3000230338
 40
0.3075119404
 40
0.3160006914
 40
0.3258279992
 40
0.3370174237
 40
0.3496539978
 40
0.3636966585
 40
0.3790447773
 40
0.395530933
 40
0.4129477781
 40
0.4308929426
 40
0.4488926032
 40
0.466416642
 40
0.4829306708
 40
0.4980242081
 40
0.5113565144
 40
0.5230572061
 40
0.5335564331
 40
0.5435319846
 40
0.5533894812
 40
0.5633842427
 40
0.574008672
 40
0.5858669586
 40
0.599416693
 40
0.6148626288
 40
0.6325735072
 40
0.6524034412
 40
0.6733921327
 40
0.6947188526
 40
0.7159432852
 40
0.7366901631
 40
0.7565906122
 40
0.7752790167
 40
0.7922967927
 40
0.8073382772
 40
0.8205643519
 40
0.8324146702
 40
0.8434459555
 40
0.8539915171
 40
0.8645676797
 40
0.87592501
 40
0.8885964343
 40
0.903100737
 40
0.9197501205
 40
0.938507063
 40
0.9587153725
 40
0.9795276579
 40
1.0
 40
1.0
 40
1.0
 40
1.0
 10
154.5316348631
 20
133.7343849985
 30
0.0
 10
154.4729850781
 20
133.7219777998
 30
0.0
 10
154.313241479
 20
133.6852989737
 30
0.0
 10
154.074937097
 20
133.6157157141
 30
0.0
 10
153.8412112262
 20
133.5163703336
 30
0.0
 10
153.6718856254
 20
133.4058043379
 30
0.0
 10
153.5644546504
 20
133.2807612974
 30
0.0
 10
153.5188433141
 20
133.1400517285
 30
0.0
 10
153.5340172711
 20
132.9884411568
 30
0.0
 10
153.6053601741
 20
132.8271924184
 30
0.0
 10
153.732518573
 20
132.6528724649
 30
0.0
 10
153.9153911117
 20
132.4628035033
 30
0.0
 10
154.1527784555
 20
132.2563782521
 30
0.0
 10
154.441527932
 20
132.0345640877
 30
0.0
 10
154.7772880723
 20
131.7988133529
 30
0.0
 10
155.1541648522
 20
131.5494935113
 30
0.0
 10
155.5642060152
 20
131.2870936085
 30
0.0
 10
155.9937461807
 20
131.0152820077
 30
0.0
 10
156.4194168109
 20
130.7430747237
 30
0.0
 10
156.8148992453
 20
130.4820282501
 30
0.0
 10
157.162951788
 20
130.240288393
 30
0.0
 10
157.4598901975
 20
130.0194776573
 30
0.0
 10
157.7110763545
 20
129.8156993742
 30
0.0
 10
157.9247242742
 20
129.6235149304
 30
0.0
 10
158.1092006959
 20
129.4351873558
 30
0.0
 10
158.2682532838
 20
129.2433448839
 30
0.0
 10
158.3987776414
 20
129.042705229
 30
0.0
 10
158.4899494711
 20
128.8325349124
 30
0.0
 10
158.5311864451
 20
128.619274742
 30
0.0
 10
158.5186413774
 20
128.4091249981
 30
0.0
 10
158.4525428153
 20
128.2019091548
 30
0.0
 10
158.3291500206
 20
127.9947518483
 30
0.0
 10
158.1487175783
 20
127.787519041
 30
0.0
 10
157.9151923513
 20
127.5794138111
 30
0.0
 10
157.6326772054
 20
127.3699843561
 30
0.0
 10
157.3050525834
 20
127.1582373076
 30
0.0
 10
156.9383376164
 20
126.9420347013
 30
0.0
 10
156.5396094879
 20
126.7188160297
 30
0.0
 10
156.1181804333
 20
126.4868797235
 30
0.0
 10
155.686105268
 20
126.2451542018
 30
0.0
 10
155.2585557783
 20
125.99343281
 30
0.0
 10
154.852247361
 20
125.7322987819
 30
0.0
 10
154.4841495082
 20
125.462746188
 30
0.0
 10
154.1695998629
 20
125.1880550984
 30
0.0
 10
153.9170193645
 20
124.9133037885
 30
0.0
 10
153.7283398227
 20
124.6414381849
 30
0.0
 10
153.6008633346
 20
124.3696855009
 30
0.0
 10
153.5322578313
 20
124.0948419237
 30
0.0
 10
153.5196223335
 20
123.8166072526
 30
0.0
 10
153.5607626209
 20
123.5352894995
 30
0.0
 10
153.6552354935
 20
123.2478040729
 30
0.0
 10
153.8058150829
 20
122.9482410956
 30
0.0
 10
154.0149624794
 20
122.6313117579
 30
0.0
 10
154.2868454725
 20
122.2932337401
 30
0.0
 10
154.6229832564
 20
121.9340113145
 30
0.0
 10
155.016451432
 20
121.5594662319
 30
0.0
 10
155.4485475417
 20
121.1776136094
 30
0.0
 10
155.8980441127
 20
120.7961768002
 30
0.0
 10
156.3477578183
 20
120.4184994333
 30
0.0
 10
156.7839699712
 20
120.0453184847
 30
0.0
 10
157.193505094
 20
119.6772920801
 30
0.0
 10
157.5622905691
 20
119.3161633177
 30
0.0
 10
157.8768497304
 20
118.9652309383
 30
0.0
 10
158.1297857094
 20
118.6289312261
 30
0.0
 10
158.319888419
 20
118.3078081443
 30
0.0
 10
158.4487036603
 20
117.9971007867
 30
0.0
 10
158.5182412216
 20
117.6932188844
 30
0.0
 10
158.5315380742
 20
117.3935451059
 30
0.0
 10
158.4894948262
 20
117.093500798
 30
0.0
 10
158.3886861
 20
116.7869956447
 30
0.0
 10
158.2227786187
 20
116.4688665707
 30
0.0
 10
157.9891316367
 20
116.1350282064
 30
0.0
 10
157.6860079354
 20
115.7841473822
 30
0.0
 10
157.31913052
 20
115.4208111209
 30
0.0
 10
156.9051012036
 20
115.0515889219
 30
0.0
 10
156.4683951264
 20
114.6844116211
 30
0.0
 10
156.1724377136
 20
114.4412591286
 30
0.0
 10
156.0258810839
 20
114.3204361533
 30
0.0
 11
154.5316348631
 21
133.7343849985
 31
0.0
 11
154.3564121238
 21
133.6938964465
 31
0.0
 11
154.0580018738
 21
133.6037122232
 31
0.0
 11
153.8276021757
 21
133.5014868372
 31
0.0
 11
153.6667768057
 21
133.3900854998
 31
0.0
 11
153.5697341001
 21
133.2702084749
 31
0.0
 11
153.528783337
 21
133.1414853058
 31
0.0
 11
153.539722886
 21
132.9997656959
 31
0.0
 11
153.6042450089
 21
132.8429558357
 31
0.0
 11
153.7255290874
 21
132.6696875174
 31
0.0
 11
153.9058139752
 21
132.4778791208
 31
0.0
 11
154.1421466911
 21
132.2695385695
 31
0.0
 11
154.4303995914
 21
132.046197601
 31
0.0
 11
154.7669688884
 21
131.8082734538
 31
0.0
 11
155.1447654275
 21
131.5570353635
 31
0.0
 11
155.5567357296
 21
131.2923530407
 31
0.0
 11
155.9931898771
 21
131.0151494869
 31
0.0
 11
156.4293156119
 21
130.7352040278
 31
0.0
 11
156.8298270798
 21
130.4697618665
 31
0.0
 11
157.1765745013
 21
130.2278583719
 31
0.0
 11
157.4712144738
 21
130.0076068854
 31
0.0
 11
157.7186093804
 21
129.8058842353
 31
0.0
 11
157.9283901341
 21
129.6160371846
 31
0.0
 11
158.1092363665
 21
129.4299098439
 31
0.0
 11
158.2662066339
 21
129.2382038239
 31
0.0
 11
158.3946987893
 21
129.0364410411
 31
0.0
 11
158.4835851721
 21
128.8256004714
 31
0.0
 11
158.522726131
 21
128.6142081236
 31
0.0
 11
158.510631602
 21
128.4129744291
 31
0.0
 11
158.4485961219
 21
128.2139766054
 31
0.0
 11
158.3303045281
 21
128.0094485266
 31
0.0
 11
158.1532611025
 21
127.8009446758
 31
0.0
 11
157.9224952273
 21
127.5917961416
 31
0.0
 11
157.641161409
 21
127.3807059711
 31
0.0
 11
157.3139012212
 21
127.1669995568
 31
0.0
 11
156.9466769545
 21
126.9487328618
 31
0.0
 11
156.5468850804
 21
126.7235061841
 31
0.0
 11
156.1227408802
 21
126.4887578079
 31
0.0
 11
155.687450259
 21
126.243807569
 31
0.0
 11
155.2564697216
 21
125.9883631353
 31
0.0
 11
154.8472111152
 21
125.7230065394
 31
0.0
 11
154.4777584333
 21
125.4495510503
 31
0.0
 11
154.1629204729
 21
125.1714015059
 31
0.0
 11
153.913739613
 21
124.8964221682
 31
0.0
 11
153.7302741192
 21
124.6273444903
 31
0.0
 11
153.6079418013
 21
124.361950746
 31
0.0
 11
153.5412138396
 21
124.0924328771
 31
0.0
 11
153.5283612178
 21
123.8183646031
 31
0.0
 11
153.5674655364
 21
123.5429366538
 31
0.0
 11
153.6580232532
 21
123.2614278083
 31
0.0
 11
153.8039510596
 21
122.9653808882
 31
0.0
 11
154.009698105
 21
122.6493097092
 31
0.0
 11
154.2774222193
 21
122.3129299025
 31
0.0
 11
154.6127050717
 21
121.951554395
 31
0.0
 11
155.0108814717
 21
121.5693354889
 31
0.0
 11
155.4474595596
 21
121.1811626399
 31
0.0
 11
155.8990932586
 21
120.7959524724
 31
0.0
 11
156.3505663952
 21
120.4149537795
 31
0.0
 11
156.7883674803
 21
120.038403297
 31
0.0
 11
157.1991001236
 21
119.6667786874
 31
0.0
 11
157.5691295565
 21
119.3011967375
 31
0.0
 11
157.8835612719
 21
118.9469483563
 31
0.0
 11
158.1331480576
 21
118.6108213989
 31
0.0
 11
158.3182383587
 21
118.2926066893
 31
0.0
 11
158.4424979074
 21
117.9870712399
 31
0.0
 11
158.5098516694
 21
117.6875096112
 31
0.0
 11
158.522532442
 21
117.3942628681
 31
0.0
 11
158.4822512718
 21
117.1026593495
 31
0.0
 11
158.3850393801
 21
116.8018626026
 31
0.0
 11
158.2246096339
 21
116.4877712788
 31
0.0
 11
157.9955573639
 21
116.1553345193
 31
0.0
 11
157.6947096707
 21
115.8028556063
 31
0.0
 11
157.3257307506
 21
115.4335119511
 31
0.0
 11
156.9075366901
 21
115.0573658317
 31
0.0
 11
156.4652781993
 21
114.6832356969
 31
0.0
 11
156.0258810839
 21
114.3204361533
 31
0.0
  0
SPLINE
  5
322
100
AcDbEntity
  8
BEZUGSACHSEN
100
AcDbSpline
 62
7
  6
CONTINUOUS
 70
0
 71
3
 72
16
 73
12
 74
10
 42
0.0000001
 43
0.0000001
 44
0.0000000001
 12
0.4973714463
 22
-0.1381690781
 32
0.0
 13
0.2447633051
 23
0.4552915049
 33
0.0
 40
0.0
 40
0.0
 40
0.0
 40
0.0
 40
0.2054084362
 40
0.3821123936
 40
0.5239763358
 40
0.6383788277
 40
0.7345406286
 40
0.8178119434
 40
0.8930732946
 40
0.9645140243
 40
1.0
 40
1.0
 40
1.0
 40
1.0
 10
116.4932792768
 20
141.2107684855
 30
0.0
 10
116.5273340405
 20
141.2013081208
 30
0.0
 10
116.5920160934
 20
141.1880732672
 30
0.0
 10
116.6823001858
 20
141.1826308473
 30
0.0
 10
116.7568070581
 20
141.1885848191
 30
0.0
 10
116.8161779314
 20
141.2019018144
 30
0.0
 10
116.8635219676
 20
141.2202067656
 30
0.0
 10
116.9015002177
 20
141.2424871809
 30
0.0
 10
116.9317605289
 20
141.2683224937
 30
0.0
 10
116.9515264453
 20
141.2928917886
 30
0.0
 10
116.960968317
 20
141.3087320426
 30
0.0
 10
116.9638635385
 20
141.3141175303
 30
0.0
 11
116.4932792768
 21
141.2107684855
 31
0.0
 11
116.5972096934
 21
141.1897566468
 31
0.0
 11
116.6882814997
 21
141.1846348688
 31
0.0
 11
116.7612483595
 21
141.1908499913
 31
0.0
 11
116.8187946915
 21
141.2041145298
 31
0.0
 11
116.8649799369
 21
141.2223075756
 31
0.0
 11
116.901927805
 21
141.2442753074
 31
0.0
 11
116.9313717336
 21
141.2696210758
 31
0.0
 11
116.9544635636
 21
141.2983746185
 31
0.0
 11
116.9638635385
 21
141.3141175303
 31
0.0
  0
SPLINE
  5
323
100
AcDbEntity
  8
BEZUGSACHSEN
100
AcDbSpline
 62
7
  6
CONTINUOUS
 70
0
 71
3
 72
11
 73
7
 74
5
 42
0.0000001
 43
0.0000001
 44
0.0000000001
 12
0.0661784389
 22
0.1231004829
 32
0.0
 13
0.0
 23
0.1395704877
 33
0.0
 40
0.0
 40
0.0
 40
0.0
 40
0.0
 40
0.1327767541
 40
0.408761515
 40
0.7011191023
 40
1.0
 40
1.0
 40
1.0
 40
1.0
 10
116.9638635385
 20
141.3141175303
 30
0.0
 10
116.9667925246
 20
141.3195658245
 30
0.0
 10
116.9750588502
 20
141.3367437764
 30
0.0
 10
116.9852647846
 20
141.3678771109
 30
0.0
 10
116.9919898311
 20
141.4077814661
 30
0.0
 10
116.9932792768
 20
141.4353167532
 30
0.0
 10
116.9932792768
 20
141.4492217375
 30
0.0
 11
116.9638635385
 21
141.3141175303
 31
0.0
 11
116.971918394
 21
141.330828231
 31
0.0
 11
116.9841148744
 21
141.3673656703
 31
0.0
 11
116.9911334681
 21
141.4075620114
 31
0.0
 11
116.9932792768
 21
141.4492217375
 31
0.0
  0
SPLINE
  5
324
100
AcDbEntity
  8
0
100
AcDbSpline
 62
7
  6
CONTINUOUS
 70
0
 71
3
 72
18
 73
14
 74
12
 42
0.0000001
 43
0.0000001
 44
0.0000000001
 12
-1.7642179932
 22
0.0
 32
0.0
 13
-0.0
 23
1.7642179932
 33
0.0
 40
0.0
 40
0.0
 40
0.0
 40
0.0
 40
0.0884356734
 40
0.1769592452
 40
0.264385139
 40
0.3507913626
 40
0.4389518107
 40
0.5291184745
 40
0.6208295728
 40
0.7142209758
 40
0.8094445939
 40
0.905156071
 40
1.0
 40
1.0
 40
1.0
 40
1.0
 10
108.1932792768
 20
88.4863380463
 30
0.0
 10
108.1412726747
 20
88.4863380463
 30
0.0
 10
108.0369374481
 20
88.4964158462
 30
0.0
 10
107.8869525155
 20
88.5404990563
 30
0.0
 10
107.7483350896
 20
88.6099756765
 30
0.0
 10
107.6232234742
 20
88.7009565683
 30
0.0
 10
107.5121552362
 20
88.8108391841
 30
0.0
 10
107.4158131727
 20
88.9376989441
 30
0.0
 10
107.3354991856
 20
89.078754914
 30
0.0
 10
107.2721138452
 20
89.2313660858
 30
0.0
 10
107.2265008218
 20
89.3926216818
 30
0.0
 10
107.1992683937
 20
89.5587952981
 30
0.0
 10
107.1932792768
 20
89.6709499448
 30
0.0
 10
107.1932792768
 20
89.7267250669
 30
0.0
 11
108.1932792768
 21
88.4863380463
 31
0.0
 11
108.0379749813
 21
88.5012630511
 31
0.0
 11
107.8880641252
 21
88.5450503523
 31
0.0
 11
107.750030777
 21
88.6138708344
 31
0.0
 11
107.6265414076
 21
88.7032472893
 31
0.0
 11
107.5157329725
 21
88.8123912001
 31
0.0
 11
107.4192700149
 21
88.9388796351
 31
0.0
 11
107.3389726397
 21
89.0793468697
 31
0.0
 11
107.275565686
 21
89.2314203268
 31
0.0
 11
107.229672258
 21
89.3930253618
 31
0.0
 11
107.2022558059
 21
89.5596406569
 31
0.0
 11
107.1932792768
 21
89.7267250669
 31
0.0
  0
SPLINE
  5
325
100
AcDbEntity
  8
0
100
AcDbSpline
 62
7
  6
CONTINUOUS
 70
0
 71
3
 72
21
 73
17
 74
15
 42
0.0000001
 43
0.0000001
 44
0.0000000001
 12
2.8073939609
 22
-0.5262955352
 32
0.0
 13
-2.7409730137
 23
-0.6401538041
 33
0.0
 40
0.0
 40
0.0
 40
0.0
 40
0.0
 40
0.1000842218
 40
0.1993521422
 40
0.2983283052
 40
0.397400412
 40
0.4969768597
 40
0.597150289
 40
0.6953417084
 40
0.7824789244
 40
0.8482618693
 40
0.8904580873
 40
0.9142576244
 40
0.9302950175
 40
0.9564176317
 40
1.0
 40
1.0
 40
1.0
 40
1.0
 10
156.0254272907
 20
134.9308772817
 30
0.0
 10
156.119085904
 20
134.913319322
 30
0.0
 10
156.3054842621
 20
134.8775133225
 30
0.0
 10
156.5839326972
 20
134.8214232519
 30
0.0
 10
156.8608962155
 20
134.7628891114
 30
0.0
 10
157.1375003122
 20
134.7013478444
 30
0.0
 10
157.4144454443
 20
134.6360256293
 30
0.0
 10
157.6893316412
 20
134.5663116496
 30
0.0
 10
157.9515506108
 20
134.4932352267
 30
0.0
 10
158.1783635049
 20
134.4207653584
 30
0.0
 10
158.3544815611
 20
134.3534419429
 30
0.0
 10
158.460690373
 20
134.2956866474
 30
0.0
 10
158.5297354976
 20
134.2416058732
 30
0.0
 10
158.5155287078
 20
134.1703285827
 30
0.0
 10
158.4331820831
 20
134.1364480897
 30
0.0
 10
158.3710913404
 20
134.1184660853
 30
0.0
 10
158.3312719753
 20
134.1091662791
 30
0.0
 11
156.0254272907
 21
134.9308772817
 31
0.0
 11
156.3061642036
 21
134.8769444911
 31
0.0
 11
156.5841146911
 21
134.8209279696
 31
0.0
 11
156.8606993391
 21
134.7624183222
 31
0.0
 11
157.1369039959
 21
134.7008678835
 31
0.0
 11
157.4136851202
 21
134.6353923505
 31
0.0
 11
157.6909493291
 21
134.5647363878
 31
0.0
 11
157.9609118811
 21
134.4887078214
 31
0.0
 11
158.1976214164
 21
134.4117998967
 31
0.0
 11
158.3718976046
 21
134.3415671163
 31
0.0
 11
158.4764808578
 21
134.2816619467
 31
0.0
 11
158.5212389732
 21
134.2304974809
 31
0.0
 11
158.5131559821
 21
134.1854086626
 31
0.0
 11
158.4506320269
 21
134.1446900404
 31
0.0
 11
158.3312719753
 21
134.1091662791
 31
0.0
  0
SPLINE
  5
326
100
AcDbEntity
  8
BEZUGSACHSEN
100
AcDbSpline
 62
7
  6
CONTINUOUS
 70
0
 71
3
 72
18
 73
14
 74
12
 42
0.0000001
 43
0.0000001
 44
0.0000000001
 12
2.6737590161
 22
0.7427664394
 32
0.0
 13
2.6737590161
 23
-0.7427664394
 33
0.0
 40
0.0
 40
0.0
 40
0.0
 40
0.0
 40
0.0788628999
 40
0.1647195541
 40
0.2563676281
 40
0.3521236596
 40
0.4503969613
 40
0.5496032532
 40
0.6478758258
 40
0.7436299262
 40
0.8352788674
 40
0.9211360457
 40
1.0
 40
1.0
 40
1.0
 40
1.0
 10
113.7432792768
 20
141.2107684855
 30
0.0
 10
113.8135660734
 20
141.2302940573
 30
0.0
 10
113.9620169475
 20
141.2652415123
 30
0.0
 10
114.1957958308
 20
141.3056444848
 30
0.0
 10
114.4468086445
 20
141.3361694551
 30
0.0
 10
114.7103435486
 20
141.3566126308
 30
0.0
 10
114.9814611773
 20
141.3668612731
 30
0.0
 10
115.2550972964
 20
141.366861262
 30
0.0
 10
115.5262124653
 20
141.3566127279
 30
0.0
 10
115.7897457238
 20
141.3361698412
 30
0.0
 10
116.040758075
 20
141.3056451914
 30
0.0
 10
116.2745392226
 20
141.2652420327
 30
0.0
 10
116.4229915406
 20
141.2302943184
 30
0.0
 10
116.4932792768
 20
141.2107684855
 30
0.0
 11
113.7432792768
 21
141.2107684855
 31
0.0
 11
113.956116248
 21
141.261697448
 31
0.0
 11
114.1907926926
 21
141.3028260045
 31
0.0
 11
114.4432102874
 21
141.3339112427
 31
0.0
 11
114.7081197485
 21
141.3547024129
 31
0.0
 11
114.9806302697
 21
141.3651194411
 31
0.0
 11
115.2559288784
 21
141.3651194298
 31
0.0
 11
115.5284373784
 21
141.3547024956
 31
0.0
 11
115.7933415106
 21
141.3339119185
 31
0.0
 11
116.045761526
 21
141.3028266459
 31
0.0
 11
116.2804394381
 21
141.2616980368
 31
0.0
 11
116.4932792768
 21
141.2107684855
 31
0.0
  0
ENDSEC
  0
SECTION
  2
OBJECTS
  0
DICTIONARY
  5
C
100
AcDbDictionary
280
0
281
1
  3
ACAD_GROUP
350
D
  3
ACAD_MLINESTYLE
350
17
  3
ACAD_LAYOUT
350
1A
  3
ACAD_PLOTSETTINGS
350
19
  3
ACAD_PLOTSTYLENAME
350
E
  0
DICTIONARY
  5
D
102
{ACAD_REACTORS
330
C
102
}
100
AcDbDictionary
280
0
281
1
  0
ACDBDICTIONARYWDFLT
  5
E
102
{ACAD_REACTORS
330
C
102
}
100
AcDbDictionary
281
1
  3
Normal
350
F
100
AcDbDictionaryWithDefault
340
F
  0
DICTIONARY
  5
17
102
{ACAD_REACTORS
330
C
102
}
100
AcDbDictionary
280
0
281
1
  3
Standard
350
18
  0
DICTIONARY
  5
19
102
{ACAD_REACTORS
330
C
102
}
100
AcDbDictionary
281
1
  0
DICTIONARY
  5
1A
102
{ACAD_REACTORS
330
C
102
}
100
AcDbDictionary
281
1
  3
Model
350
327
  3
Layout1
350
328
  0
ACDBPLACEHOLDER
  5
F
102
{ACAD_REACTORS
330
E
102
}
  0
MLINESTYLE
  5
18
102
{ACAD_REACTORS
330
17
102
}
100
AcDbMlineStyle
  2
STANDARD
 70
0
  3

 62
256
 51
90.0
 52
90.0
 71
2
 49
0.5
 62
256
  6
BYLAYER
 49
-0.5
 62
256
  6
BYLAYER
  0
LAYOUT
  5
327
102
{ACAD_REACTORS
330
1A
102
}
100
AcDbPlotSettings
  1

  2
none_device
  4
ISO_A4_(297.00_x_210.00_MM)
  6

 40
0.0
 41
0.0
 42
0.0
 43
0.0
 44
297.0
 45
210.0
 46
0.0
 47
0.0
 48
0.0
 49
0.0
140
0.0
141
0.0
142
1.0
143
1.0
 70
1024
 72
1
 73
0
 74
0
  7

 75
0
147
1.0
148
0.0
149
0.0
100
AcDbLayout
  1
Model
 70
0
 71
0
 10
0.0
 20
0.0
 11
297.0
 21
210.0
 12
0.0
 22
0.0
 32
0.0
 14
0.0
 24
0.0
 34
0.0
 15
0.0
 25
0.0
 35
0.0
146
0.0
 13
0.0
 23
0.0
 33
0.0
 16
1.0
 26
0.0
 36
0.0
 17
0.0
 27
1.0
 37
0.0
 76
0
330
217
345
0
346
0
  0
LAYOUT
  5
328
102
{ACAD_REACTORS
330
1A
102
}
100
AcDbPlotSettings
  1

  2
none_device
  4
ISO_A4_(297.00_x_210.00_MM)
  6

 40
0.0
 41
0.0
 42
0.0
 43
0.0
 44
297.0
 45
210.0
 46
0.0
 47
0.0
 48
0.0
 49
0.0
140
0.0
141
0.0
142
1.0
143
1.0
 70
0
 72
1
 73
0
 74
0
  7

 75
0
147
1.0
148
0.0
149
0.0
100
AcDbLayout
  1
Layout1
 70
0
 71
1
 10
0.0
 20
0.0
 11
297.0
 21
210.0
 12
0.0
 22
0.0
 32
0.0
 14
0.0
 24
0.0
 34
0.0
 15
0.0
 25
0.0
 35
0.0
146
0.0
 13
0.0
 23
0.0
 33
0.0
 16
1.0
 26
0.0
 36
0.0
 17
0.0
 27
1.0
 37
0.0
 76
0
330
218
345
0
346
0
  0
ENDSEC
  0
EOF
