999
DXF file: 40-484-04-8.dxf
999
Pro/ENGINEER 2009220 by Parametric Technology Corporation
  0
SECTION
  2
HEADER
  9
$ACADVER
  1
AC1021
  9
$DWGCODEPAGE
  3
ANSI_1252
  9
$EXTMAX
 10
297.0
 20
210.0
 30
0.0
  9
$EXTMIN
 10
0.0
 20
0.0
 30
0.0
  9
$LIMMIN
 10
0.0
 20
0.0
  9
$LIMMAX
 10
297.0
 20
210.0
  9
$VIEWCTR
 10
148.5
 20
105.0
  9
$VIEWSIZE
 40
210.0
  9
$CLAYER
  8
0
  9
$LTSCALE
 40
16.335
  9
$CELTYPE
  6
BYLAYER
  9
$DIMSCALE
 40
1.0
  9
$DIMASZ
 40
3.5
  9
$DIMEXO
 40
1.85625
  9
$DIMDLI
 40
11.286
  9
$DIMEXE
 40
5.346
  9
$DIMCEN
 40
2.673
  9
$DIMLFAC
 40
1.0
  9
$DIMBLK
  1
_FILLED
  9
$DIMTXT
 40
3.5
  9
$DIMTOL
 70
1
  9
$DIMLIM
 70
0
  9
$DIMTFAC
 40
1.0
  9
$DIMTP
 40
0.005
  9
$DIMTM
 40
0.005
  9
$PDMODE
 70
3
  9
$PDSIZE
 40
0.3125
  9
$HANDSEED
  5
32B
  9
$TILEMODE
 70
1
  9
$MEASUREMENT
 70
1
  9
$INSUNITS
 70
4
  0
ENDSEC
  0
SECTION
  2
CLASSES
  0
CLASS
  1
ACDBDICTIONARYWDFLT
  2
AcDbDictionaryWithDefault
  3
AutoCAD 2000
 90
0
 91
1
280
0
281
0
  0
CLASS
  1
ACDBPLACEHOLDER
  2
AcDbPlaceHolder
  3
AutoCAD 2000
 90
0
 91
1
280
0
281
0
  0
CLASS
  1
LAYOUT
  2
AcDbLayout
  3
AutoCAD 2000
 90
0
 91
0
280
0
281
0
  0
ENDSEC
  0
SECTION
  2
TABLES
  0
TABLE
  2
VPORT
  5
8
100
AcDbSymbolTable
 70
2
  0
VPORT
  5
1F4
100
AcDbSymbolTableRecord
100
AcDbViewportTableRecord
  2
*ACTIVE
 70
0
 10
0.0
 20
0.0
 11
1.0
 21
1.0
 12
148.5
 22
105.0
 13
0.0
 23
0.0
 14
1.0
 24
1.0
 15
0.0
 25
0.0
 16
0.0
 26
0.0
 36
1.0
 17
0.0
 27
0.0
 37
0.0
 40
210.0
 41
1.4142857143
 42
50.0
 43
0.0
 44
0.0
 50
0.0
 51
0.0
 71
0
 72
100
 73
1
 74
1
 75
0
 76
0
 77
0
 78
0
  0
ENDTAB
  0
TABLE
  2
LTYPE
  5
5
100
AcDbSymbolTable
 70
6
  0
LTYPE
  5
14
100
AcDbSymbolTableRecord
100
AcDbLinetypeTableRecord
  2
BYBLOCK
 70
0
  3

 72
65
 73
0
 40
0.0
  0
LTYPE
  5
15
100
AcDbSymbolTableRecord
100
AcDbLinetypeTableRecord
  2
BYLAYER
 70
0
  3

 72
65
 73
0
 40
0.0
  0
LTYPE
  5
16
100
AcDbSymbolTableRecord
100
AcDbLinetypeTableRecord
  2
CONTINUOUS
 70
64
  3
Solid line
 72
65
 73
0
 40
0.0
  0
LTYPE
  5
1F5
100
AcDbSymbolTableRecord
100
AcDbLinetypeTableRecord
  2
CENTER
 70
64
  3
____ _ ____ _ ____ _ ____ _ ____ _ ____ _ ____
 72
65
 73
4
 40
0.6
 49
0.375
 74
0
 49
-0.075
 74
0
 49
0.075
 74
0
 49
-0.075
 74
0
  0
LTYPE
  5
1F6
100
AcDbSymbolTableRecord
100
AcDbLinetypeTableRecord
  2
HIDDEN
 70
64
  3
- - - - - - - - - - - - - - - - - - - -
 72
65
 73
2
 40
0.2
 49
0.1
 74
0
 49
-0.1
 74
0
  0
LTYPE
  5
1F7
100
AcDbSymbolTableRecord
100
AcDbLinetypeTableRecord
  2
PHANTOM
 70
64
  3
_____ _ _ _____ _ _ _____ _ _ _____
 72
65
 73
6
 40
0.8
 49
0.45
 74
0
 49
-0.05
 74
0
 49
0.1
 74
0
 49
-0.05
 74
0
 49
0.1
 74
0
 49
-0.05
 74
0
  0
LTYPE
  5
1F8
100
AcDbSymbolTableRecord
100
AcDbLinetypeTableRecord
  2
DOT
 70
64
  3
. . . . . . . . . . . . . . . . . . . .
 72
65
 73
2
 40
0.2
 49
0.1
 74
0
 49
-0.1
 74
0
  0
LTYPE
  5
1F9
100
AcDbSymbolTableRecord
100
AcDbLinetypeTableRecord
  2
DASHED
 70
64
  3
- - - - - - - - - - - - - - - - - - - -
 72
65
 73
2
 40
0.2
 49
0.1
 74
0
 49
-0.1
 74
0
  0
ENDTAB
  0
TABLE
  2
LAYER
  5
2
100
AcDbSymbolTable
 70
36
  0
LAYER
  5
10
100
AcDbSymbolTableRecord
100
AcDbLayerTableRecord
  2
0
 70
0
 62
7
  6
CONTINUOUS
370
-3
390
F
  0
LAYER
  5
1FA
100
AcDbSymbolTableRecord
100
AcDbLayerTableRecord
  2
DEFAULT_1
 70
0
 62
7
  6
CENTER
370
-3
390
F
  0
LAYER
  5
1FB
100
AcDbSymbolTableRecord
100
AcDbLayerTableRecord
  2
DEFAULT_2
 70
0
 62
8
  6
HIDDEN
370
-3
390
F
  0
LAYER
  5
1FC
100
AcDbSymbolTableRecord
100
AcDbLayerTableRecord
  2
DEFAULT_3
 70
0
 62
7
  6
PHANTOM
370
-3
390
F
  0
LAYER
  5
1FD
100
AcDbSymbolTableRecord
100
AcDbLayerTableRecord
  2
ANALYSEN
 70
0
 62
7
  6
CONTINUOUS
370
-3
390
F
  0
LAYER
  5
1FE
100
AcDbSymbolTableRecord
100
AcDbLayerTableRecord
  2
AUSSENKONTUR
 70
0
 62
7
  6
CONTINUOUS
370
-3
390
F
  0
LAYER
  5
1FF
100
AcDbSymbolTableRecord
100
AcDbLayerTableRecord
  2
BEZUGSACHSEN
 70
0
 62
7
  6
CONTINUOUS
370
-3
390
F
  0
LAYER
  5
200
100
AcDbSymbolTableRecord
100
AcDbLayerTableRecord
  2
BEZUGSACHSENKENNZEICHEN
 70
0
 62
7
  6
CONTINUOUS
370
-3
390
F
  0
LAYER
  5
201
100
AcDbSymbolTableRecord
100
AcDbLayerTableRecord
  2
BEZUGSEBENEN
 70
0
 62
7
  6
CONTINUOUS
370
-3
390
F
  0
LAYER
  5
202
100
AcDbSymbolTableRecord
100
AcDbLayerTableRecord
  2
BEZUGSPUNKTE
 70
0
 62
7
  6
CONTINUOUS
370
-3
390
F
  0
LAYER
  5
203
100
AcDbSymbolTableRecord
100
AcDbLayerTableRecord
  2
BOHRUNGEN
 70
0
 62
7
  6
CONTINUOUS
370
-3
390
F
  0
LAYER
  5
204
100
AcDbSymbolTableRecord
100
AcDbLayerTableRecord
  2
FASEN
 70
0
 62
7
  6
CONTINUOUS
370
-3
390
F
  0
LAYER
  5
205
100
AcDbSymbolTableRecord
100
AcDbLayerTableRecord
  2
FLAECHEN
 70
0
 62
7
  6
CONTINUOUS
370
-3
390
F
  0
LAYER
  5
206
100
AcDbSymbolTableRecord
100
AcDbLayerTableRecord
  2
GEWINDE
 70
0
 62
7
  6
CONTINUOUS
370
-3
390
F
  0
LAYER
  5
207
100
AcDbSymbolTableRecord
100
AcDbLayerTableRecord
  2
HILFEN
 70
0
 62
7
  6
CONTINUOUS
370
-3
390
F
  0
LAYER
  5
208
100
AcDbSymbolTableRecord
100
AcDbLayerTableRecord
  2
INNENKONTUR
 70
0
 62
7
  6
CONTINUOUS
370
-3
390
F
  0
LAYER
  5
209
100
AcDbSymbolTableRecord
100
AcDbLayerTableRecord
  2
KURVEN
 70
0
 62
7
  6
CONTINUOUS
370
-3
390
F
  0
LAYER
  5
20A
100
AcDbSymbolTableRecord
100
AcDbLayerTableRecord
  2
MAKINO
 70
0
 62
7
  6
CONTINUOUS
370
-3
390
F
  0
LAYER
  5
20B
100
AcDbSymbolTableRecord
100
AcDbLayerTableRecord
  2
OELVERDR_RILLE
 70
0
 62
7
  6
CONTINUOUS
370
-3
390
F
  0
LAYER
  5
20C
100
AcDbSymbolTableRecord
100
AcDbLayerTableRecord
  2
PLATZIERUNG
 70
0
 62
7
  6
CONTINUOUS
370
-3
390
F
  0
LAYER
  5
20D
100
AcDbSymbolTableRecord
100
AcDbLayerTableRecord
  2
PUNKTE
 70
0
 62
7
  6
CONTINUOUS
370
-3
390
F
  0
LAYER
  5
20E
100
AcDbSymbolTableRecord
100
AcDbLayerTableRecord
  2
RUNDUNGEN
 70
0
 62
7
  6
CONTINUOUS
370
-3
390
F
  0
LAYER
  5
20F
100
AcDbSymbolTableRecord
100
AcDbLayerTableRecord
  2
TEIL_STARTBEZUEGE
 70
0
 62
7
  6
CONTINUOUS
370
-3
390
F
  0
LAYER
  5
210
100
AcDbSymbolTableRecord
100
AcDbLayerTableRecord
  2
VERERBUNG
 70
0
 62
7
  6
CONTINUOUS
370
-3
390
F
  0
LAYER
  5
211
100
AcDbSymbolTableRecord
100
AcDbLayerTableRecord
  2
VOLUMEN
 70
0
 62
7
  6
CONTINUOUS
370
-3
390
F
  0
LAYER
  5
212
100
AcDbSymbolTableRecord
100
AcDbLayerTableRecord
  2
ZEICHNUNG
 70
0
 62
7
  6
CONTINUOUS
370
-3
390
F
  0
LAYER
  5
213
100
AcDbSymbolTableRecord
100
AcDbLayerTableRecord
  2
ZEICHNUNGSBEMASSUNGEN
 70
0
 62
7
  6
CONTINUOUS
370
-3
390
F
  0
ENDTAB
  0
TABLE
  2
STYLE
  5
3
100
AcDbSymbolTable
 70
1
  0
STYLE
  5
11
100
AcDbSymbolTableRecord
100
AcDbTextStyleTableRecord
  2
STANDARD
 70
0
 40
0.0
 41
0.7
 50
0.0
 71
0
 42
0.2
  3
txt
  4

  0
STYLE
  5
214
100
AcDbSymbolTableRecord
100
AcDbTextStyleTableRecord
  2
TEXTSTYLE_1
 70
0
 40
0.0
 41
0.8
 50
0.0
 71
0
 42
0.2
  3
gdt
  4

  0
STYLE
  5
215
100
AcDbSymbolTableRecord
100
AcDbTextStyleTableRecord
  2
TEXTSTYLE_2
 70
0
 40
0.0
 41
0.7
 50
0.0
 71
0
 42
0.2
  3
gdt
  4

  0
ENDTAB
  0
TABLE
  2
VIEW
  5
6
100
AcDbSymbolTable
 70
0
  0
ENDTAB
  0
TABLE
  2
UCS
  5
7
100
AcDbSymbolTable
 70
0
  0
ENDTAB
  0
TABLE
  2
APPID
  5
9
100
AcDbSymbolTable
 70
1
  0
APPID
  5
216
100
AcDbSymbolTableRecord
100
AcDbRegAppTableRecord
  2
ACAD
 70
0
  0
ENDTAB
  0
TABLE
  2
BLOCK_RECORD
  5
1
100
AcDbSymbolTable
 70
0
  0
BLOCK_RECORD
  5
217
100
AcDbSymbolTableRecord
100
AcDbBlockTableRecord
  2
*Model_Space
  0
BLOCK_RECORD
  5
218
100
AcDbSymbolTableRecord
100
AcDbBlockTableRecord
  2
*Paper_Space
  0
BLOCK_RECORD
  5
219
100
AcDbSymbolTableRecord
100
AcDbBlockTableRecord
  2
_FILLED
  0
BLOCK_RECORD
  5
21A
100
AcDbSymbolTableRecord
100
AcDbBlockTableRecord
  2
*D0
  0
BLOCK_RECORD
  5
21B
100
AcDbSymbolTableRecord
100
AcDbBlockTableRecord
  2
*D1
  0
BLOCK_RECORD
  5
21C
100
AcDbSymbolTableRecord
100
AcDbBlockTableRecord
  2
*D2
  0
BLOCK_RECORD
  5
21D
100
AcDbSymbolTableRecord
100
AcDbBlockTableRecord
  2
*D3
  0
BLOCK_RECORD
  5
21E
100
AcDbSymbolTableRecord
100
AcDbBlockTableRecord
  2
*D4
  0
BLOCK_RECORD
  5
21F
100
AcDbSymbolTableRecord
100
AcDbBlockTableRecord
  2
*D5
  0
ENDTAB
  0
TABLE
  2
DIMSTYLE
  5
A
100
AcDbSymbolTable
 70
1
100
AcDbDimStyleTable
 71
0
  0
DIMSTYLE
105
220
100
AcDbSymbolTableRecord
100
AcDbDimStyleTableRecord
  2
STANDARD
 70
0
  3

  4

 40
1.0
 41
3.5
 42
0.0625
 43
0.38
 44
0.18
 45
0.0
 46
0.0
 47
0.005
 48
0.005
140
3.5
141
0.09
142
0.0
143
25.4
144
1.0
145
0.0
146
1.0
147
0.09
 71
1.0
 72
0.0
 73
0
 74
0
 75
0
 76
0
 77
1
 78
8
170
0
171
2
172
0
173
0
174
0
175
0
176
0
177
0
178
5
270
2
271
3
272
3
273
2
274
2
275
0
280
0
281
0
282
0
283
1
284
8
285
0
286
0
287
3
288
0
340
11
341
219
342
219
343
219
344
219
  0
DIMSTYLE
105
221
100
AcDbSymbolTableRecord
100
AcDbDimStyleTableRecord
  2
DIMSTYLE_1
 70
0
  3

  4

 40
1.0
 41
3.5
 42
0.0625
 43
0.38
 44
0.18
 45
0.0
 46
0.0
 47
0.5
 48
0.5
140
3.5
141
0.09
142
0.0
143
25.4
144
1.0
145
0.0
146
1.0
147
0.09
 71
0.0
 72
0.0
 73
0
 74
0
 75
0
 76
0
 77
1
 78
8
170
0
171
2
172
0
173
0
174
0
175
0
176
0
177
0
178
5
270
2
271
3
272
3
273
2
274
2
275
0
280
0
281
0
282
0
283
1
284
8
285
0
286
0
287
3
288
0
340
11
341
219
342
219
343
219
344
219
  0
DIMSTYLE
105
222
100
AcDbSymbolTableRecord
100
AcDbDimStyleTableRecord
  2
DIMSTYLE_2
 70
0
  3

  4

 40
1.0
 41
3.5
 42
0.0625
 43
0.38
 44
0.18
 45
0.0
 46
0.0
 47
0.5
 48
0.5
140
3.5
141
0.09
142
0.0
143
25.4
144
1.0
145
0.0
146
1.0
147
0.09
 71
0.0
 72
0.0
 73
0
 74
0
 75
0
 76
0
 77
1
 78
8
170
0
171
2
172
0
173
0
174
0
175
0
176
0
177
0
178
5
270
2
271
2
272
2
273
2
274
2
275
0
280
0
281
0
282
0
283
1
284
8
285
0
286
0
287
3
288
0
340
11
341
219
342
219
343
219
344
219
  0
DIMSTYLE
105
223
100
AcDbSymbolTableRecord
100
AcDbDimStyleTableRecord
  2
DIMSTYLE_3
 70
0
  3

  4

 40
1.0
 41
3.5
 42
0.0625
 43
0.38
 44
0.18
 45
0.0
 46
0.0
 47
0.3
 48
0.3
140
3.5
141
0.09
142
0.0
143
25.4
144
1.0
145
0.0
146
1.0
147
0.09
 71
0.0
 72
0.0
 73
0
 74
0
 75
0
 76
0
 77
1
 78
8
170
0
171
2
172
0
173
0
174
0
175
0
176
0
177
0
178
5
270
2
271
2
272
2
273
2
274
2
275
0
280
0
281
0
282
0
283
1
284
8
285
0
286
0
287
3
288
0
340
11
341
219
342
219
343
219
344
219
  0
DIMSTYLE
105
224
100
AcDbSymbolTableRecord
100
AcDbDimStyleTableRecord
  2
DIMSTYLE_4
 70
0
  3

  4

 40
1.0
 41
3.5
 42
0.0625
 43
0.38
 44
0.18
 45
0.0
 46
0.0
 47
0.1
 48
0.0
140
3.5
141
0.09
142
0.0
143
25.4
144
1.0
145
0.0
146
1.0
147
0.09
 71
0.0
 72
0.0
 73
0
 74
0
 75
0
 76
0
 77
1
 78
8
170
0
171
2
172
0
173
0
174
0
175
0
176
0
177
0
178
5
270
2
271
2
272
2
273
2
274
2
275
0
280
0
281
0
282
0
283
1
284
8
285
0
286
0
287
3
288
0
340
11
341
219
342
219
343
219
344
219
  0
DIMSTYLE
105
225
100
AcDbSymbolTableRecord
100
AcDbDimStyleTableRecord
  2
DIMSTYLE_5
 70
0
  3

  4

 40
1.0
 41
3.5
 42
0.0625
 43
0.38
 44
0.18
 45
0.0
 46
0.0
 47
0.0
 48
0.0
140
3.5
141
0.09
142
0.0
143
25.4
144
1.0
145
0.0
146
1.0
147
0.09
 71
0.0
 72
0.0
 73
0
 74
0
 75
0
 76
0
 77
1
 78
8
170
0
171
2
172
0
173
0
174
0
175
0
176
0
177
0
178
5
270
2
271
0
272
0
273
2
274
2
275
0
280
0
281
0
282
0
283
1
284
8
285
0
286
0
287
3
288
0
340
11
341
219
342
219
343
219
344
219
  0
DIMSTYLE
105
226
100
AcDbSymbolTableRecord
100
AcDbDimStyleTableRecord
  2
DIMSTYLE_6
 70
0
  3

  4

 40
1.0
 41
3.5
 42
0.0625
 43
0.38
 44
0.18
 45
0.0
 46
0.0
 47
0.1
 48
0.1
140
3.5
141
0.09
142
0.0
143
25.4
144
1.0
145
0.0
146
1.0
147
0.09
 71
0.0
 72
0.0
 73
0
 74
0
 75
0
 76
0
 77
1
 78
8
170
0
171
2
172
0
173
0
174
0
175
0
176
0
177
0
178
5
270
2
271
2
272
2
273
2
274
2
275
0
280
0
281
0
282
0
283
1
284
8
285
0
286
0
287
3
288
0
340
11
341
219
342
219
343
219
344
219
  0
ENDTAB
  0
ENDSEC
  0
SECTION
  2
BLOCKS
  0
BLOCK
  5
20
100
AcDbEntity
  8
0
100
AcDbBlockBegin
  2
*Model_Space
 70
0
 10
0.0
 20
0.0
 30
0.0
  3
*Model_Space
  1

  0
ENDBLK
  5
21
100
AcDbEntity
  8
0
100
AcDbBlockEnd
  0
BLOCK
  5
1C
100
AcDbEntity
  8
0
100
AcDbBlockBegin
  2
*Paper_Space
 70
0
 10
0.0
 20
0.0
 30
0.0
  3
*Paper_Space
  1

  0
ENDBLK
  5
1D
100
AcDbEntity
  8
0
100
AcDbBlockEnd
  0
BLOCK
  5
227
100
AcDbEntity
  8
0
100
AcDbBlockBegin
  2
_FILLED
 70
64
 10
0.0
 20
0.0
  3
_FILLED
  1

  0
SOLID
  5
228
100
AcDbEntity
  8
0
  6
BYBLOCK
 62
0
100
AcDbTrace
 10
0.0
 20
0.0
 11
-1.0
 21
0.125
 12
-1.0
 22
-0.125
 13
-1.0
 23
-0.125
  0
ENDBLK
  5
229
100
AcDbEntity
  8
0
  6
BYBLOCK
 62
0
100
AcDbBlockEnd
  0
BLOCK
  5
22A
100
AcDbEntity
  8
0
100
AcDbBlockBegin
 62
2
  6
CONTINUOUS
  2
*D0
 70
65
 10
0.0
 20
0.0
  3
*D0
  1

  0
MTEXT
  5
22B
100
AcDbEntity
  8
0
100
AcDbMText
 62
5
  6
CONTINUOUS
  7
STANDARD
 71
2
 72
1
 10
192.1753382294
 20
170.3560995584
 30
0.0
 11
1.0
 21
0.0
 31
0.0
 44
0.9
  1
130
 40
3.5
 41
8.490234375
  0
LINE
  5
22C
100
AcDbEntity
  8
0
100
AcDbLine
 62
2
  6
CONTINUOUS
 10
247.6294497689
 20
113.2401069635
 11
247.6294497689
 21
167.4810995584
  0
LINE
  5
22D
100
AcDbEntity
  8
0
100
AcDbLine
 62
2
  6
CONTINUOUS
 10
117.6294497689
 20
145.8034110647
 11
117.6294497689
 21
167.4810995584
  0
LINE
  5
22E
100
AcDbEntity
  8
0
100
AcDbLine
 62
2
  6
CONTINUOUS
 10
247.6294497689
 20
165.9810995584
 11
182.6294497689
 21
165.9810995584
  0
LINE
  5
22F
100
AcDbEntity
  8
0
100
AcDbLine
 62
2
  6
CONTINUOUS
 10
117.6294497689
 20
165.9810995584
 11
182.6294497689
 21
165.9810995584
  0
INSERT
  5
230
100
AcDbEntity
  8
0
100
AcDbBlockReference
 62
2
  6
CONTINUOUS
  2
_FILLED
 10
247.6294497689
 20
165.9810995584
 41
3.5
 42
3.5
 43
3.5
  0
INSERT
  5
231
100
AcDbEntity
  8
0
100
AcDbBlockReference
 62
2
  6
CONTINUOUS
  2
_FILLED
 10
117.6294497689
 20
165.9810995584
 41
3.5
 42
3.5
 43
3.5
 50
180.0
  0
ENDBLK
  5
232
100
AcDbEntity
  8
0
  6
BYBLOCK
 62
0
100
AcDbBlockEnd
  0
BLOCK
  5
233
100
AcDbEntity
  8
0
100
AcDbBlockBegin
 62
2
  6
CONTINUOUS
  2
*D1
 70
65
 10
0.0
 20
0.0
  3
*D1
  1

  0
MTEXT
  5
234
100
AcDbEntity
  8
0
100
AcDbMText
 62
5
  6
CONTINUOUS
  7
STANDARD
 71
2
 72
1
 10
167.2744700377
 20
177.0356809301
 30
0.0
 11
1.0
 21
0.0
 31
0.0
 44
0.9
  1
198.4
 40
3.5
 41
12.7421875
  0
LINE
  5
235
100
AcDbEntity
  8
0
100
AcDbLine
 62
2
  6
CONTINUOUS
 10
49.2294497689
 20
128.4788142073
 11
49.2294497689
 21
174.1606809301
  0
LINE
  5
236
100
AcDbEntity
  8
0
100
AcDbLine
 62
2
  6
CONTINUOUS
 10
247.6294497689
 20
115.7401069635
 11
247.6294497689
 21
174.1606809301
  0
LINE
  5
237
100
AcDbEntity
  8
0
100
AcDbLine
 62
2
  6
CONTINUOUS
 10
49.2294497689
 20
172.6606809301
 11
148.4294497689
 21
172.6606809301
  0
LINE
  5
238
100
AcDbEntity
  8
0
100
AcDbLine
 62
2
  6
CONTINUOUS
 10
247.6294497689
 20
172.6606809301
 11
148.4294497689
 21
172.6606809301
  0
INSERT
  5
239
100
AcDbEntity
  8
0
100
AcDbBlockReference
 62
2
  6
CONTINUOUS
  2
_FILLED
 10
49.2294497689
 20
172.6606809301
 41
3.5
 42
3.5
 43
3.5
 50
180.0
  0
INSERT
  5
23A
100
AcDbEntity
  8
0
100
AcDbBlockReference
 62
2
  6
CONTINUOUS
  2
_FILLED
 10
247.6294497689
 20
172.6606809301
 41
3.5
 42
3.5
 43
3.5
  0
ENDBLK
  5
23B
100
AcDbEntity
  8
0
  6
BYBLOCK
 62
0
100
AcDbBlockEnd
  0
BLOCK
  5
23C
100
AcDbEntity
  8
0
100
AcDbBlockBegin
 62
2
  6
CONTINUOUS
  2
*D2
 70
65
 10
0.0
 20
0.0
  3
*D2
  1

  0
MTEXT
  5
23D
100
AcDbEntity
  8
0
100
AcDbMText
 62
5
  6
CONTINUOUS
  7
STANDARD
 71
2
 72
1
 10
199.7283077464
 20
162.9313023878
 30
0.0
 11
1.0
 21
0.0
 31
0.0
 44
0.9
  1
110.9
 40
3.5
 41
12.7421875
  0
LINE
  5
23E
100
AcDbEntity
  8
0
100
AcDbLine
 62
2
  6
CONTINUOUS
 10
247.6294497689
 20
115.7401069635
 11
247.6294497689
 21
160.0563023878
  0
LINE
  5
23F
100
AcDbEntity
  8
0
100
AcDbLine
 62
2
  6
CONTINUOUS
 10
136.7294497689
 20
145.8034110647
 11
136.7294497689
 21
160.0563023878
  0
LINE
  5
240
100
AcDbEntity
  8
0
100
AcDbLine
 62
2
  6
CONTINUOUS
 10
247.6294497689
 20
158.5563023878
 11
192.1794497689
 21
158.5563023878
  0
LINE
  5
241
100
AcDbEntity
  8
0
100
AcDbLine
 62
2
  6
CONTINUOUS
 10
136.7294497689
 20
158.5563023878
 11
192.1794497689
 21
158.5563023878
  0
INSERT
  5
242
100
AcDbEntity
  8
0
100
AcDbBlockReference
 62
2
  6
CONTINUOUS
  2
_FILLED
 10
247.6294497689
 20
158.5563023878
 41
3.5
 42
3.5
 43
3.5
  0
INSERT
  5
243
100
AcDbEntity
  8
0
100
AcDbBlockReference
 62
2
  6
CONTINUOUS
  2
_FILLED
 10
136.7294497689
 20
158.5563023878
 41
3.5
 42
3.5
 43
3.5
 50
180.0
  0
ENDBLK
  5
244
100
AcDbEntity
  8
0
  6
BYBLOCK
 62
0
100
AcDbBlockEnd
  0
BLOCK
  5
245
100
AcDbEntity
  8
0
100
AcDbBlockBegin
 62
2
  6
CONTINUOUS
  2
*D3
 70
65
 10
0.0
 20
0.0
  3
*D3
  1

  0
MTEXT
  5
246
100
AcDbEntity
  8
0
100
AcDbMText
 62
5
  6
CONTINUOUS
  7
TEXTSTYLE_2
 71
1
 72
1
 10
261.2309598482
 20
123.4223423065
 30
0.0
 11
0.0
 21
1.0
 31
0.0
 44
0.9
  1
{\Fgdt;n}\Ftxt;10
 40
3.5
 41
10.3268229167
  0
LINE
  5
247
100
AcDbEntity
  8
0
100
AcDbLine
 62
2
  6
CONTINUOUS
 10
247.6294497689
 20
110.7401069635
 11
267.1059598482
 21
110.7401069635
  0
LINE
  5
248
100
AcDbEntity
  8
0
100
AcDbLine
 62
2
  6
CONTINUOUS
 10
247.6294497689
 20
120.7401069635
 11
267.1059598482
 21
120.7401069635
  0
LINE
  5
249
100
AcDbEntity
  8
0
100
AcDbLine
 62
2
  6
CONTINUOUS
 10
265.6059598482
 20
110.7401069635
 11
265.6059598482
 21
115.7401069635
  0
LINE
  5
24A
100
AcDbEntity
  8
0
100
AcDbLine
 62
2
  6
CONTINUOUS
 10
265.6059598482
 20
120.7401069635
 11
265.6059598482
 21
115.7401069635
  0
LINE
  5
24B
100
AcDbEntity
  8
0
100
AcDbLine
 62
2
  6
CONTINUOUS
 10
265.6059598482
 20
115.7401069635
 11
265.6059598482
 21
133.7491652232
  0
INSERT
  5
24C
100
AcDbEntity
  8
0
100
AcDbBlockReference
 62
2
  6
CONTINUOUS
  2
_FILLED
 10
265.6059598482
 20
110.7401069635
 41
3.5
 42
3.5
 43
3.5
 50
270.0
  0
INSERT
  5
24D
100
AcDbEntity
  8
0
100
AcDbBlockReference
 62
2
  6
CONTINUOUS
  2
_FILLED
 10
265.6059598482
 20
120.7401069635
 41
3.5
 42
3.5
 43
3.5
 50
90.0
  0
ENDBLK
  5
24E
100
AcDbEntity
  8
0
  6
BYBLOCK
 62
0
100
AcDbBlockEnd
  0
BLOCK
  5
24F
100
AcDbEntity
  8
0
100
AcDbBlockBegin
 62
2
  6
CONTINUOUS
  2
*D4
 70
65
 10
0.0
 20
0.0
  3
*D4
  1

  0
MTEXT
  5
250
100
AcDbEntity
  8
0
100
AcDbMText
 62
5
  6
CONTINUOUS
  7
STANDARD
 71
2
 72
1
 10
205.3659399533
 20
137.7716193515
 30
0.0
 11
0.1580215624
 21
0.9874356616
 31
0.0
 44
0.9
  1
3\Fgdt;{\Fgdt;~}
 40
3.5
 41
5.1634114583
  0
LINE
  5
251
100
AcDbEntity
  8
0
100
AcDbLine
 62
2
  6
CONTINUOUS
 10
232.7508856259
 20
121.5198594692
 11
209.2977422471
 21
122.7489866308
  0
LINE
  5
252
100
AcDbEntity
  8
0
100
AcDbLine
 62
2
  6
CONTINUOUS
 10
232.5164889238
 20
115.7401069635
 11
209.1142082738
 21
115.7401069635
  0
ARC
  5
253
100
AcDbEntity
  8
0
100
AcDbCircle
 62
2
  6
CONTINUOUS
 10
343.0351332075
 20
115.7401069635
 40
132.4209249337
100
AcDbArc
 50
170.9079207582
 51
177.0
  0
ARC
  5
254
100
AcDbEntity
  8
0
100
AcDbCircle
 62
2
  6
CONTINUOUS
 10
343.0351332075
 20
115.7401069635
 40
132.4209249337
100
AcDbArc
 50
180.0
 51
182.5960751841
  0
ARC
  5
255
100
AcDbEntity
  8
0
100
AcDbCircle
 62
2
  6
CONTINUOUS
 10
343.0351332075
 20
115.7401069635
 40
132.4209249337
100
AcDbArc
 50
177.0
 51
180.0
  0
SOLID
  5
256
100
AcDbEntity
  8
0
100
AcDbTrace
 62
2
  6
CONTINUOUS
 10
210.5884760004
 20
126.1916288222
 11
210.7956865492
 21
122.6704826965
 12
211.4615953713
 22
126.134291538
 13
211.4615953713
 23
126.134291538
  0
SOLID
  5
257
100
AcDbEntity
  8
0
100
AcDbTrace
 62
2
  6
CONTINUOUS
 10
211.097922743
 20
112.2461941766
 11
210.6142082738
 21
115.7401069635
 12
210.2229991503
 22
112.2346310084
 13
210.2229991503
 23
112.2346310084
  0
ENDBLK
  5
258
100
AcDbEntity
  8
0
  6
BYBLOCK
 62
0
100
AcDbBlockEnd
  0
BLOCK
  5
259
100
AcDbEntity
  8
0
100
AcDbBlockBegin
 62
2
  6
CONTINUOUS
  2
*D5
 70
65
 10
0.0
 20
0.0
  3
*D5
  1

  0
MTEXT
  5
25A
100
AcDbEntity
  8
0
100
AcDbMText
 62
5
  6
CONTINUOUS
  7
TEXTSTYLE_2
 71
1
 72
1
 10
253.0161663961
 20
123.6690621957
 30
0.0
 11
0.0
 21
1.0
 31
0.0
 44
0.9
  1
{\Fgdt;n}\Ftxt;4
 40
3.5
 41
7.4967447917
  0
LINE
  5
25B
100
AcDbEntity
  8
0
100
AcDbLine
 62
2
  6
CONTINUOUS
 10
247.6294497689
 20
113.7401069635
 11
258.8911663961
 21
113.7401069635
  0
LINE
  5
25C
100
AcDbEntity
  8
0
100
AcDbLine
 62
2
  6
CONTINUOUS
 10
247.6294497689
 20
117.7401069635
 11
258.8911663961
 21
117.7401069635
  0
LINE
  5
25D
100
AcDbEntity
  8
0
100
AcDbLine
 62
2
  6
CONTINUOUS
 10
257.3911663961
 20
113.7401069635
 11
257.3911663961
 21
107.7401069635
  0
LINE
  5
25E
100
AcDbEntity
  8
0
100
AcDbLine
 62
2
  6
CONTINUOUS
 10
257.3911663961
 20
107.7401069635
 11
257.3911663961
 21
115.7401069635
  0
LINE
  5
25F
100
AcDbEntity
  8
0
100
AcDbLine
 62
2
  6
CONTINUOUS
 10
257.3911663961
 20
117.7401069635
 11
257.3911663961
 21
131.1658069874
  0
LINE
  5
260
100
AcDbEntity
  8
0
100
AcDbLine
 62
2
  6
CONTINUOUS
 10
257.3911663961
 20
131.1658069874
 11
257.3911663961
 21
115.7401069635
  0
INSERT
  5
261
100
AcDbEntity
  8
0
100
AcDbBlockReference
 62
2
  6
CONTINUOUS
  2
_FILLED
 10
257.3911663961
 20
113.7401069635
 41
3.5
 42
3.5
 43
3.5
 50
90.0
  0
INSERT
  5
262
100
AcDbEntity
  8
0
100
AcDbBlockReference
 62
2
  6
CONTINUOUS
  2
_FILLED
 10
257.3911663961
 20
117.7401069635
 41
3.5
 42
3.5
 43
3.5
 50
270.0
  0
ENDBLK
  5
263
100
AcDbEntity
  8
0
  6
BYBLOCK
 62
0
100
AcDbBlockEnd
  0
ENDSEC
  0
SECTION
  2
ENTITIES
  0
DIMENSION
  5
264
100
AcDbEntity
  8
0
100
AcDbDimension
 62
2
  6
CONTINUOUS
  2
*D0
 10
117.6294497689
 20
165.9810995584
 11
187.9302210419
 21
168.6060995584
 70
160
 71
2
 42
130.0
  3
DIMSTYLE_1
100
AcDbAlignedDimension
 13
247.6294497689
 23
113.2401069635
 14
117.6294497689
 24
145.8034110647
 50
180.0
100
AcDbRotatedDimension
  0
DIMENSION
  5
265
100
AcDbEntity
  8
0
100
AcDbDimension
 62
2
  6
CONTINUOUS
  2
*D1
 10
247.6294497689
 20
172.6606809301
 11
160.9033762877
 21
175.2856809301
 70
160
 71
2
 42
198.4
  3
DIMSTYLE_2
100
AcDbAlignedDimension
 13
49.2294497689
 23
128.4788142073
 14
247.6294497689
 24
115.7401069635
100
AcDbRotatedDimension
  0
DIMENSION
  5
266
100
AcDbEntity
  8
0
100
AcDbDimension
 62
2
  6
CONTINUOUS
  2
*D2
 10
136.7294497689
 20
158.5563023878
 11
193.3572139964
 21
161.1813023878
 70
160
 71
2
 42
110.9
  3
DIMSTYLE_3
100
AcDbAlignedDimension
 13
247.6294497689
 23
115.7401069635
 14
136.7294497689
 24
145.8034110647
 50
180.0
100
AcDbRotatedDimension
  0
DIMENSION
  5
267
100
AcDbEntity
  8
0
100
AcDbDimension
 62
2
  6
CONTINUOUS
  2
*D3
 10
265.6059598482
 20
120.7401069635
 11
262.9809598482
 21
128.5857537649
 70
160
 71
1
 42
10.0
  1
%%c<>
  3
DIMSTYLE_4
100
AcDbAlignedDimension
 13
247.6294497689
 23
110.7401069635
 14
247.6294497689
 24
120.7401069635
 50
90.0
100
AcDbRotatedDimension
  0
DIMENSION
  5
268
100
AcDbEntity
  8
0
100
AcDbDimension
 62
2
  6
CONTINUOUS
  2
*D4
 10
209.1142082738
 20
115.7401069635
 11
206.1703755051
 21
138.3969169177
 70
162
 71
2
 42
0.0523598776
  3
DIMSTYLE_5
100
AcDb2LineAngularDimension
 13
209.2977422471
 23
122.7489866308
 14
232.7508856259
 24
121.5198594692
 15
232.5164889238
 25
115.7401069635
 16
210.6595856175
 26
119.2064826704
  0
DIMENSION
  5
269
100
AcDbEntity
  8
0
100
AcDbDimension
 62
2
  6
CONTINUOUS
  2
*D5
 10
257.3911663961
 20
117.7401069635
 11
254.7661663961
 21
127.4174345915
 70
160
 71
1
 42
4.0
  1
%%c<>
  3
DIMSTYLE_6
100
AcDbAlignedDimension
 13
247.6294497689
 23
113.7401069635
 14
247.6294497689
 24
117.7401069635
 50
90.0
100
AcDbRotatedDimension
  0
MTEXT
  5
26A
100
AcDbEntity
  8
0
100
AcDbMText
 62
5
  6
CONTINUOUS
  7
STANDARD
 71
1
 72
1
 10
18.0988465696
 20
84.2933298857
 30
0.0
 11
1.0
 21
0.0
 31
0.0
 44
0.9
  3
Für diese Unterlage behalten wir das Ur-\Pheberrecht. Sie darf nur für den von uns \Pbestimmten Zweck benutzt und ohne unsere \PZustimmung weder vervielfältigt noch\PDritten zugänglich gemacht werden\P \PWe own the copyright of this document. It \Pde
  1
termined and may neither be copied or \Pmade accessible to outsiders without our\Ppermission.\P \PCe plan reste notre propriété. Il ne peut\Pêtre utilisé, copié ou reproduit sans notre\Paccord.\P 
 40
3.5
 41
99.162109375
  0
LINE
  5
26B
100
AcDbEntity
  8
0
100
AcDbLine
 62
7
  6
CONTINUOUS
 10
0.0
 20
0.0
 11
0.0
 21
210.0
  0
LINE
  5
26C
100
AcDbEntity
  8
0
100
AcDbLine
 62
7
  6
CONTINUOUS
 10
0.0
 20
0.0
 11
297.0
 21
0.0
  0
LINE
  5
26D
100
AcDbEntity
  8
0
100
AcDbLine
 62
7
  6
CONTINUOUS
 10
0.0
 20
210.0
 11
297.0
 21
210.0
  0
LINE
  5
26E
100
AcDbEntity
  8
0
100
AcDbLine
 62
7
  6
CONTINUOUS
 10
297.0
 20
0.0
 11
297.0
 21
210.0
  0
LINE
  5
26F
100
AcDbEntity
  8
BEZUGSACHSEN
100
AcDbLine
 62
7
  6
CONTINUOUS
 10
49.2294497689
 20
126.259807638
 11
49.2294497689
 21
105.220406289
  0
LINE
  5
270
100
AcDbEntity
  8
BEZUGSACHSEN
100
AcDbLine
 62
9
  6
CONTINUOUS
 10
50.9408124305
 20
128.2388701653
 11
50.9408124305
 21
103.2413437617
  0
LINE
  5
271
100
AcDbEntity
  8
BEZUGSACHSEN
100
AcDbLine
 62
7
  6
CONTINUOUS
 10
117.1721445064
 20
137.8984110547
 11
117.1721445064
 21
93.5818028723
  0
LINE
  5
272
100
AcDbEntity
  8
BEZUGSACHSEN
100
AcDbLine
 62
7
  6
CENTER
 10
117.6294497689
 20
86.37225778
 11
117.6294497689
 21
141.8340574301
  0
LINE
  5
273
100
AcDbEntity
  8
BEZUGSACHSEN
100
AcDbLine
 62
7
  6
CONTINUOUS
 10
118.2294497689
 20
137.6151069635
 11
118.2294497689
 21
93.8651069635
  0
LINE
  5
274
100
AcDbEntity
  8
BEZUGSACHSEN
100
AcDbLine
 62
9
  6
CONTINUOUS
 10
119.8794497689
 20
137.6151069635
 11
119.8794497689
 21
93.8651069635
  0
LINE
  5
275
100
AcDbEntity
  8
BEZUGSACHSEN
100
AcDbLine
 62
7
  6
CONTINUOUS
 10
120.8794497689
 20
146.4972211143
 11
120.8794497689
 21
123.9401069635
  0
LINE
  5
276
100
AcDbEntity
  8
BEZUGSACHSEN
100
AcDbLine
 62
7
  6
CONTINUOUS
 10
120.8794497689
 20
107.5401069635
 11
120.8794497689
 21
97.2401069635
  0
LINE
  5
277
100
AcDbEntity
  8
BEZUGSACHSEN
100
AcDbLine
 62
7
  6
CONTINUOUS
 10
120.8794497689
 20
91.1463958771
 11
120.8794497689
 21
84.9671387474
  0
LINE
  5
278
100
AcDbEntity
  8
0
100
AcDbLine
 62
7
  6
CONTINUOUS
 10
120.8794497689
 20
84.9651094682
 11
120.8794497689
 21
91.1463958771
  0
LINE
  5
279
100
AcDbEntity
  8
FASEN
100
AcDbLine
 62
7
  6
CONTINUOUS
 10
120.8794497689
 20
91.1463958771
 11
120.8794497689
 21
97.2401069635
  0
LINE
  5
27A
100
AcDbEntity
  8
0
100
AcDbLine
 62
7
  6
CONTINUOUS
 10
120.8794497689
 20
97.2401069635
 11
120.8794497689
 21
107.5401069635
  0
LINE
  5
27B
100
AcDbEntity
  8
FASEN
100
AcDbLine
 62
7
  6
CONTINUOUS
 10
120.8794497689
 20
107.5401069635
 11
120.8794497689
 21
123.9401069635
  0
LINE
  5
27C
100
AcDbEntity
  8
0
100
AcDbLine
 62
7
  6
CONTINUOUS
 10
120.8794497689
 20
123.9401069635
 11
120.8794497689
 21
146.5151065219
  0
LINE
  5
27D
100
AcDbEntity
  8
0
100
AcDbLine
 62
9
  6
CONTINUOUS
 10
121.8794497689
 20
147.5151069635
 11
121.8794497689
 21
123.9401069635
  0
LINE
  5
27E
100
AcDbEntity
  8
0
100
AcDbLine
 62
9
  6
CONTINUOUS
 10
121.8794497689
 20
107.5401069635
 11
121.8794497689
 21
97.2401069635
  0
LINE
  5
27F
100
AcDbEntity
  8
0
100
AcDbLine
 62
9
  6
CONTINUOUS
 10
121.8794497689
 20
89.9060088565
 11
121.8794497689
 21
83.9651069635
  0
LINE
  5
280
100
AcDbEntity
  8
BEZUGSACHSEN
100
AcDbLine
 62
7
  6
CONTINUOUS
 10
130.6794497689
 20
144.6377022277
 11
132.3407201677
 21
147.5151069635
  0
LINE
  5
281
100
AcDbEntity
  8
BEZUGSACHSEN
100
AcDbLine
 62
7
  6
CONTINUOUS
 10
121.8794497689
 20
83.9651069635
 11
125.2681793701
 21
83.9651069635
  0
LINE
  5
282
100
AcDbEntity
  8
BEZUGSACHSEN
100
AcDbLine
 62
7
  6
CONTINUOUS
 10
132.3407201677
 20
83.9651069635
 11
135.7294497689
 21
83.9651069635
  0
LINE
  5
283
100
AcDbEntity
  8
BEZUGSACHSEN
100
AcDbLine
 62
7
  6
CONTINUOUS
 10
130.6794497689
 20
86.8425116993
 11
132.3407201677
 21
83.9651069635
  0
LINE
  5
284
100
AcDbEntity
  8
0
100
AcDbLine
 62
7
  6
CONTINUOUS
 10
125.2681793701
 20
83.9651069635
 11
125.2681793701
 21
89.9060088565
  0
LINE
  5
285
100
AcDbEntity
  8
0
100
AcDbLine
 62
7
  6
CONTINUOUS
 10
125.2681793701
 20
97.2401069635
 11
125.2681793701
 21
107.5401069635
  0
LINE
  5
286
100
AcDbEntity
  8
0
100
AcDbLine
 62
7
  6
CONTINUOUS
 10
125.2681793701
 20
123.9401069635
 11
125.2681793701
 21
147.5151069635
  0
LINE
  5
287
100
AcDbEntity
  8
0
100
AcDbLine
 62
7
  6
CONTINUOUS
 10
126.9294497689
 20
144.6377017656
 11
126.9294497689
 21
143.1251233367
  0
LINE
  5
288
100
AcDbEntity
  8
BEZUGSACHSEN
100
AcDbLine
 62
7
  6
CONTINUOUS
 10
126.9294497689
 20
143.1251233367
 11
126.9294497689
 21
142.8688925477
  0
LINE
  5
289
100
AcDbEntity
  8
0
100
AcDbLine
 62
7
  6
CONTINUOUS
 10
126.9294497689
 20
142.6490514454
 11
126.9294497689
 21
123.9401069635
  0
LINE
  5
28A
100
AcDbEntity
  8
0
100
AcDbLine
 62
7
  6
CONTINUOUS
 10
126.9294497689
 20
107.5401069635
 11
126.9294497689
 21
97.2401069635
  0
LINE
  5
28B
100
AcDbEntity
  8
0
100
AcDbLine
 62
7
  6
CONTINUOUS
 10
126.9294497689
 20
86.8425177399
 11
126.9294497689
 21
93.8965581447
  0
LINE
  5
28C
100
AcDbEntity
  8
0
100
AcDbLine
 62
9
  6
CONTINUOUS
 10
127.4294497689
 20
87.6151069635
 11
127.4294497689
 21
94.556018005
  0
LINE
  5
28D
100
AcDbEntity
  8
0
100
AcDbLine
 62
9
  6
CONTINUOUS
 10
127.4294497689
 20
97.2401069635
 11
127.4294497689
 21
107.5401069635
  0
LINE
  5
28E
100
AcDbEntity
  8
0
100
AcDbLine
 62
9
  6
CONTINUOUS
 10
127.4294497689
 20
123.9401069635
 11
127.4294497689
 21
141.6369605564
  0
LINE
  5
28F
100
AcDbEntity
  8
0
100
AcDbLine
 62
9
  6
CONTINUOUS
 10
127.4294497689
 20
142.6304392958
 11
127.4294497689
 21
143.8651069635
  0
LINE
  5
290
100
AcDbEntity
  8
BEZUGSACHSEN
100
AcDbLine
 62
7
  6
CONTINUOUS
 10
159.4014419523
 20
93.2401069635
 11
168.0340321049
 21
94.8821170632
  0
LINE
  5
291
100
AcDbEntity
  8
BEZUGSACHSEN
100
AcDbLine
 62
7
  6
CONTINUOUS
 10
169.2094118853
 20
95.1056867493
 11
177.4420300524
 21
96.6716179401
  0
LINE
  5
292
100
AcDbEntity
  8
BEZUGSACHSEN
100
AcDbLine
 62
7
  6
CONTINUOUS
 10
127.4294497689
 20
87.6151069635
 11
130.1794497689
 21
87.6151069635
  0
LINE
  5
293
100
AcDbEntity
  8
0
100
AcDbLine
 62
7
  6
CONTINUOUS
 10
121.8794497689
 20
89.9060088565
 11
125.2681793701
 21
89.9060088565
  0
LINE
  5
294
100
AcDbEntity
  8
0
100
AcDbLine
 62
7
  6
CONTINUOUS
 10
132.3407201677
 20
89.9060088565
 11
135.7294497689
 21
89.9060088565
  0
LINE
  5
295
100
AcDbEntity
  8
BEZUGSACHSEN
100
AcDbLine
 62
7
  6
CONTINUOUS
 10
137.7294497689
 20
93.2401069635
 11
159.4014419523
 21
93.2401069635
  0
LINE
  5
296
100
AcDbEntity
  8
BEZUGSACHSEN
100
AcDbLine
 62
7
  6
CONTINUOUS
 10
118.2294497689
 20
93.8651069635
 11
119.8794497689
 21
93.8651069635
  0
LINE
  5
297
100
AcDbEntity
  8
BEZUGSACHSEN
100
AcDbLine
 62
7
  6
CONTINUOUS
 10
50.9408124305
 20
103.2413437617
 11
117.1721445064
 21
93.5818028723
  0
LINE
  5
298
100
AcDbEntity
  8
0
100
AcDbLine
 62
9
  6
CONTINUOUS
 10
130.1794497689
 20
87.6151069635
 11
130.1794497689
 21
94.556018005
  0
LINE
  5
299
100
AcDbEntity
  8
0
100
AcDbLine
 62
9
  6
CONTINUOUS
 10
130.1794497689
 20
97.2401069635
 11
130.1794497689
 21
107.5401069635
  0
LINE
  5
29A
100
AcDbEntity
  8
0
100
AcDbLine
 62
9
  6
CONTINUOUS
 10
130.1794497689
 20
123.9401069635
 11
130.1794497689
 21
141.6369605564
  0
LINE
  5
29B
100
AcDbEntity
  8
0
100
AcDbLine
 62
9
  6
CONTINUOUS
 10
130.1794497689
 20
142.6304392958
 11
130.1794497689
 21
143.8651069635
  0
LINE
  5
29C
100
AcDbEntity
  8
BEZUGSACHSEN
100
AcDbLine
 62
7
  6
CONTINUOUS
 10
130.6794497689
 20
143.1251233367
 11
130.6794497689
 21
142.8688925477
  0
LINE
  5
29D
100
AcDbEntity
  8
0
100
AcDbLine
 62
7
  6
CONTINUOUS
 10
130.6794497689
 20
142.6490514454
 11
130.6794497689
 21
123.9401069635
  0
LINE
  5
29E
100
AcDbEntity
  8
0
100
AcDbLine
 62
7
  6
CONTINUOUS
 10
130.6794497689
 20
86.8425177399
 11
130.6794497689
 21
93.8965581447
  0
LINE
  5
29F
100
AcDbEntity
  8
0
100
AcDbLine
 62
7
  6
CONTINUOUS
 10
130.6794497689
 20
97.2401069635
 11
130.6794497689
 21
107.5401069635
  0
LINE
  5
2A0
100
AcDbEntity
  8
0
100
AcDbLine
 62
7
  6
CONTINUOUS
 10
130.6794497689
 20
143.1251233367
 11
130.6794497689
 21
144.6377017656
  0
LINE
  5
2A1
100
AcDbEntity
  8
0
100
AcDbLine
 62
7
  6
CONTINUOUS
 10
132.3407201677
 20
147.5151069635
 11
132.3407201677
 21
123.9401069635
  0
LINE
  5
2A2
100
AcDbEntity
  8
0
100
AcDbLine
 62
7
  6
CONTINUOUS
 10
132.3407201677
 20
107.5401069635
 11
132.3407201677
 21
97.2401069635
  0
LINE
  5
2A3
100
AcDbEntity
  8
0
100
AcDbLine
 62
7
  6
CONTINUOUS
 10
132.3407201677
 20
89.9060088565
 11
132.3407201677
 21
83.9651069635
  0
LINE
  5
2A4
100
AcDbEntity
  8
0
100
AcDbLine
 62
9
  6
CONTINUOUS
 10
135.7294497689
 20
83.9651069635
 11
135.7294497689
 21
89.9060088565
  0
LINE
  5
2A5
100
AcDbEntity
  8
0
100
AcDbLine
 62
9
  6
CONTINUOUS
 10
135.7294497689
 20
97.2401069635
 11
135.7294497689
 21
107.5401069635
  0
LINE
  5
2A6
100
AcDbEntity
  8
0
100
AcDbLine
 62
9
  6
CONTINUOUS
 10
135.7294497689
 20
123.9401069635
 11
135.7294497689
 21
147.5151069635
  0
LINE
  5
2A7
100
AcDbEntity
  8
0
100
AcDbLine
 62
7
  6
CONTINUOUS
 10
127.4294497689
 20
94.556018005
 11
130.1794497689
 21
94.556018005
  0
LINE
  5
2A8
100
AcDbEntity
  8
FASEN
100
AcDbLine
 62
7
  6
CONTINUOUS
 10
120.8794497689
 20
96.8401069635
 11
136.7294497689
 21
96.8401069635
  0
LINE
  5
2A9
100
AcDbEntity
  8
0
100
AcDbLine
 62
7
  6
CONTINUOUS
 10
120.8794497689
 20
97.2401069635
 11
136.7294497689
 21
97.2401069635
  0
LINE
  5
2AA
100
AcDbEntity
  8
BEZUGSACHSEN
100
AcDbLine
 62
7
  6
CONTINUOUS
 10
178.8413299842
 20
97.7401069635
 11
180.1294497689
 21
97.7401069635
  0
LINE
  5
2AB
100
AcDbEntity
  8
BEZUGSACHSEN
100
AcDbLine
 62
7
  6
CONTINUOUS
 10
185.1294497689
 20
97.7401069635
 11
186.8356251706
 21
97.7401069635
  0
LWPOLYLINE
  5
2AC
100
AcDbEntity
  8
0
100
AcDbPolyline
 62
7
  6
CONTINUOUS
 90
10
 70
0
 10
166.6827840887
 20
94.846156389
 10
166.6736198361
 20
94.8461896507
 10
166.6669993282
 20
94.8463114671
 10
166.6668211352
 20
94.8463064739
 10
166.6735445388
 20
94.8458735979
 10
166.6877832158
 20
94.8446094954
 10
166.7092199284
 20
94.8421080634
 10
166.738025509
 20
94.8378526041
 10
166.7727377279
 20
94.8315485491
 10
166.799416381
 20
94.8259000007
  0
LINE
  5
2AD
100
AcDbEntity
  8
BEZUGSACHSEN
100
AcDbLine
 62
7
  6
CONTINUOUS
 10
136.7294497689
 20
146.4972211143
 11
136.7294497689
 21
123.9401069635
  0
LINE
  5
2AE
100
AcDbEntity
  8
0
100
AcDbLine
 62
7
  6
CONTINUOUS
 10
136.7294497689
 20
146.5151065219
 11
136.7294497689
 21
123.9401069635
  0
LINE
  5
2AF
100
AcDbEntity
  8
0
100
AcDbLine
 62
7
  6
CONTINUOUS
 10
136.7294497689
 20
107.5401069635
 11
136.7294497689
 21
97.2401069635
  0
LINE
  5
2B0
100
AcDbEntity
  8
BEZUGSACHSEN
100
AcDbLine
 62
7
  6
CONTINUOUS
 10
136.7294497689
 20
91.1463958771
 11
136.7294497689
 21
84.9671387474
  0
LINE
  5
2B1
100
AcDbEntity
  8
0
100
AcDbLine
 62
7
  6
CONTINUOUS
 10
136.7294497689
 20
91.1463958771
 11
136.7294497689
 21
84.9651094682
  0
LINE
  5
2B2
100
AcDbEntity
  8
FASEN
100
AcDbLine
 62
7
  6
CONTINUOUS
 10
136.7294497689
 20
91.1463958771
 11
136.7294497689
 21
97.2401069635
  0
LINE
  5
2B3
100
AcDbEntity
  8
FASEN
100
AcDbLine
 62
7
  6
CONTINUOUS
 10
136.7294497689
 20
107.5401069635
 11
136.7294497689
 21
123.9401069635
  0
LINE
  5
2B4
100
AcDbEntity
  8
RUNDUNGEN
100
AcDbLine
 62
9
  6
CONTINUOUS
 10
137.7294497689
 20
138.2401069635
 11
137.7294497689
 21
93.2401069635
  0
LINE
  5
2B5
100
AcDbEntity
  8
BEZUGSACHSEN
100
AcDbLine
 62
7
  6
CONTINUOUS
 10
117.1721445064
 20
93.5818028723
 11
118.2294497689
 21
93.8651069635
  0
LINE
  5
2B6
100
AcDbEntity
  8
BEZUGSACHSEN
100
AcDbLine
 62
7
  6
CONTINUOUS
 10
198.3961256943
 20
108.159897782
 11
247.3451505557
 21
110.7252074731
  0
LINE
  5
2B7
100
AcDbEntity
  8
0
100
AcDbLine
 62
7
  6
CONTINUOUS
 10
120.8794497689
 20
107.5401069635
 11
136.7294497689
 21
107.5401069635
  0
LINE
  5
2B8
100
AcDbEntity
  8
FASEN
100
AcDbLine
 62
7
  6
CONTINUOUS
 10
136.7294497689
 20
107.9401069635
 11
120.8794497689
 21
107.9401069635
  0
LINE
  5
2B9
100
AcDbEntity
  8
BEZUGSACHSEN
100
AcDbLine
 62
7
  6
CONTINUOUS
 10
125.2681793701
 20
83.9651069635
 11
126.9294497689
 21
86.8425116993
  0
LINE
  5
2BA
100
AcDbEntity
  8
DEFAULT_2
100
AcDbLine
 62
8
  6
HIDDEN
 10
246.6294497689
 20
113.7401069635
 11
235.6298800784
 21
113.7401069635
  0
LINE
  5
2BB
100
AcDbEntity
  8
BEZUGSACHSEN
100
AcDbLine
 62
7
  6
CONTINUOUS
 10
125.2681793701
 20
147.5151069635
 11
126.9294497689
 21
144.6377022277
  0
LINE
  5
2BC
100
AcDbEntity
  8
DEFAULT_1
100
AcDbLine
 62
7
  6
CENTER
 10
182.6294497689
 20
115.7401069635
 11
169.2098656785
 21
115.7401069635
  0
LINE
  5
2BD
100
AcDbEntity
  8
DEFAULT_1
100
AcDbLine
 62
7
  6
CENTER
 10
168.0344858981
 20
115.7401069635
 11
163.441047722
 21
115.7401069635
  0
LINE
  5
2BE
100
AcDbEntity
  8
BEZUGSACHSEN
100
AcDbLine
 62
7
  6
CENTER
 10
252.6294497689
 20
115.7401069635
 11
46.2294497689
 21
115.7401069635
  0
LINE
  5
2BF
100
AcDbEntity
  8
0
100
AcDbLine
 62
9
  6
CONTINUOUS
 10
168.0344858981
 20
115.7401069635
 11
169.2098656785
 21
115.7401069635
  0
LINE
  5
2C0
100
AcDbEntity
  8
DEFAULT_1
100
AcDbLine
 62
7
  6
CENTER
 10
182.6294497689
 20
115.7401069635
 11
201.8178518157
 21
115.7401069635
  0
LINE
  5
2C1
100
AcDbEntity
  8
DEFAULT_2
100
AcDbLine
 62
8
  6
HIDDEN
 10
246.6294497689
 20
117.7401069635
 11
235.6298800784
 21
117.7401069635
  0
LINE
  5
2C2
100
AcDbEntity
  8
BEZUGSACHSEN
100
AcDbLine
 62
7
  6
CONTINUOUS
 10
159.4014419523
 20
138.2401069635
 11
159.4014419523
 21
93.2401069635
  0
LINE
  5
2C3
100
AcDbEntity
  8
FASEN
100
AcDbLine
 62
7
  6
CONTINUOUS
 10
120.8794497689
 20
123.5401069635
 11
136.7294497689
 21
123.5401069635
  0
LINE
  5
2C4
100
AcDbEntity
  8
0
100
AcDbLine
 62
7
  6
CONTINUOUS
 10
120.8794497689
 20
123.9401069635
 11
136.7294497689
 21
123.9401069635
  0
LINE
  5
2C5
100
AcDbEntity
  8
BEZUGSACHSEN
100
AcDbLine
 62
7
  6
CONTINUOUS
 10
198.3961256943
 20
123.320316145
 11
247.3451505557
 21
120.7550064539
  0
LINE
  5
2C6
100
AcDbEntity
  8
BEZUGSACHSEN
100
AcDbLine
 62
7
  6
CONTINUOUS
 10
117.1721445064
 20
137.8984110547
 11
118.2294497689
 21
137.6151069635
  0
LINE
  5
2C7
100
AcDbEntity
  8
BEZUGSACHSEN
100
AcDbLine
 62
7
  6
CONTINUOUS
 10
178.8413299842
 20
133.7401069635
 11
180.1294497689
 21
133.7401069635
  0
LINE
  5
2C8
100
AcDbEntity
  8
BEZUGSACHSEN
100
AcDbLine
 62
7
  6
CONTINUOUS
 10
185.1294497689
 20
133.7401069635
 11
186.8356251706
 21
133.7401069635
  0
LINE
  5
2C9
100
AcDbEntity
  8
BEZUGSACHSEN
100
AcDbLine
 62
9
  6
CONTINUOUS
 10
177.4420300524
 20
134.8085959869
 11
177.4420300524
 21
96.6716179401
  0
LINE
  5
2CA
100
AcDbEntity
  8
BEZUGSACHSEN
100
AcDbLine
 62
9
  6
CONTINUOUS
 10
177.9853621208
 20
134.4226867926
 11
177.9853621208
 21
97.0575271344
  0
LINE
  5
2CB
100
AcDbEntity
  8
BEZUGSACHSEN
100
AcDbLine
 62
9
  6
CONTINUOUS
 10
178.1485096612
 20
134.1401069635
 11
178.1485096612
 21
97.3401069635
  0
LINE
  5
2CC
100
AcDbEntity
  8
BEZUGSACHSEN
100
AcDbLine
 62
7
  6
CONTINUOUS
 10
50.9408124305
 20
128.2388701653
 11
117.1721445064
 21
137.8984110547
  0
LINE
  5
2CD
100
AcDbEntity
  8
BEZUGSACHSEN
100
AcDbLine
 62
7
  6
CONTINUOUS
 10
118.2294497689
 20
137.6151069635
 11
119.8794497689
 21
137.6151069635
  0
LINE
  5
2CE
100
AcDbEntity
  8
BEZUGSACHSEN
100
AcDbLine
 62
7
  6
CONTINUOUS
 10
137.7294497689
 20
138.2401069635
 11
159.4014419523
 21
138.2401069635
  0
LINE
  5
2CF
100
AcDbEntity
  8
BEZUGSACHSEN
100
AcDbLine
 62
7
  6
CONTINUOUS
 10
159.4014419523
 20
138.2401069635
 11
168.0340321049
 21
136.5980968638
  0
LINE
  5
2D0
100
AcDbEntity
  8
BEZUGSACHSEN
100
AcDbLine
 62
7
  6
CONTINUOUS
 10
169.2094118853
 20
136.3745271777
 11
177.4420300524
 21
134.8085959869
  0
LWPOLYLINE
  5
2D1
100
AcDbEntity
  8
0
100
AcDbPolyline
 62
7
  6
CONTINUOUS
 90
3
 70
0
 10
170.5629585651
 20
135.8934690865
 10
170.5733702142
 20
135.8894041579
 10
170.5810164959
 20
135.8862812303
  0
LWPOLYLINE
  5
2D2
100
AcDbEntity
  8
0
100
AcDbPolyline
 62
7
  6
CONTINUOUS
 90
7
 70
0
 10
170.5817566586
 20
135.885976426
 10
170.5755285361
 20
135.8888822095
 10
170.5619921194
 20
135.8956232223
 10
170.5421529598
 20
135.9062456299
 10
170.5166782138
 20
135.9209673329
 10
170.4868660018
 20
135.9395913269
 10
170.4691924413
 20
135.9513101973
  0
LINE
  5
2D3
100
AcDbEntity
  8
BEZUGSACHSEN
100
AcDbLine
 62
9
  6
CONTINUOUS
 10
178.8413299842
 20
133.7401069635
 11
178.8413299842
 21
97.7401069635
  0
LINE
  5
2D4
100
AcDbEntity
  8
DEFAULT_1
100
AcDbLine
 62
7
  6
CENTER
 10
182.6294497689
 20
115.7401069635
 11
182.6294497689
 21
96.5517049167
  0
LINE
  5
2D5
100
AcDbEntity
  8
DEFAULT_1
100
AcDbLine
 62
7
  6
CENTER
 10
182.6294497689
 20
115.7401069635
 11
182.6294497689
 21
134.9285090104
  0
LINE
  5
2D6
100
AcDbEntity
  8
BEZUGSACHSEN
100
AcDbLine
 62
7
  6
CONTINUOUS
 10
177.9853621208
 20
97.0575271344
 11
178.1485096612
 21
97.3401069635
  0
LINE
  5
2D7
100
AcDbEntity
  8
BEZUGSACHSEN
100
AcDbLine
 62
7
  6
CONTINUOUS
 10
127.4294497689
 20
143.8651069635
 11
130.1794497689
 21
143.8651069635
  0
LINE
  5
2D8
100
AcDbEntity
  8
BEZUGSACHSEN
100
AcDbLine
 62
7
  6
CONTINUOUS
 10
121.8794497689
 20
147.5151069635
 11
125.2681793701
 21
147.5151069635
  0
LINE
  5
2D9
100
AcDbEntity
  8
BEZUGSACHSEN
100
AcDbLine
 62
7
  6
CONTINUOUS
 10
132.3407201677
 20
147.5151069635
 11
135.7294497689
 21
147.5151069635
  0
LINE
  5
2DA
100
AcDbEntity
  8
BEZUGSACHSEN
100
AcDbLine
 62
7
  6
CONTINUOUS
 10
177.9853621208
 20
134.4226867926
 11
178.1485096612
 21
134.1401069635
  0
LINE
  5
2DB
100
AcDbEntity
  8
BEZUGSACHSEN
100
AcDbLine
 62
9
  6
CONTINUOUS
 10
186.8356251706
 20
133.7401069635
 11
186.8356251706
 21
97.7401069635
  0
LINE
  5
2DC
100
AcDbEntity
  8
BEZUGSACHSEN
100
AcDbLine
 62
9
  6
CONTINUOUS
 10
187.5427319518
 20
133.4472137447
 11
187.5427319518
 21
98.0330001823
  0
LINE
  5
2DD
100
AcDbEntity
  8
BEZUGSACHSEN
100
AcDbLine
 62
7
  6
CONTINUOUS
 10
187.5427319518
 20
98.0330001823
 11
197.0865840444
 21
107.5768522749
  0
LINE
  5
2DE
100
AcDbEntity
  8
BEZUGSACHSEN
100
AcDbLine
 62
7
  6
CONTINUOUS
 10
187.5427319518
 20
133.4472137447
 11
197.0865840444
 21
123.9033616521
  0
LINE
  5
2DF
100
AcDbEntity
  8
BEZUGSACHSEN
100
AcDbLine
 62
9
  6
CONTINUOUS
 10
197.0865840444
 20
123.9033616521
 11
197.0865840444
 21
107.5768522749
  0
LINE
  5
2E0
100
AcDbEntity
  8
BEZUGSACHSEN
100
AcDbLine
 62
9
  6
CONTINUOUS
 10
198.3961256943
 20
123.320316145
 11
198.3961256943
 21
108.159897782
  0
LINE
  5
2E1
100
AcDbEntity
  8
DEFAULT_2
100
AcDbLine
 62
8
  6
HIDDEN
 10
235.3294497689
 20
118.2401069635
 11
235.3294497689
 21
113.2401069635
  0
LINE
  5
2E2
100
AcDbEntity
  8
BEZUGSACHSEN
100
AcDbLine
 62
9
  6
CONTINUOUS
 10
247.3451505557
 20
120.7550064539
 11
247.3451505557
 21
110.7252074731
  0
LINE
  5
2E3
100
AcDbEntity
  8
BEZUGSACHSEN
100
AcDbLine
 62
7
  6
CONTINUOUS
 10
247.6294497689
 20
120.4554175935
 11
247.6294497689
 21
111.0247963335
  0
CIRCLE
  5
2E4
100
AcDbEntity
  8
BEZUGSACHSEN
100
AcDbCircle
 62
7
  6
CONTINUOUS
 10
128.7294497689
 20
115.7401069635
 40
5.0
  0
CIRCLE
  5
2E5
100
AcDbEntity
  8
BEZUGSACHSEN
100
AcDbCircle
 62
7
  6
CONTINUOUS
 10
128.7294497689
 20
115.7401069635
 40
4.7
  0
CIRCLE
  5
2E6
100
AcDbEntity
  8
BEZUGSACHSEN
100
AcDbCircle
 62
7
  6
CONTINUOUS
 10
128.7294497689
 20
115.7401069635
 40
2.0
  0
ARC
  5
2E7
100
AcDbEntity
  8
BEZUGSACHSEN
100
AcDbCircle
 62
7
  6
CONTINUOUS
 10
51.2294497689
 20
105.220406289
 40
2.0
100
AcDbArc
 50
180.0
 51
261.7021731718
  0
ARC
  5
2E8
100
AcDbEntity
  8
BEZUGSACHSEN
100
AcDbCircle
 62
7
  6
CONTINUOUS
 10
121.8794497689
 20
84.9651069635
 40
1.0
100
AcDbArc
 50
180.0
 51
270.0
  0
ARC
  5
2E9
100
AcDbEntity
  8
BEZUGSACHSEN
100
AcDbCircle
 62
7
  6
CONTINUOUS
 10
119.8794497689
 20
92.8651069635
 40
1.0
100
AcDbArc
 50
0.0
 51
90.0
  0
ARC
  5
2EA
100
AcDbEntity
  8
BEZUGSACHSEN
100
AcDbCircle
 62
7
  6
CONTINUOUS
 10
127.4294497689
 20
87.1151069635
 40
0.5
100
AcDbArc
 50
90.0
 51
180.0
  0
ARC
  5
2EB
100
AcDbEntity
  8
0
100
AcDbCircle
 62
7
  6
CONTINUOUS
 10
-46.6912568332
 20
170.7075344156
 40
189.9972240794
100
AcDbArc
 50
334.8317727047
 51
336.0368933894
  0
ARC
  5
2EC
100
AcDbEntity
  8
BEZUGSACHSEN
100
AcDbCircle
 62
7
  6
CONTINUOUS
 10
51.2294497689
 20
126.259807638
 40
2.0
100
AcDbArc
 50
98.2978268282
 51
180.0
  0
ARC
  5
2ED
100
AcDbEntity
  8
BEZUGSACHSEN
100
AcDbCircle
 62
7
  6
CONTINUOUS
 10
119.8794497689
 20
138.6151069635
 40
1.0
100
AcDbArc
 50
270.0
 51
360.0
  0
ARC
  5
2EE
100
AcDbEntity
  8
BEZUGSACHSEN
100
AcDbCircle
 62
7
  6
CONTINUOUS
 10
121.8794497689
 20
146.5151069635
 40
1.0
100
AcDbArc
 50
90.0
 51
180.0
  0
ARC
  5
2EF
100
AcDbEntity
  8
BEZUGSACHSEN
100
AcDbCircle
 62
7
  6
CONTINUOUS
 10
127.4294497689
 20
144.3651069635
 40
0.5
100
AcDbArc
 50
180.0
 51
270.0
  0
ARC
  5
2F0
100
AcDbEntity
  8
0
100
AcDbCircle
 62
7
  6
CONTINUOUS
 10
163.4998606417
 20
106.3847878226
 40
30.5284033262
100
AcDbArc
 50
79.2208276087
 51
80.3405476789
  0
ARC
  5
2F1
100
AcDbEntity
  8
0
100
AcDbCircle
 62
7
  6
CONTINUOUS
 10
164.5250920901
 20
116.4752684182
 40
20.4191301762
100
AcDbArc
 50
76.5016687759
 51
76.9074767547
  0
ARC
  5
2F2
100
AcDbEntity
  8
GEWINDE
100
AcDbCircle
 62
7
  6
CONTINUOUS
 10
182.6294516704
 20
79.9135043206
 40
18.0008522335
100
AcDbArc
 50
82.0169180781
 51
97.9830939093
  0
CIRCLE
  5
2F3
100
AcDbEntity
  8
0
100
AcDbCircle
 62
2
  6
CONTINUOUS
 10
182.6294498026
 20
115.7401069635
 40
2.9999999663
  0
CIRCLE
  5
2F4
100
AcDbEntity
  8
GEWINDE
100
AcDbCircle
 62
7
  6
CONTINUOUS
 10
182.6294497689
 20
115.7401069635
 40
2.5
  0
ARC
  5
2F5
100
AcDbEntity
  8
BEZUGSACHSEN
100
AcDbCircle
 62
7
  6
CONTINUOUS
 10
198.5007976068
 20
106.1626387125
 40
2.0
100
AcDbArc
 50
93.0
 51
135.0
  0
ARC
  5
2F6
100
AcDbEntity
  8
RUNDUNGEN
100
AcDbCircle
 62
7
  6
CONTINUOUS
 10
137.7294497689
 20
92.2401069635
 40
1.0
100
AcDbArc
 50
90.0
 51
180.0
  0
ARC
  5
2F7
100
AcDbEntity
  8
BEZUGSACHSEN
100
AcDbCircle
 62
7
  6
CONTINUOUS
 10
186.8356251706
 20
98.7401069635
 40
1.0
100
AcDbArc
 50
270.0
 51
315.0
  0
ARC
  5
2F8
100
AcDbEntity
  8
BEZUGSACHSEN
100
AcDbCircle
 62
7
  6
CONTINUOUS
 10
135.7294497689
 20
84.9651069635
 40
1.0
100
AcDbArc
 50
270.0
 51
360.0
  0
ARC
  5
2F9
100
AcDbEntity
  8
BEZUGSACHSEN
100
AcDbCircle
 62
7
  6
CONTINUOUS
 10
177.2925417978
 20
97.4575271344
 40
0.8
100
AcDbArc
 50
280.7696123686
 51
330.0
  0
ARC
  5
2FA
100
AcDbEntity
  8
BEZUGSACHSEN
100
AcDbCircle
 62
7
  6
CONTINUOUS
 10
178.8413299842
 20
96.9401069635
 40
0.8
100
AcDbArc
 50
90.0
 51
150.0
  0
ARC
  5
2FB
100
AcDbEntity
  8
BEZUGSACHSEN
100
AcDbCircle
 62
7
  6
CONTINUOUS
 10
130.1794497689
 20
87.1151069635
 40
0.5
100
AcDbArc
 50
0.0
 51
90.0
  0
ARC
  5
2FC
100
AcDbEntity
  8
0
100
AcDbCircle
 62
7
  6
CONTINUOUS
 10
166.8888004446
 20
95.2076609681
 40
0.3921179134
100
AcDbArc
 50
252.4649819116
 51
256.8443054311
  0
ARC
  5
2FD
100
AcDbEntity
  8
BEZUGSACHSEN
100
AcDbCircle
 62
7
  6
CONTINUOUS
 10
247.3294497689
 20
120.4554175935
 40
0.3
100
AcDbArc
 50
0.0
 51
87.0
  0
ARC
  5
2FE
100
AcDbEntity
  8
BEZUGSACHSEN
100
AcDbCircle
 62
7
  6
CONTINUOUS
 10
247.3294497689
 20
111.0247963335
 40
0.3
100
AcDbArc
 50
273.0
 51
360.0
  0
ARC
  5
2FF
100
AcDbEntity
  8
0
100
AcDbCircle
 62
7
  6
CONTINUOUS
 10
304.3001563706
 20
170.7075344145
 40
189.9972240794
100
AcDbArc
 50
203.9631066104
 51
205.168227295
  0
ARC
  5
300
100
AcDbEntity
  8
0
100
AcDbCircle
 62
7
  6
CONTINUOUS
 10
162.2424321881
 20
125.3445101431
 40
31.0080635181
100
AcDbArc
 50
280.7647657876
 51
281.8732795316
  0
ARC
  5
301
100
AcDbEntity
  8
GEWINDE
100
AcDbCircle
 62
7
  6
CONTINUOUS
 10
182.6294497685
 20
151.56681625
 40
18.0009585021
100
AcDbArc
 50
262.0169592265
 51
277.9830407756
  0
ARC
  5
302
100
AcDbEntity
  8
BEZUGSACHSEN
100
AcDbCircle
 62
7
  6
CONTINUOUS
 10
198.5007976068
 20
125.3175752145
 40
2.0
100
AcDbArc
 50
225.0
 51
267.0
  0
ARC
  5
303
100
AcDbEntity
  8
RUNDUNGEN
100
AcDbCircle
 62
7
  6
CONTINUOUS
 10
137.7294497689
 20
139.2401069635
 40
1.0
100
AcDbArc
 50
180.0
 51
270.0
  0
ARC
  5
304
100
AcDbEntity
  8
BEZUGSACHSEN
100
AcDbCircle
 62
7
  6
CONTINUOUS
 10
186.8356251706
 20
132.7401069635
 40
1.0
100
AcDbArc
 50
45.0
 51
90.0
  0
ARC
  5
305
100
AcDbEntity
  8
BEZUGSACHSEN
100
AcDbCircle
 62
7
  6
CONTINUOUS
 10
135.7294497689
 20
146.5151069635
 40
1.0
100
AcDbArc
 50
0.0
 51
90.0
  0
ARC
  5
306
100
AcDbEntity
  8
BEZUGSACHSEN
100
AcDbCircle
 62
7
  6
CONTINUOUS
 10
177.2925417978
 20
134.0226867926
 40
0.8
100
AcDbArc
 50
30.0
 51
79.2303876314
  0
ARC
  5
307
100
AcDbEntity
  8
BEZUGSACHSEN
100
AcDbCircle
 62
7
  6
CONTINUOUS
 10
178.8413299842
 20
134.5401069635
 40
0.8
100
AcDbArc
 50
210.0
 51
270.0
  0
ARC
  5
308
100
AcDbEntity
  8
BEZUGSACHSEN
100
AcDbCircle
 62
7
  6
CONTINUOUS
 10
130.1794497689
 20
144.3651069635
 40
0.5
100
AcDbArc
 50
270.0
 51
360.0
  0
ARC
  5
309
100
AcDbEntity
  8
0
100
AcDbCircle
 62
7
  6
CONTINUOUS
 10
170.2376476449
 20
135.6141489738
 40
0.4089348454
100
AcDbArc
 50
51.1428131515
 51
55.5274661399
  0
SPLINE
  5
30A
100
AcDbEntity
  8
0
100
AcDbSpline
 62
2
  6
CONTINUOUS
 70
0
 71
3
 72
29
 73
25
 74
23
 42
0.0000001
 43
0.0000001
 44
0.0000000001
 12
-0.0253038713
 22
0.0042172968
 32
0.0
 13
-0.0257144819
 23
-0.0042857312
 33
0.0
 40
0.0
 40
0.0
 40
0.0
 40
0.0
 40
0.0454545455
 40
0.0909090909
 40
0.1363636364
 40
0.1818181818
 40
0.2272727273
 40
0.2727272727
 40
0.3181818182
 40
0.3636363636
 40
0.4090909091
 40
0.4545454545
 40
0.5
 40
0.5454545455
 40
0.5909090909
 40
0.6363636364
 40
0.6818181818
 40
0.7272727273
 40
0.7727272727
 40
0.8181818182
 40
0.8636363636
 40
0.9090909091
 40
0.9545454545
 40
1.0
 40
1.0
 40
1.0
 40
1.0
 10
185.6294387775
 20
97.7401087334
 30
0.0
 10
185.6290553855
 20
97.7401726318
 30
0.0
 10
185.6082441078
 20
97.7436584612
 30
0.0
 10
185.5165064029
 20
97.7587119627
 30
0.0
 10
185.3668938439
 20
97.7822867947
 30
0.0
 10
185.1599536463
 20
97.8128656435
 30
0.0
 10
184.902852825
 20
97.8475900171
 30
0.0
 10
184.5962189145
 20
97.8842039057
 30
0.0
 10
184.2526849551
 20
97.9190111142
 30
0.0
 10
183.8735644826
 20
97.949742004
 30
0.0
 10
183.4732786392
 20
97.9733955181
 30
0.0
 10
183.0547132718
 20
97.9884581546
 30
0.0
 10
182.6295107826
 20
97.9935716457
 30
0.0
 10
182.2043006969
 20
97.9884609471
 30
0.0
 10
181.7857363101
 20
97.9734009545
 30
0.0
 10
181.3854501401
 20
97.9497501695
 30
0.0
 10
181.0063100579
 20
97.919019818
 30
0.0
 10
180.6627848701
 20
97.8842154845
 30
0.0
 10
180.3561144172
 20
97.847598699
 30
0.0
 10
180.0990246724
 20
97.812876793
 30
0.0
 10
179.8920468656
 20
97.7822931681
 30
0.0
 10
179.7424320622
 20
97.7587182192
 30
0.0
 10
179.6506684766
 20
97.743660657
 30
0.0
 10
179.6298507355
 20
97.740173727
 30
0.0
 10
179.6294611222
 20
97.7401087917
 30
0.0
 11
185.6294387775
 21
97.7401087334
 31
0.0
 11
185.5981573097
 21
97.7452959208
 31
0.0
 11
185.5068605939
 21
97.7601321844
 31
0.0
 11
185.3573392375
 21
97.7834541308
 31
0.0
 11
185.1515935424
 21
97.8135565643
 31
0.0
 11
184.8945973102
 21
97.8479049363
 31
0.0
 11
184.5900689064
 21
97.8839027923
 31
0.0
 11
184.2467538696
 21
97.9183317277
 31
0.0
 11
183.8700369208
 21
97.9485624414
 31
0.0
 11
183.4702320519
 21
97.9719637052
 31
0.0
 11
183.0536070849
 21
97.9867999637
 31
0.0
 11
182.6295095166
 21
97.9918676141
 31
0.0
 11
182.2054083134
 21
97.9868027314
 31
0.0
 11
181.7887826796
 21
97.9719691558
 31
0.0
 11
181.3889744881
 21
97.9485702417
 31
0.0
 11
181.0122458737
 21
97.918340821
 31
0.0
 11
180.668927326
 21
97.8839134092
 31
0.0
 11
180.3643778686
 21
97.8479145122
 31
0.0
 11
180.1073766621
 21
97.8135665065
 31
0.0
 11
179.9016073661
 21
97.7834612808
 31
0.0
 11
179.7520739318
 21
97.7601377837
 31
0.0
 11
179.6607579722
 21
97.7452985182
 31
0.0
 11
179.6294611222
 21
97.7401087917
 31
0.0
  0
SPLINE
  5
30B
100
AcDbEntity
  8
0
100
AcDbSpline
 62
2
  6
CONTINUOUS
 70
0
 71
3
 72
29
 73
25
 74
23
 42
0.0000001
 43
0.0000001
 44
0.0000000001
 12
0.0256930562
 22
-0.0042821603
 32
0.0
 13
0.0256959066
 23
0.0042826353
 33
0.0
 40
0.0
 40
0.0
 40
0.0
 40
0.0
 40
0.0454545455
 40
0.0909090909
 40
0.1363636364
 40
0.1818181818
 40
0.2272727273
 40
0.2727272727
 40
0.3181818182
 40
0.3636363636
 40
0.4090909091
 40
0.4545454545
 40
0.5
 40
0.5454545455
 40
0.5909090909
 40
0.6363636364
 40
0.6818181818
 40
0.7272727273
 40
0.7727272727
 40
0.8181818182
 40
0.8636363636
 40
0.9090909091
 40
0.9545454545
 40
1.0
 40
1.0
 40
1.0
 40
1.0
 10
179.6294611036
 20
133.7401051383
 30
0.0
 10
179.6298503923
 20
133.7400402571
 30
0.0
 10
179.6506684654
 20
133.7365532956
 30
0.0
 10
179.742414591
 20
133.7214985064
 30
0.0
 10
179.8920315155
 20
133.6979231811
 30
0.0
 10
180.0989716878
 20
133.6673446772
 30
0.0
 10
180.3560711033
 20
133.6326207041
 30
0.0
 10
180.6627249405
 20
133.5960052233
 30
0.0
 10
181.0062334105
 20
133.5612010013
 30
0.0
 10
181.3853874189
 20
133.530468359
 30
0.0
 10
181.785630062
 20
133.5068179196
 30
0.0
 10
182.2042391153
 20
133.4917545804
 30
0.0
 10
182.6293860258
 20
133.4866423344
 30
0.0
 10
183.0546442371
 20
133.4917539592
 30
0.0
 10
183.4731706381
 20
133.5068134514
 30
0.0
 10
183.8734819491
 20
133.5304659531
 30
0.0
 10
184.2526004576
 20
133.5611952083
 30
0.0
 10
184.5961341724
 20
133.5960005581
 30
0.0
 10
184.9027941493
 20
133.6326164291
 30
0.0
 10
185.1598835572
 20
133.6673383559
 30
0.0
 10
185.3668575188
 20
133.6979215137
 30
0.0
 10
185.5164700398
 20
133.7214961214
 30
0.0
 10
185.6082321149
 20
133.7365534464
 30
0.0
 10
185.6290491
 20
133.7400402495
 30
0.0
 10
185.6294384319
 20
133.7401051379
 30
0.0
 11
179.6294611036
 21
133.7401051383
 31
0.0
 11
179.660754968
 21
133.7349159044
 31
0.0
 11
179.7520597241
 21
133.720078417
 31
0.0
 11
179.9015853901
 21
133.6967559847
 31
0.0
 11
180.1073315617
 21
133.6666537657
 31
0.0
 11
180.3643301736
 21
133.6323054528
 31
0.0
 11
180.6688673793
 21
133.5963070998
 31
0.0
 11
181.0121743335
 21
133.5618795979
 31
0.0
 11
181.3889021913
 21
133.5316487262
 31
0.0
 11
181.7886911304
 21
133.508249103
 31
0.0
 11
182.2053287582
 21
133.4934130959
 31
0.0
 11
182.6294045759
 21
133.4883463129
 31
0.0
 11
183.0535222687
 21
133.4934119371
 31
0.0
 11
183.4701347898
 21
133.5082456197
 31
0.0
 11
183.8699498154
 21
133.531645412
 31
0.0
 11
184.2466696586
 21
133.5618745574
 31
0.0
 11
184.5899885494
 21
133.5963023116
 31
0.0
 11
184.8945323878
 21
133.6323007717
 31
0.0
 11
185.1515309828
 21
133.6666485611
 31
0.0
 11
185.3572972787
 21
133.696753422
 31
0.0
 11
185.5068282988
 21
133.7200765743
 31
0.0
 11
185.598142682
 21
133.734915593
 31
0.0
 11
185.6294384319
 21
133.7401051379
 31
0.0
  0
SPLINE
  5
30C
100
AcDbEntity
  8
BEZUGSACHSEN
100
AcDbSpline
 62
7
  6
CONTINUOUS
 70
0
 71
3
 72
19
 73
15
 74
13
 42
0.0000001
 43
0.0000001
 44
0.0000000001
 12
-0.8939002816
 22
0.3305664543
 32
0.0
 13
0.0
 23
0.9530644753
 33
0.0
 40
0.0
 40
0.0
 40
0.0
 40
0.0
 40
0.1217181457
 40
0.2412117709
 40
0.3499481467
 40
0.4477039725
 40
0.5373829645
 40
0.6199208207
 40
0.6964779373
 40
0.7678297527
 40
0.8343908613
 40
0.8961956983
 40
0.9521075556
 40
1.0
 40
1.0
 40
1.0
 40
1.0
 10
127.4294497689
 20
141.6369605564
 30
0.0
 10
127.3931818073
 20
141.6503725351
 30
0.0
 10
127.3241740047
 20
141.6851498828
 30
0.0
 10
127.2352390463
 20
141.752607612
 30
0.0
 10
127.1623436931
 20
141.8265718465
 30
0.0
 10
127.1042540267
 20
141.900793219
 30
0.0
 10
127.0579186431
 20
141.9730954001
 30
0.0
 10
127.0207918027
 20
142.0429515795
 30
0.0
 10
126.991221699
 20
142.1099898917
 30
0.0
 10
126.9680336068
 20
142.1741119328
 30
0.0
 10
126.9504910674
 20
142.2351363812
 30
0.0
 10
126.9382410986
 20
142.2924360601
 30
0.0
 10
126.9311371459
 20
142.3446187836
 30
0.0
 10
126.9294497689
 20
142.3776057939
 30
0.0
 10
126.9294497689
 20
142.3928206564
 30
0.0
 11
127.4294497689
 21
141.6369605564
 31
0.0
 11
127.3255000067
 21
141.6884548553
 31
0.0
 11
127.2344147968
 21
141.7568164467
 31
0.0
 11
127.1614617427
 21
141.830420824
 31
0.0
 11
127.1039192668
 21
141.9036947352
 31
0.0
 11
127.0577386273
 21
141.9756144526
 31
0.0
 11
127.0207951645
 21
142.0450636391
 31
0.0
 11
126.9913541453
 21
142.1118240498
 31
0.0
 11
126.968264338
 21
142.1757869497
 31
0.0
 11
126.9508105426
 21
142.2367756499
 31
0.0
 11
126.9386145056
 21
142.2944032236
 31
0.0
 11
126.9315954433
 21
142.3472265292
 31
0.0
 11
126.9294497689
 21
142.3928206564
 31
0.0
  0
SPLINE
  5
30D
100
AcDbEntity
  8
0
100
AcDbSpline
 62
7
  6
CONTINUOUS
 70
0
 71
3
 72
13
 73
9
 74
7
 42
0.0000001
 43
0.0000001
 44
0.0000000001
 12
1.2108770138
 22
-0.2833926042
 32
0.0
 13
1.2004880859
 23
0.1705761972
 33
0.0
 40
0.0
 40
0.0
 40
0.0
 40
0.0
 40
0.0740475655
 40
0.2288754609
 40
0.4334813371
 40
0.6603554302
 40
0.8878436045
 40
1.0
 40
1.0
 40
1.0
 40
1.0
 10
166.7995552086
 20
94.8258341148
 30
0.0
 10
166.8294427069
 20
94.8188392707
 30
0.0
 10
166.9177343066
 20
94.8093014712
 30
0.0
 10
167.0959980631
 20
94.8079492891
 30
0.0
 10
167.3313993604
 20
94.8228312021
 30
0.0
 10
167.5968340938
 20
94.8492873004
 30
0.0
 10
167.8239545913
 20
94.877756823
 30
0.0
 10
167.9599339077
 20
94.8965605079
 30
0.0
 10
168.0048147132
 20
94.9029375783
 30
0.0
 11
166.7995552086
 21
94.8258341148
 31
0.0
 11
166.88718256
 21
94.8135913797
 31
0.0
 11
167.0748779263
 21
94.8100054301
 31
0.0
 11
167.3225854163
 21
94.8236985617
 31
0.0
 11
167.596371727
 21
94.8504074572
 31
0.0
 11
167.8701082644
 21
94.8843311472
 31
0.0
 11
168.0048147132
 21
94.9029375783
 31
0.0
  0
LINE
  5
30E
100
AcDbEntity
  8
0
100
AcDbLine
 62
7
  6
CONTINUOUS
 10
168.0048147132
 20
94.9029375783
 11
168.0304629381
 21
94.906600369
  0
SPLINE
  5
30F
100
AcDbEntity
  8
0
100
AcDbSpline
 62
7
  6
CONTINUOUS
 70
0
 71
3
 72
12
 73
8
 74
6
 42
0.0000001
 43
0.0000001
 44
0.0000000001
 12
1.1836565956
 22
0.1698817731
 32
0.0
 13
1.1746677193
 23
0.2234342445
 33
0.0
 40
0.0
 40
0.0
 40
0.0
 40
0.0
 40
0.0913501417
 40
0.3164142065
 40
0.5420240425
 40
0.7694109024
 40
1.0
 40
1.0
 40
1.0
 40
1.0
 10
168.0304629381
 20
94.906600369
 30
0.0
 10
168.0665053374
 20
94.9117732771
 30
0.0
 10
168.1912977133
 20
94.9300567349
 30
0.0
 10
168.4047588348
 20
94.9633185702
 30
0.0
 10
168.6713400154
 20
95.0077913078
 30
0.0
 10
168.9396521292
 20
95.0551758381
 30
0.0
 10
169.1191233622
 20
95.0885129157
 30
0.0
 10
169.2094118853
 20
95.1056867493
 30
0.0
 11
168.0304629381
 21
94.906600369
 31
0.0
 11
168.1385464063
 21
94.9224247894
 31
0.0
 11
168.4044686053
 21
94.9637596304
 31
0.0
 11
168.6705688457
 21
95.0080938089
 31
0.0
 11
168.9383243624
 21
95.0553461431
 31
0.0
 11
169.2094118853
 21
95.1056867493
 31
0.0
  0
SPLINE
  5
310
100
AcDbEntity
  8
BEZUGSACHSEN
100
AcDbSpline
 62
7
  6
CONTINUOUS
 70
0
 71
3
 72
18
 73
14
 74
12
 42
0.0000001
 43
0.0000001
 44
0.0000000001
 12
-2.6242089124
 22
-0.9704387092
 32
0.0
 13
-2.6242089124
 23
0.9704387092
 33
0.0
 40
0.0
 40
0.0
 40
0.0
 40
0.0
 40
0.0799679098
 40
0.1663286595
 40
0.257944786
 40
0.3532485422
 40
0.4508026001
 40
0.549197501
 40
0.6467509057
 40
0.7420528253
 40
0.8336699519
 40
0.920031171
 40
1.0
 40
1.0
 40
1.0
 40
1.0
 10
130.1794497689
 20
141.6369605564
 30
0.0
 10
130.109498935
 20
141.6110925714
 30
0.0
 10
129.9616106743
 20
141.5636476514
 30
0.0
 10
129.7276867416
 20
141.5067815124
 30
0.0
 10
129.4764857674
 20
141.4626998405
 30
0.0
 10
129.2127354176
 20
141.4326194462
 30
0.0
 10
128.941386472
 20
141.4173660977
 30
0.0
 10
128.6675133928
 20
141.4173661056
 30
0.0
 10
128.3961667662
 20
141.4326192887
 30
0.0
 10
128.1324177788
 20
141.4626992924
 30
0.0
 10
127.8812170807
 20
141.5067805791
 30
0.0
 10
127.6472909293
 20
141.5636470294
 30
0.0
 10
127.4994014068
 20
141.6110922741
 30
0.0
 10
127.4294497689
 20
141.6369605564
 30
0.0
 11
130.1794497689
 21
141.6369605564
 31
0.0
 11
129.9666125808
 21
141.5679621672
 31
0.0
 11
129.7319360576
 21
141.5104189336
 31
0.0
 11
129.4795186461
 21
141.4657897893
 31
0.0
 11
129.2146093694
 21
141.4353708485
 31
0.0
 11
128.9420989923
 21
141.4199537007
 31
0.0
 11
128.6668002632
 21
141.4199537087
 31
0.0
 11
128.3942917086
 21
141.435370717
 31
0.0
 11
128.1293875091
 21
141.4657888282
 31
0.0
 11
127.8769672846
 21
141.5104181344
 31
0.0
 11
127.642289433
 21
141.5679614662
 31
0.0
 11
127.4294497689
 21
141.6369605564
 31
0.0
  0
SPLINE
  5
311
100
AcDbEntity
  8
0
100
AcDbSpline
 62
7
  6
CONTINUOUS
 70
0
 71
3
 72
20
 73
16
 74
14
 42
0.0000001
 43
0.0000001
 44
0.0000000001
 12
3.757163971
 22
2.5969022882
 32
0.0
 13
3.8974541207
 23
2.4584534807
 33
0.0
 40
0.0
 40
0.0
 40
0.0
 40
0.0
 40
0.007689295
 40
0.0518762262
 40
0.109801745
 40
0.179730697
 40
0.2605476095
 40
0.3509627683
 40
0.449101318
 40
0.5525043296
 40
0.658701199
 40
0.7651190457
 40
0.868047911
 40
0.961358343
 40
1.0
 40
1.0
 40
1.0
 40
1.0
 10
165.6780194258
 20
94.8213612098
 30
0.0
 10
165.6876494065
 20
94.8280173257
 30
0.0
 10
165.7531439983
 20
94.8720107739
 30
0.0
 10
165.9019619002
 20
94.9537973855
 30
0.0
 10
166.1376660263
 20
95.0720659169
 30
0.0
 10
166.4287343568
 20
95.2066737518
 30
0.0
 10
166.7673566794
 20
95.3565145436
 30
0.0
 10
167.1472945202
 20
95.5202014838
 30
0.0
 10
167.5594582814
 20
95.696669726
 30
0.0
 10
167.9932745384
 20
95.8841656913
 30
0.0
 10
168.4369318608
 20
96.0809039072
 30
0.0
 10
168.8766611466
 20
96.284595103
 30
0.0
 10
169.2932998273
 20
96.4907891558
 30
0.0
 10
169.6100822963
 20
96.6635927556
 30
0.0
 10
169.7834533453
 20
96.7686586401
 30
0.0
 10
169.8336547071
 20
96.8003248789
 30
0.0
 11
165.6780194258
 21
94.8213612098
 31
0.0
 11
165.7071709164
 21
94.8409414754
 31
0.0
 11
165.8836228167
 21
94.9424662754
 31
0.0
 11
166.1218722146
 21
95.0627022707
 31
0.0
 11
166.4138478065
 21
95.1988801413
 31
0.0
 11
166.7541209563
 21
95.3500295711
 31
0.0
 11
167.1364557468
 21
95.5153681484
 31
0.0
 11
167.5519289233
 21
95.6937188927
 31
0.0
 11
167.989040627
 21
95.8831411142
 31
0.0
 11
168.4360732203
 21
96.0819847613
 31
0.0
 11
168.8806058818
 21
96.2887814948
 31
0.0
 11
169.3050338638
 21
96.500280386
 31
0.0
 11
169.6815174715
 21
96.7078073908
 31
0.0
 11
169.8336547071
 21
96.8003248789
 31
0.0
  0
SPLINE
  5
312
100
AcDbEntity
  8
0
100
AcDbSpline
 62
7
  6
CONTINUOUS
 70
0
 71
3
 72
13
 73
9
 74
7
 42
0.0000001
 43
0.0000001
 44
0.0000000001
 12
-1.043449894
 22
0.716984629
 32
0.0
 13
-1.2077316121
 23
0.2900184817
 33
0.0
 40
0.0
 40
0.0
 40
0.0
 40
0.0
 40
0.0677671037
 40
0.2153297507
 40
0.416405753
 40
0.646903301
 40
0.8828715882
 40
1.0
 40
1.0
 40
1.0
 40
1.0
 10
170.4691093093
 20
135.9512738849
 30
0.0
 10
170.4455387836
 20
135.9674698754
 30
0.0
 10
170.369833942
 20
136.0083213742
 30
0.0
 10
170.2074197181
 20
136.0739669877
 30
0.0
 10
169.9804776199
 20
136.1480849856
 30
0.0
 10
169.7143138256
 20
136.2240184954
 30
0.0
 10
169.4804309234
 20
136.2843570192
 30
0.0
 10
169.3384183023
 20
136.3190320937
 30
0.0
 10
169.2912650738
 20
136.3303552284
 30
0.0
 11
170.4691093093
 21
135.9512738849
 31
0.0
 11
170.3970678777
 21
135.9924989665
 31
0.0
 11
170.2281780153
 21
136.0636777499
 31
0.0
 11
169.991364242
 21
136.1429865486
 31
0.0
 11
169.7162627129
 21
136.2222162521
 31
0.0
 11
169.43257897
 21
136.2958258345
 31
0.0
 11
169.2912650738
 21
136.3303552284
 31
0.0
  0
SPLINE
  5
313
100
AcDbEntity
  8
0
100
AcDbSpline
 62
7
  6
CONTINUOUS
 70
0
 71
3
 72
11
 73
7
 74
5
 42
0.0000001
 43
0.0000001
 44
0.0000000001
 12
-1.1112845263
 22
0.258547303
 32
0.0
 13
-1.1208198192
 23
0.2131918034
 33
0.0
 40
0.0
 40
0.0
 40
0.0
 40
0.0
 40
0.2508616532
 40
0.4995590041
 40
0.7483036157
 40
1.0
 40
1.0
 40
1.0
 40
1.0
 10
169.1505193711
 20
136.3636142423
 30
0.0
 10
169.0575931466
 20
136.3852341103
 30
0.0
 10
168.8722741215
 20
136.4270776026
 30
0.0
 10
168.594009403
 20
136.4867475787
 30
0.0
 10
168.3148756312
 20
136.5437992832
 30
0.0
 10
168.1280675369
 20
136.5802103284
 30
0.0
 10
168.0340321049
 20
136.5980968638
 30
0.0
 11
169.1505193711
 21
136.3636142423
 31
0.0
 11
168.8713584334
 21
136.4267524029
 31
0.0
 11
168.5939342566
 21
136.4862981998
 31
0.0
 11
168.3158913429
 21
136.5431542987
 31
0.0
 11
168.0340321049
 21
136.5980968638
 31
0.0
  0
SPLINE
  5
314
100
AcDbEntity
  8
0
100
AcDbSpline
 62
7
  6
CONTINUOUS
 70
0
 71
3
 72
19
 73
15
 74
13
 42
0.0000001
 43
0.0000001
 44
0.0000000001
 12
-3.669832703
 22
-0.8513664139
 32
0.0
 13
-3.7430917487
 23
-0.7863935771
 33
0.0
 40
0.0
 40
0.0
 40
0.0
 40
0.0
 40
0.0010187218
 40
0.0500973155
 40
0.1144378483
 40
0.1919624981
 40
0.2808934583
 40
0.3791147254
 40
0.4857378725
 40
0.6009609385
 40
0.722055499
 40
0.8407009111
 40
0.9497818016
 40
1.0
 40
1.0
 40
1.0
 40
1.0
 10
171.5162704317
 20
135.5463822971
 30
0.0
 10
171.5150242522
 20
135.5460931952
 30
0.0
 10
171.4536940312
 20
135.5319704829
 30
0.0
 10
171.307787181
 20
135.5099962883
 30
0.0
 10
171.0665816035
 20
135.4838450311
 30
0.0
 10
170.7729490022
 20
135.4610172015
 30
0.0
 10
170.4363161895
 20
135.4399482554
 30
0.0
 10
170.0624031384
 20
135.4188333104
 30
0.0
 10
169.6551030991
 20
135.3952137658
 30
0.0
 10
169.2188940415
 20
135.3663769281
 30
0.0
 10
168.7678979224
 20
135.3294665054
 30
0.0
 10
168.3257304954
 20
135.2819455812
 30
0.0
 10
167.9750173785
 20
135.2308018575
 30
0.0
 10
167.7754826
 20
135.1927253423
 30
0.0
 10
167.7128254919
 20
135.1795615861
 30
0.0
 11
171.5162704317
 21
135.5463822971
 31
0.0
 11
171.5125289179
 21
135.5455206906
 31
0.0
 11
171.3274957036
 21
135.5140962013
 31
0.0
 11
171.0829726148
 21
135.4867609859
 31
0.0
 11
170.7874750966
 21
135.4628424738
 31
0.0
 11
170.4480932187
 21
135.4410143612
 31
0.0
 11
170.0731082929
 21
135.4193467161
 31
0.0
 11
169.6660765023
 21
135.3953210182
 31
0.0
 11
169.226442287
 21
135.3657528328
 31
0.0
 11
168.7649658688
 21
135.3272392856
 31
0.0
 11
168.3139647347
 21
135.2776894671
 31
0.0
 11
167.9014333009
 21
135.2158611871
 31
0.0
 11
167.7128254919
 21
135.1795615861
 31
0.0
  0
SPLINE
  5
315
100
AcDbEntity
  8
BEZUGSACHSEN
100
AcDbSpline
 62
7
  6
CONTINUOUS
 70
0
 71
3
 72
11
 73
7
 74
5
 42
0.0000001
 43
0.0000001
 44
0.0000000001
 12
0.0
 22
-0.4680658555
 32
0.0
 13
-0.1674374283
 23
-0.437093071
 33
0.0
 40
0.0
 40
0.0
 40
0.0
 40
0.0
 40
0.1445461367
 40
0.3576974325
 40
0.6432572252
 40
1.0
 40
1.0
 40
1.0
 40
1.0
 10
130.8044497689
 20
143.0984134121
 30
0.0
 10
130.8044497689
 20
143.0758610417
 30
0.0
 10
130.7973511536
 20
143.0201825531
 30
0.0
 10
130.7739014015
 20
142.9225662598
 30
0.0
 10
130.7338061506
 20
142.7951542634
 30
0.0
 10
130.6993604665
 20
142.7010280437
 30
0.0
 10
130.6794497689
 20
142.6490514454
 30
0.0
 11
130.8044497689
 21
143.0984134121
 31
0.0
 11
130.7977424669
 21
143.0310895917
 31
0.0
 11
130.7755921661
 21
142.9338106817
 31
0.0
 11
130.7362844999
 21
142.8060604809
 31
0.0
 11
130.6794497689
 21
142.6490514454
 31
0.0
  0
SPLINE
  5
316
100
AcDbEntity
  8
BEZUGSACHSEN
100
AcDbSpline
 62
7
  6
CONTINUOUS
 70
0
 71
3
 72
12
 73
8
 74
6
 42
0.0000001
 43
0.0000001
 44
0.0000000001
 12
-0.1674556245
 22
0.4371405719
 32
0.0
 13
0.0
 23
0.4681167224
 33
0.0
 40
0.0
 40
0.0
 40
0.0
 40
0.0
 40
0.2995620764
 40
0.5419687552
 40
0.7353081792
 40
0.886011903
 40
1.0
 40
1.0
 40
1.0
 40
1.0
 10
126.9294497689
 20
142.6490514454
 30
0.0
 10
126.9127286507
 20
142.6927016912
 30
0.0
 10
126.8834784499
 20
142.772069639
 30
0.0
 10
126.8476677779
 20
142.8811000811
 30
0.0
 10
126.8232171971
 20
142.9693450941
 30
0.0
 10
126.8087479239
 20
143.0393712679
 30
0.0
 10
126.8044497689
 20
143.0806268339
 30
0.0
 10
126.8044497689
 20
143.0984134121
 30
0.0
 11
126.9294497689
 21
142.6490514454
 31
0.0
 11
126.8812661301
 21
142.7807434904
 31
0.0
 11
126.846223305
 21
142.88867166
 31
0.0
 11
126.8225372269
 21
142.9760226777
 31
0.0
 11
126.8089053181
 21
143.0452400227
 31
0.0
 11
126.8044497689
 21
143.0984134121
 31
0.0
  0
SPLINE
  5
317
100
AcDbEntity
  8
BEZUGSACHSEN
100
AcDbSpline
 62
7
  6
CONTINUOUS
 70
0
 71
3
 72
19
 73
15
 74
13
 42
0.0000001
 43
0.0000001
 44
0.0000000001
 12
0.0
 22
-0.9530644332
 32
0.0
 13
-0.8939002421
 23
-0.3305664397
 33
0.0
 40
0.0
 40
0.0
 40
0.0
 40
0.0
 40
0.0479048512
 40
0.1038186277
 40
0.1656371908
 40
0.2321998811
 40
0.3035488221
 40
0.3800991219
 40
0.4626240486
 40
0.5522943159
 40
0.6500533187
 40
0.7587572076
 40
0.8782694549
 40
1.0
 40
1.0
 40
1.0
 40
1.0
 10
130.6794497689
 20
142.3928206564
 30
0.0
 10
130.6794497689
 20
142.3776018531
 30
0.0
 10
130.6777617319
 20
142.3446102877
 30
0.0
 10
130.6706555813
 20
142.2924188737
 30
0.0
 10
130.6584030168
 20
142.2351141276
 30
0.0
 10
130.6408576045
 20
142.1740864012
 30
0.0
 10
130.6176686933
 20
142.1099674065
 30
0.0
 10
130.5881000655
 20
142.0429363198
 30
0.0
 10
130.550976608
 20
141.973088625
 30
0.0
 10
130.50464422
 20
141.9007915437
 30
0.0
 10
130.4465620092
 20
141.826579662
 30
0.0
 10
130.3736704037
 20
141.7526168446
 30
0.0
 10
130.2847378002
 20
141.6851565523
 30
0.0
 10
130.2157214234
 20
141.6503739007
 30
0.0
 10
130.1794497689
 20
141.6369605564
 30
0.0
 11
130.6794497689
 21
142.3928206564
 31
0.0
 11
130.6773030314
 21
142.3472147436
 31
0.0
 11
130.670282707
 21
142.294389763
 31
0.0
 11
130.658082534
 21
142.2367496957
 31
0.0
 11
130.6406265199
 21
142.1757600654
 31
0.0
 11
130.6175359314
 21
142.1118003632
 31
0.0
 11
130.5880960977
 21
142.0450465338
 31
0.0
 11
130.5511575543
 21
141.9756086921
 31
0.0
 11
130.5049812286
 21
141.9036960909
 31
0.0
 11
130.4474368951
 21
141.8304197939
 31
0.0
 11
130.3745069633
 21
141.7568360991
 31
0.0
 11
130.2834095963
 21
141.6884611473
 31
0.0
 11
130.1794497689
 21
141.6369605564
 31
0.0
  0
SPLINE
  5
318
100
AcDbEntity
  8
0
100
AcDbSpline
 62
7
  6
CONTINUOUS
 70
0
 71
3
 72
95
 73
91
 74
89
 42
0.0000001
 43
0.0000001
 44
0.0000000001
 12
-24.8201449982
 22
-20.4858189762
 32
0.0
 13
33.2504130655
 23
-10.5108969864
 33
0.0
 40
0.0
 40
0.0
 40
0.0
 40
0.0
 40
0.0187420297
 40
0.038332185
 40
0.0572751791
 40
0.074553282
 40
0.0895850125
 40
0.1025337576
 40
0.1139152075
 40
0.1241575628
 40
0.1337829147
 40
0.1434697115
 40
0.1536321689
 40
0.1646355256
 40
0.1769946419
 40
0.1909279312
 40
0.2063362788
 40
0.2226980039
 40
0.239683164
 40
0.2572366464
 40
0.2751034953
 40
0.2926832024
 40
0.3092900812
 40
0.3241442477
 40
0.3369232057
 40
0.3481564359
 40
0.3579939533
 40
0.3667887382
 40
0.3750606502
 40
0.3833638586
 40
0.392022857
 40
0.4012921231
 40
0.4116702402
 40
0.423491615
 40
0.4369022794
 40
0.4516438655
 40
0.4673801734
 40
0.4840717517
 40
0.5016852721
 40
0.5195422174
 40
0.5367041033
 40
0.552677095
 40
0.5672047358
 40
0.5802179355
 40
0.5917663152
 40
0.6019789672
 40
0.6107363296
 40
0.6181472046
 40
0.6248435656
 40
0.631509728
 40
0.6382563831
 40
0.6451373436
 40
0.6522407801
 40
0.6596918685
 40
0.6678004819
 40
0.6768958515
 40
0.6873174082
 40
0.6993538987
 40
0.7132023153
 40
0.7281357776
 40
0.7427741477
 40
0.7563215317
 40
0.7685269373
 40
0.7792884207
 40
0.7886074632
 40
0.7965621052
 40
0.8030920984
 40
0.8083096665
 40
0.8127087701
 40
0.8169404558
 40
0.8217204652
 40
0.8277124574
 40
0.8353179944
 40
0.8448264389
 40
0.8563393355
 40
0.8695701442
 40
0.8838214199
 40
0.8984202739
 40
0.9129786676
 40
0.9272101284
 40
0.9408293089
 40
0.9535421548
 40
0.96503713
 40
0.9750118246
 40
0.9832590047
 40
0.9895575105
 40
0.9938955592
 40
0.9965110113
 40
0.9980137155
 40
1.0
 40
1.0
 40
1.0
 40
1.0
 10
169.2098656785
 20
115.7401069635
 30
0.0
 10
169.0548057133
 20
115.6121250207
 30
0.0
 10
168.7382394242
 20
115.3496663261
 30
0.0
 10
168.2736676794
 20
114.9474323804
 30
0.0
 10
167.8378570751
 20
114.5364683262
 30
0.0
 10
167.4642586587
 20
114.1322836758
 30
0.0
 10
167.1677719301
 20
113.746774452
 30
0.0
 10
166.9490627525
 20
113.3843131951
 30
0.0
 10
166.8026737135
 20
113.0419681128
 30
0.0
 10
166.7228498842
 20
112.7147212906
 30
0.0
 10
166.7017699584
 20
112.3967722054
 30
0.0
 10
166.7372658707
 20
112.0808821924
 30
0.0
 10
166.8324646658
 20
111.7621471694
 30
0.0
 10
166.9914738866
 20
111.4380341468
 30
0.0
 10
167.2157847927
 20
111.1055090361
 30
0.0
 10
167.5066577545
 20
110.7646278277
 30
0.0
 10
167.857726617
 20
110.421651208
 30
0.0
 10
168.2560100851
 20
110.0822432751
 30
0.0
 10
168.6869757625
 20
109.7467853154
 30
0.0
 10
169.1396177499
 20
109.4133311618
 30
0.0
 10
169.6007554665
 20
109.0807598386
 30
0.0
 10
170.0514116312
 20
108.7510014764
 30
0.0
 10
170.4678728716
 20
108.4293745729
 30
0.0
 10
170.8289603587
 20
108.1209494309
 30
0.0
 10
171.1258240166
 20
107.8275142405
 30
0.0
 10
171.3590715714
 20
107.5482981005
 30
0.0
 10
171.5328649635
 20
107.2778507426
 30
0.0
 10
171.6482363645
 20
107.0116686149
 30
0.0
 10
171.7080892455
 20
106.7443840564
 30
0.0
 10
171.7126472232
 20
106.471803337
 30
0.0
 10
171.6596900039
 20
106.1935431856
 30
0.0
 10
171.5476299439
 20
105.9097020387
 30
0.0
 10
171.3757541916
 20
105.6179358319
 30
0.0
 10
171.1437951734
 20
105.3135746748
 30
0.0
 10
170.8535666636
 20
104.9972820735
 30
0.0
 10
170.5119102706
 20
104.6729655767
 30
0.0
 10
170.1286152925
 20
104.3424354914
 30
0.0
 10
169.7116633674
 20
104.004246103
 30
0.0
 10
169.2712828872
 20
103.6590089828
 30
0.0
 10
168.8255739566
 20
103.312413699
 30
0.0
 10
168.396783693
 20
102.9727327164
 30
0.0
 10
168.0030885063
 20
102.6463843311
 30
0.0
 10
167.6550647136
 20
102.3350539653
 30
0.0
 10
167.3580078348
 20
102.0387072437
 30
0.0
 10
167.1133857838
 20
101.7565070442
 30
0.0
 10
166.9239047314
 20
101.4886451496
 30
0.0
 10
166.7930764309
 20
101.2363248931
 30
0.0
 10
166.7209167698
 20
101.0002441904
 30
0.0
 10
166.7024129283
 20
100.7762289903
 30
0.0
 10
166.7381212751
 20
100.5610463252
 30
0.0
 10
166.8278285674
 20
100.3603224107
 30
0.0
 10
166.9612169829
 20
100.1807524405
 30
0.0
 10
167.1262697093
 20
100.0196734689
 30
0.0
 10
167.319357053
 20
99.8712557167
 30
0.0
 10
167.5430431801
 20
99.7295945038
 30
0.0
 10
167.8045909751
 20
99.5897824585
 30
0.0
 10
168.1123839003
 20
99.4485455193
 30
0.0
 10
168.4737646672
 20
99.3030058875
 30
0.0
 10
168.8856672996
 20
99.1542340443
 30
0.0
 10
169.3274844039
 20
99.0066589498
 30
0.0
 10
169.7677991156
 20
98.8649401124
 30
0.0
 10
170.1799088958
 20
98.7311011588
 30
0.0
 10
170.5504343204
 20
98.6039216885
 30
0.0
 10
170.8740518428
 20
98.4802228562
 30
0.0
 10
171.1488708329
 20
98.3575181191
 30
0.0
 10
171.3728914982
 20
98.234065612
 30
0.0
 10
171.5437464344
 20
98.1080100806
 30
0.0
 10
171.6586115427
 20
97.9754375243
 30
0.0
 10
171.7139875731
 20
97.8333927619
 30
0.0
 10
171.7056573242
 20
97.6857156515
 30
0.0
 10
171.6376392039
 20
97.5369535231
 30
0.0
 10
171.5118729507
 20
97.383415457
 30
0.0
 10
171.3249568587
 20
97.2195821039
 30
0.0
 10
171.0734131891
 20
97.0427532662
 30
0.0
 10
170.7577829225
 20
96.8541726392
 30
0.0
 10
170.387819321
 20
96.6586673217
 30
0.0
 10
169.9815662381
 20
96.461710956
 30
0.0
 10
169.5579884753
 20
96.2681945784
 30
0.0
 10
169.1318243908
 20
96.0810114802
 30
0.0
 10
168.7137456983
 20
95.9016078282
 30
0.0
 10
168.3133559731
 20
95.7312170534
 30
0.0
 10
167.940323342
 20
95.5714453915
 30
0.0
 10
167.6047026027
 20
95.4238423612
 30
0.0
 10
167.3148453824
 20
95.2906807821
 30
0.0
 10
167.0797580867
 20
95.1735754206
 30
0.0
 10
166.9007939004
 20
95.0761382218
 30
0.0
 10
166.7867592873
 20
94.9939408206
 30
0.0
 10
166.714402938
 20
94.9335064316
 30
0.0
 10
166.7082511509
 20
94.8572706826
 30
0.0
 10
166.7486448468
 20
94.8407228133
 30
0.0
 10
166.770659773
 20
94.8337636028
 30
0.0
 11
169.2098656785
 21
115.7401069635
 31
0.0
 11
168.7465932524
 21
115.3538617128
 31
0.0
 11
168.2714318991
 21
114.9394949369
 31
0.0
 11
167.8300014277
 21
114.5190313216
 31
0.0
 11
167.4547064539
 21
114.1087306452
 31
0.0
 11
167.1621580624
 21
113.7234557128
 31
0.0
 11
166.9494655101
 21
113.3650996024
 31
0.0
 11
166.8079134857
 21
113.0272742097
 31
0.0
 11
166.7309956007
 21
112.7067504211
 31
0.0
 11
166.7110129395
 21
112.3976284724
 31
0.0
 11
166.7455866237
 21
112.0878069843
 31
0.0
 11
166.8379571044
 21
111.7740697757
 31
0.0
 11
166.9916322383
 21
111.4550381727
 31
0.0
 11
167.211899333
 21
111.1238516124
 31
0.0
 11
167.5010415221
 21
110.7811189995
 31
0.0
 11
167.8540469067
 21
110.4328631221
 31
0.0
 11
168.2533079955
 21
110.0895615308
 31
0.0
 11
168.6835876272
 21
109.752431271
 31
0.0
 11
169.1374626716
 21
109.4160909345
 31
0.0
 11
169.6028653187
 21
109.0784170577
 31
0.0
 11
170.0583385469
 21
108.7428194168
 31
0.0
 11
170.479863205
 21
108.4142568756
 31
0.0
 11
170.8417145742
 21
108.1018648665
 31
0.0
 11
171.1325476052
 21
107.8110914883
 31
0.0
 11
171.3622722238
 21
107.5319536419
 31
0.0
 11
171.5309809326
 21
107.2640546639
 31
0.0
 11
171.6417360216
 21
107.0035867547
 31
0.0
 11
171.6990219115
 21
106.7436133271
 31
0.0
 11
171.7036431612
 21
106.4764359205
 31
0.0
 11
171.6528087822
 21
106.2024441865
 31
0.0
 11
171.5454471348
 21
105.9241263638
 31
0.0
 11
171.3785327095
 21
105.6348326216
 31
0.0
 11
171.1500122865
 21
105.3306724925
 31
0.0
 11
170.8598814759
 21
105.0111540488
 31
0.0
 11
170.517220431
 21
104.6830417002
 31
0.0
 11
170.1348029143
 21
104.3510315446
 31
0.0
 11
169.7184484373
 21
104.0116108548
 31
0.0
 11
169.2731123677
 21
103.6609116765
 31
0.0
 11
168.8202283288
 21
103.3071421316
 31
0.0
 11
168.3881102025
 21
102.9631632799
 31
0.0
 11
167.9933418994
 21
102.6339141946
 31
0.0
 11
167.646006366
 21
102.3209498025
 31
0.0
 11
167.3507706407
 21
102.0239208285
 31
0.0
 11
167.1090506945
 21
101.7416110838
 31
0.0
 11
166.9217392584
 21
101.4715425602
 31
0.0
 11
166.7949523502
 21
101.2198383646
 31
0.0
 11
166.7274805098
 21
100.9910813733
 31
0.0
 11
166.7113340309
 21
100.7761819773
 31
0.0
 11
166.7467404732
 21
100.5645906185
 31
0.0
 11
166.8339611345
 21
100.3657558587
 31
0.0
 11
166.9640710067
 21
100.1865639338
 31
0.0
 11
167.1264353262
 21
100.0256340123
 31
0.0
 11
167.3157272365
 21
99.8784274428
 31
0.0
 11
167.5356002647
 21
99.7378810952
 31
0.0
 11
167.7932518803
 21
99.5989732315
 31
0.0
 11
168.0975929437
 21
99.4580349266
 31
0.0
 11
168.456498963
 21
99.3123060719
 31
0.0
 11
168.8752794285
 21
99.1598276523
 31
0.0
 11
169.3307600357
 21
99.0065012794
 31
0.0
 11
169.7788744409
 21
98.8611499213
 31
0.0
 11
170.1932051299
 21
98.7254469002
 31
0.0
 11
170.5642825433
 21
98.5966329875
 31
0.0
 11
170.8872365295
 21
98.4715505429
 31
0.0
 11
171.1602774202
 21
98.3474767589
 31
0.0
 11
171.3830694401
 21
98.22138338
 31
0.0
 11
171.5494724143
 21
98.0930342635
 31
0.0
 11
171.655615667
 21
97.9629238636
 31
0.0
 11
171.7042982033
 21
97.8299834397
 31
0.0
 11
171.6982238444
 21
97.6939330771
 31
0.0
 11
171.6382337934
 21
97.5522800972
 31
0.0
 11
171.5196250733
 21
97.4002340056
 31
0.0
 11
171.3379930789
 21
97.2361622729
 31
0.0
 11
171.0891857857
 21
97.0580222705
 31
0.0
 11
170.7721532539
 21
96.8662667163
 31
0.0
 11
170.3964396321
 21
96.6659058417
 31
0.0
 11
169.9841906946
 21
96.4649033498
 31
0.0
 11
169.5571253838
 21
96.2690662711
 31
0.0
 11
169.1283464487
 21
96.0802178377
 31
0.0
 11
168.7076191721
 21
95.8992338317
 31
0.0
 11
168.3044742693
 21
95.7272468301
 31
0.0
 11
167.9286006832
 21
95.5656715863
 31
0.0
 11
167.5901728444
 21
95.4162749299
 31
0.0
 11
167.2989046194
 21
95.2813299718
 31
0.0
 11
167.0615909152
 21
95.1624732276
 31
0.0
 11
166.8854669239
 21
95.0621332649
 31
0.0
 11
166.7720674173
 21
94.9807010701
 31
0.0
 11
166.7174208373
 21
94.9166807045
 31
0.0
 11
166.7168838144
 21
94.8683230213
 31
0.0
 11
166.770659773
 21
94.8337636028
 31
0.0
  0
SPLINE
  5
319
100
AcDbEntity
  8
0
100
AcDbSpline
 62
7
  6
CONTINUOUS
 70
0
 71
3
 72
95
 73
91
 74
89
 42
0.0000001
 43
0.0000001
 44
0.0000000001
 12
24.6708177334
 22
20.5831937888
 32
0.0
 13
-26.8671617268
 23
21.6551437119
 33
0.0
 40
0.0
 40
0.0
 40
0.0
 40
0.0
 40
0.0182854582
 40
0.0372303547
 40
0.0555093793
 40
0.0721653827
 40
0.0866142465
 40
0.0990543387
 40
0.1099895355
 40
0.1198762606
 40
0.1292017654
 40
0.1386007379
 40
0.1484426504
 40
0.1589925665
 40
0.1706123129
 40
0.1833964649
 40
0.1973956941
 40
0.2125463879
 40
0.228763852
 40
0.246186552
 40
0.2649170718
 40
0.2843819278
 40
0.3036018523
 40
0.3214980228
 40
0.3370628912
 40
0.3505320125
 40
0.3623522663
 40
0.372712388
 40
0.3820241884
 40
0.3908264589
 40
0.3995289779
 40
0.4083694353
 40
0.4177709661
 40
0.4282811272
 40
0.4402215921
 40
0.4535695061
 40
0.4679372135
 40
0.4830981272
 40
0.4989634348
 40
0.5151522398
 40
0.5308813107
 40
0.5455637617
 40
0.5589581557
 40
0.5709302278
 40
0.5815327013
 40
0.5909269394
 40
0.5991605776
 40
0.6062866225
 40
0.6127354811
 40
0.6192519969
 40
0.6262688074
 40
0.6336396919
 40
0.6413134399
 40
0.6492472219
 40
0.6576547563
 40
0.6668611385
 40
0.6772034065
 40
0.6890630009
 40
0.7028202906
 40
0.7186209
 40
0.7354153454
 40
0.7518283481
 40
0.7671518474
 40
0.7810051221
 40
0.7932498731
 40
0.8039111997
 40
0.8130310049
 40
0.8205038039
 40
0.8264557491
 40
0.8312983775
 40
0.8355842914
 40
0.8400923106
 40
0.8456329783
 40
0.8528067724
 40
0.8618533223
 40
0.87263805
 40
0.8851121579
 40
0.8992246863
 40
0.9143201282
 40
0.92904669
 40
0.9426082813
 40
0.954884463
 40
0.9658469893
 40
0.9753987312
 40
0.9834320416
 40
0.9896730147
 40
0.9939793046
 40
0.9965416746
 40
0.9980278694
 40
1.0
 40
1.0
 40
1.0
 40
1.0
 10
168.0344858982
 20
115.7401069636
 30
0.0
 10
168.1848583001
 20
115.8655646733
 30
0.0
 10
168.4914708816
 20
116.1204695107
 30
0.0
 10
168.9439796455
 20
116.5060981657
 30
0.0
 10
169.3711607352
 20
116.8943094061
 30
0.0
 10
169.7418076704
 20
117.2722176028
 30
0.0
 10
170.0400386822
 20
117.6316636956
 30
0.0
 10
170.2644530626
 20
117.9700549695
 30
0.0
 10
170.4200434649
 20
118.2920508502
 30
0.0
 10
170.5105124902
 20
118.6037203084
 30
0.0
 10
170.5421038194
 20
118.9101990396
 30
0.0
 10
170.5172008264
 20
119.2168193005
 30
0.0
 10
170.435089714
 20
119.5267591928
 30
0.0
 10
170.2942867045
 20
119.8407208094
 30
0.0
 10
170.0971335323
 20
120.1599202408
 30
0.0
 10
169.8463919509
 20
120.4866110357
 30
0.0
 10
169.5458648185
 20
120.8208153074
 30
0.0
 10
169.2000550604
 20
121.1624055297
 30
0.0
 10
168.8138751905
 20
121.514547108
 30
0.0
 10
168.390362999
 20
121.8823207237
 30
0.0
 10
167.9365800571
 20
122.2681873895
 30
0.0
 10
167.4697832434
 20
122.6684768725
 30
0.0
 10
167.017935468
 20
123.0723770076
 30
0.0
 10
166.6121425814
 20
123.4647196001
 30
0.0
 10
166.2724017201
 20
123.8356617465
 30
0.0
 10
166.0023000658
 20
124.1805657545
 30
0.0
 10
165.7965785305
 20
124.5030653671
 30
0.0
 10
165.6503522203
 20
124.8081539441
 30
0.0
 10
165.5613437059
 20
125.1012450097
 30
0.0
 10
165.5266316344
 20
125.3879608163
 30
0.0
 10
165.5468499777
 20
125.6712164829
 30
0.0
 10
165.6242221501
 20
125.9511659993
 30
0.0
 10
165.7620774108
 20
126.228349422
 30
0.0
 10
165.9623703326
 20
126.5060039746
 30
0.0
 10
166.2264626874
 20
126.7851737218
 30
0.0
 10
166.5496535996
 20
127.0616754584
 30
0.0
 10
166.9220564086
 20
127.330957569
 30
0.0
 10
167.3316447799
 20
127.5931633454
 30
0.0
 10
167.7673129167
 20
127.8499870925
 30
0.0
 10
168.2133277137
 20
128.1009275199
 30
0.0
 10
168.6493530153
 20
128.3437557025
 30
0.0
 10
169.0566101289
 20
128.576720963
 30
0.0
 10
169.4228167092
 20
128.8002231265
 30
0.0
 10
169.7414250457
 20
129.0171658646
 30
0.0
 10
170.0099555031
 20
129.2302479209
 30
0.0
 10
170.2269248311
 20
129.4418072404
 30
0.0
 10
170.3890989016
 20
129.653195598
 30
0.0
 10
170.4921784746
 20
129.8649452905
 30
0.0
 10
170.5384353359
 20
130.0772985198
 30
0.0
 10
170.5302957826
 20
130.2933772986
 30
0.0
 10
170.4681610224
 20
130.5104422906
 30
0.0
 10
170.3590041292
 20
130.7212852223
 30
0.0
 10
170.2150399694
 20
130.9215970327
 30
0.0
 10
170.0446157382
 20
131.1146226433
 30
0.0
 10
169.8487485981
 20
131.3059402175
 30
0.0
 10
169.6228511509
 20
131.5026451482
 30
0.0
 10
169.3590429986
 20
131.7115050276
 30
0.0
 10
169.0482692498
 20
131.9390777627
 30
0.0
 10
168.6829612634
 20
132.1907720114
 30
0.0
 10
168.2684341056
 20
132.4639563493
 30
0.0
 10
167.8269820029
 20
132.7478776825
 30
0.0
 10
167.389599978
 20
133.0286791735
 30
0.0
 10
166.9813230742
 20
133.2964946469
 30
0.0
 10
166.6155827195
 20
133.5476615637
 30
0.0
 10
166.2991725248
 20
133.7821133599
 30
0.0
 10
166.0342456216
 20
134.0002980917
 30
0.0
 10
165.8230117984
 20
134.20226357
 30
0.0
 10
165.6674001896
 20
134.3878708713
 30
0.0
 10
165.5689774773
 20
134.5586042592
 30
0.0
 10
165.5270302646
 20
134.717443593
 30
0.0
 10
165.5445375387
 20
134.8664706777
 30
0.0
 10
165.6250143138
 20
135.001752835
 30
0.0
 10
165.7688886541
 20
135.1209228461
 30
0.0
 10
165.9774082983
 20
135.2274294178
 30
0.0
 10
166.2515936981
 20
135.3214731969
 30
0.0
 10
166.5883825724
 20
135.4022108695
 30
0.0
 10
166.9831510871
 20
135.4693966594
 30
0.0
 10
167.4262792933
 20
135.5242595608
 30
0.0
 10
167.8948637186
 20
135.56758248
 30
0.0
 10
168.3582931224
 20
135.6012598388
 30
0.0
 10
168.7918970184
 20
135.6281395355
 30
0.0
 10
169.1853649823
 20
135.651268011
 30
0.0
 10
169.5357841719
 20
135.6734755986
 30
0.0
 10
169.840839283
 20
135.6968719604
 30
0.0
 10
170.094118872
 20
135.7236222219
 30
0.0
 10
170.2925439949
 20
135.751756708
 30
0.0
 10
170.4260230357
 20
135.7878174387
 30
0.0
 10
170.5145206025
 20
135.8198139673
 30
0.0
 10
170.5427862107
 20
135.8891341373
 30
0.0
 10
170.5118675929
 20
135.9183559219
 30
0.0
 10
170.4942057424
 20
135.9325915123
 30
0.0
 11
168.0344858982
 21
115.7401069636
 31
0.0
 11
168.4852890666
 21
116.116856176
 31
0.0
 11
168.9472524132
 21
116.5132119209
 31
0.0
 11
169.3799833569
 21
116.9102818819
 31
0.0
 11
169.7525168736
 21
117.294478082
 31
0.0
 11
170.0466866733
 21
117.6536168136
 31
0.0
 11
170.265070542
 21
117.9883788844
 31
0.0
 11
170.4153180113
 21
118.3059771514
 31
0.0
 11
170.5025465418
 21
118.6114234281
 31
0.0
 11
170.5328456324
 21
118.9095131204
 31
0.0
 11
170.5089346629
 21
119.2105511017
 31
0.0
 11
170.4292403211
 21
119.5165615498
 31
0.0
 11
170.2927575744
 21
119.8268357957
 31
0.0
 11
170.0987837716
 21
120.1458280815
 31
0.0
 11
169.8504355916
 21
120.4729969318
 31
0.0
 11
169.55105275
 21
120.8086780144
 31
0.0
 11
169.2060454663
 21
121.1520898373
 31
0.0
 11
168.8220713644
 21
121.5043250287
 31
0.0
 11
168.4003337898
 21
121.8724252449
 31
0.0
 11
167.9428353283
 21
122.2634053231
 31
0.0
 11
167.4692053595
 21
122.6718163891
 31
0.0
 11
167.0101810293
 21
123.0849026773
 31
0.0
 11
166.5986218286
 21
123.486452472
 31
0.0
 11
166.2624696353
 21
123.8567174364
 31
0.0
 11
165.9974295554
 21
124.1988195637
 31
0.0
 11
165.7952543777
 21
124.5203143401
 31
0.0
 11
165.6537632657
 21
124.8216132811
 31
0.0
 11
165.5685181457
 21
125.1083973486
 31
0.0
 11
165.5356287641
 21
125.3892926737
 31
0.0
 11
165.5558276146
 21
125.6681713973
 31
0.0
 11
165.6308499634
 21
125.9421258368
 31
0.0
 11
165.7633921075
 21
126.213562444
 31
0.0
 11
165.958734362
 21
126.4890161632
 31
0.0
 11
166.2204359096
 21
126.7695417518
 31
0.0
 11
166.5447856474
 21
127.0501159688
 31
0.0
 11
166.9175265194
 21
127.322451268
 31
0.0
 11
167.3268028927
 21
127.5865996127
 31
0.0
 11
167.7651666987
 21
127.8467527104
 31
0.0
 11
168.2178042017
 21
128.1030070485
 31
0.0
 11
168.6586590444
 21
128.3500820386
 31
0.0
 11
169.0674112674
 21
128.5855873009
 31
0.0
 11
169.4337988338
 21
128.8113481215
 31
0.0
 11
169.7506481853
 21
129.0294513744
 31
0.0
 11
170.0160900872
 21
129.2429598903
 31
0.0
 11
170.2301664663
 21
129.4557392459
 31
0.0
 11
170.388300795
 21
129.6678175333
 31
0.0
 11
170.4863106953
 21
129.8747369715
 31
0.0
 11
170.529588054
 21
130.0773667947
 31
0.0
 11
170.5224510465
 21
130.2866187639
 31
0.0
 11
170.4624531596
 21
130.5039365881
 31
0.0
 11
170.3557454357
 21
130.7153584097
 31
0.0
 11
170.2135324382
 21
130.916765735
 31
0.0
 11
170.0457815248
 21
131.1086999046
 31
0.0
 11
169.8532129705
 21
131.2981421766
 31
0.0
 11
169.630646837
 21
131.4929777639
 31
0.0
 11
169.3706164169
 21
131.699867608
 31
0.0
 11
169.0636940975
 21
131.9256862742
 31
0.0
 11
168.7001971768
 21
132.1771806933
 31
0.0
 11
168.2768257213
 21
132.4573308962
 31
0.0
 11
167.8235062298
 21
132.7500252514
 31
0.0
 11
167.3802646141
 21
133.0357337201
 31
0.0
 11
166.9691684182
 21
133.3066542183
 31
0.0
 11
166.6030131821
 21
133.5597266291
 31
0.0
 11
166.2877379977
 21
133.7950581324
 31
0.0
 11
166.0244914194
 21
134.0142348038
 31
0.0
 11
165.8144980509
 21
134.2185910445
 31
0.0
 11
165.6632025208
 21
134.4050235082
 31
0.0
 11
165.5715540879
 21
134.5728659082
 31
0.0
 11
165.5359256762
 21
134.7243239429
 31
0.0
 11
165.5532976924
 21
134.8609288699
 31
0.0
 11
165.6247575779
 21
134.9869148941
 31
0.0
 11
165.7582116718
 21
135.1047329988
 31
0.0
 11
165.9612742369
 21
135.2137837356
 31
0.0
 11
166.2350685102
 21
135.3113624001
 31
0.0
 11
166.5714617768
 21
135.3944812118
 31
0.0
 11
166.9662403156
 21
135.4636326743
 31
0.0
 11
167.4160641639
 21
135.5207146414
 31
0.0
 11
167.8989250038
 21
135.5663430529
 31
0.0
 11
168.3707923439
 21
135.6012930554
 31
0.0
 11
168.8056562684
 21
135.628748166
 31
0.0
 11
169.199375836
 21
135.6524099131
 31
0.0
 11
169.5508561557
 21
135.6752646814
 31
0.0
 11
169.8567772008
 21
135.6996893567
 31
0.0
 11
170.1133926959
 21
135.7274043088
 31
0.0
 11
170.3113679038
 21
135.7592524864
 31
0.0
 11
170.444887742
 21
135.7955275195
 31
0.0
 11
170.5163554071
 21
135.8363968039
 31
0.0
 11
170.5317963652
 21
135.881582346
 31
0.0
 11
170.4942057424
 21
135.9325915123
 31
0.0
  0
SPLINE
  5
31A
100
AcDbEntity
  8
0
100
AcDbSpline
 62
7
  6
CONTINUOUS
 70
0
 71
3
 72
21
 73
17
 74
15
 42
0.0000001
 43
0.0000001
 44
0.0000000001
 12
-2.7126158742
 22
-0.5159682764
 32
0.0
 13
2.251835328
 23
1.556438942
 33
0.0
 40
0.0
 40
0.0
 40
0.0
 40
0.0
 40
0.1000571139
 40
0.1990197535
 40
0.2969657451
 40
0.3940175188
 40
0.4910920637
 40
0.589483998
 40
0.6877364386
 40
0.7771660835
 40
0.8459930849
 40
0.8902180209
 40
0.914380412
 40
0.9320438219
 40
0.9623323994
 40
1.0
 40
1.0
 40
1.0
 40
1.0
 10
168.0340321049
 20
94.8821170632
 30
0.0
 10
167.9435599331
 20
94.8649082977
 30
0.0
 10
167.7634547323
 20
94.8314637828
 30
0.0
 10
167.4942757586
 20
94.7839771688
 30
0.0
 10
167.2273767271
 20
94.7395414042
 30
0.0
 10
166.9617360055
 20
94.6982726865
 30
0.0
 10
166.6951364575
 20
94.6604076934
 30
0.0
 10
166.4269594593
 20
94.6269240837
 30
0.0
 10
166.1645414356
 20
94.6007660045
 30
0.0
 10
165.9300135717
 20
94.5859557328
 30
0.0
 10
165.7403805267
 20
94.5866631526
 30
0.0
 10
165.62068033
 20
94.6009070357
 30
0.0
 10
165.5346708977
 20
94.6334342553
 30
0.0
 10
165.5370639746
 20
94.7107786007
 30
0.0
 10
165.5999481547
 20
94.7644590655
 30
0.0
 10
165.6497456812
 20
94.8018187697
 30
0.0
 10
165.6780194258
 20
94.8213612098
 30
0.0
 11
168.0340321049
 21
94.8821170632
 31
0.0
 11
167.7623903478
 21
94.8316893414
 31
0.0
 11
167.493279082
 21
94.7842494802
 31
0.0
 11
167.2264880238
 21
94.7398916242
 31
0.0
 11
166.9616649498
 21
94.6988509336
 31
0.0
 11
166.6962578131
 21
94.6613228801
 31
0.0
 11
166.4266219515
 21
94.6280188628
 31
0.0
 11
166.1566026163
 21
94.6016926621
 31
0.0
 11
165.9100526053
 21
94.5878605805
 31
0.0
 11
165.7200291189
 21
94.5909525027
 31
0.0
 11
165.5995418472
 21
94.6108314664
 31
0.0
 11
165.5425899351
 21
94.6455852976
 31
0.0
 11
165.5412078139
 21
94.6943388223
 31
0.0
 11
165.5945059923
 21
94.7587904486
 31
0.0
 11
165.6780194258
 21
94.8213612098
 31
0.0
  0
SPLINE
  5
31B
100
AcDbEntity
  8
0
100
AcDbSpline
 62
7
  6
CONTINUOUS
 70
0
 71
3
 72
79
 73
75
 74
73
 42
0.0000001
 43
0.0000001
 44
0.0000000001
 12
23.2075706332
 22
14.6389748368
 32
0.0
 13
21.0646907442
 23
17.574553725
 33
0.0
 40
0.0
 40
0.0
 40
0.0
 40
0.0
 40
0.0066916577
 40
0.0173155641
 40
0.0257660262
 40
0.0324358789
 40
0.0378673004
 40
0.04289448
 40
0.0483557
 40
0.0549878767
 40
0.0632824469
 40
0.0732918877
 40
0.084959662
 40
0.0981633862
 40
0.1126976967
 40
0.1284411804
 40
0.1451695372
 40
0.1619921591
 40
0.1777017455
 40
0.1916999371
 40
0.2039136015
 40
0.2144949017
 40
0.2238943455
 40
0.232575857
 40
0.2409257472
 40
0.2490372957
 40
0.2570533089
 40
0.2649870352
 40
0.2731483968
 40
0.2823592858
 40
0.2932860033
 40
0.3061796226
 40
0.3212828537
 40
0.3391086649
 40
0.3596829753
 40
0.3816419971
 40
0.4035127731
 40
0.4247434481
 40
0.4450406061
 40
0.4642767523
 40
0.4823053001
 40
0.4986756502
 40
0.512988273
 40
0.5254347549
 40
0.5365076191
 40
0.5468633166
 40
0.5567974763
 40
0.5666657805
 40
0.5771172342
 40
0.5887833689
 40
0.6021005284
 40
0.6172474832
 40
0.6345366249
 40
0.6535101894
 40
0.6734336515
 40
0.6938763133
 40
0.7146284437
 40
0.7352847941
 40
0.755263033
 40
0.7739535414
 40
0.7907039432
 40
0.8054260292
 40
0.8184930806
 40
0.8305943809
 40
0.842153907
 40
0.8536396757
 40
0.8658733968
 40
0.8795222553
 40
0.8951309102
 40
0.9131401568
 40
0.93353761
 40
0.9555789732
 40
0.9781678905
 40
1.0
 40
1.0
 40
1.0
 40
1.0
 10
169.8336547071
 20
96.8003248789
 30
0.0
 10
169.8854204136
 20
96.8329778819
 30
0.0
 10
170.017803721
 20
96.9199429703
 30
0.0
 10
170.2068369733
 20
97.0611918336
 30
0.0
 10
170.3777610179
 20
97.2243092698
 30
0.0
 10
170.4878245056
 20
97.3786778286
 30
0.0
 10
170.5394418417
 20
97.5299273967
 30
0.0
 10
170.5285739933
 20
97.679361231
 30
0.0
 10
170.4539649494
 20
97.8209684636
 30
0.0
 10
170.320457813
 20
97.9535780164
 30
0.0
 10
170.1306735078
 20
98.0813769248
 30
0.0
 10
169.8869664101
 20
98.207554044
 30
0.0
 10
169.5935237673
 20
98.3330454512
 30
0.0
 10
169.2557026712
 20
98.4586713938
 30
0.0
 10
168.8793196237
 20
98.5869257715
 30
0.0
 10
168.470844393
 20
98.7207701074
 30
0.0
 10
168.0426425249
 20
98.8616198962
 30
0.0
 10
167.6166961232
 20
99.0082827915
 30
0.0
 10
167.218119171
 20
99.1574330894
 30
0.0
 10
166.864453242
 20
99.3056662499
 30
0.0
 10
166.5610885704
 20
99.4516139903
 30
0.0
 10
166.3045712422
 20
99.5965923635
 30
0.0
 10
166.0870171353
 20
99.74334883
 30
0.0
 10
165.9004940414
 20
99.8978205258
 30
0.0
 10
165.7431023142
 20
100.0665502243
 30
0.0
 10
165.6203832176
 20
100.2556219135
 30
0.0
 10
165.5459057473
 20
100.4651679055
 30
0.0
 10
165.5269661703
 20
100.687159785
 30
0.0
 10
165.5622911633
 20
100.9176960725
 30
0.0
 10
165.6526655627
 20
101.161753092
 30
0.0
 10
165.8040879935
 20
101.4243559804
 30
0.0
 10
166.0191689642
 20
101.70876998
 30
0.0
 10
166.3019513813
 20
102.0185807904
 30
0.0
 10
166.6563450481
 20
102.3563192455
 30
0.0
 10
167.0751656523
 20
102.7160553436
 30
0.0
 10
167.533404579
 20
103.0860675624
 30
0.0
 10
168.0011537657
 20
103.4537171127
 30
0.0
 10
168.4564421653
 20
103.8126319235
 30
0.0
 10
168.8877794596
 20
104.162975575
 30
0.0
 10
169.2867927589
 20
104.5064473852
 30
0.0
 10
169.6434594163
 20
104.8434930012
 30
0.0
 10
169.9457964708
 20
105.1712553187
 30
0.0
 10
170.1861954058
 20
105.4847776868
 30
0.0
 10
170.3635144487
 20
105.7830426602
 30
0.0
 10
170.479704274
 20
106.0718004004
 30
0.0
 10
170.5361016914
 20
106.3548915495
 30
0.0
 10
170.5342236077
 20
106.6326076753
 30
0.0
 10
170.4761795239
 20
106.904922141
 30
0.0
 10
170.3620029705
 20
107.1758645795
 30
0.0
 10
170.1887281874
 20
107.4510033883
 30
0.0
 10
169.9552768525
 20
107.7350732682
 30
0.0
 10
169.6594675872
 20
108.0316391678
 30
0.0
 10
169.3039423547
 20
108.339663844
 30
0.0
 10
168.8995096679
 20
108.6567277324
 30
0.0
 10
168.4638135969
 20
108.9802011238
 30
0.0
 10
168.0123435558
 20
109.3096405628
 30
0.0
 10
167.5581541006
 20
109.6467347514
 30
0.0
 10
167.1158026071
 20
109.9924904021
 30
0.0
 10
166.7032615115
 20
110.3452074585
 30
0.0
 10
166.3411435135
 20
110.7005214292
 30
0.0
 10
166.0440426834
 20
111.0510783226
 30
0.0
 10
165.8170563587
 20
111.3905043635
 30
0.0
 10
165.6570472373
 20
111.7198549159
 30
0.0
 10
165.5614742906
 20
112.0435869812
 30
0.0
 10
165.5261973564
 20
112.3647568955
 30
0.0
 10
165.5482080238
 20
112.6882300775
 30
0.0
 10
165.6299054728
 20
113.0217167743
 30
0.0
 10
165.7798798694
 20
113.3718452653
 30
0.0
 10
166.0039362441
 20
113.7427600257
 30
0.0
 10
166.3055808637
 20
114.1349391985
 30
0.0
 10
166.68066344
 20
114.5417368105
 30
0.0
 10
167.1121865959
 20
114.95127388
 30
0.0
 10
167.5698406639
 20
115.3513063001
 30
0.0
 10
167.8811903532
 20
115.6122104365
 30
0.0
 10
168.0344858982
 20
115.7401069636
 30
0.0
 11
169.8336547071
 21
96.8003248789
 31
0.0
 11
169.9869417849
 21
96.9013823535
 31
0.0
 11
170.2186569392
 21
97.0781605101
 31
0.0
 11
170.3835195236
 21
97.2411413007
 31
0.0
 11
170.485847536
 21
97.3928292299
 31
0.0
 11
170.5302342411
 21
97.5350662401
 31
0.0
 11
170.5200146514
 21
97.6725992157
 31
0.0
 11
170.4536656368
 21
97.8069258037
 31
0.0
 11
170.3282128586
 21
97.9387009121
 31
0.0
 11
170.1417689272
 21
98.0691482511
 31
0.0
 11
169.8991497404
 21
98.1977433906
 31
0.0
 11
169.6055684659
 21
98.3252770058
 31
0.0
 11
169.2665861553
 21
98.4529312429
 31
0.0
 11
168.8895515537
 21
98.5826457633
 31
0.0
 11
168.479427294
 21
98.7180416373
 31
0.0
 11
168.043793403
 21
98.8623512115
 31
0.0
 11
167.607775296
 21
99.0135813125
 31
0.0
 11
167.2045356651
 21
99.1656647255
 31
0.0
 11
166.8508280332
 21
99.3151962898
 31
0.0
 11
166.5494447055
 21
99.4616000849
 31
0.0
 11
166.2972698242
 21
99.6053718416
 31
0.0
 11
166.0841734336
 21
99.7505633338
 31
0.0
 11
165.9016813831
 21
99.9035928942
 31
0.0
 11
165.7468889724
 21
100.0724422853
 31
0.0
 11
165.6277302537
 21
100.2603765139
 31
0.0
 11
165.5549565414
 21
100.4678916072
 31
0.0
 11
165.5356760194
 21
100.6846842571
 31
0.0
 11
165.5677185465
 21
100.9062726154
 31
0.0
 11
165.6530448776
 21
101.1441153852
 31
0.0
 11
165.7997903276
 21
101.4054951955
 31
0.0
 11
166.0107922911
 21
101.6893827955
 31
0.0
 11
166.2882844895
 21
101.9970655679
 31
0.0
 11
166.6407466114
 21
102.3360521185
 31
0.0
 11
167.067311465
 21
102.7056651967
 31
0.0
 11
167.5348509202
 21
103.0855373687
 31
0.0
 11
168.0056659608
 21
103.4574491318
 31
0.0
 11
168.4622474502
 21
103.8190500058
 31
0.0
 11
168.8935743296
 21
104.1711913275
 31
0.0
 11
169.2923632849
 21
104.5168013767
 31
0.0
 11
169.6502985584
 21
104.8581140029
 31
0.0
 11
169.9530412583
 21
105.1898234911
 31
0.0
 11
170.1898076973
 21
105.5030483382
 31
0.0
 11
170.361672722
 21
105.7980893999
 31
0.0
 11
170.4728278557
 21
106.0807868673
 31
0.0
 11
170.527026156
 21
106.3596600217
 31
0.0
 11
170.5249685038
 21
106.6321790708
 31
0.0
 11
170.4693857075
 21
106.8971318411
 31
0.0
 11
170.359817894
 21
107.1620885318
 31
0.0
 11
170.1917497013
 21
107.4344468903
 31
0.0
 11
169.9618841598
 21
107.7184020448
 31
0.0
 11
169.6701329809
 21
108.014285917
 31
0.0
 11
169.3132619759
 21
108.3266990013
 31
0.0
 11
168.905011385
 21
108.6495914975
 31
0.0
 11
168.467188939
 21
108.9767708314
 31
0.0
 11
168.0150714552
 21
109.3085800345
 31
0.0
 11
167.5588785533
 21
109.6491529992
 31
0.0
 11
167.113563074
 21
109.9995972838
 31
0.0
 11
166.6986391918
 21
110.3576725549
 31
0.0
 11
166.3344935754
 21
110.7186472419
 31
0.0
 11
166.0393970682
 21
111.0708909496
 31
0.0
 11
165.8170847922
 21
111.408074332
 31
0.0
 11
165.6627325432
 21
111.7316138713
 31
0.0
 11
165.5699578098
 21
112.050365607
 31
0.0
 11
165.5355606394
 21
112.3656105641
 31
0.0
 11
165.5564309606
 21
112.6800112038
 31
0.0
 11
165.6350707997
 21
113.0062791535
 31
0.0
 11
165.7799633189
 21
113.351542004
 31
0.0
 11
165.998674571
 21
113.7196697388
 31
0.0
 11
166.2974850141
 21
114.1131170796
 31
0.0
 11
166.6746877823
 21
114.5264403469
 31
0.0
 11
167.1112735767
 21
114.944788903
 31
0.0
 11
167.5764665909
 21
115.3541902292
 31
0.0
 11
168.0344858982
 21
115.7401069636
 31
0.0
  0
SPLINE
  5
31C
100
AcDbEntity
  8
0
100
AcDbSpline
 62
7
  6
CONTINUOUS
 70
0
 71
3
 72
15
 73
11
 74
9
 42
0.0000001
 43
0.0000001
 44
0.0000000001
 12
-0.9130901403
 22
0.0
 32
0.0
 13
0.0
 23
-0.9130901403
 33
0.0
 40
0.0
 40
0.0
 40
0.0
 40
0.0
 40
0.095594498
 40
0.1995281968
 40
0.3092175201
 40
0.4273815356
 40
0.5557358605
 40
0.6930947067
 40
0.8403493616
 40
1.0
 40
1.0
 40
1.0
 40
1.0
 10
127.4294497689
 20
94.556018005
 30
0.0
 10
127.4003543044
 20
94.556018005
 30
0.0
 10
127.3394077321
 20
94.5488775604
 30
0.0
 10
127.2502872985
 20
94.5161115092
 30
0.0
 10
127.1650824176
 20
94.460432758
 30
0.0
 10
127.0880214329
 20
94.3831630401
 30
0.0
 10
127.0223104859
 20
94.2857648017
 30
0.0
 10
126.9710919887
 20
94.1703097405
 30
0.0
 10
126.9373762649
 20
94.038766059
 30
0.0
 10
126.9294497689
 20
93.9451499526
 30
0.0
 10
126.9294497689
 20
93.8965581447
 30
0.0
 11
127.4294497689
 21
94.556018005
 31
0.0
 11
127.3427445853
 21
94.5459618802
 31
0.0
 11
127.2535342824
 21
94.5135938332
 31
0.0
 11
127.1693957096
 21
94.4592617719
 31
0.0
 11
127.0927838406
 21
94.3832892601
 31
0.0
 11
127.0267753621
 21
94.2864465917
 31
0.0
 11
126.9755102098
 21
94.1719812543
 31
0.0
 11
126.941854207
 21
94.0418048455
 31
0.0
 11
126.9294497689
 21
93.8965581447
 31
0.0
  0
SPLINE
  5
31D
100
AcDbEntity
  8
BEZUGSACHSEN
100
AcDbSpline
 62
7
  6
CONTINUOUS
 70
0
 71
3
 72
11
 73
7
 74
5
 42
0.0000001
 43
0.0000001
 44
0.0000000001
 12
0.0
 22
0.1830126193
 32
0.0
 13
0.1451726273
 23
-0.1114384454
 33
0.0
 40
0.0
 40
0.0
 40
0.0
 40
0.0
 40
0.2465776366
 40
0.4184562595
 40
0.6350985973
 40
1.0
 40
1.0
 40
1.0
 40
1.0
 10
126.8044497689
 20
143.0984134121
 30
0.0
 10
126.8044497689
 20
143.1134556851
 30
0.0
 10
126.8044222545
 20
143.1398689473
 30
0.0
 10
126.8338402968
 20
143.1732034794
 30
0.0
 10
126.8840030629
 20
143.1584487516
 30
0.0
 10
126.9117918704
 20
143.1386780184
 30
0.0
 10
126.9294497689
 20
143.1251233367
 30
0.0
 11
126.8044497689
 21
143.0984134121
 31
0.0
 11
126.8111571266
 21
143.1430389782
 31
0.0
 11
126.8333073045
 21
143.1653738579
 31
0.0
 11
126.8726151032
 21
143.1601889571
 31
0.0
 11
126.9294497689
 21
143.1251233367
 31
0.0
  0
SPLINE
  5
31E
100
AcDbEntity
  8
0
100
AcDbSpline
 62
7
  6
CONTINUOUS
 70
0
 71
3
 72
18
 73
14
 74
12
 42
0.0000001
 43
0.0000001
 44
0.0000000001
 12
-1.7642179932
 22
0.0
 32
0.0
 13
0.0
 23
1.7642179932
 33
0.0
 40
0.0
 40
0.0
 40
0.0
 40
0.0
 40
0.0884356734
 40
0.1769592452
 40
0.264385139
 40
0.3507913626
 40
0.4389518107
 40
0.5291184745
 40
0.6208295728
 40
0.7142209758
 40
0.8094445939
 40
0.905156071
 40
1.0
 40
1.0
 40
1.0
 40
1.0
 10
121.8794497689
 20
89.9060088565
 30
0.0
 10
121.8274431668
 20
89.9060088565
 30
0.0
 10
121.7231079402
 20
89.9160866565
 30
0.0
 10
121.5731230075
 20
89.9601698665
 30
0.0
 10
121.4345055816
 20
90.0296464867
 30
0.0
 10
121.3093939663
 20
90.1206273786
 30
0.0
 10
121.1983257283
 20
90.2305099944
 30
0.0
 10
121.1019836648
 20
90.3573697544
 30
0.0
 10
121.0216696776
 20
90.4984257242
 30
0.0
 10
120.9582843373
 20
90.6510368961
 30
0.0
 10
120.9126713138
 20
90.812292492
 30
0.0
 10
120.8854388858
 20
90.9784661084
 30
0.0
 10
120.8794497689
 20
91.0906207551
 30
0.0
 10
120.8794497689
 20
91.1463958771
 30
0.0
 11
121.8794497689
 21
89.9060088565
 31
0.0
 11
121.7241454734
 21
89.9209338614
 31
0.0
 11
121.5742346173
 21
89.9647211626
 31
0.0
 11
121.436201269
 21
90.0335416447
 31
0.0
 11
121.3127118996
 21
90.1229180996
 31
0.0
 11
121.2019034645
 21
90.2320620104
 31
0.0
 11
121.1054405069
 21
90.3585504454
 31
0.0
 11
121.0251431317
 21
90.49901768
 31
0.0
 11
120.961736178
 21
90.6510911371
 31
0.0
 11
120.9158427501
 21
90.8126961721
 31
0.0
 11
120.888426298
 21
90.9793114672
 31
0.0
 11
120.8794497689
 21
91.1463958771
 31
0.0
  0
SPLINE
  5
31F
100
AcDbEntity
  8
BEZUGSACHSEN
100
AcDbSpline
 62
7
  6
CONTINUOUS
 70
0
 71
3
 72
12
 73
8
 74
6
 42
0.0000001
 43
0.0000001
 44
0.0000000001
 12
0.1458774432
 22
0.1119794812
 32
0.0
 13
-0.0
 23
-0.1839011491
 33
0.0
 40
0.0
 40
0.0
 40
0.0
 40
0.0
 40
0.3119503866
 40
0.5109744676
 40
0.6456308384
 40
0.7914381086
 40
1.0
 40
1.0
 40
1.0
 40
1.0
 10
130.6794497689
 20
143.1251233367
 30
0.0
 10
130.6946186105
 20
143.1367673509
 30
0.0
 10
130.7204738169
 20
143.1542237749
 30
0.0
 10
130.7580431298
 20
143.1701013614
 30
0.0
 10
130.7895293816
 20
143.1622609752
 30
0.0
 10
130.8032241492
 20
143.132749504
 30
0.0
 10
130.8044497689
 20
143.1111983359
 30
0.0
 10
130.8044497689
 20
143.0984134121
 30
0.0
 11
130.6794497689
 21
143.1251233367
 31
0.0
 11
130.7276334046
 21
143.1562589858
 31
0.0
 11
130.7626761965
 21
143.1668239353
 31
0.0
 11
130.7863622289
 21
143.1595989171
 31
0.0
 11
130.7999941858
 21
143.1365085072
 31
0.0
 11
130.8044497689
 21
143.0984134121
 31
0.0
  0
SPLINE
  5
320
100
AcDbEntity
  8
0
100
AcDbSpline
 62
7
  6
CONTINUOUS
 70
0
 71
3
 72
15
 73
11
 74
9
 42
0.0000001
 43
0.0000001
 44
0.0000000001
 12
0.0
 22
0.9130899958
 32
0.0
 13
-0.9130899958
 23
-0.0
 33
0.0
 40
0.0
 40
0.0
 40
0.0
 40
0.0
 40
0.1598406322
 40
0.3070906132
 40
0.4443104261
 40
0.5725485626
 40
0.6906434484
 40
0.8001389346
 40
0.9041997491
 40
1.0
 40
1.0
 40
1.0
 40
1.0
 10
130.6794497689
 20
93.8965581447
 30
0.0
 10
130.6794497689
 20
93.9452077721
 30
0.0
 10
130.671509045
 20
94.0388810254
 30
0.0
 10
130.6377621415
 20
94.1704313167
 30
0.0
 10
130.5865591523
 20
94.2858050644
 30
0.0
 10
130.5209055495
 20
94.3831206051
 30
0.0
 10
130.4439401073
 20
94.4603206088
 30
0.0
 10
130.3587987207
 20
94.5160130154
 30
0.0
 10
130.2696570292
 20
94.5488497761
 30
0.0
 10
130.2086078524
 20
94.556018005
 30
0.0
 10
130.1794497689
 20
94.556018005
 30
0.0
 11
130.6794497689
 21
93.8965581447
 31
0.0
 11
130.6670156786
 21
94.0419764022
 31
0.0
 11
130.6333331367
 21
94.1721415165
 31
0.0
 11
130.582103519
 21
94.2864836449
 31
0.0
 11
130.5161566592
 21
94.3832398997
 31
0.0
 11
130.4396031597
 21
94.4591816015
 31
0.0
 11
130.3556388952
 21
94.5134572805
 31
0.0
 11
130.2663390697
 21
94.5459188009
 31
0.0
 11
130.1794497689
 21
94.556018005
 31
0.0
  0
SPLINE
  5
321
100
AcDbEntity
  8
BEZUGSACHSEN
100
AcDbSpline
 62
7
  6
CONTINUOUS
 70
0
 71
3
 72
11
 73
7
 74
5
 42
0.0000001
 43
0.0000001
 44
0.0000000001
 12
0.0
 22
-0.1395867963
 32
0.0
 13
0.0661959442
 23
-0.1231095805
 33
0.0
 40
0.0
 40
0.0
 40
0.0
 40
0.0
 40
0.2989089425
 40
0.5912641764
 40
0.8672480948
 40
1.0
 40
1.0
 40
1.0
 40
1.0
 10
126.9294497689
 20
142.8688925477
 30
0.0
 10
126.9294497689
 20
142.8549846338
 30
0.0
 10
126.9307396894
 20
142.8274449145
 30
0.0
 10
126.9374671376
 20
142.7875349528
 30
0.0
 10
126.9476758804
 20
142.7563998208
 30
0.0
 10
126.9559440388
 20
142.7392216136
 30
0.0
 10
126.9588732513
 20
142.7337739365
 30
0.0
 11
126.9294497689
 21
142.8688925477
 31
0.0
 11
126.9315965227
 21
142.8272240696
 31
0.0
 11
126.938617374
 21
142.7870236162
 31
0.0
 11
126.9508176206
 21
142.7504828131
 31
0.0
 11
126.9588732513
 21
142.7337739365
 31
0.0
  0
SPLINE
  5
322
100
AcDbEntity
  8
BEZUGSACHSEN
100
AcDbSpline
 62
7
  6
CONTINUOUS
 70
0
 71
3
 72
16
 73
12
 74
10
 42
0.0000001
 43
0.0000001
 44
0.0000000001
 12
0.244791693
 22
-0.4552575388
 32
0.0
 13
0.497355697
 23
0.1381647029
 33
0.0
 40
0.0
 40
0.0
 40
0.0
 40
0.0
 40
0.0354819688
 40
0.1069116572
 40
0.1821577292
 40
0.2654043123
 40
0.3615453499
 40
0.4759438992
 40
0.6177190239
 40
0.7944984177
 40
1.0
 40
1.0
 40
1.0
 40
1.0
 10
126.9588732513
 20
142.7337739365
 30
0.0
 10
126.9617684817
 20
142.7283894586
 30
0.0
 10
126.9712099076
 20
142.7125526494
 30
0.0
 10
126.9909731384
 20
142.6879893073
 30
0.0
 10
127.0212259216
 20
142.6621608867
 30
0.0
 10
127.0591929198
 20
142.6398850503
 30
0.0
 10
127.106526127
 20
142.6215803763
 30
0.0
 10
127.165875064
 20
142.6082636899
 30
0.0
 10
127.2403756266
 20
142.602301867
 30
0.0
 10
127.3306715165
 20
142.6077364831
 30
0.0
 10
127.3953806413
 20
142.6209749408
 30
0.0
 10
127.4294497689
 20
142.6304392958
 30
0.0
 11
126.9588732513
 21
142.7337739365
 31
0.0
 11
126.9682730352
 21
142.7180340017
 31
0.0
 11
126.9913620386
 21
142.6892869965
 31
0.0
 11
127.0207993288
 21
142.6639474914
 31
0.0
 11
127.0577342673
 21
142.6419856569
 31
0.0
 11
127.1039068108
 21
142.6237938979
 31
0.0
 11
127.1614483485
 21
142.6105259469
 31
0.0
 11
127.2343665503
 21
142.604307096
 31
0.0
 11
127.3254748599
 21
142.6094218382
 31
0.0
 11
127.4294497689
 21
142.6304392958
 31
0.0
  0
SPLINE
  5
323
100
AcDbEntity
  8
BEZUGSACHSEN
100
AcDbSpline
 62
7
  6
CONTINUOUS
 70
0
 71
3
 72
16
 73
12
 74
10
 42
0.0000001
 43
0.0000001
 44
0.0000000001
 12
0.4973714463
 22
-0.1381690781
 32
0.0
 13
0.2447633051
 23
0.4552915049
 33
0.0
 40
0.0
 40
0.0
 40
0.0
 40
0.0
 40
0.2054084362
 40
0.3821123936
 40
0.5239763358
 40
0.6383788277
 40
0.7345406286
 40
0.8178119434
 40
0.8930732946
 40
0.9645140243
 40
1.0
 40
1.0
 40
1.0
 40
1.0
 10
130.1794497689
 20
142.6304392958
 30
0.0
 10
130.2135045325
 20
142.6209789311
 30
0.0
 10
130.2781865855
 20
142.6077440775
 30
0.0
 10
130.3684706779
 20
142.6023016576
 30
0.0
 10
130.4429775501
 20
142.6082556293
 30
0.0
 10
130.5023484235
 20
142.6215726247
 30
0.0
 10
130.5496924597
 20
142.6398775759
 30
0.0
 10
130.5876707098
 20
142.6621579911
 30
0.0
 10
130.6179310209
 20
142.687993304
 30
0.0
 10
130.6376969374
 20
142.7125625989
 30
0.0
 10
130.647138809
 20
142.7284028529
 30
0.0
 10
130.6500340306
 20
142.7337883406
 30
0.0
 11
130.1794497689
 21
142.6304392958
 31
0.0
 11
130.2833801855
 21
142.6094274571
 31
0.0
 11
130.3744519917
 21
142.6043056791
 31
0.0
 11
130.4474188515
 21
142.6105208015
 31
0.0
 11
130.5049651836
 21
142.62378534
 31
0.0
 11
130.5511504289
 21
142.6419783859
 31
0.0
 11
130.588098297
 21
142.6639461177
 31
0.0
 11
130.6175422256
 21
142.6892918861
 31
0.0
 11
130.6406340557
 21
142.7180454288
 31
0.0
 11
130.6500340306
 21
142.7337883406
 31
0.0
  0
SPLINE
  5
324
100
AcDbEntity
  8
BEZUGSACHSEN
100
AcDbSpline
 62
7
  6
CONTINUOUS
 70
0
 71
3
 72
11
 73
7
 74
5
 42
0.0000001
 43
0.0000001
 44
0.0000000001
 12
0.0661784389
 22
0.1231004829
 32
0.0
 13
0.0
 23
0.1395704877
 33
0.0
 40
0.0
 40
0.0
 40
0.0
 40
0.0
 40
0.1327767541
 40
0.408761515
 40
0.7011191023
 40
1.0
 40
1.0
 40
1.0
 40
1.0
 10
130.6500340306
 20
142.7337883406
 30
0.0
 10
130.6529630167
 20
142.7392366348
 30
0.0
 10
130.6612293422
 20
142.7564145867
 30
0.0
 10
130.6714352767
 20
142.7875479212
 30
0.0
 10
130.6781603231
 20
142.8274522764
 30
0.0
 10
130.6794497689
 20
142.8549875635
 30
0.0
 10
130.6794497689
 20
142.8688925477
 30
0.0
 11
130.6500340306
 21
142.7337883406
 31
0.0
 11
130.6580888861
 21
142.7504990413
 31
0.0
 11
130.6702853665
 21
142.7870364806
 31
0.0
 11
130.6773039601
 21
142.8272328216
 31
0.0
 11
130.6794497689
 21
142.8688925477
 31
0.0
  0
SPLINE
  5
325
100
AcDbEntity
  8
0
100
AcDbSpline
 62
7
  6
CONTINUOUS
 70
0
 71
3
 72
82
 73
78
 74
76
 42
0.0000001
 43
0.0000001
 44
0.0000000001
 12
-27.2601990444
 22
-5.7271493404
 32
0.0
 13
-21.4791064081
 23
-17.7282238149
 33
0.0
 40
0.0
 40
0.0
 40
0.0
 40
0.0
 40
0.0063235937
 40
0.0175190168
 40
0.0265705279
 40
0.0335950369
 40
0.0391334276
 40
0.0439867309
 40
0.0490968078
 40
0.0551944383
 40
0.062800274
 40
0.0722665819
 40
0.0835962488
 40
0.0967089938
 40
0.1115300948
 40
0.127843976
 40
0.1454502714
 40
0.164040361
 40
0.1826739054
 40
0.1999502654
 40
0.2151517497
 40
0.228378635
 40
0.2398568325
 40
0.2500307972
 40
0.2593628334
 40
0.2682723077
 40
0.276873604
 40
0.2851005186
 40
0.2928287329
 40
0.3000722301
 40
0.3075570175
 40
0.3160371212
 40
0.325852292
 40
0.337027287
 40
0.3496474114
 40
0.3636721572
 40
0.3790011958
 40
0.3954675882
 40
0.4128647448
 40
0.4307920519
 40
0.4487773575
 40
0.4662911599
 40
0.4827988342
 40
0.4978891222
 40
0.5112200611
 40
0.5229205659
 40
0.5334214266
 40
0.5434006653
 40
0.5532643403
 40
0.5632673235
 40
0.5739013381
 40
0.5857705612
 40
0.5993327802
 40
0.6147930781
 40
0.6325208966
 40
0.6523704064
 40
0.6733764486
 40
0.6947151095
 40
0.715946204
 40
0.7366956303
 40
0.7565972079
 40
0.7752872144
 40
0.7923067313
 40
0.8073496866
 40
0.8205771761
 40
0.8324292403
 40
0.8434622797
 40
0.854009411
 40
0.8645867519
 40
0.8759444886
 40
0.8886154481
 40
0.9031183951
 40
0.9197655739
 40
0.9385195495
 40
0.9587242011
 40
0.9795322844
 40
1.0
 40
1.0
 40
1.0
 40
1.0
 10
167.7128254919
 20
135.1795615861
 30
0.0
 10
167.6553646839
 20
135.1674895309
 30
0.0
 10
167.4967453146
 20
135.1313413202
 30
0.0
 10
167.2594620678
 20
135.0625590353
 30
0.0
 10
167.0255414037
 20
134.9635959548
 30
0.0
 10
166.8560583007
 20
134.8532340931
 30
0.0
 10
166.7485199824
 20
134.7282255735
 30
0.0
 10
166.7028494989
 20
134.5874364067
 30
0.0
 10
166.7179383876
 20
134.4356522595
 30
0.0
 10
166.7891593857
 20
134.2740802145
 30
0.0
 10
166.9162008437
 20
134.0992699421
 30
0.0
 10
167.0989815824
 20
133.9085533154
 30
0.0
 10
167.3363063618
 20
133.701331587
 30
0.0
 10
167.6250237153
 20
133.478588315
 30
0.0
 10
167.9607771583
 20
133.2417957931
 30
0.0
 10
168.3376678052
 20
132.9913439438
 30
0.0
 10
168.7477353662
 20
132.7277451031
 30
0.0
 10
169.17731466
 20
132.4547023533
 30
0.0
 10
169.6030338876
 20
132.1812924372
 30
0.0
 10
169.9985646432
 20
131.9191412325
 30
0.0
 10
170.3466574256
 20
131.6764375488
 30
0.0
 10
170.6436282312
 20
131.4548077498
 30
0.0
 10
170.8948435863
 20
131.2503326538
 30
0.0
 10
171.1085169937
 20
131.0575489968
 30
0.0
 10
171.2930126153
 20
130.8686994937
 30
0.0
 10
171.4520809847
 20
130.6764003819
 30
0.0
 10
171.5826262107
 20
130.4753736822
 30
0.0
 10
171.6738389478
 20
130.2648983979
 30
0.0
 10
171.715146103
 20
130.0514208339
 30
0.0
 10
171.7026902729
 20
129.8411353969
 30
0.0
 10
171.6366894288
 20
129.6338691321
 30
0.0
 10
171.5133972014
 20
129.4267481103
 30
0.0
 10
171.3330578523
 20
129.219644089
 30
0.0
 10
171.0996242708
 20
129.0117508253
 30
0.0
 10
170.8171994182
 20
128.8026031753
 30
0.0
 10
170.4896654421
 20
128.5911965478
 30
0.0
 10
170.1230374454
 20
128.3753790873
 30
0.0
 10
169.7243879348
 20
128.1525692391
 30
0.0
 10
169.303012208
 20
127.9210388426
 30
0.0
 10
168.8709407096
 20
127.6796829146
 30
0.0
 10
168.4433260641
 20
127.4282594592
 30
0.0
 10
168.0368862676
 20
127.1673219429
 30
0.0
 10
167.6686167214
 20
126.8978479027
 30
0.0
 10
167.3539013678
 20
126.6231154098
 30
0.0
 10
167.1011966647
 20
126.3482299153
 30
0.0
 10
166.9124435466
 20
126.0761695206
 30
0.0
 10
166.7849262964
 20
125.8041836148
 30
0.0
 10
166.716284396
 20
125.5290660782
 30
0.0
 10
166.7035933176
 20
125.2505023524
 30
0.0
 10
166.7446591337
 20
124.9687799043
 30
0.0
 10
166.8390519715
 20
124.6807986308
 30
0.0
 10
166.9895700291
 20
124.3806374423
 30
0.0
 10
167.1986937868
 20
124.0629990023
 30
0.0
 10
167.4706117602
 20
123.7240923703
 30
0.0
 10
167.8068638925
 20
123.3639241222
 30
0.0
 10
168.2005109529
 20
122.9883669622
 30
0.0
 10
168.6327908713
 20
122.6055129627
 30
0.0
 10
169.0824093528
 20
122.2231555753
 30
0.0
 10
169.5321584306
 20
121.8446655263
 30
0.0
 10
169.9683403533
 20
121.470770389
 30
0.0
 10
170.3778160867
 20
121.1021092775
 30
0.0
 10
170.7465380147
 20
120.7404130806
 30
0.0
 10
171.0610353609
 20
120.3889855185
 30
0.0
 10
171.3139095132
 20
120.052270144
 30
0.0
 10
171.5039550902
 20
119.7308043304
 30
0.0
 10
171.6327239539
 20
119.4198120806
 30
0.0
 10
171.7022332394
 20
119.1156862726
 30
0.0
 10
171.7155191302
 20
118.8157924494
 30
0.0
 10
171.6734768139
 20
118.5155367135
 30
0.0
 10
171.5726736307
 20
118.2088161206
 30
0.0
 10
171.4067686278
 20
117.8904579973
 30
0.0
 10
171.1731168676
 20
117.5563697602
 30
0.0
 10
170.8699810727
 20
117.2052111169
 30
0.0
 10
170.5030878281
 20
116.841566096
 30
0.0
 10
170.0890480958
 20
116.4720052327
 30
0.0
 10
169.6523483679
 20
116.1044669674
 30
0.0
 10
169.3564084254
 20
115.8610590444
 30
0.0
 10
169.2098656785
 20
115.7401069635
 30
0.0
 11
167.7128254919
 21
135.1795615861
 31
0.0
 11
167.5411380622
 21
135.1401946914
 31
0.0
 11
167.2425003819
 21
135.0505701764
 31
0.0
 11
167.0119072145
 21
134.9487123292
 31
0.0
 11
166.8509512794
 21
134.8375086833
 31
0.0
 11
166.7538194882
 21
134.7176868229
 31
0.0
 11
166.7127920334
 21
134.5888976654
 31
0.0
 11
166.7236418666
 21
134.446994421
 31
0.0
 11
166.7880554999
 21
134.2898635786
 31
0.0
 11
166.9092271557
 21
134.1161185455
 31
0.0
 11
167.0894175952
 21
133.9236674039
 31
0.0
 11
167.325687851
 21
133.7145291376
 31
0.0
 11
167.6139063762
 21
133.490258941
 31
0.0
 11
167.9504689133
 21
133.2512880844
 31
0.0
 11
168.3282769085
 21
132.9989142093
 31
0.0
 11
168.7402708085
 21
132.7330274236
 31
0.0
 11
169.1767569857
 21
132.454576311
 31
0.0
 11
169.6129318419
 21
132.1733978341
 31
0.0
 11
170.0134956736
 21
131.9068335959
 31
0.0
 11
170.3602780079
 21
131.6639728844
 31
0.0
 11
170.6549475857
 21
131.4429100442
 31
0.0
 11
170.9023737195
 21
131.2404986544
 31
0.0
 11
171.1121823432
 21
131.0500604893
 31
0.0
 11
171.2930499453
 21
130.8634186899
 31
0.0
 11
171.4500369288
 21
130.6712610452
 31
0.0
 11
171.5785561094
 21
130.4691061732
 31
0.0
 11
171.6674879722
 21
130.2579469512
 31
0.0
 11
171.7066933773
 21
130.0463142965
 31
0.0
 11
171.6946691328
 21
129.8449390392
 31
0.0
 11
171.6327171465
 21
129.6459038755
 31
0.0
 11
171.5145272345
 21
129.4414308216
 31
0.0
 11
171.3375883549
 21
129.2330655191
 31
0.0
 11
171.1069198525
 21
129.024128679
 31
0.0
 11
170.8256823356
 21
128.8133206116
 31
0.0
 11
170.4985152526
 21
128.599953739
 31
0.0
 11
170.1313811545
 21
128.3820720042
 31
0.0
 11
169.731672493
 21
128.1572561902
 31
0.0
 11
169.3075927284
 21
127.9229210441
 31
0.0
 11
168.8723156866
 21
127.6783476
 31
0.0
 11
168.4412714698
 21
127.4232030866
 31
0.0
 11
168.0318770317
 21
127.158040146
 31
0.0
 11
167.6622473902
 21
126.8846559434
 31
0.0
 11
167.3472365425
 21
126.6064566292
 31
0.0
 11
167.0979297796
 21
126.3313411699
 31
0.0
 11
166.9143930161
 21
126.062080995
 31
0.0
 11
166.7920146112
 21
125.7964645989
 31
0.0
 11
166.7252418901
 21
125.5266797504
 31
0.0
 11
166.712328583
 21
125.2522766427
 31
0.0
 11
166.7513608986
 21
124.9764380008
 31
0.0
 11
166.8418452109
 21
124.6944381115
 31
0.0
 11
166.987714933
 21
124.397801528
 31
0.0
 11
167.1934377818
 21
124.0810289507
 31
0.0
 11
167.4611931862
 21
123.7438322624
 31
0.0
 11
167.7965870052
 21
123.3815115765
 31
0.0
 11
168.1949679234
 21
122.9982389266
 31
0.0
 11
168.6317469746
 21
122.6090358751
 31
0.0
 11
169.0834987148
 21
122.2229012344
 31
0.0
 11
169.5349967118
 21
121.841093131
 31
0.0
 11
169.9727467624
 21
121.4638415487
 31
0.0
 11
170.3834051457
 21
121.0915911527
 31
0.0
 11
170.7533716805
 21
120.7254365878
 31
0.0
 11
171.067743256
 21
120.3706887573
 31
0.0
 11
171.3172677446
 21
120.034150595
 31
0.0
 11
171.5023014354
 21
119.7156009601
 31
0.0
 11
171.6265191641
 21
119.409781596
 31
0.0
 11
171.6938462659
 21
119.1099743744
 31
0.0
 11
171.7065150777
 21
118.8165064133
 31
0.0
 11
171.6662314073
 21
118.5246911393
 31
0.0
 11
171.5690216161
 21
118.2236817421
 31
0.0
 11
171.4085930335
 21
117.9093658592
 31
0.0
 11
171.17953676
 21
117.5766824734
 31
0.0
 11
170.8786785365
 21
117.223926376
 31
0.0
 11
170.5096849941
 21
116.8542697375
 31
0.0
 11
170.0914818679
 21
116.4777795549
 31
0.0
 11
169.6492305067
 21
116.1032821151
 31
0.0
 11
169.2098656785
 21
115.7401069635
 31
0.0
  0
SPLINE
  5
326
100
AcDbEntity
  8
BEZUGSACHSEN
100
AcDbSpline
 62
7
  6
CONTINUOUS
 70
0
 71
3
 72
18
 73
14
 74
12
 42
0.0000001
 43
0.0000001
 44
0.0000000001
 12
2.6737590161
 22
0.7427664394
 32
0.0
 13
2.6737590161
 23
-0.7427664394
 33
0.0
 40
0.0
 40
0.0
 40
0.0
 40
0.0
 40
0.0788628999
 40
0.1647195541
 40
0.2563676281
 40
0.3521236596
 40
0.4503969613
 40
0.5496032532
 40
0.6478758258
 40
0.7436299262
 40
0.8352788674
 40
0.9211360457
 40
1.0
 40
1.0
 40
1.0
 40
1.0
 10
127.4294497689
 20
142.6304392958
 30
0.0
 10
127.4997365654
 20
142.6499648676
 30
0.0
 10
127.6481874395
 20
142.6849123226
 30
0.0
 10
127.8819663228
 20
142.7253152951
 30
0.0
 10
128.1329791365
 20
142.7558402654
 30
0.0
 10
128.3965140407
 20
142.7762834411
 30
0.0
 10
128.6676316693
 20
142.7865320834
 30
0.0
 10
128.9412677884
 20
142.7865320723
 30
0.0
 10
129.2123829574
 20
142.7762835381
 30
0.0
 10
129.4759162158
 20
142.7558406515
 30
0.0
 10
129.726928567
 20
142.7253160017
 30
0.0
 10
129.9607097146
 20
142.684912843
 30
0.0
 10
130.1091620326
 20
142.6499651287
 30
0.0
 10
130.1794497689
 20
142.6304392958
 30
0.0
 11
127.4294497689
 21
142.6304392958
 31
0.0
 11
127.6422867401
 21
142.6813682583
 31
0.0
 11
127.8769631847
 21
142.7224968147
 31
0.0
 11
128.1293807795
 21
142.753582053
 31
0.0
 11
128.3942902406
 21
142.7743732232
 31
0.0
 11
128.6668007617
 21
142.7847902514
 31
0.0
 11
128.9420993704
 21
142.7847902401
 31
0.0
 11
129.2146078705
 21
142.7743733059
 31
0.0
 11
129.4795120026
 21
142.7535827288
 31
0.0
 11
129.7319320181
 21
142.7224974562
 31
0.0
 11
129.9666099301
 21
142.681368847
 31
0.0
 11
130.1794497689
 21
142.6304392958
 31
0.0
  0
SPLINE
  5
327
100
AcDbEntity
  8
0
100
AcDbSpline
 62
7
  6
CONTINUOUS
 70
0
 71
3
 72
21
 73
17
 74
15
 42
0.0000001
 43
0.0000001
 44
0.0000000001
 12
2.8066830873
 22
-0.5338608569
 32
0.0
 13
-2.7417330801
 23
-0.6360560955
 33
0.0
 40
0.0
 40
0.0
 40
0.0
 40
0.0
 40
0.1000970227
 40
0.1993812879
 40
0.29837702
 40
0.3974718136
 40
0.4970742709
 40
0.5972785196
 40
0.6955101928
 40
0.7827036798
 40
0.8485540608
 40
0.8908159477
 40
0.9146678208
 40
0.9307035129
 40
0.9567684737
 40
1.0
 40
1.0
 40
1.0
 40
1.0
 10
169.2094118853
 20
136.3745271777
 30
0.0
 10
169.3030587588
 20
136.3567145503
 30
0.0
 10
169.4894348714
 20
136.3204006984
 30
0.0
 10
169.7678480035
 20
136.2635503009
 30
0.0
 10
170.0447786499
 20
136.2042575259
 30
0.0
 10
170.3213509994
 20
136.1419564598
 30
0.0
 10
170.5982651455
 20
136.0758718548
 30
0.0
 10
170.873125469
 20
136.0053970069
 30
0.0
 10
171.1353345389
 20
135.9315929678
 30
0.0
 10
171.3621687064
 20
135.8584694558
 30
0.0
 10
171.5383283401
 20
135.7906582754
 30
0.0
 10
171.6445953296
 20
135.7325229006
 30
0.0
 10
171.7136477084
 20
135.6783403398
 30
0.0
 10
171.6996382862
 20
135.6070214563
 30
0.0
 10
171.6175613208
 20
135.573331477
 30
0.0
 10
171.5557802002
 20
135.555548189
 30
0.0
 10
171.5162704317
 20
135.5463822971
 30
0.0
 11
169.2094118853
 21
136.3745271777
 31
0.0
 11
169.4901101602
 21
136.319830578
 31
0.0
 11
169.7680257328
 21
136.2630550919
 31
0.0
 11
170.0445776095
 21
136.2037878781
 31
0.0
 11
170.3207502252
 21
136.1414789455
 31
0.0
 11
170.5974986819
 21
136.0752417294
 31
0.0
 11
170.8747307604
 21
136.0038209776
 31
0.0
 11
171.1446728068
 21
135.927043352
 31
0.0
 11
171.3813979161
 21
135.8494667878
 31
0.0
 11
171.5557260097
 21
135.7787246974
 31
0.0
 11
171.6603739828
 21
135.7184956856
 31
0.0
 11
171.7051991229
 21
135.6671689195
 31
0.0
 11
171.697191249
 21
135.6220601474
 31
0.0
 11
171.6347622913
 21
135.5814637565
 31
0.0
 11
171.5162704317
 21
135.5463822971
 31
0.0
  0
SPLINE
  5
328
100
AcDbEntity
  8
0
100
AcDbSpline
 62
7
  6
CONTINUOUS
 70
0
 71
3
 72
18
 73
14
 74
12
 42
0.0000001
 43
0.0000001
 44
0.0000000001
 12
0.0
 22
-1.7642178701
 32
0.0
 13
-1.7642178701
 23
0.0
 33
0.0
 40
0.0
 40
0.0
 40
0.0
 40
0.0
 40
0.0948691176
 40
0.1905791476
 40
0.2857584804
 40
0.3791181802
 40
0.470813814
 40
0.5609692284
 40
0.649130721
 40
0.7355549077
 40
0.8230391447
 40
0.9115892404
 40
1.0
 40
1.0
 40
1.0
 40
1.0
 10
136.7294497689
 20
91.1463958771
 30
0.0
 10
136.7294497689
 20
91.0906059463
 30
0.0
 10
136.7234583148
 20
90.9784372731
 30
0.0
 10
136.6962231121
 20
90.8122763832
 30
0.0
 10
136.6506221888
 20
90.6510651971
 30
0.0
 10
136.5872647219
 20
90.4985011555
 30
0.0
 10
136.5069795993
 20
90.3574686191
 30
0.0
 10
136.4106608865
 20
90.2306104158
 30
0.0
 10
136.2996037603
 20
90.1207101789
 30
0.0
 10
136.1744665882
 20
90.029686603
 30
0.0
 10
136.035798263
 20
89.9601735693
 30
0.0
 10
135.8857776681
 20
89.9160838249
 30
0.0
 10
135.7814417162
 20
89.9060088565
 30
0.0
 10
135.7294497689
 20
89.9060088565
 30
0.0
 11
136.7294497689
 21
91.1463958771
 31
0.0
 11
136.7204684589
 21
90.9792672334
 31
0.0
 11
136.6930476711
 21
90.8126552512
 31
0.0
 11
136.6471753176
 21
90.6511254619
 31
0.0
 11
136.583797108
 21
90.4991006309
 31
0.0
 11
136.5035250698
 21
90.358650352
 31
0.0
 11
136.4070882692
 21
90.2321669436
 31
0.0
 11
136.2962927568
 21
90.1230073044
 31
0.0
 11
136.1727888846
 21
90.0335968561
 31
0.0
 11
136.0346675457
 21
89.9647221983
 31
0.0
 11
135.8847107033
 21
89.9209254764
 31
0.0
 11
135.7294497689
 21
89.9060088565
 31
0.0
  0
ENDSEC
  0
SECTION
  2
OBJECTS
  0
DICTIONARY
  5
C
100
AcDbDictionary
280
0
281
1
  3
ACAD_GROUP
350
D
  3
ACAD_MLINESTYLE
350
17
  3
ACAD_LAYOUT
350
1A
  3
ACAD_PLOTSETTINGS
350
19
  3
ACAD_PLOTSTYLENAME
350
E
  0
DICTIONARY
  5
D
102
{ACAD_REACTORS
330
C
102
}
100
AcDbDictionary
280
0
281
1
  0
ACDBDICTIONARYWDFLT
  5
E
102
{ACAD_REACTORS
330
C
102
}
100
AcDbDictionary
281
1
  3
Normal
350
F
100
AcDbDictionaryWithDefault
340
F
  0
DICTIONARY
  5
17
102
{ACAD_REACTORS
330
C
102
}
100
AcDbDictionary
280
0
281
1
  3
Standard
350
18
  0
DICTIONARY
  5
19
102
{ACAD_REACTORS
330
C
102
}
100
AcDbDictionary
281
1
  0
DICTIONARY
  5
1A
102
{ACAD_REACTORS
330
C
102
}
100
AcDbDictionary
281
1
  3
Model
350
329
  3
Layout1
350
32A
  0
ACDBPLACEHOLDER
  5
F
102
{ACAD_REACTORS
330
E
102
}
  0
MLINESTYLE
  5
18
102
{ACAD_REACTORS
330
17
102
}
100
AcDbMlineStyle
  2
STANDARD
 70
0
  3

 62
256
 51
90.0
 52
90.0
 71
2
 49
0.5
 62
256
  6
BYLAYER
 49
-0.5
 62
256
  6
BYLAYER
  0
LAYOUT
  5
329
102
{ACAD_REACTORS
330
1A
102
}
100
AcDbPlotSettings
  1

  2
none_device
  4
ISO_A4_(297.00_x_210.00_MM)
  6

 40
0.0
 41
0.0
 42
0.0
 43
0.0
 44
297.0
 45
210.0
 46
0.0
 47
0.0
 48
0.0
 49
0.0
140
0.0
141
0.0
142
1.0
143
1.0
 70
1024
 72
1
 73
0
 74
0
  7

 75
0
147
1.0
148
0.0
149
0.0
100
AcDbLayout
  1
Model
 70
0
 71
0
 10
0.0
 20
0.0
 11
297.0
 21
210.0
 12
0.0
 22
0.0
 32
0.0
 14
0.0
 24
0.0
 34
0.0
 15
0.0
 25
0.0
 35
0.0
146
0.0
 13
0.0
 23
0.0
 33
0.0
 16
1.0
 26
0.0
 36
0.0
 17
0.0
 27
1.0
 37
0.0
 76
0
330
217
345
0
346
0
  0
LAYOUT
  5
32A
102
{ACAD_REACTORS
330
1A
102
}
100
AcDbPlotSettings
  1

  2
none_device
  4
ISO_A4_(297.00_x_210.00_MM)
  6

 40
0.0
 41
0.0
 42
0.0
 43
0.0
 44
297.0
 45
210.0
 46
0.0
 47
0.0
 48
0.0
 49
0.0
140
0.0
141
0.0
142
1.0
143
1.0
 70
0
 72
1
 73
0
 74
0
  7

 75
0
147
1.0
148
0.0
149
0.0
100
AcDbLayout
  1
Layout1
 70
0
 71
1
 10
0.0
 20
0.0
 11
297.0
 21
210.0
 12
0.0
 22
0.0
 32
0.0
 14
0.0
 24
0.0
 34
0.0
 15
0.0
 25
0.0
 35
0.0
146
0.0
 13
0.0
 23
0.0
 33
0.0
 16
1.0
 26
0.0
 36
0.0
 17
0.0
 27
1.0
 37
0.0
 76
0
330
218
345
0
346
0
  0
ENDSEC
  0
EOF
