999
DXF file: cc6-142-32.dxf
999
Pro/ENGINEER 2010430 by Parametric Technology Corporation
  0
SECTION
  2
HEADER
  9
$ACADVER
  1
AC1021
  9
$DWGCODEPAGE
  3
ANSI_1252
  9
$EXTMAX
 10
297.0
 20
210.0
 30
0.0
  9
$EXTMIN
 10
0.0
 20
0.0
 30
0.0
  9
$LIMMIN
 10
0.0
 20
0.0
  9
$LIMMAX
 10
297.0
 20
210.0
  9
$VIEWCTR
 10
148.5
 20
105.0
  9
$VIEWSIZE
 40
210.0
  9
$CLAYER
  8
0
  9
$LTSCALE
 40
16.335
  9
$CELTYPE
  6
BYLAYER
  9
$DIMSCALE
 40
1.0
  9
$DIMASZ
 40
3.5
  9
$DIMEXO
 40
1.85625
  9
$DIMDLI
 40
11.286
  9
$DIMEXE
 40
5.346
  9
$DIMCEN
 40
2.673
  9
$DIMLFAC
 40
1.0
  9
$DIMBLK
  1
_FILLED
  9
$DIMTXT
 40
3.5
  9
$DIMTOL
 70
1
  9
$DIMLIM
 70
0
  9
$DIMTFAC
 40
1.0
  9
$DIMTP
 40
0.005
  9
$DIMTM
 40
0.005
  9
$PDMODE
 70
3
  9
$PDSIZE
 40
0.3125
  9
$HANDSEED
  5
331
  9
$TILEMODE
 70
1
  9
$MEASUREMENT
 70
1
  9
$INSUNITS
 70
4
  0
ENDSEC
  0
SECTION
  2
CLASSES
  0
CLASS
  1
ACDBDICTIONARYWDFLT
  2
AcDbDictionaryWithDefault
  3
AutoCAD 2000
 90
0
 91
1
280
0
281
0
  0
CLASS
  1
ACDBPLACEHOLDER
  2
AcDbPlaceHolder
  3
AutoCAD 2000
 90
0
 91
1
280
0
281
0
  0
CLASS
  1
LAYOUT
  2
AcDbLayout
  3
AutoCAD 2000
 90
0
 91
0
280
0
281
0
  0
ENDSEC
  0
SECTION
  2
TABLES
  0
TABLE
  2
VPORT
  5
8
100
AcDbSymbolTable
 70
2
  0
VPORT
  5
1F4
100
AcDbSymbolTableRecord
100
AcDbViewportTableRecord
  2
*ACTIVE
 70
0
 10
0.0
 20
0.0
 11
1.0
 21
1.0
 12
148.5
 22
105.0
 13
0.0
 23
0.0
 14
1.0
 24
1.0
 15
0.0
 25
0.0
 16
0.0
 26
0.0
 36
1.0
 17
0.0
 27
0.0
 37
0.0
 40
210.0
 41
1.4142857143
 42
50.0
 43
0.0
 44
0.0
 50
0.0
 51
0.0
 71
0
 72
100
 73
1
 74
1
 75
0
 76
0
 77
0
 78
0
  0
ENDTAB
  0
TABLE
  2
LTYPE
  5
5
100
AcDbSymbolTable
 70
6
  0
LTYPE
  5
14
100
AcDbSymbolTableRecord
100
AcDbLinetypeTableRecord
  2
BYBLOCK
 70
0
  3

 72
65
 73
0
 40
0.0
  0
LTYPE
  5
15
100
AcDbSymbolTableRecord
100
AcDbLinetypeTableRecord
  2
BYLAYER
 70
0
  3

 72
65
 73
0
 40
0.0
  0
LTYPE
  5
16
100
AcDbSymbolTableRecord
100
AcDbLinetypeTableRecord
  2
CONTINUOUS
 70
64
  3
Solid line
 72
65
 73
0
 40
0.0
  0
LTYPE
  5
1F5
100
AcDbSymbolTableRecord
100
AcDbLinetypeTableRecord
  2
CENTER
 70
64
  3
____ _ ____ _ ____ _ ____ _ ____ _ ____ _ ____
 72
65
 73
4
 40
0.6
 49
0.375
 74
0
 49
-0.075
 74
0
 49
0.075
 74
0
 49
-0.075
 74
0
  0
LTYPE
  5
1F6
100
AcDbSymbolTableRecord
100
AcDbLinetypeTableRecord
  2
HIDDEN
 70
64
  3
- - - - - - - - - - - - - - - - - - - -
 72
65
 73
2
 40
0.2
 49
0.1
 74
0
 49
-0.1
 74
0
  0
LTYPE
  5
1F7
100
AcDbSymbolTableRecord
100
AcDbLinetypeTableRecord
  2
PHANTOM
 70
64
  3
_____ _ _ _____ _ _ _____ _ _ _____
 72
65
 73
6
 40
0.8
 49
0.45
 74
0
 49
-0.05
 74
0
 49
0.1
 74
0
 49
-0.05
 74
0
 49
0.1
 74
0
 49
-0.05
 74
0
  0
LTYPE
  5
1F8
100
AcDbSymbolTableRecord
100
AcDbLinetypeTableRecord
  2
DOT
 70
64
  3
. . . . . . . . . . . . . . . . . . . .
 72
65
 73
2
 40
0.2
 49
0.1
 74
0
 49
-0.1
 74
0
  0
LTYPE
  5
1F9
100
AcDbSymbolTableRecord
100
AcDbLinetypeTableRecord
  2
DASHED
 70
64
  3
- - - - - - - - - - - - - - - - - - - -
 72
65
 73
2
 40
0.2
 49
0.1
 74
0
 49
-0.1
 74
0
  0
ENDTAB
  0
TABLE
  2
LAYER
  5
2
100
AcDbSymbolTable
 70
36
  0
LAYER
  5
10
100
AcDbSymbolTableRecord
100
AcDbLayerTableRecord
  2
0
 70
0
 62
7
  6
CONTINUOUS
370
-3
390
F
  0
LAYER
  5
1FA
100
AcDbSymbolTableRecord
100
AcDbLayerTableRecord
  2
DEFAULT_1
 70
0
 62
7
  6
CENTER
370
-3
390
F
  0
LAYER
  5
1FB
100
AcDbSymbolTableRecord
100
AcDbLayerTableRecord
  2
DEFAULT_2
 70
0
 62
8
  6
HIDDEN
370
-3
390
F
  0
LAYER
  5
1FC
100
AcDbSymbolTableRecord
100
AcDbLayerTableRecord
  2
DEFAULT_3
 70
0
 62
7
  6
PHANTOM
370
-3
390
F
  0
LAYER
  5
1FD
100
AcDbSymbolTableRecord
100
AcDbLayerTableRecord
  2
ACHSEN
 70
0
 62
7
  6
CONTINUOUS
370
-3
390
F
  0
LAYER
  5
1FE
100
AcDbSymbolTableRecord
100
AcDbLayerTableRecord
  2
BEZUGSACHSEN
 70
0
 62
7
  6
CONTINUOUS
370
-3
390
F
  0
LAYER
  5
1FF
100
AcDbSymbolTableRecord
100
AcDbLayerTableRecord
  2
BEZUGSEBENE_B
 70
0
 62
7
  6
CONTINUOUS
370
-3
390
F
  0
LAYER
  5
200
100
AcDbSymbolTableRecord
100
AcDbLayerTableRecord
  2
BOHRUNGEN
 70
0
 62
7
  6
CONTINUOUS
370
-3
390
F
  0
LAYER
  5
201
100
AcDbSymbolTableRecord
100
AcDbLayerTableRecord
  2
EBENEN
 70
0
 62
7
  6
CONTINUOUS
370
-3
390
F
  0
LAYER
  5
202
100
AcDbSymbolTableRecord
100
AcDbLayerTableRecord
  2
FASEN
 70
0
 62
7
  6
CONTINUOUS
370
-3
390
F
  0
LAYER
  5
203
100
AcDbSymbolTableRecord
100
AcDbLayerTableRecord
  2
FLAECHEN
 70
0
 62
7
  6
CONTINUOUS
370
-3
390
F
  0
LAYER
  5
204
100
AcDbSymbolTableRecord
100
AcDbLayerTableRecord
  2
GEWINDE
 70
0
 62
7
  6
CONTINUOUS
370
-3
390
F
  0
LAYER
  5
205
100
AcDbSymbolTableRecord
100
AcDbLayerTableRecord
  2
KOORDSYS
 70
0
 62
7
  6
CONTINUOUS
370
-3
390
F
  0
LAYER
  5
206
100
AcDbSymbolTableRecord
100
AcDbLayerTableRecord
  2
KURVEN
 70
0
 62
7
  6
CONTINUOUS
370
-3
390
F
  0
LAYER
  5
207
100
AcDbSymbolTableRecord
100
AcDbLayerTableRecord
  2
KURVE_FUER_GTOL_DETAILANSICHT
 70
0
 62
7
  6
CONTINUOUS
370
-3
390
F
  0
LAYER
  5
208
100
AcDbSymbolTableRecord
100
AcDbLayerTableRecord
  2
KURVE_GAUGE2_POLIGON_INNENEINST
 70
0
 62
7
  6
CONTINUOUS
370
-3
390
F
  0
LAYER
  5
209
100
AcDbSymbolTableRecord
100
AcDbLayerTableRecord
  2
KURVE_PHANTOM1_GAUGE_PIN_1
 70
0
 62
7
  6
CONTINUOUS
370
-3
390
F
  0
LAYER
  5
20A
100
AcDbSymbolTableRecord
100
AcDbLayerTableRecord
  2
KURVE_PHANTOM2_GAUGE_PIN1
 70
0
 62
7
  6
CONTINUOUS
370
-3
390
F
  0
LAYER
  5
20B
100
AcDbSymbolTableRecord
100
AcDbLayerTableRecord
  2
KURVE_POLIGON_BEMASUNG
 70
0
 62
7
  6
CONTINUOUS
370
-3
390
F
  0
LAYER
  5
20C
100
AcDbSymbolTableRecord
100
AcDbLayerTableRecord
  2
PUNKTE
 70
0
 62
7
  6
CONTINUOUS
370
-3
390
F
  0
LAYER
  5
20D
100
AcDbSymbolTableRecord
100
AcDbLayerTableRecord
  2
RUNDUNGEN
 70
0
 62
7
  6
CONTINUOUS
370
-3
390
F
  0
LAYER
  5
20E
100
AcDbSymbolTableRecord
100
AcDbLayerTableRecord
  2
S_ACHSEN
 70
0
 62
7
  6
CONTINUOUS
370
-3
390
F
  0
LAYER
  5
20F
100
AcDbSymbolTableRecord
100
AcDbLayerTableRecord
  2
S_EBENEN
 70
0
 62
7
  6
CONTINUOUS
370
-3
390
F
  0
LAYER
  5
210
100
AcDbSymbolTableRecord
100
AcDbLayerTableRecord
  2
S_KOORDSYS
 70
0
 62
7
  6
CONTINUOUS
370
-3
390
F
  0
LAYER
  5
211
100
AcDbSymbolTableRecord
100
AcDbLayerTableRecord
  2
TOL_BEZUEGE
 70
0
 62
7
  6
CONTINUOUS
370
-3
390
F
  0
LAYER
  5
212
100
AcDbSymbolTableRecord
100
AcDbLayerTableRecord
  2
VERBFLAECHE
 70
0
 62
7
  6
CONTINUOUS
370
-3
390
F
  0
LAYER
  5
213
100
AcDbSymbolTableRecord
100
AcDbLayerTableRecord
  2
ZEICHNUNGSBEMASSUNGEN
 70
0
 62
7
  6
CONTINUOUS
370
-3
390
F
  0
ENDTAB
  0
TABLE
  2
STYLE
  5
3
100
AcDbSymbolTable
 70
1
  0
STYLE
  5
11
100
AcDbSymbolTableRecord
100
AcDbTextStyleTableRecord
  2
STANDARD
 70
0
 40
0.0
 41
0.7
 50
0.0
 71
0
 42
0.2
  3
txt
  4

  0
STYLE
  5
214
100
AcDbSymbolTableRecord
100
AcDbTextStyleTableRecord
  2
TEXTSTYLE_1
 70
0
 40
0.0
 41
0.8
 50
0.0
 71
0
 42
0.2
  3
gdt
  4

  0
STYLE
  5
215
100
AcDbSymbolTableRecord
100
AcDbTextStyleTableRecord
  2
TEXTSTYLE_2
 70
0
 40
0.0
 41
0.7
 50
0.0
 71
0
 42
0.2
  3
gdt
  4

  0
ENDTAB
  0
TABLE
  2
VIEW
  5
6
100
AcDbSymbolTable
 70
0
  0
ENDTAB
  0
TABLE
  2
UCS
  5
7
100
AcDbSymbolTable
 70
0
  0
ENDTAB
  0
TABLE
  2
APPID
  5
9
100
AcDbSymbolTable
 70
1
  0
APPID
  5
216
100
AcDbSymbolTableRecord
100
AcDbRegAppTableRecord
  2
ACAD
 70
0
  0
ENDTAB
  0
TABLE
  2
BLOCK_RECORD
  5
1
100
AcDbSymbolTable
 70
0
  0
BLOCK_RECORD
  5
217
100
AcDbSymbolTableRecord
100
AcDbBlockTableRecord
  2
*Model_Space
  0
BLOCK_RECORD
  5
218
100
AcDbSymbolTableRecord
100
AcDbBlockTableRecord
  2
*Paper_Space
  0
BLOCK_RECORD
  5
219
100
AcDbSymbolTableRecord
100
AcDbBlockTableRecord
  2
_FILLED
  0
BLOCK_RECORD
  5
21A
100
AcDbSymbolTableRecord
100
AcDbBlockTableRecord
  2
*D0
  0
BLOCK_RECORD
  5
21B
100
AcDbSymbolTableRecord
100
AcDbBlockTableRecord
  2
*D1
  0
BLOCK_RECORD
  5
21C
100
AcDbSymbolTableRecord
100
AcDbBlockTableRecord
  2
*D2
  0
BLOCK_RECORD
  5
21D
100
AcDbSymbolTableRecord
100
AcDbBlockTableRecord
  2
*D3
  0
BLOCK_RECORD
  5
21E
100
AcDbSymbolTableRecord
100
AcDbBlockTableRecord
  2
*D4
  0
BLOCK_RECORD
  5
21F
100
AcDbSymbolTableRecord
100
AcDbBlockTableRecord
  2
*D5
  0
BLOCK_RECORD
  5
220
100
AcDbSymbolTableRecord
100
AcDbBlockTableRecord
  2
*D6
  0
ENDTAB
  0
TABLE
  2
DIMSTYLE
  5
A
100
AcDbSymbolTable
 70
1
100
AcDbDimStyleTable
 71
0
  0
DIMSTYLE
105
221
100
AcDbSymbolTableRecord
100
AcDbDimStyleTableRecord
  2
STANDARD
 70
0
  3

  4

 40
1.0
 41
3.5
 42
0.0625
 43
0.38
 44
0.18
 45
0.0
 46
0.0
 47
0.005
 48
0.005
140
3.5
141
0.09
142
0.0
143
25.4
144
1.0
145
0.0
146
1.0
147
0.09
 71
1.0
 72
0.0
 73
0
 74
0
 75
0
 76
0
 77
1
 78
8
170
0
171
2
172
0
173
0
174
0
175
0
176
0
177
0
178
5
270
2
271
3
272
3
273
2
274
2
275
0
280
0
281
0
282
0
283
1
284
8
285
0
286
0
287
3
288
0
340
11
341
219
342
219
343
219
344
219
  0
DIMSTYLE
105
222
100
AcDbSymbolTableRecord
100
AcDbDimStyleTableRecord
  2
DIMSTYLE_1
 70
0
  3

  4

 40
1.0
 41
3.5
 42
0.0625
 43
0.38
 44
0.18
 45
0.0
 46
0.0
 47
0.0
 48
0.1
140
3.5
141
0.09
142
0.0
143
25.4
144
1.0
145
0.0
146
1.0
147
0.09
 71
0.0
 72
0.0
 73
0
 74
0
 75
0
 76
0
 77
1
 78
8
170
0
171
2
172
0
173
0
174
0
175
0
176
0
177
0
178
5
270
2
271
2
272
2
273
2
274
2
275
0
280
0
281
0
282
0
283
1
284
8
285
0
286
0
287
3
288
0
340
11
341
219
342
219
343
219
344
219
  0
DIMSTYLE
105
223
100
AcDbSymbolTableRecord
100
AcDbDimStyleTableRecord
  2
DIMSTYLE_2
 70
0
  3

  4

 40
1.0
 41
3.5
 42
0.0625
 43
0.38
 44
0.18
 45
0.0
 46
0.0
 47
0.25
 48
0.25
140
3.5
141
0.09
142
0.0
143
25.4
144
1.0
145
0.0
146
1.0
147
0.09
 71
0.0
 72
0.0
 73
0
 74
0
 75
0
 76
0
 77
1
 78
8
170
0
171
2
172
0
173
0
174
0
175
0
176
0
177
0
178
5
270
2
271
2
272
2
273
2
274
2
275
0
280
0
281
0
282
0
283
1
284
8
285
0
286
0
287
3
288
0
340
11
341
219
342
219
343
219
344
219
  0
DIMSTYLE
105
224
100
AcDbSymbolTableRecord
100
AcDbDimStyleTableRecord
  2
DIMSTYLE_3
 70
0
  3

  4

 40
1.0
 41
3.5
 42
0.0625
 43
0.38
 44
0.18
 45
0.0
 46
0.0
 47
0.5
 48
0.5
140
3.5
141
0.09
142
0.0
143
25.4
144
1.0
145
0.0
146
1.0
147
0.09
 71
0.0
 72
0.0
 73
0
 74
0
 75
0
 76
0
 77
1
 78
8
170
0
171
2
172
0
173
0
174
0
175
0
176
0
177
0
178
5
270
2
271
2
272
2
273
2
274
2
275
0
280
0
281
0
282
0
283
1
284
8
285
0
286
0
287
3
288
0
340
11
341
219
342
219
343
219
344
219
  0
DIMSTYLE
105
225
100
AcDbSymbolTableRecord
100
AcDbDimStyleTableRecord
  2
DIMSTYLE_4
 70
0
  3

  4

 40
1.0
 41
3.5
 42
0.0625
 43
0.38
 44
0.18
 45
0.0
 46
0.0
 47
-0.042
 48
0.047
140
3.5
141
0.09
142
0.0
143
25.4
144
1.0
145
0.0
146
1.0
147
0.09
 71
0.0
 72
0.0
 73
0
 74
0
 75
0
 76
0
 77
1
 78
8
170
0
171
2
172
0
173
0
174
0
175
0
176
0
177
0
178
5
270
2
271
3
272
3
273
2
274
2
275
0
280
0
281
0
282
0
283
1
284
8
285
0
286
0
287
3
288
0
340
11
341
219
342
219
343
219
344
219
  0
ENDTAB
  0
ENDSEC
  0
SECTION
  2
BLOCKS
  0
BLOCK
  5
20
100
AcDbEntity
  8
0
100
AcDbBlockBegin
  2
*Model_Space
 70
0
 10
0.0
 20
0.0
 30
0.0
  3
*Model_Space
  1

  0
ENDBLK
  5
21
100
AcDbEntity
  8
0
100
AcDbBlockEnd
  0
BLOCK
  5
1C
100
AcDbEntity
  8
0
100
AcDbBlockBegin
  2
*Paper_Space
 70
0
 10
0.0
 20
0.0
 30
0.0
  3
*Paper_Space
  1

  0
ENDBLK
  5
1D
100
AcDbEntity
  8
0
100
AcDbBlockEnd
  0
BLOCK
  5
226
100
AcDbEntity
  8
0
100
AcDbBlockBegin
  2
_FILLED
 70
64
 10
0.0
 20
0.0
  3
_FILLED
  1

  0
SOLID
  5
227
100
AcDbEntity
  8
0
  6
BYBLOCK
 62
0
100
AcDbTrace
 10
0.0
 20
0.0
 11
-1.0
 21
0.125
 12
-1.0
 22
-0.125
 13
-1.0
 23
-0.125
  0
ENDBLK
  5
228
100
AcDbEntity
  8
0
  6
BYBLOCK
 62
0
100
AcDbBlockEnd
  0
BLOCK
  5
229
100
AcDbEntity
  8
0
100
AcDbBlockBegin
 62
2
  6
CONTINUOUS
  2
*D0
 70
65
 10
0.0
 20
0.0
  3
*D0
  1

  0
MTEXT
  5
22A
100
AcDbEntity
  8
0
100
AcDbMText
 62
5
  6
CONTINUOUS
  7
TEXTSTYLE_2
 71
2
 72
1
 10
257.1423299034
 20
135.4305403436
 30
0.0
 11
0.0
 21
1.0
 31
0.0
 44
0.9
  1
{\Fgdt;n}\Ftxt;44
 40
3.5
 41
10.1666666667
  0
LINE
  5
22B
100
AcDbEntity
  8
0
100
AcDbLine
 62
2
  6
CONTINUOUS
 10
232.8026772961
 20
157.4055403436
 11
239.155192275
 21
157.4055403436
  0
LINE
  5
22C
100
AcDbEntity
  8
0
100
AcDbLine
 62
2
  6
CONTINUOUS
 10
245.4388496279
 20
157.4055403436
 11
263.0173299034
 21
157.4055403436
  0
LINE
  5
22D
100
AcDbEntity
  8
0
100
AcDbLine
 62
2
  6
CONTINUOUS
 10
230.5975463544
 20
113.4555403436
 11
245.4203064379
 21
113.4555403436
  0
LINE
  5
22E
100
AcDbEntity
  8
0
100
AcDbLine
 62
2
  6
CONTINUOUS
 10
250.07486744
 20
113.4555403436
 11
263.0173299034
 21
113.4555403436
  0
LINE
  5
22F
100
AcDbEntity
  8
0
100
AcDbLine
 62
2
  6
CONTINUOUS
 10
261.5173299034
 20
157.4055403436
 11
261.5173299034
 21
135.4305403436
  0
LINE
  5
230
100
AcDbEntity
  8
0
100
AcDbLine
 62
2
  6
CONTINUOUS
 10
261.5173299034
 20
113.4555403436
 11
261.5173299034
 21
135.4305403436
  0
INSERT
  5
231
100
AcDbEntity
  8
0
100
AcDbBlockReference
 62
2
  6
CONTINUOUS
  2
_FILLED
 10
261.5173299034
 20
157.4055403436
 41
3.5
 42
3.5
 43
3.5
 50
90.0
  0
INSERT
  5
232
100
AcDbEntity
  8
0
100
AcDbBlockReference
 62
2
  6
CONTINUOUS
  2
_FILLED
 10
261.5173299034
 20
113.4555403436
 41
3.5
 42
3.5
 43
3.5
 50
270.0
  0
ENDBLK
  5
233
100
AcDbEntity
  8
0
  6
BYBLOCK
 62
0
100
AcDbBlockEnd
  0
BLOCK
  5
234
100
AcDbEntity
  8
0
100
AcDbBlockBegin
 62
2
  6
CONTINUOUS
  2
*D1
 70
65
 10
0.0
 20
0.0
  3
*D1
  1

  0
MTEXT
  5
235
100
AcDbEntity
  8
0
100
AcDbMText
 62
5
  6
CONTINUOUS
  7
STANDARD
 71
2
 72
1
 10
252.3792372843
 20
130.2256572309
 30
0.0
 11
0.2555779573
 21
-0.9667884503
 31
0.0
 44
0.9
  1
4\Fgdt;{\Fgdt;~}\Ftxt;30'
 40
3.5
 41
12.3333333333
  0
LINE
  5
236
100
AcDbEntity
  8
0
100
AcDbLine
 62
2
  6
CONTINUOUS
 10
201.4203118195
 20
111.2772947455
 11
249.4036259934
 21
115.0536634701
  0
LINE
  5
237
100
AcDbEntity
  8
0
100
AcDbLine
 62
2
  6
CONTINUOUS
 10
173.4196250416
 20
108.9555403436
 11
207.5573701478
 21
108.9555403436
  0
LINE
  5
238
100
AcDbEntity
  8
0
100
AcDbLine
 62
2
  6
CONTINUOUS
 10
237.3570150391
 20
108.9555403436
 11
249.6432219035
 21
108.9555403436
  0
ARC
  5
239
100
AcDbEntity
  8
0
100
AcDbCircle
 62
2
  6
CONTINUOUS
 10
171.9196250416
 20
108.9555403436
 40
76.223596862
100
AcDbArc
 50
4.5
 51
14.807834527
  0
ARC
  5
23A
100
AcDbEntity
  8
0
100
AcDbCircle
 62
2
  6
CONTINUOUS
 10
171.9196250416
 20
108.9555403436
 40
76.223596862
100
AcDbArc
 50
355.4899179358
 51
0.0
  0
ARC
  5
23B
100
AcDbEntity
  8
0
100
AcDbCircle
 62
2
  6
CONTINUOUS
 10
171.9196250416
 20
108.9555403436
 40
76.223596862
100
AcDbArc
 50
360.0
 51
4.5
  0
SOLID
  5
23C
100
AcDbEntity
  8
0
100
AcDbTrace
 62
2
  6
CONTINUOUS
 10
247.1183662017
 20
118.373632437
 11
247.9082499928
 21
114.9359748265
 12
247.988862961
 22
118.4622912898
 13
247.988862961
 23
118.4622912898
  0
SOLID
  5
23D
100
AcDbEntity
  8
0
100
AcDbTrace
 62
2
  6
CONTINUOUS
 10
248.5002579698
 20
105.4464191577
 11
248.1432219035
 21
108.9555403436
 12
247.6254885682
 22
105.4665063163
 13
247.6254885682
 23
105.4665063163
  0
ENDBLK
  5
23E
100
AcDbEntity
  8
0
  6
BYBLOCK
 62
0
100
AcDbBlockEnd
  0
BLOCK
  5
23F
100
AcDbEntity
  8
0
100
AcDbBlockBegin
 62
2
  6
CONTINUOUS
  2
*D2
 70
65
 10
0.0
 20
0.0
  3
*D2
  1

  0
MTEXT
  5
240
100
AcDbEntity
  8
0
100
AcDbMText
 62
5
  6
CONTINUOUS
  7
STANDARD
 71
2
 72
1
 10
149.0975463544
 20
186.3500604544
 30
0.0
 11
1.0
 21
0.0
 31
0.0
 44
0.9
  1
160
 40
3.5
 41
7.5
  0
LINE
  5
241
100
AcDbEntity
  8
0
100
AcDbLine
 62
2
  6
CONTINUOUS
 10
69.0975463544
 20
163.0136576491
 11
69.0975463544
 21
183.4750604544
  0
LINE
  5
242
100
AcDbEntity
  8
0
100
AcDbLine
 62
2
  6
CONTINUOUS
 10
229.0975463544
 20
134.7311150524
 11
229.0975463544
 21
183.4750604544
  0
LINE
  5
243
100
AcDbEntity
  8
0
100
AcDbLine
 62
2
  6
CONTINUOUS
 10
69.0975463544
 20
181.9750604544
 11
149.0975463544
 21
181.9750604544
  0
LINE
  5
244
100
AcDbEntity
  8
0
100
AcDbLine
 62
2
  6
CONTINUOUS
 10
229.0975463544
 20
181.9750604544
 11
149.0975463544
 21
181.9750604544
  0
INSERT
  5
245
100
AcDbEntity
  8
0
100
AcDbBlockReference
 62
2
  6
CONTINUOUS
  2
_FILLED
 10
69.0975463544
 20
181.9750604544
 41
3.5
 42
3.5
 43
3.5
 50
180.0
  0
INSERT
  5
246
100
AcDbEntity
  8
0
100
AcDbBlockReference
 62
2
  6
CONTINUOUS
  2
_FILLED
 10
229.0975463544
 20
181.9750604544
 41
3.5
 42
3.5
 43
3.5
  0
ENDBLK
  5
247
100
AcDbEntity
  8
0
  6
BYBLOCK
 62
0
100
AcDbBlockEnd
  0
BLOCK
  5
248
100
AcDbEntity
  8
0
100
AcDbBlockBegin
 62
2
  6
CONTINUOUS
  2
*D3
 70
65
 10
0.0
 20
0.0
  3
*D3
  1

  0
MTEXT
  5
249
100
AcDbEntity
  8
0
100
AcDbMText
 62
5
  6
CONTINUOUS
  7
STANDARD
 71
2
 72
1
 10
160.0975463544
 20
179.519528038
 30
0.0
 11
1.0
 21
0.0
 31
0.0
 44
0.9
  1
138
 40
3.5
 41
7.25
  0
LINE
  5
24A
100
AcDbEntity
  8
0
100
AcDbLine
 62
2
  6
CONTINUOUS
 10
229.0975463544
 20
114.9555403436
 11
229.0975463544
 21
176.644528038
  0
LINE
  5
24B
100
AcDbEntity
  8
0
100
AcDbLine
 62
2
  6
CONTINUOUS
 10
91.0975463544
 20
164.662148004
 11
91.0975463544
 21
176.644528038
  0
LINE
  5
24C
100
AcDbEntity
  8
0
100
AcDbLine
 62
2
  6
CONTINUOUS
 10
229.0975463544
 20
175.144528038
 11
160.0975463544
 21
175.144528038
  0
LINE
  5
24D
100
AcDbEntity
  8
0
100
AcDbLine
 62
2
  6
CONTINUOUS
 10
91.0975463544
 20
175.144528038
 11
160.0975463544
 21
175.144528038
  0
INSERT
  5
24E
100
AcDbEntity
  8
0
100
AcDbBlockReference
 62
2
  6
CONTINUOUS
  2
_FILLED
 10
229.0975463544
 20
175.144528038
 41
3.5
 42
3.5
 43
3.5
  0
INSERT
  5
24F
100
AcDbEntity
  8
0
100
AcDbBlockReference
 62
2
  6
CONTINUOUS
  2
_FILLED
 10
91.0975463544
 20
175.144528038
 41
3.5
 42
3.5
 43
3.5
 50
180.0
  0
ENDBLK
  5
250
100
AcDbEntity
  8
0
  6
BYBLOCK
 62
0
100
AcDbBlockEnd
  0
BLOCK
  5
251
100
AcDbEntity
  8
0
100
AcDbBlockBegin
 62
2
  6
CONTINUOUS
  2
*D4
 70
65
 10
0.0
 20
0.0
  3
*D4
  1

  0
MTEXT
  5
252
100
AcDbEntity
  8
0
100
AcDbMText
 62
5
  6
CONTINUOUS
  7
STANDARD
 71
2
 72
1
 10
130.0975463544
 20
192.6172864216
 30
0.0
 11
1.0
 21
0.0
 31
0.0
 44
0.9
  1
198
 40
3.5
 41
7.5
  0
LINE
  5
253
100
AcDbEntity
  8
0
100
AcDbLine
 62
2
  6
CONTINUOUS
 10
229.0975463544
 20
114.9555403436
 11
229.0975463544
 21
189.7422864216
  0
LINE
  5
254
100
AcDbEntity
  8
0
100
AcDbLine
 62
2
  6
CONTINUOUS
 10
31.0975463544
 20
116.7444245743
 11
31.0975463544
 21
189.7422864216
  0
LINE
  5
255
100
AcDbEntity
  8
0
100
AcDbLine
 62
2
  6
CONTINUOUS
 10
229.0975463544
 20
188.2422864216
 11
130.0975463544
 21
188.2422864216
  0
LINE
  5
256
100
AcDbEntity
  8
0
100
AcDbLine
 62
2
  6
CONTINUOUS
 10
31.0975463544
 20
188.2422864216
 11
130.0975463544
 21
188.2422864216
  0
INSERT
  5
257
100
AcDbEntity
  8
0
100
AcDbBlockReference
 62
2
  6
CONTINUOUS
  2
_FILLED
 10
229.0975463544
 20
188.2422864216
 41
3.5
 42
3.5
 43
3.5
  0
INSERT
  5
258
100
AcDbEntity
  8
0
100
AcDbBlockReference
 62
2
  6
CONTINUOUS
  2
_FILLED
 10
31.0975463544
 20
188.2422864216
 41
3.5
 42
3.5
 43
3.5
 50
180.0
  0
ENDBLK
  5
259
100
AcDbEntity
  8
0
  6
BYBLOCK
 62
0
100
AcDbBlockEnd
  0
BLOCK
  5
25A
100
AcDbEntity
  8
0
100
AcDbBlockBegin
 62
2
  6
CONTINUOUS
  2
*D5
 70
65
 10
0.0
 20
0.0
  3
*D5
  1

  0
MTEXT
  5
25B
100
AcDbEntity
  8
0
100
AcDbMText
 62
5
  6
CONTINUOUS
  7
TEXTSTYLE_2
 71
2
 72
1
 10
270.1017008429
 20
135.4305403436
 30
0.0
 11
0.0
 21
1.0
 31
0.0
 44
0.9
  1
{\Fgdt;n}\Ftxt;53
 40
3.5
 41
9.6666666667
  0
LINE
  5
25C
100
AcDbEntity
  8
0
100
AcDbLine
 62
2
  6
CONTINUOUS
 10
173.4196250416
 20
161.9055403436
 11
227.0533336696
 21
161.9055403436
  0
LINE
  5
25D
100
AcDbEntity
  8
0
100
AcDbLine
 62
2
  6
CONTINUOUS
 10
246.9127939452
 20
161.9055403436
 11
275.9767008429
 21
161.9055403436
  0
LINE
  5
25E
100
AcDbEntity
  8
0
100
AcDbLine
 62
2
  6
CONTINUOUS
 10
173.4196250416
 20
108.9555403436
 11
224.847882346
 21
108.9555403436
  0
LINE
  5
25F
100
AcDbEntity
  8
0
100
AcDbLine
 62
2
  6
CONTINUOUS
 10
236.3873148304
 20
108.9555403436
 11
275.9767008429
 21
108.9555403436
  0
LINE
  5
260
100
AcDbEntity
  8
0
100
AcDbLine
 62
2
  6
CONTINUOUS
 10
274.4767008429
 20
161.9055403436
 11
274.4767008429
 21
135.4305403436
  0
LINE
  5
261
100
AcDbEntity
  8
0
100
AcDbLine
 62
2
  6
CONTINUOUS
 10
274.4767008429
 20
108.9555403436
 11
274.4767008429
 21
135.4305403436
  0
INSERT
  5
262
100
AcDbEntity
  8
0
100
AcDbBlockReference
 62
2
  6
CONTINUOUS
  2
_FILLED
 10
274.4767008429
 20
161.9055403436
 41
3.5
 42
3.5
 43
3.5
 50
90.0
  0
INSERT
  5
263
100
AcDbEntity
  8
0
100
AcDbBlockReference
 62
2
  6
CONTINUOUS
  2
_FILLED
 10
274.4767008429
 20
108.9555403436
 41
3.5
 42
3.5
 43
3.5
 50
270.0
  0
ENDBLK
  5
264
100
AcDbEntity
  8
0
  6
BYBLOCK
 62
0
100
AcDbBlockEnd
  0
BLOCK
  5
265
100
AcDbEntity
  8
0
100
AcDbBlockBegin
 62
2
  6
CONTINUOUS
  2
*D6
 70
65
 10
0.0
 20
0.0
  3
*D6
  1

  0
MTEXT
  5
266
100
AcDbEntity
  8
0
100
AcDbMText
 62
5
  6
CONTINUOUS
  7
TEXTSTYLE_2
 71
2
 72
1
 10
238.2637105955
 20
135.4305403436
 30
0.0
 11
0.0
 21
1.0
 31
0.0
 44
0.9
  1
{\Fgdt;n}\Ftxt;32
 40
3.5
 41
9.9166666667
  0
LINE
  5
267
100
AcDbEntity
  8
0
100
AcDbLine
 62
2
  6
CONTINUOUS
 10
231.5026793139
 20
119.4527903436
 11
244.1387105955
 21
119.4527903436
  0
LINE
  5
268
100
AcDbEntity
  8
0
100
AcDbLine
 62
2
  6
CONTINUOUS
 10
232.0685005198
 20
151.4082903436
 11
244.1387105955
 21
151.4082903436
  0
LINE
  5
269
100
AcDbEntity
  8
0
100
AcDbLine
 62
2
  6
CONTINUOUS
 10
242.6387105955
 20
119.4527903436
 11
242.6387105955
 21
135.4305403436
  0
LINE
  5
26A
100
AcDbEntity
  8
0
100
AcDbLine
 62
2
  6
CONTINUOUS
 10
242.6387105955
 20
151.4082903436
 11
242.6387105955
 21
135.4305403436
  0
INSERT
  5
26B
100
AcDbEntity
  8
0
100
AcDbBlockReference
 62
2
  6
CONTINUOUS
  2
_FILLED
 10
242.6387105955
 20
119.4527903436
 41
3.5
 42
3.5
 43
3.5
 50
270.0
  0
INSERT
  5
26C
100
AcDbEntity
  8
0
100
AcDbBlockReference
 62
2
  6
CONTINUOUS
  2
_FILLED
 10
242.6387105955
 20
151.4082903436
 41
3.5
 42
3.5
 43
3.5
 50
90.0
  0
ENDBLK
  5
26D
100
AcDbEntity
  8
0
  6
BYBLOCK
 62
0
100
AcDbBlockEnd
  0
ENDSEC
  0
SECTION
  2
ENTITIES
  0
DIMENSION
  5
26E
100
AcDbEntity
  8
0
100
AcDbDimension
 62
2
  6
CONTINUOUS
  2
*D0
 10
261.5173299034
 20
113.4555403436
 11
260.0311836778
 21
133.1582988236
 70
160
 71
2
 42
43.95
  1
%%c<>
  3
DIMSTYLE_1
100
AcDbAlignedDimension
 13
232.8026772961
 23
157.4055403436
 14
230.5975463544
 24
113.4555403436
 50
270.0
100
AcDbRotatedDimension
  0
DIMENSION
  5
26F
100
AcDbEntity
  8
0
100
AcDbDimension
 62
2
  6
CONTINUOUS
  2
*D1
 10
249.6432219035
 20
108.9555403436
 11
248.0653318512
 21
129.2668880532
 70
162
 71
2
 42
0.0785398163
  3
DIMSTYLE_2
100
AcDb2LineAngularDimension
 13
249.4036259934
 23
115.0536634701
 14
201.4203118195
 24
111.2772947455
 15
173.4196250416
 25
108.9555403436
 16
248.0844562728
 26
111.9480647129
  0
DIMENSION
  5
270
100
AcDbEntity
  8
0
100
AcDbDimension
 62
2
  6
CONTINUOUS
  2
*D2
 10
229.0975463544
 20
181.9750604544
 11
145.3475463544
 21
184.6000604544
 70
160
 71
2
 42
160.0
  3
DIMSTYLE_3
100
AcDbAlignedDimension
 13
69.0975463544
 23
163.0136576491
 14
229.0975463544
 24
134.7311150524
100
AcDbRotatedDimension
  0
DIMENSION
  5
271
100
AcDbEntity
  8
0
100
AcDbDimension
 62
2
  6
CONTINUOUS
  2
*D3
 10
91.0975463544
 20
175.144528038
 11
156.4725463544
 21
177.769528038
 70
160
 71
2
 42
138.0
  3
DIMSTYLE_3
100
AcDbAlignedDimension
 13
229.0975463544
 23
114.9555403436
 14
91.0975463544
 24
164.662148004
 50
180.0
100
AcDbRotatedDimension
  0
DIMENSION
  5
272
100
AcDbEntity
  8
0
100
AcDbDimension
 62
2
  6
CONTINUOUS
  2
*D4
 10
31.0975463544
 20
188.2422864216
 11
126.3475463544
 21
190.8672864216
 70
160
 71
2
 42
198.0
  3
DIMSTYLE_3
100
AcDbAlignedDimension
 13
229.0975463544
 23
114.9555403436
 14
31.0975463544
 24
116.7444245743
 50
180.0
100
AcDbRotatedDimension
  0
DIMENSION
  5
273
100
AcDbEntity
  8
0
100
AcDbDimension
 62
2
  6
CONTINUOUS
  2
*D5
 10
274.4767008429
 20
108.9555403436
 11
272.9345454152
 21
133.2700484066
 70
160
 71
2
 42
52.95
  1
%%c<>
  3
DIMSTYLE_1
100
AcDbAlignedDimension
 13
173.4196250416
 23
161.9055403436
 14
173.4196250416
 24
108.9555403436
 50
270.0
100
AcDbRotatedDimension
  0
DIMENSION
  5
274
100
AcDbEntity
  8
0
100
AcDbDimension
 62
2
  6
CONTINUOUS
  2
*D6
 10
242.6387105955
 20
151.4082903436
 11
241.1245597689
 21
133.2141736151
 70
160
 71
2
 42
31.9555
  1
%%c<>
  3
DIMSTYLE_4
100
AcDbAlignedDimension
 13
231.5026793139
 23
119.4527903436
 14
232.0685005198
 24
151.4082903436
 50
90.0
100
AcDbRotatedDimension
  0
MTEXT
  5
275
100
AcDbEntity
  8
0
100
AcDbMText
 62
5
  6
CONTINUOUS
  7
STANDARD
 71
1
 72
1
 10
5.9212577963
 20
84.3112006237
 30
0.0
 11
1.0
 21
0.0
 31
0.0
 44
0.9
  3
Für diese Unterlage behalten wir das Ur-\Pheberrecht. Sie darf nur für den von uns \Pbestimmten Zweck benutzt und ohne unsere \PZustimmung weder vervielfältigt noch\PDritten zugänglich gemacht werden\P \PWe own the copyright of this document. It \Pde
  1
termined and may neither be copied or \Pmade accessible to outsiders without our\Ppermission.\P \PCe plan reste notre propriété. Il ne peut\Pêtre utilisé, copié ou reproduit sans notre\Paccord.\P 
 40
3.5
 41
104.8333333333
  0
LINE
  5
276
100
AcDbEntity
  8
0
100
AcDbLine
 62
7
  6
CONTINUOUS
 10
0.0
 20
0.0
 11
0.0
 21
210.0
  0
LINE
  5
277
100
AcDbEntity
  8
0
100
AcDbLine
 62
7
  6
CONTINUOUS
 10
0.0
 20
0.0
 11
297.0
 21
0.0
  0
LINE
  5
278
100
AcDbEntity
  8
0
100
AcDbLine
 62
7
  6
CONTINUOUS
 10
0.0
 20
210.0
 11
297.0
 21
210.0
  0
LINE
  5
279
100
AcDbEntity
  8
0
100
AcDbLine
 62
7
  6
CONTINUOUS
 10
297.0
 20
0.0
 11
297.0
 21
210.0
  0
LINE
  5
27A
100
AcDbEntity
  8
0
100
AcDbLine
 62
7
  6
CONTINUOUS
 10
31.0975463544
 20
113.7382023507
 11
31.0975463544
 21
150.3917849823
  0
LINE
  5
27B
100
AcDbEntity
  8
KURVEN
100
AcDbLine
 62
4
  6
CONTINUOUS
 10
31.0975463544
 20
112.909862168
 11
31.0975463544
 21
154.6421143306
  0
LINE
  5
27C
100
AcDbEntity
  8
ACHSEN
100
AcDbLine
 62
7
  6
CONTINUOUS
 10
31.0975463544
 20
150.3917849823
 11
31.0975463544
 21
154.1790196576
  0
LINE
  5
27D
100
AcDbEntity
  8
ACHSEN
100
AcDbLine
 62
7
  6
CONTINUOUS
 10
32.5975463544
 20
154.9275299571
 11
32.5975463544
 21
151.1417849823
  0
LINE
  5
27E
100
AcDbEntity
  8
0
100
AcDbLine
 62
7
  6
CONTINUOUS
 10
32.5975463544
 20
151.1417849823
 11
32.5975463544
 21
112.8721769469
  0
LINE
  5
27F
100
AcDbEntity
  8
ACHSEN
100
AcDbLine
 62
7
  6
CENTER
 10
53.5975463544
 20
112.4970548365
 11
53.5975463544
 21
159.6189109082
  0
LINE
  5
280
100
AcDbEntity
  8
0
100
AcDbLine
 62
7
  6
CONTINUOUS
 10
69.0975481903
 20
166.6305384363
 11
69.3975482802
 21
166.9305384901
  0
LINE
  5
281
100
AcDbEntity
  8
0
100
AcDbLine
 62
7
  6
CONTINUOUS
 10
66.8976094434
 20
156.0506407132
 11
66.8976094434
 21
151.8880710922
  0
LINE
  5
282
100
AcDbEntity
  8
0
100
AcDbLine
 62
7
  6
CONTINUOUS
 10
66.8976094434
 20
140.6554114742
 11
66.8976094434
 21
113.7481384644
  0
LINE
  5
283
100
AcDbEntity
  8
0
100
AcDbLine
 62
9
  6
CONTINUOUS
 10
67.1025694655
 20
155.8557269134
 11
67.1025694655
 21
150.1154825484
  0
LINE
  5
284
100
AcDbEntity
  8
0
100
AcDbLine
 62
9
  6
CONTINUOUS
 10
67.1025694655
 20
143.6164835303
 11
67.1025694655
 21
112.5596549521
  0
LINE
  5
285
100
AcDbEntity
  8
0
100
AcDbLine
 62
9
  6
CONTINUOUS
 10
67.7904395732
 20
112.6876471248
 11
67.7904395732
 21
113.3269836927
  0
LINE
  5
286
100
AcDbEntity
  8
0
100
AcDbLine
 62
9
  6
CONTINUOUS
 10
67.7904395732
 20
141.8450801043
 11
67.7904395732
 21
151.1195572338
  0
LINE
  5
287
100
AcDbEntity
  8
0
100
AcDbLine
 62
9
  6
CONTINUOUS
 10
68.7025694655
 20
155.8959244825
 11
68.7025694655
 21
151.7750186306
  0
LINE
  5
288
100
AcDbEntity
  8
0
100
AcDbLine
 62
9
  6
CONTINUOUS
 10
68.7025694655
 20
140.6134907967
 11
68.7025694655
 21
113.9031116035
  0
LINE
  5
289
100
AcDbEntity
  8
0
100
AcDbLine
 62
7
  6
CONTINUOUS
 10
69.0975463544
 20
104.2308160131
 11
69.0975463544
 21
166.6302646741
  0
LINE
  5
28A
100
AcDbEntity
  8
0
100
AcDbLine
 62
7
  6
CONTINUOUS
 10
69.3975464279
 20
103.9305403436
 11
69.3975464279
 21
166.9305403436
  0
LINE
  5
28B
100
AcDbEntity
  8
0
100
AcDbLine
 62
7
  6
CONTINUOUS
 10
68.8974815026
 20
152.2201149293
 11
68.8975463544
 21
157.9640252046
  0
LINE
  5
28C
100
AcDbEntity
  8
0
100
AcDbLine
 62
7
  6
CONTINUOUS
 10
68.8974815026
 20
114.0203722522
 11
68.897450388
 21
140.0557655577
  0
LINE
  5
28D
100
AcDbEntity
  8
0
100
AcDbLine
 62
9
  6
CONTINUOUS
 10
32.5975463544
 20
151.1417849823
 11
31.0975463544
 21
150.3917849823
  0
LINE
  5
28E
100
AcDbEntity
  8
0
100
AcDbLine
 62
7
  6
CONTINUOUS
 10
32.5975463544
 20
112.8721769469
 11
31.0975463544
 21
113.7382023507
  0
LINE
  5
28F
100
AcDbEntity
  8
0
100
AcDbLine
 62
7
  6
CONTINUOUS
 10
69.0975481903
 20
104.230542251
 11
69.3975482802
 21
103.9305421971
  0
LINE
  5
290
100
AcDbEntity
  8
0
100
AcDbLine
 62
9
  6
CONTINUOUS
 10
79.2032087871
 20
165.3444951901
 11
79.2032087871
 21
145.2999529626
  0
LINE
  5
291
100
AcDbEntity
  8
0
100
AcDbLine
 62
9
  6
CONTINUOUS
 10
79.2032087871
 20
125.5611277246
 11
79.2032087871
 21
105.5165854971
  0
LINE
  5
292
100
AcDbEntity
  8
0
100
AcDbLine
 62
9
  6
CONTINUOUS
 10
32.5975463544
 20
114.4944245743
 11
31.0975463544
 21
115.2444245743
  0
LINE
  5
293
100
AcDbEntity
  8
0
100
AcDbLine
 62
9
  6
CONTINUOUS
 10
79.636221489
 20
165.5111331039
 11
79.636221489
 21
144.7797616581
  0
LINE
  5
294
100
AcDbEntity
  8
0
100
AcDbLine
 62
9
  6
CONTINUOUS
 10
79.636221489
 20
126.0813190291
 11
79.636221489
 21
105.3499475833
  0
LINE
  5
295
100
AcDbEntity
  8
ACHSEN
100
AcDbLine
 62
7
  6
CENTER
 10
81.0975463544
 20
159.3420866729
 11
81.0975463544
 21
169.9305403436
  0
LINE
  5
296
100
AcDbEntity
  8
0
100
AcDbLine
 62
9
  6
CONTINUOUS
 10
82.5588712198
 20
165.5111331039
 11
82.5588712198
 21
144.7797616581
  0
LINE
  5
297
100
AcDbEntity
  8
0
100
AcDbLine
 62
9
  6
CONTINUOUS
 10
82.5588712198
 20
126.0813190291
 11
82.5588712198
 21
105.3499475833
  0
LINE
  5
298
100
AcDbEntity
  8
0
100
AcDbLine
 62
9
  6
CONTINUOUS
 10
82.9918839217
 20
165.3444951901
 11
82.9918839217
 21
145.2999529626
  0
LINE
  5
299
100
AcDbEntity
  8
0
100
AcDbLine
 62
9
  6
CONTINUOUS
 10
82.9918839217
 20
125.5611277246
 11
82.9918839217
 21
105.5165854971
  0
LINE
  5
29A
100
AcDbEntity
  8
0
100
AcDbLine
 62
7
  6
CONTINUOUS
 10
91.0975463544
 20
103.9305403436
 11
91.0975463544
 21
166.9305403436
  0
LINE
  5
29B
100
AcDbEntity
  8
RUNDUNGEN
100
AcDbLine
 62
9
  6
CONTINUOUS
 10
92.0975463544
 20
161.9055403436
 11
92.0975463544
 21
108.9555403436
  0
LINE
  5
29C
100
AcDbEntity
  8
0
100
AcDbLine
 62
7
  6
CONTINUOUS
 10
67.7904395732
 20
112.6876471248
 11
67.1079491769
 21
112.0051567285
  0
LINE
  5
29D
100
AcDbEntity
  8
RUNDUNGEN
100
AcDbLine
 62
7
  6
CONTINUOUS
 10
228.1760054501
 20
113.3830135015
 11
171.9196250416
 21
108.9555403436
  0
LINE
  5
29E
100
AcDbEntity
  8
0
100
AcDbLine
 62
7
  6
CONTINUOUS
 10
171.9196250416
 20
108.9555403436
 11
228.1760054501
 21
113.3830135015
  0
LINE
  5
29F
100
AcDbEntity
  8
0
100
AcDbLine
 62
7
  6
CONTINUOUS
 10
91.0975463544
 20
103.9305403436
 11
69.3975464268
 21
103.9305403436
  0
LINE
  5
2A0
100
AcDbEntity
  8
0
100
AcDbLine
 62
7
  6
CONTINUOUS
 10
82.5588712198
 20
105.3499475833
 11
79.636221489
 21
105.3499475833
  0
LINE
  5
2A1
100
AcDbEntity
  8
0
100
AcDbLine
 62
7
  6
CONTINUOUS
 10
171.9196250416
 20
108.9555403436
 11
163.3475463544
 21
108.9555403436
  0
LINE
  5
2A2
100
AcDbEntity
  8
0
100
AcDbLine
 62
7
  6
CONTINUOUS
 10
154.8475463544
 20
108.9555403436
 11
92.0975463544
 21
108.9555403436
  0
LINE
  5
2A3
100
AcDbEntity
  8
0
100
AcDbLine
 62
7
  6
CONTINUOUS
 10
155.5815209506
 20
109.2555403436
 11
156.5975463544
 21
109.2555403436
  0
LINE
  5
2A4
100
AcDbEntity
  8
0
100
AcDbLine
 62
7
  6
CONTINUOUS
 10
161.5975463544
 20
109.2555403436
 11
162.6135717582
 21
109.2555403436
  0
LINE
  5
2A5
100
AcDbEntity
  8
0
100
AcDbLine
 62
9
  6
CONTINUOUS
 10
66.8976094434
 20
113.7481384644
 11
32.5975463544
 21
114.4944245743
  0
LINE
  5
2A6
100
AcDbEntity
  8
0
100
AcDbLine
 62
7
  6
CONTINUOUS
 10
67.3505751052
 20
112.5538114683
 11
67.1025694655
 21
112.5596549521
  0
LINE
  5
2A7
100
AcDbEntity
  8
0
100
AcDbLine
 62
7
  6
CONTINUOUS
 10
32.5975463544
 20
112.8721769469
 11
67.1079491772
 21
112.0051555078
  0
LINE
  5
2A8
100
AcDbEntity
  8
0
100
AcDbLine
 62
7
  6
CONTINUOUS
 10
163.0135717582
 20
161.7127200206
 11
163.3475463544
 21
161.9055403436
  0
LINE
  5
2A9
100
AcDbEntity
  8
RUNDUNGEN
100
AcDbLine
 62
7
  6
CONTINUOUS
 10
163.0135717582
 20
161.7127200206
 11
163.3475463544
 21
161.9055403436
  0
LINE
  5
2AA
100
AcDbEntity
  8
DEFAULT_2
100
AcDbLine
 62
8
  6
HIDDEN
 10
164.6473112379
 20
119.1027903436
 11
176.7123370732
 21
119.1027903436
  0
LINE
  5
2AB
100
AcDbEntity
  8
BOHRUNGEN
100
AcDbLine
 62
8
  6
HIDDEN
 10
226.4975463544
 20
119.4527903436
 11
178.0975463544
 21
119.4527903436
  0
LINE
  5
2AC
100
AcDbEntity
  8
0
100
AcDbLine
 62
7
  6
CONTINUOUS
 10
82.5588712198
 20
126.0813190291
 11
79.636221489
 21
126.0813190291
  0
LINE
  5
2AD
100
AcDbEntity
  8
0
100
AcDbLine
 62
7
  6
CONTINUOUS
 10
163.0135717582
 20
109.1483606666
 11
163.3475463544
 21
108.9555403436
  0
LINE
  5
2AE
100
AcDbEntity
  8
RUNDUNGEN
100
AcDbLine
 62
7
  6
CONTINUOUS
 10
163.0135717582
 20
109.1483606666
 11
163.3475463544
 21
108.9555403436
  0
LINE
  5
2AF
100
AcDbEntity
  8
S_ACHSEN
100
AcDbLine
 62
7
  6
CENTER
 10
28.0975463544
 20
135.4305403436
 11
233.0975463544
 21
135.4305403436
  0
LINE
  5
2B0
100
AcDbEntity
  8
0
100
AcDbLine
 62
7
  6
CONTINUOUS
 10
67.1025694655
 20
143.6164835303
 11
67.3505751052
 21
143.6174977863
  0
LINE
  5
2B1
100
AcDbEntity
  8
0
100
AcDbLine
 62
9
  6
CONTINUOUS
 10
31.0975463544
 20
140.6554114742
 11
66.8976094434
 21
140.6554114742
  0
LINE
  5
2B2
100
AcDbEntity
  8
0
100
AcDbLine
 62
7
  6
CONTINUOUS
 10
82.5588712198
 20
144.7797616581
 11
79.636221489
 21
144.7797616581
  0
LINE
  5
2B3
100
AcDbEntity
  8
0
100
AcDbLine
 62
9
  6
CONTINUOUS
 10
32.5975463544
 20
151.1417849823
 11
66.8976094434
 21
151.8880710922
  0
LINE
  5
2B4
100
AcDbEntity
  8
0
100
AcDbLine
 62
7
  6
CONTINUOUS
 10
67.3505751052
 20
150.1203117763
 11
67.1025694655
 21
150.1154825484
  0
LINE
  5
2B5
100
AcDbEntity
  8
BOHRUNGEN
100
AcDbLine
 62
8
  6
HIDDEN
 10
226.4975463544
 20
151.4082903436
 11
178.0975463544
 21
151.4082903436
  0
LINE
  5
2B6
100
AcDbEntity
  8
RUNDUNGEN
100
AcDbLine
 62
8
  6
HIDDEN
 10
176.7123370732
 20
151.7582903436
 11
164.6473112379
 21
151.7582903436
  0
LINE
  5
2B7
100
AcDbEntity
  8
DEFAULT_2
100
AcDbLine
 62
8
  6
HIDDEN
 10
164.6473112379
 20
151.7582903436
 11
176.7123370732
 21
151.7582903436
  0
LINE
  5
2B8
100
AcDbEntity
  8
0
100
AcDbLine
 62
7
  6
CONTINUOUS
 10
154.8475463544
 20
161.9055403436
 11
154.8475463544
 21
108.9555403436
  0
LINE
  5
2B9
100
AcDbEntity
  8
RUNDUNGEN
100
AcDbLine
 62
9
  6
CONTINUOUS
 10
155.1815209506
 20
109.1483606666
 11
155.1815209506
 21
161.7127200206
  0
LINE
  5
2BA
100
AcDbEntity
  8
RUNDUNGEN
100
AcDbLine
 62
9
  6
CONTINUOUS
 10
155.5815209506
 20
109.2555403436
 11
155.5815209506
 21
161.6055403436
  0
LINE
  5
2BB
100
AcDbEntity
  8
BEZUGSACHSEN
100
AcDbLine
 62
7
  6
CENTER
 10
159.0975463544
 20
164.6055403436
 11
159.0975463544
 21
150.9055403436
  0
LINE
  5
2BC
100
AcDbEntity
  8
BEZUGSACHSEN
100
AcDbLine
 62
7
  6
CENTER
 10
159.0975463544
 20
106.2555403436
 11
159.0975463544
 21
129.1930403436
  0
LINE
  5
2BD
100
AcDbEntity
  8
0
100
AcDbLine
 62
7
  6
CONTINUOUS
 10
154.8475463544
 20
108.9555403436
 11
155.1815209506
 21
109.1483606666
  0
LINE
  5
2BE
100
AcDbEntity
  8
RUNDUNGEN
100
AcDbLine
 62
7
  6
CONTINUOUS
 10
154.8475463544
 20
108.9555403436
 11
155.1815209506
 21
109.1483606666
  0
LINE
  5
2BF
100
AcDbEntity
  8
0
100
AcDbLine
 62
7
  6
CONTINUOUS
 10
67.1025694655
 20
155.8557269134
 11
68.7025694655
 21
155.8959244825
  0
LINE
  5
2C0
100
AcDbEntity
  8
0
100
AcDbLine
 62
7
  6
CONTINUOUS
 10
39.3611511085
 20
155.3588290338
 11
49.1475463544
 21
155.6046973458
  0
LINE
  5
2C1
100
AcDbEntity
  8
0
100
AcDbLine
 62
7
  6
CONTINUOUS
 10
58.2769076876
 20
155.834058679
 11
66.8976094434
 21
156.0506407132
  0
LINE
  5
2C2
100
AcDbEntity
  8
RUNDUNGEN
100
AcDbLine
 62
9
  6
CONTINUOUS
 10
162.6135717582
 20
109.2555403436
 11
162.6135717582
 21
161.6055403436
  0
LINE
  5
2C3
100
AcDbEntity
  8
RUNDUNGEN
100
AcDbLine
 62
9
  6
CONTINUOUS
 10
163.0135717582
 20
109.1483606666
 11
163.0135717582
 21
161.7127200206
  0
LINE
  5
2C4
100
AcDbEntity
  8
0
100
AcDbLine
 62
7
  6
CONTINUOUS
 10
163.3475463544
 20
161.9055403436
 11
163.3475463544
 21
108.9555403436
  0
LINE
  5
2C5
100
AcDbEntity
  8
RUNDUNGEN
100
AcDbLine
 62
9
  6
CONTINUOUS
 10
164.6473112379
 20
119.1027903436
 11
164.6473112379
 21
151.7582903436
  0
LINE
  5
2C6
100
AcDbEntity
  8
0
100
AcDbLine
 62
7
  6
CONTINUOUS
 10
155.5815209506
 20
161.6055403436
 11
156.5975463544
 21
161.6055403436
  0
LINE
  5
2C7
100
AcDbEntity
  8
BEZUGSACHSEN
100
AcDbLine
 62
7
  6
CONTINUOUS
 10
155.5815209506
 20
161.6055403436
 11
156.5975463544
 21
161.6055403436
  0
LINE
  5
2C8
100
AcDbEntity
  8
0
100
AcDbLine
 62
7
  6
CONTINUOUS
 10
161.5975463544
 20
161.6055403436
 11
162.6135717582
 21
161.6055403436
  0
LINE
  5
2C9
100
AcDbEntity
  8
BEZUGSACHSEN
100
AcDbLine
 62
7
  6
CONTINUOUS
 10
161.5975463544
 20
161.6055403436
 11
162.6135717582
 21
161.6055403436
  0
LINE
  5
2CA
100
AcDbEntity
  8
0
100
AcDbLine
 62
7
  6
CONTINUOUS
 10
171.9196250416
 20
161.9055403436
 11
163.3475463544
 21
161.9055403436
  0
LINE
  5
2CB
100
AcDbEntity
  8
0
100
AcDbLine
 62
7
  6
CONTINUOUS
 10
92.0975463544
 20
161.9055403436
 11
154.8475463544
 21
161.9055403436
  0
LINE
  5
2CC
100
AcDbEntity
  8
0
100
AcDbLine
 62
7
  6
CONTINUOUS
 10
82.5588712198
 20
165.5111331039
 11
79.636221489
 21
165.5111331039
  0
LINE
  5
2CD
100
AcDbEntity
  8
0
100
AcDbLine
 62
7
  6
CONTINUOUS
 10
91.0975463544
 20
166.9305403436
 11
86.3198236315
 21
166.9305403436
  0
LINE
  5
2CE
100
AcDbEntity
  8
0
100
AcDbLine
 62
7
  6
CONTINUOUS
 10
75.8752690772
 20
166.9305403436
 11
69.3975464268
 21
166.9305403436
  0
LINE
  5
2CF
100
AcDbEntity
  8
RUNDUNGEN
100
AcDbLine
 62
7
  6
CONTINUOUS
 10
228.1760054501
 20
157.4780671857
 11
171.9196250416
 21
161.9055403436
  0
LINE
  5
2D0
100
AcDbEntity
  8
0
100
AcDbLine
 62
7
  6
CONTINUOUS
 10
171.9196250416
 20
161.9055403436
 11
228.1760054501
 21
157.4780671857
  0
LINE
  5
2D1
100
AcDbEntity
  8
0
100
AcDbLine
 62
7
  6
CONTINUOUS
 10
171.9196250416
 20
108.9555403436
 11
171.9196250416
 21
161.9055403436
  0
LINE
  5
2D2
100
AcDbEntity
  8
0
100
AcDbLine
 62
7
  6
CONTINUOUS
 10
154.8475463544
 20
161.9055403436
 11
155.1815209506
 21
161.7127200206
  0
LINE
  5
2D3
100
AcDbEntity
  8
RUNDUNGEN
100
AcDbLine
 62
7
  6
CONTINUOUS
 10
154.8475463544
 20
161.9055403436
 11
155.1815209506
 21
161.7127200206
  0
LINE
  5
2D4
100
AcDbEntity
  8
RUNDUNGEN
100
AcDbLine
 62
9
  6
CONTINUOUS
 10
228.1760054501
 20
113.3830135015
 11
228.1760054501
 21
157.4780671857
  0
LINE
  5
2D5
100
AcDbEntity
  8
RUNDUNGEN
100
AcDbLine
 62
7
  6
CONTINUOUS
 10
229.0975463544
 20
114.3799308353
 11
229.0975463544
 21
156.4811498519
  0
ARC
  5
2D6
100
AcDbEntity
  8
0
100
AcDbCircle
 62
7
  6
CONTINUOUS
 10
-39.6544648416
 20
116.1210515141
 40
110.4813700658
100
AcDbArc
 50
13.4640903998
 51
14.4111621352
  0
ARC
  5
2D7
100
AcDbEntity
  8
ACHSEN
100
AcDbCircle
 62
7
  6
CONTINUOUS
 10
44.359117974
 20
119.8621371586
 40
35.8451025478
100
AcDbArc
 50
98.0149288422
 51
101.1172700805
  0
ARC
  5
2D8
100
AcDbEntity
  8
RUNDUNGEN
100
AcDbCircle
 62
7
  6
CONTINUOUS
 10
92.0975463544
 20
162.9055403436
 40
1.0
100
AcDbArc
 50
180.0000000002
 51
270.0
  0
ARC
  5
2D9
100
AcDbEntity
  8
RUNDUNGEN
100
AcDbCircle
 62
7
  6
CONTINUOUS
 10
92.0975463544
 20
107.9555403436
 40
1.0
100
AcDbArc
 50
90.0
 51
179.9999999995
  0
ARC
  5
2DA
100
AcDbEntity
  8
0
100
AcDbCircle
 62
7
  6
CONTINUOUS
 10
68.4975463544
 20
111.9805403436
 40
1.0
100
AcDbArc
 50
53.102347605
 51
135.0
  0
ARC
  5
2DB
100
AcDbEntity
  8
0
100
AcDbCircle
 62
7
  6
CONTINUOUS
 10
68.4975463544
 20
158.8805403436
 40
1.0
100
AcDbArc
 50
293.5781784782
 51
306.897652395
  0
ARC
  5
2DC
100
AcDbEntity
  8
0
100
AcDbCircle
 62
7
  6
CONTINUOUS
 10
68.6975463544
 20
156.0958613934
 40
0.2
100
AcDbArc
 50
271.439166666
 51
360.0
  0
ARC
  5
2DD
100
AcDbEntity
  8
0
100
AcDbCircle
 62
7
  6
CONTINUOUS
 10
67.0975463544
 20
156.0556638243
 40
0.2
100
AcDbArc
 50
181.439166666
 51
271.439166666
  0
ARC
  5
2DE
100
AcDbEntity
  8
ACHSEN
100
AcDbCircle
 62
7
  6
CONTINUOUS
 10
-32.6606706235
 20
283.8264798961
 40
144.4768984249
100
AcDbArc
 50
296.187103939
 51
296.8519184685
  0
ARC
  5
2DF
100
AcDbEntity
  8
FASEN
100
AcDbCircle
 62
7
  6
CONTINUOUS
 10
80.4260521954
 20
202.1750881289
 40
35.7340046496
100
AcDbArc
 50
278.5204424671
 51
279.4937166383
  0
ARC
  5
2E0
100
AcDbEntity
  8
FASEN
100
AcDbCircle
 62
7
  6
CONTINUOUS
 10
81.3861898786
 20
199.7523257498
 40
33.2812609726
100
AcDbArc
 50
260.5303369409
 51
261.5206938832
  0
ARC
  5
2E1
100
AcDbEntity
  8
FASEN
100
AcDbCircle
 62
7
  6
CONTINUOUS
 10
81.0575699807
 20
198.0337490239
 40
31.5448080342
100
AcDbArc
 50
270.0726103042
 51
278.5005399283
  0
ARC
  5
2E2
100
AcDbEntity
  8
FASEN
100
AcDbCircle
 62
7
  6
CONTINUOUS
 10
81.1102337673
 20
197.668990181
 40
31.1800264418
100
AcDbArc
 50
261.4577517884
 51
269.9766858686
  0
ARC
  5
2E3
100
AcDbEntity
  8
0
100
AcDbCircle
 62
7
  6
CONTINUOUS
 10
213.3317191287
 20
86.4563424724
 40
159.2595221578
100
AcDbArc
 50
156.0446773748
 51
156.4374589831
  0
ARC
  5
2E4
100
AcDbEntity
  8
BEZUGSACHSEN
100
AcDbCircle
 62
7
  6
CONTINUOUS
 10
159.109278477
 20
82.9778074931
 40
26.3975006774
100
AcDbArc
 50
90.7311728909
 51
95.4599749462
  0
ARC
  5
2E5
100
AcDbEntity
  8
BEZUGSACHSEN
100
AcDbCircle
 62
7
  6
CONTINUOUS
 10
159.0921660035
 20
83.092799459
 40
26.2824264727
100
AcDbArc
 50
84.5299565431
 51
89.1362570704
  0
ARC
  5
2E6
100
AcDbEntity
  8
BEZUGSACHSEN
100
AcDbCircle
 62
7
  6
CONTINUOUS
 10
159.095499366
 20
83.3303750911
 40
26.0448275881
100
AcDbArc
 50
89.1357106817
 51
90.7177567789
  0
ARC
  5
2E7
100
AcDbEntity
  8
BEZUGSACHSEN
100
AcDbCircle
 62
7
  6
CONTINUOUS
 10
159.0961932659
 20
126.9091487222
 40
2.8811864948
100
AcDbArc
 50
270.8369239118
 51
278.6924516294
  0
ARC
  5
2E8
100
AcDbEntity
  8
BEZUGSACHSEN
100
AcDbCircle
 62
7
  6
CONTINUOUS
 10
159.0988994428
 20
126.9091487222
 40
2.8811864948
100
AcDbArc
 50
261.3075483706
 51
269.1630760882
  0
ARC
  5
2E9
100
AcDbEntity
  8
BEZUGSACHSEN
100
AcDbCircle
 62
7
  6
CONTINUOUS
 10
159.0988994428
 20
143.951931965
 40
2.8811864948
100
AcDbArc
 50
90.8369239118
 51
98.6924516294
  0
ARC
  5
2EA
100
AcDbEntity
  8
BEZUGSACHSEN
100
AcDbCircle
 62
7
  6
CONTINUOUS
 10
159.0961932659
 20
143.951931965
 40
2.8811864948
100
AcDbArc
 50
81.3075483705
 51
89.1630760882
  0
ARC
  5
2EB
100
AcDbEntity
  8
BEZUGSACHSEN
100
AcDbCircle
 62
7
  6
CONTINUOUS
 10
159.097563433
 20
126.8638969402
 40
2.8359201061
100
AcDbArc
 50
269.1767113831
 51
270.8232886169
  0
ARC
  5
2EC
100
AcDbEntity
  8
BEZUGSACHSEN
100
AcDbCircle
 62
7
  6
CONTINUOUS
 10
159.0975292758
 20
143.997183747
 40
2.8359201061
100
AcDbArc
 50
89.176711383
 51
90.823288617
  0
ARC
  5
2ED
100
AcDbEntity
  8
RUNDUNGEN
100
AcDbCircle
 62
7
  6
CONTINUOUS
 10
228.0975463544
 20
156.4811498519
 40
1.0
100
AcDbArc
 50
0.0
 51
85.4999999973
  0
ARC
  5
2EE
100
AcDbEntity
  8
RUNDUNGEN
100
AcDbCircle
 62
7
  6
CONTINUOUS
 10
228.0975463544
 20
114.3799308353
 40
1.0
100
AcDbArc
 50
274.5000000021
 51
360.0
  0
ARC
  5
2EF
100
AcDbEntity
  8
RUNDUNGEN
100
AcDbCircle
 62
7
  6
CONTINUOUS
 10
162.6135717582
 20
162.4055403436
 40
0.8
100
AcDbArc
 50
270.0
 51
300.000000002
  0
ARC
  5
2F0
100
AcDbEntity
  8
RUNDUNGEN
100
AcDbCircle
 62
7
  6
CONTINUOUS
 10
162.6135717582
 20
108.4555403436
 40
0.8
100
AcDbArc
 50
59.9999999978
 51
90.0
  0
ARC
  5
2F1
100
AcDbEntity
  8
RUNDUNGEN
100
AcDbCircle
 62
7
  6
CONTINUOUS
 10
155.5815209506
 20
162.4055403436
 40
0.8
100
AcDbArc
 50
239.999999998
 51
270.0
  0
ARC
  5
2F2
100
AcDbEntity
  8
RUNDUNGEN
100
AcDbCircle
 62
7
  6
CONTINUOUS
 10
155.5815209506
 20
108.4555403436
 40
0.8
100
AcDbArc
 50
90.0
 51
120.0000000021
  0
ARC
  5
2F3
100
AcDbEntity
  8
BEZUGSACHSEN
100
AcDbCircle
 62
7
  6
CONTINUOUS
 10
159.0858054144
 20
187.8834411287
 40
26.3976686891
100
AcDbArc
 50
270.7307526967
 51
275.4599593151
  0
ARC
  5
2F4
100
AcDbEntity
  8
BEZUGSACHSEN
100
AcDbCircle
 62
7
  6
CONTINUOUS
 10
159.1029260154
 20
187.7682564977
 40
26.2824017892
100
AcDbArc
 50
264.5299529009
 51
269.1367397827
  0
ARC
  5
2F5
100
AcDbEntity
  8
BEZUGSACHSEN
100
AcDbCircle
 62
7
  6
CONTINUOUS
 10
159.0995899377
 20
187.5307168432
 40
26.0448388349
100
AcDbArc
 50
269.1362049627
 51
270.7173119639
  0
SPLINE
  5
2F6
100
AcDbEntity
  8
0
100
AcDbSpline
 62
2
  6
CONTINUOUS
 70
0
 71
3
 72
18
 73
14
 74
0
 42
0.0000001
 43
0.0000001
 44
0.0000000001
 40
0.0
 40
0.0
 40
0.0
 40
0.0
 40
0.0909090909
 40
0.1818181818
 40
0.2727272727
 40
0.3636363636
 40
0.4545454545
 40
0.5454545455
 40
0.6363636364
 40
0.7272727273
 40
0.8181818182
 40
0.9090909091
 40
1.0
 40
1.0
 40
1.0
 40
1.0
 10
159.0975463544
 20
145.8337200812
 30
0.0
 10
159.3816307985
 20
145.8337200812
 30
0.0
 10
159.9504519581
 20
145.9090234261
 30
0.0
 10
160.7357309715
 20
146.2369402441
 30
0.0
 10
161.3932153568
 20
146.7540312964
 30
0.0
 10
161.8573520142
 20
147.4016566917
 30
0.0
 10
162.1036186679
 20
148.1200455067
 30
0.0
 10
162.1116840309
 20
148.8874194741
 30
0.0
 10
161.8577008312
 20
149.6104870848
 30
0.0
 10
161.3930635086
 20
150.2079270518
 30
0.0
 10
160.7353015131
 20
150.6752568391
 30
0.0
 10
159.9506382986
 20
150.9639978605
 30
0.0
 10
159.3817291864
 20
151.0298725039
 30
0.0
 10
159.0975463544
 20
151.0298725039
 30
0.0
  0
SPLINE
  5
2F7
100
AcDbEntity
  8
0
100
AcDbSpline
 62
7
  6
CONTINUOUS
 70
0
 71
3
 72
21
 73
17
 74
0
 42
0.0000001
 43
0.0000001
 44
0.0000000001
 40
0.0
 40
0.0
 40
0.0
 40
0.0
 40
0.125
 40
0.1875
 40
0.25
 40
0.3125
 40
0.375
 40
0.4375
 40
0.5
 40
0.5625
 40
0.625
 40
0.6875
 40
0.75
 40
0.8125
 40
0.875
 40
1.0
 40
1.0
 40
1.0
 40
1.0
 10
160.9871903847
 20
147.0855854325
 30
0.0
 10
160.9256418859
 20
147.1390750594
 30
0.0
 10
160.8346933524
 20
147.2202314577
 30
0.0
 10
160.7079317825
 20
147.3247521576
 30
0.0
 10
160.5971227765
 20
147.3916328484
 30
0.0
 10
160.4930535642
 20
147.4649379678
 30
0.0
 10
160.3777630059
 20
147.5240552071
 30
0.0
 10
160.2589679542
 20
147.5777445339
 30
0.0
 10
160.1445871805
 20
147.6394558887
 30
0.0
 10
160.0160537882
 20
147.6745070437
 30
0.0
 10
159.8916539456
 20
147.7176825578
 30
0.0
 10
159.7648725229
 20
147.7550208354
 30
0.0
 10
159.6325947358
 20
147.7757483901
 30
0.0
 10
159.5029057165
 20
147.8050854529
 30
0.0
 10
159.3235087486
 20
147.8204317907
 30
0.0
 10
159.1877729151
 20
147.8274340257
 30
0.0
 10
159.0975463833
 20
147.8331038531
 30
0.0
  0
SPLINE
  5
2F8
100
AcDbEntity
  8
0
100
AcDbSpline
 62
7
  6
CONTINUOUS
 70
0
 71
3
 72
21
 73
17
 74
0
 42
0.0000001
 43
0.0000001
 44
0.0000000001
 40
0.0
 40
0.0
 40
0.0
 40
0.0
 40
0.125
 40
0.1875
 40
0.25
 40
0.3125
 40
0.375
 40
0.4375
 40
0.5
 40
0.5625
 40
0.625
 40
0.6875
 40
0.75
 40
0.8125
 40
0.875
 40
1.0
 40
1.0
 40
1.0
 40
1.0
 10
159.0975463544
 20
147.8331038531
 30
0.0
 10
159.0105631663
 20
147.8278362908
 30
0.0
 10
158.8801834572
 20
147.821438136
 30
0.0
 10
158.7059635528
 20
147.8068945081
 30
0.0
 10
158.5750401599
 20
147.7781490291
 30
0.0
 10
158.4429223812
 20
147.7580216694
 30
0.0
 10
158.3158406106
 20
147.7212595905
 30
0.0
 10
158.191201748
 20
147.6786496516
 30
0.0
 10
158.0624515224
 20
147.6441815635
 30
0.0
 10
157.9477038411
 20
147.5829939319
 30
0.0
 10
157.8285715443
 20
147.5298312526
 30
0.0
 10
157.7129751648
 20
147.4712883077
 30
0.0
 10
157.6082757369
 20
147.3982698088
 30
0.0
 10
157.4977645964
 20
147.3325904637
 30
0.0
 10
157.3668829404
 20
147.2251765888
 30
0.0
 10
157.2718697124
 20
147.1408790212
 30
0.0
 10
157.2078280017
 20
147.0855111231
 30
0.0
  0
SPLINE
  5
2F9
100
AcDbEntity
  8
0
100
AcDbSpline
 62
2
  6
CONTINUOUS
 70
0
 71
3
 72
18
 73
14
 74
0
 42
0.0000001
 43
0.0000001
 44
0.0000000001
 40
0.0
 40
0.0
 40
0.0
 40
0.0
 40
0.0909090909
 40
0.1818181818
 40
0.2727272727
 40
0.3636363636
 40
0.4545454545
 40
0.5454545455
 40
0.6363636364
 40
0.7272727273
 40
0.8181818182
 40
0.9090909091
 40
1.0
 40
1.0
 40
1.0
 40
1.0
 10
159.0975463544
 20
151.0298725039
 30
0.0
 10
158.8139998731
 20
151.0298725039
 30
0.0
 10
158.2462803709
 20
150.9644045423
 30
0.0
 10
157.462337408
 20
150.6761747746
 30
0.0
 10
156.8054480074
 20
150.2119085361
 30
0.0
 10
156.3409325139
 20
149.6124256416
 30
0.0
 10
156.0919017992
 20
148.9231496495
 30
0.0
 10
156.0832226833
 20
148.1458304631
 30
0.0
 10
156.3404119486
 20
147.392935588
 30
0.0
 10
156.8055987439
 20
146.7512825685
 30
0.0
 10
157.46277521
 20
146.2349080779
 30
0.0
 10
158.2460863523
 20
145.9089025109
 30
0.0
 10
158.8138979662
 20
145.8337200812
 30
0.0
 10
159.0975463544
 20
145.8337200812
 30
0.0
  0
SPLINE
  5
2FA
100
AcDbEntity
  8
0
100
AcDbSpline
 62
2
  6
CONTINUOUS
 70
0
 71
3
 72
18
 73
14
 74
0
 42
0.0000001
 43
0.0000001
 44
0.0000000001
 40
0.0
 40
0.0
 40
0.0
 40
0.0
 40
0.0909090909
 40
0.1818181818
 40
0.2727272727
 40
0.3636363636
 40
0.4545454545
 40
0.5454545455
 40
0.6363636364
 40
0.7272727273
 40
0.8181818182
 40
0.9090909091
 40
1.0
 40
1.0
 40
1.0
 40
1.0
 10
159.0975463544
 20
119.8312081833
 30
0.0
 10
159.3816307985
 20
119.8312081833
 30
0.0
 10
159.9504519581
 20
119.896929377
 30
0.0
 10
160.7357309715
 20
120.186273179
 30
0.0
 10
161.3932153568
 20
120.6523901945
 30
0.0
 10
161.8573520142
 20
121.2538531344
 30
0.0
 10
162.1036186679
 20
121.9443902853
 30
0.0
 10
162.1116840309
 20
122.7108411967
 30
0.0
 10
161.8577008312
 20
123.4626687582
 30
0.0
 10
161.3930635086
 20
124.1062981156
 30
0.0
 10
160.7353015131
 20
124.6246155447
 30
0.0
 10
159.9506382986
 20
124.9518930257
 30
0.0
 10
159.3817291864
 20
125.027360606
 30
0.0
 10
159.0975463544
 20
125.027360606
 30
0.0
  0
SPLINE
  5
2FB
100
AcDbEntity
  8
0
100
AcDbSpline
 62
7
  6
CONTINUOUS
 70
0
 71
3
 72
21
 73
17
 74
0
 42
0.0000001
 43
0.0000001
 44
0.0000000001
 40
0.0
 40
0.0
 40
0.0
 40
0.0
 40
0.125
 40
0.1875
 40
0.25
 40
0.3125
 40
0.375
 40
0.4375
 40
0.5
 40
0.5625
 40
0.625
 40
0.6875
 40
0.75
 40
0.8125
 40
0.875
 40
1.0
 40
1.0
 40
1.0
 40
1.0
 10
159.0975463544
 20
123.0279768341
 30
0.0
 10
159.1845295425
 20
123.0332443965
 30
0.0
 10
159.3149092516
 20
123.0396425512
 30
0.0
 10
159.4891291559
 20
123.0541861791
 30
0.0
 10
159.6200525488
 20
123.0829316581
 30
0.0
 10
159.7521703276
 20
123.1030590178
 30
0.0
 10
159.8792520982
 20
123.1398210967
 30
0.0
 10
160.0038909607
 20
123.1824310356
 30
0.0
 10
160.1326411863
 20
123.2168991237
 30
0.0
 10
160.2473888677
 20
123.2780867553
 30
0.0
 10
160.3665211645
 20
123.3312494346
 30
0.0
 10
160.4821175439
 20
123.3897923795
 30
0.0
 10
160.5868169719
 20
123.4628108784
 30
0.0
 10
160.6973281123
 20
123.5284902235
 30
0.0
 10
160.8282097684
 20
123.6359040984
 30
0.0
 10
160.9232229964
 20
123.720201666
 30
0.0
 10
160.9872647071
 20
123.7755695641
 30
0.0
  0
SPLINE
  5
2FC
100
AcDbEntity
  8
0
100
AcDbSpline
 62
7
  6
CONTINUOUS
 70
0
 71
3
 72
21
 73
17
 74
0
 42
0.0000001
 43
0.0000001
 44
0.0000000001
 40
0.0
 40
0.0
 40
0.0
 40
0.0
 40
0.125
 40
0.1875
 40
0.25
 40
0.3125
 40
0.375
 40
0.4375
 40
0.5
 40
0.5625
 40
0.625
 40
0.6875
 40
0.75
 40
0.8125
 40
0.875
 40
1.0
 40
1.0
 40
1.0
 40
1.0
 10
157.207902324
 20
123.7754952548
 30
0.0
 10
157.2694508228
 20
123.7220056278
 30
0.0
 10
157.3603993563
 20
123.6408492295
 30
0.0
 10
157.4871609263
 20
123.5363285296
 30
0.0
 10
157.5979699322
 20
123.4694478388
 30
0.0
 10
157.7020391446
 20
123.3961427194
 30
0.0
 10
157.8173297028
 20
123.3370254801
 30
0.0
 10
157.9361247545
 20
123.2833361533
 30
0.0
 10
158.0505055283
 20
123.2216247985
 30
0.0
 10
158.1790389205
 20
123.1865736435
 30
0.0
 10
158.3034387631
 20
123.1433981294
 30
0.0
 10
158.4302201858
 20
123.1060598518
 30
0.0
 10
158.5624979729
 20
123.0853322971
 30
0.0
 10
158.6921869923
 20
123.0559952343
 30
0.0
 10
158.8715839602
 20
123.0406488965
 30
0.0
 10
159.0073197937
 20
123.0336466615
 30
0.0
 10
159.0975463255
 20
123.0279768341
 30
0.0
  0
SPLINE
  5
2FD
100
AcDbEntity
  8
0
100
AcDbSpline
 62
2
  6
CONTINUOUS
 70
0
 71
3
 72
18
 73
14
 74
0
 42
0.0000001
 43
0.0000001
 44
0.0000000001
 40
0.0
 40
0.0
 40
0.0
 40
0.0
 40
0.0909090909
 40
0.1818181818
 40
0.2727272727
 40
0.3636363636
 40
0.4545454545
 40
0.5454545455
 40
0.6363636364
 40
0.7272727273
 40
0.8181818182
 40
0.9090909091
 40
1.0
 40
1.0
 40
1.0
 40
1.0
 10
159.0975463544
 20
125.027360606
 30
0.0
 10
158.8139998731
 20
125.027360606
 30
0.0
 10
158.2462803709
 20
124.9523475619
 30
0.0
 10
157.462337408
 20
124.6256856778
 30
0.0
 10
156.8054480074
 20
124.1105796243
 30
0.0
 10
156.3409325139
 20
123.4649674479
 30
0.0
 10
156.0919017992
 20
122.747546376
 30
0.0
 10
156.0832226833
 20
121.9692335929
 30
0.0
 10
156.3404119486
 20
121.2454465472
 30
0.0
 10
156.8055987439
 20
120.6499661004
 30
0.0
 10
157.46277521
 20
120.1844450949
 30
0.0
 10
158.2460863523
 20
119.8968344335
 30
0.0
 10
158.8138979662
 20
119.8312081833
 30
0.0
 10
159.0975463544
 20
119.8312081833
 30
0.0
  0
SPLINE
  5
2FE
100
AcDbEntity
  8
0
100
AcDbSpline
 62
2
  6
CONTINUOUS
 70
0
 71
3
 72
13
 73
9
 74
0
 42
0.0000001
 43
0.0000001
 44
0.0000000001
 40
0.0
 40
0.0
 40
0.0
 40
0.0
 40
0.1666666667
 40
0.3333333333
 40
0.5
 40
0.6666666667
 40
0.8333333333
 40
1.0
 40
1.0
 40
1.0
 40
1.0
 10
162.0975463544
 20
109.2555403436
 30
0.0
 10
162.0975463544
 20
109.2555403436
 30
0.0
 10
162.0260831765
 20
109.2638698209
 30
0.0
 10
161.7221810334
 20
109.2968463999
 30
0.0
 10
161.242763982
 20
109.341684599
 30
0.0
 10
160.6090300573
 20
109.3871548694
 30
0.0
 10
159.8809507952
 20
109.4199551275
 30
0.0
 10
159.358574559
 20
109.4280284457
 30
0.0
 10
159.0975463544
 20
109.4280284457
 30
0.0
  0
SPLINE
  5
2FF
100
AcDbEntity
  8
0
100
AcDbSpline
 62
2
  6
CONTINUOUS
 70
0
 71
3
 72
13
 73
9
 74
0
 42
0.0000001
 43
0.0000001
 44
0.0000000001
 40
0.0
 40
0.0
 40
0.0
 40
0.0
 40
0.1666666667
 40
0.3333333333
 40
0.5
 40
0.6666666667
 40
0.8333333333
 40
1.0
 40
1.0
 40
1.0
 40
1.0
 10
159.0975463544
 20
109.4280284457
 30
0.0
 10
158.8366313502
 20
109.4280284457
 30
0.0
 10
158.3144368371
 20
109.4199621421
 30
0.0
 10
157.5864493424
 20
109.3871775896
 30
0.0
 10
156.9526563926
 20
109.3417112718
 30
0.0
 10
156.4733399707
 20
109.2968896656
 30
0.0
 10
156.1691647103
 20
109.2638881775
 30
0.0
 10
156.0975463544
 20
109.2555403436
 30
0.0
 10
156.0975463544
 20
109.2555403436
 30
0.0
  0
SPLINE
  5
300
100
AcDbEntity
  8
0
100
AcDbSpline
 62
2
  6
CONTINUOUS
 70
0
 71
3
 72
13
 73
9
 74
0
 42
0.0000001
 43
0.0000001
 44
0.0000000001
 40
0.0
 40
0.0
 40
0.0
 40
0.0
 40
0.1666666667
 40
0.3333333333
 40
0.5
 40
0.6666666667
 40
0.8333333333
 40
1.0
 40
1.0
 40
1.0
 40
1.0
 10
159.0975463544
 20
161.4330522415
 30
0.0
 10
159.3580970879
 20
161.4330522415
 30
0.0
 10
159.8796698757
 20
161.4410892168
 30
0.0
 10
160.6080889767
 20
161.4738704022
 30
0.0
 10
161.2406711441
 20
161.5192443254
 30
0.0
 10
161.7181403387
 20
161.5638124874
 30
0.0
 10
162.0290577112
 20
161.5975328604
 30
0.0
 10
162.0975463544
 20
161.6055403436
 30
0.0
 10
162.0975463544
 20
161.6055403436
 30
0.0
  0
SPLINE
  5
301
100
AcDbEntity
  8
0
100
AcDbSpline
 62
2
  6
CONTINUOUS
 70
0
 71
3
 72
13
 73
9
 74
0
 42
0.0000001
 43
0.0000001
 44
0.0000000001
 40
0.0
 40
0.0
 40
0.0
 40
0.0
 40
0.1666666667
 40
0.3333333333
 40
0.5
 40
0.6666666667
 40
0.8333333333
 40
1.0
 40
1.0
 40
1.0
 40
1.0
 10
156.0975463544
 20
161.6055403436
 30
0.0
 10
156.0975463544
 20
161.6055403436
 30
0.0
 10
156.1660844615
 20
161.5975291356
 30
0.0
 10
156.4762765601
 20
161.5638811825
 30
0.0
 10
156.9540375969
 20
161.5192747122
 30
0.0
 10
157.586523214
 20
161.473898674
 30
0.0
 10
158.3151112306
 20
161.4410959731
 30
0.0
 10
158.8368786261
 20
161.4330522415
 30
0.0
 10
159.0975463544
 20
161.4330522415
 30
0.0
  0
LINE
  5
302
100
AcDbEntity
  8
FASEN
100
AcDbLine
 62
7
  6
CONTINUOUS
 10
75.9105782781
 20
166.924593426
 11
75.8750936718
 21
166.9305072841
  0
LINE
  5
303
100
AcDbEntity
  8
FASEN
100
AcDbLine
 62
7
  6
CONTINUOUS
 10
86.2845144307
 20
166.924593426
 11
86.3199990369
 21
166.9305072841
  0
LINE
  5
304
100
AcDbEntity
  8
ACHSEN
100
AcDbLine
 62
7
  6
CONTINUOUS
 10
37.4475463544
 20
155.0345916423
 11
32.5975463544
 21
154.9275299571
  0
LINE
  5
305
100
AcDbEntity
  8
ACHSEN
100
AcDbLine
 62
7
  6
CONTINUOUS
 10
39.2383173859
 20
155.3395797622
 11
39.3611657023
 21
155.3570924195
  0
LINE
  5
306
100
AcDbEntity
  8
ACHSEN
100
AcDbLine
 62
7
  6
CONTINUOUS
 10
39.3611657023
 20
155.3570924195
 11
39.3761166404
 21
155.3591981489
  0
SPLINE
  5
307
100
AcDbEntity
  8
BEZUGSACHSEN
100
AcDbSpline
 62
7
  6
CONTINUOUS
 70
0
 71
3
 72
13
 73
9
 74
0
 42
0.0000001
 43
0.0000001
 44
0.0000000001
 40
0.0
 40
0.0
 40
0.0
 40
0.0
 40
0.115806727
 40
0.2340313305
 40
0.3553745162
 40
0.4799952332
 40
0.7365565327
 40
1.0
 40
1.0
 40
1.0
 40
1.0
 10
161.5975463367
 20
148.5180616256
 30
0.0
 10
161.5975454502
 20
148.3755231899
 30
0.0
 10
161.5642318253
 20
148.0865167167
 30
0.0
 10
161.4195061059
 20
147.6703809146
 30
0.0
 10
161.1856954892
 20
147.2841199109
 30
0.0
 10
160.7645656601
 20
146.8263830532
 30
0.0
 10
160.0675497155
 20
146.4083864569
 30
0.0
 10
159.4218005724
 20
146.2931457066
 30
0.0
 10
159.0975463544
 20
146.2931457066
 30
0.0
  0
SPLINE
  5
308
100
AcDbEntity
  8
BEZUGSACHSEN
100
AcDbSpline
 62
7
  6
CONTINUOUS
 70
0
 71
3
 72
13
 73
9
 74
0
 42
0.0000001
 43
0.0000001
 44
0.0000000001
 40
0.0
 40
0.0
 40
0.0
 40
0.0
 40
0.115806727
 40
0.2340313305
 40
0.3553745162
 40
0.4799952332
 40
0.7365565327
 40
1.0
 40
1.0
 40
1.0
 40
1.0
 10
156.597546372
 20
122.3430190616
 30
0.0
 10
156.5975472586
 20
122.4855574973
 30
0.0
 10
156.6308608834
 20
122.7745639705
 30
0.0
 10
156.7755866028
 20
123.1906997726
 30
0.0
 10
157.0093972196
 20
123.5769607763
 30
0.0
 10
157.4305270486
 20
124.034697634
 30
0.0
 10
158.1275429932
 20
124.4526942304
 30
0.0
 10
158.7732921363
 20
124.5679349806
 30
0.0
 10
159.0975463544
 20
124.5679349806
 30
0.0
  0
SPLINE
  5
309
100
AcDbEntity
  8
BEZUGSACHSEN
100
AcDbSpline
 62
7
  6
CONTINUOUS
 70
0
 71
3
 72
13
 73
9
 74
0
 42
0.0000001
 43
0.0000001
 44
0.0000000001
 40
0.0
 40
0.0
 40
0.0
 40
0.0
 40
0.2634436656
 40
0.5200032515
 40
0.6446235711
 40
0.765971093
 40
0.8841958039
 40
1.0
 40
1.0
 40
1.0
 40
1.0
 10
159.0975463544
 20
124.5679349806
 30
0.0
 10
159.4217971874
 20
124.5679349806
 30
0.0
 10
160.0675351916
 20
124.4526936058
 30
0.0
 10
160.764550015
 20
124.0347174005
 30
0.0
 10
161.1856764219
 20
123.5769821853
 30
0.0
 10
161.4194885472
 20
123.190723322
 30
0.0
 10
161.5642313136
 20
122.7745964766
 30
0.0
 10
161.5975472233
 20
122.4855953545
 30
0.0
 10
161.5975463367
 20
122.3430616292
 30
0.0
  0
SPLINE
  5
30A
100
AcDbEntity
  8
BEZUGSACHSEN
100
AcDbSpline
 62
7
  6
CONTINUOUS
 70
0
 71
3
 72
13
 73
9
 74
0
 42
0.0000001
 43
0.0000001
 44
0.0000000001
 40
0.0
 40
0.0
 40
0.0
 40
0.0
 40
0.2634436656
 40
0.5200032515
 40
0.6446235711
 40
0.765971093
 40
0.8841958039
 40
1.0
 40
1.0
 40
1.0
 40
1.0
 10
159.0975463544
 20
146.2931457066
 30
0.0
 10
158.7732955213
 20
146.2931457066
 30
0.0
 10
158.1275575172
 20
146.4083870814
 30
0.0
 10
157.4305426937
 20
146.8263632867
 30
0.0
 10
157.0094162869
 20
147.284098502
 30
0.0
 10
156.7756041615
 20
147.6703573653
 30
0.0
 10
156.6308613951
 20
148.0864842106
 30
0.0
 10
156.5975454855
 20
148.3754853327
 30
0.0
 10
156.597546372
 20
148.518019058
 30
0.0
  0
LINE
  5
30B
100
AcDbEntity
  8
FASEN
100
AcDbLine
 62
7
  6
CONTINUOUS
 10
75.875093672
 20
166.930507284
 11
75.9129472005
 21
166.9241981013
  0
LINE
  5
30C
100
AcDbEntity
  8
ACHSEN
100
AcDbLine
 62
7
  6
CONTINUOUS
 10
39.37611664
 20
155.3591981488
 11
39.3611952525
 21
155.3570965913
  0
SPLINE
  5
30D
100
AcDbEntity
  8
ACHSEN
100
AcDbSpline
 62
7
  6
CONTINUOUS
 70
0
 71
3
 72
11
 73
7
 74
0
 42
0.0000001
 43
0.0000001
 44
0.0000000001
 40
0.0
 40
0.0
 40
0.0
 40
0.0
 40
0.1537099379
 40
0.500508937
 40
0.8472910559
 40
1.0
 40
1.0
 40
1.0
 40
1.0
 10
58.2769076876
 20
155.834058679
 30
0.0
 10
57.8133224185
 20
155.7627817243
 30
0.0
 10
56.2990901043
 20
155.5587239519
 30
0.0
 10
53.7163156768
 20
155.37321492
 30
0.0
 10
51.1302696469
 20
155.4261621387
 30
0.0
 10
49.6109804641
 20
155.5559286314
 30
0.0
 10
49.1475463544
 20
155.6046973458
 30
0.0
  0
SPLINE
  5
30E
100
AcDbEntity
  8
0
100
AcDbSpline
 62
7
  6
CONTINUOUS
 70
0
 71
3
 72
11
 73
7
 74
0
 42
0.0000001
 43
0.0000001
 44
0.0000000001
 40
0.0
 40
0.0
 40
0.0
 40
0.0
 40
0.2536313865
 40
0.5046749499
 40
0.7531440587
 40
1.0
 40
1.0
 40
1.0
 40
1.0
 10
82.5588712198
 20
126.0813190291
 30
0.0
 10
82.6195251868
 20
126.0813190291
 30
0.0
 10
82.7400030279
 20
126.0304428059
 30
0.0
 10
82.8567142
 20
125.8903302393
 30
0.0
 10
82.93878299
 20
125.730821589
 30
0.0
 10
82.9763072029
 20
125.618069276
 30
0.0
 10
82.9918839217
 20
125.5611277246
 30
0.0
  0
SPLINE
  5
30F
100
AcDbEntity
  8
0
100
AcDbSpline
 62
7
  6
CONTINUOUS
 70
0
 71
3
 72
9
 73
5
 74
0
 42
0.0000001
 43
0.0000001
 44
0.0000000001
 40
0.0
 40
0.0
 40
0.0
 40
0.0
 40
0.1680195226
 40
1.0
 40
1.0
 40
1.0
 40
1.0
 10
82.9918839217
 20
105.5165854971
 30
0.0
 10
82.9750356486
 20
105.4962653812
 30
0.0
 10
82.8595823661
 20
105.387784405
 30
0.0
 10
82.6895781311
 20
105.3499475833
 30
0.0
 10
82.5588712198
 20
105.3499475833
 30
0.0
  0
SPLINE
  5
310
100
AcDbEntity
  8
0
100
AcDbSpline
 62
7
  6
CONTINUOUS
 70
0
 71
3
 72
11
 73
7
 74
0
 42
0.0000001
 43
0.0000001
 44
0.0000000001
 40
0.0
 40
0.0
 40
0.0
 40
0.0
 40
0.2468743153
 40
0.4953615093
 40
0.7464260843
 40
1.0
 40
1.0
 40
1.0
 40
1.0
 10
79.2032087871
 20
125.5611277246
 30
0.0
 10
79.2187865996
 20
125.6180732744
 30
0.0
 10
79.2563153771
 20
125.7308321277
 30
0.0
 10
79.3383868726
 20
125.8903562966
 30
0.0
 10
79.4551192336
 20
126.0304434027
 30
0.0
 10
79.5755815212
 20
126.0813190291
 30
0.0
 10
79.636221489
 20
126.0813190291
 30
0.0
  0
SPLINE
  5
311
100
AcDbEntity
  8
0
100
AcDbSpline
 62
7
  6
CONTINUOUS
 70
0
 71
3
 72
9
 73
5
 74
0
 42
0.0000001
 43
0.0000001
 44
0.0000000001
 40
0.0
 40
0.0
 40
0.0
 40
0.0
 40
0.3641598889
 40
1.0
 40
1.0
 40
1.0
 40
1.0
 10
79.636221489
 20
105.3499475833
 30
0.0
 10
79.5788450671
 20
105.3499475833
 30
0.0
 10
79.4226587341
 20
105.3660666773
 30
0.0
 10
79.2671527434
 20
105.4394649162
 30
0.0
 10
79.2032087871
 20
105.5165854971
 30
0.0
  0
SPLINE
  5
312
100
AcDbEntity
  8
0
100
AcDbSpline
 62
7
  6
CONTINUOUS
 70
0
 71
3
 72
9
 73
5
 74
0
 42
0.0000001
 43
0.0000001
 44
0.0000000001
 40
0.0
 40
0.0
 40
0.0
 40
0.0
 40
0.3642526053
 40
1.0
 40
1.0
 40
1.0
 40
1.0
 10
82.5588712198
 20
165.5111331039
 30
0.0
 10
82.6162626263
 20
165.5111331039
 30
0.0
 10
82.7724520848
 20
165.4950185484
 30
0.0
 10
82.9279488701
 20
165.4216050313
 30
0.0
 10
82.9918839217
 20
165.3444951901
 30
0.0
  0
SPLINE
  5
313
100
AcDbEntity
  8
0
100
AcDbSpline
 62
7
  6
CONTINUOUS
 70
0
 71
3
 72
21
 73
17
 74
0
 42
0.0000001
 43
0.0000001
 44
0.0000000001
 40
0.0
 40
0.0
 40
0.0
 40
0.0
 40
0.0152736556
 40
0.0307400416
 40
0.0615944727
 40
0.0924597446
 40
0.1233512662
 40
0.1852330485
 40
0.2472659363
 40
0.3094463907
 40
0.3717660941
 40
0.4967787028
 40
0.6222117836
 40
0.747963109
 40
0.8739278454
 40
1.0
 40
1.0
 40
1.0
 40
1.0
 10
67.1025694655
 20
143.6164835303
 30
0.0
 10
67.0873071503
 20
143.616421111
 30
0.0
 10
67.0616189854
 20
143.5904239563
 30
0.0
 10
67.0358778928
 20
143.5366714205
 30
0.0
 10
67.0122303629
 20
143.4618995275
 30
0.0
 10
66.9924319895
 20
143.3718047031
 30
0.0
 10
66.9714543145
 20
143.2499073389
 30
0.0
 10
66.9525509144
 20
143.0963585355
 30
0.0
 10
66.9363232743
 20
142.9110745833
 30
0.0
 10
66.9245540798
 20
142.7250405159
 30
0.0
 10
66.9130994398
 20
142.4759646636
 30
0.0
 10
66.9046856758
 20
142.1635191445
 30
0.0
 10
66.8999332276
 20
141.7876236646
 30
0.0
 10
66.8981188049
 20
141.4107536084
 30
0.0
 10
66.8976454668
 20
141.0332429754
 30
0.0
 10
66.8976094434
 20
140.7813910765
 30
0.0
 10
66.8976094434
 20
140.6554114742
 30
0.0
  0
SPLINE
  5
314
100
AcDbEntity
  8
0
100
AcDbSpline
 62
7
  6
CONTINUOUS
 70
0
 71
3
 72
17
 73
13
 74
0
 42
0.0000001
 43
0.0000001
 44
0.0000000001
 40
0.0
 40
0.0
 40
0.0
 40
0.0
 40
0.2182009024
 40
0.3349220057
 40
0.456586696
 40
0.5831112211
 40
0.7144823146
 40
0.7820564401
 40
0.8510300181
 40
0.92186225
 40
0.958727904
 40
1.0
 40
1.0
 40
1.0
 40
1.0
 10
66.8976094434
 20
151.8880710922
 30
0.0
 10
66.8976094434
 20
151.755792078
 30
0.0
 10
66.897591756
 20
151.5527524166
 30
0.0
 10
66.8999988649
 20
151.2759636463
 30
0.0
 10
66.9048240584
 20
151.0547912437
 30
0.0
 10
66.9151097965
 20
150.8248762628
 30
0.0
 10
66.9312348199
 20
150.6282075676
 30
0.0
 10
66.9528089204
 20
150.467006696
 30
0.0
 10
66.975413391
 20
150.343836404
 30
0.0
 10
67.0050091873
 20
150.2386856733
 30
0.0
 10
67.039440862
 20
150.1592158191
 30
0.0
 10
67.0775539986
 20
150.1149954424
 30
0.0
 10
67.1025694655
 20
150.1154825484
 30
0.0
  0
SPLINE
  5
315
100
AcDbEntity
  8
0
100
AcDbSpline
 62
7
  6
CONTINUOUS
 70
0
 71
3
 72
10
 73
6
 74
0
 42
0.0000001
 43
0.0000001
 44
0.0000000001
 40
0.0
 40
0.0
 40
0.0
 40
0.0
 40
0.2163947382
 40
0.4583018846
 40
1.0
 40
1.0
 40
1.0
 40
1.0
 10
67.3505751052
 20
150.1203117763
 30
0.0
 10
67.2648737173
 20
149.6575902206
 30
0.0
 10
67.142537125
 20
148.6663283293
 30
0.0
 10
67.0673583991
 20
146.4913151446
 30
0.0
 10
67.1978632342
 20
144.7855820268
 30
0.0
 10
67.3505751052
 20
143.6174977863
 30
0.0
  0
SPLINE
  5
316
100
AcDbEntity
  8
0
100
AcDbSpline
 62
7
  6
CONTINUOUS
 70
0
 71
3
 72
15
 73
11
 74
0
 42
0.0000001
 43
0.0000001
 44
0.0000000001
 40
0.0
 40
0.0
 40
0.0
 40
0.0
 40
0.2846444905
 40
0.5382195662
 40
0.6533996007
 40
0.761473341
 40
0.8135077243
 40
0.8652449798
 40
0.9195347039
 40
1.0
 40
1.0
 40
1.0
 40
1.0
 10
66.8976094434
 20
113.7481384644
 30
0.0
 10
66.8976094434
 20
113.6285650271
 30
0.0
 10
66.8976044115
 20
113.4025038
 30
0.0
 10
66.9008068871
 20
113.1279121494
 30
0.0
 10
66.9143616289
 20
112.928027876
 30
0.0
 10
66.9305632804
 20
112.8132463155
 30
0.0
 10
66.9523869785
 20
112.7269117272
 30
0.0
 10
66.9761266081
 20
112.6644821126
 30
0.0
 10
67.0149128396
 20
112.596953163
 30
0.0
 10
67.0687769885
 20
112.560451169
 30
0.0
 10
67.1025694655
 20
112.5596549521
 30
0.0
  0
SPLINE
  5
317
100
AcDbEntity
  8
0
100
AcDbSpline
 62
7
  6
CONTINUOUS
 70
0
 71
3
 72
9
 73
5
 74
0
 42
0.0000001
 43
0.0000001
 44
0.0000000001
 40
0.0
 40
0.0
 40
0.0
 40
0.0
 40
0.2573720101
 40
1.0
 40
1.0
 40
1.0
 40
1.0
 10
67.7904395732
 20
113.3269836927
 30
0.0
 10
67.755300185
 20
113.2592283985
 30
0.0
 10
67.6163120495
 20
112.9972567475
 30
0.0
 10
67.4673285589
 20
112.7405475975
 30
0.0
 10
67.3505751052
 20
112.5538114683
 30
0.0
  0
SPLINE
  5
318
100
AcDbEntity
  8
0
100
AcDbSpline
 62
7
  6
CONTINUOUS
 70
0
 71
3
 72
11
 73
7
 74
0
 42
0.0000001
 43
0.0000001
 44
0.0000000001
 40
0.0
 40
0.0
 40
0.0
 40
0.0
 40
0.2468553946
 40
0.4953235696
 40
0.7463663429
 40
1.0
 40
1.0
 40
1.0
 40
1.0
 10
82.9918839217
 20
145.2999529626
 30
0.0
 10
82.9763072347
 20
145.2430115273
 30
0.0
 10
82.9387832355
 20
145.1302594613
 30
0.0
 10
82.8567144242
 20
144.9707515063
 30
0.0
 10
82.7400042522
 20
144.8306378372
 30
0.0
 10
82.6195257404
 20
144.7797616581
 30
0.0
 10
82.5588712198
 20
144.7797616581
 30
0.0
  0
SPLINE
  5
319
100
AcDbEntity
  8
0
100
AcDbSpline
 62
7
  6
CONTINUOUS
 70
0
 71
3
 72
9
 73
5
 74
0
 42
0.0000001
 43
0.0000001
 44
0.0000000001
 40
0.0
 40
0.0
 40
0.0
 40
0.0
 40
0.1680322176
 40
1.0
 40
1.0
 40
1.0
 40
1.0
 10
79.2032087871
 20
165.3444951901
 30
0.0
 10
79.220058346
 20
165.3648168569
 30
0.0
 10
79.3355129228
 20
165.4732968889
 30
0.0
 10
79.5055164719
 20
165.5111331039
 30
0.0
 10
79.636221489
 20
165.5111331039
 30
0.0
  0
SPLINE
  5
31A
100
AcDbEntity
  8
0
100
AcDbSpline
 62
7
  6
CONTINUOUS
 70
0
 71
3
 72
11
 73
7
 74
0
 42
0.0000001
 43
0.0000001
 44
0.0000000001
 40
0.0
 40
0.0
 40
0.0
 40
0.0
 40
0.2535749038
 40
0.5046395871
 40
0.753126088
 40
1.0
 40
1.0
 40
1.0
 40
1.0
 10
79.636221489
 20
144.7797616581
 30
0.0
 10
79.5755812831
 20
144.7797616581
 30
0.0
 10
79.4551186108
 20
144.8306373498
 30
0.0
 10
79.3383867518
 20
144.9707250297
 30
0.0
 10
79.2563152058
 20
145.1302488573
 30
0.0
 10
79.2187865746
 20
145.2430075042
 30
0.0
 10
79.2032087871
 20
145.2999529626
 30
0.0
  0
SPLINE
  5
31B
100
AcDbEntity
  8
BEZUGSACHSEN
100
AcDbSpline
 62
7
  6
CONTINUOUS
 70
0
 71
3
 72
11
 73
7
 74
0
 42
0.0000001
 43
0.0000001
 44
0.0000000001
 40
0.0
 40
0.0
 40
0.0
 40
0.0
 40
0.2687801101
 40
0.5254671291
 40
0.7666630361
 40
1.0
 40
1.0
 40
1.0
 40
1.0
 10
159.0975463544
 20
120.2378079617
 30
0.0
 10
158.7742904835
 20
120.2378079617
 30
0.0
 10
158.1372185868
 20
120.3380721594
 30
0.0
 10
157.3074071295
 20
120.7831437549
 30
0.0
 10
156.7328112511
 20
121.4831586639
 30
0.0
 10
156.5975446266
 20
122.0623898758
 30
0.0
 10
156.597546372
 20
122.3430190616
 30
0.0
  0
SPLINE
  5
31C
100
AcDbEntity
  8
BEZUGSACHSEN
100
AcDbSpline
 62
7
  6
CONTINUOUS
 70
0
 71
3
 72
11
 73
7
 74
0
 42
0.0000001
 43
0.0000001
 44
0.0000000001
 40
0.0
 40
0.0
 40
0.0
 40
0.0
 40
0.2687801101
 40
0.5254671291
 40
0.7666630361
 40
1.0
 40
1.0
 40
1.0
 40
1.0
 10
159.0975463544
 20
150.6232727255
 30
0.0
 10
159.4208022252
 20
150.6232727255
 30
0.0
 10
160.057874122
 20
150.5230085278
 30
0.0
 10
160.8876855793
 20
150.0779369323
 30
0.0
 10
161.4622814576
 20
149.3779220233
 30
0.0
 10
161.5975480822
 20
148.7986908115
 30
0.0
 10
161.5975463367
 20
148.5180616256
 30
0.0
  0
SPLINE
  5
31D
100
AcDbEntity
  8
BEZUGSACHSEN
100
AcDbSpline
 62
7
  6
CONTINUOUS
 70
0
 71
3
 72
11
 73
7
 74
0
 42
0.0000001
 43
0.0000001
 44
0.0000000001
 40
0.0
 40
0.0
 40
0.0
 40
0.0
 40
0.2333399957
 40
0.4745317366
 40
0.7312202242
 40
1.0
 40
1.0
 40
1.0
 40
1.0
 10
156.597546372
 20
148.518019058
 30
0.0
 10
156.5975481175
 20
148.7986551562
 30
0.0
 10
156.7327847585
 20
149.3778983154
 30
0.0
 10
157.3073970153
 20
150.0779191264
 30
0.0
 10
158.1372042146
 20
150.523009214
 30
0.0
 10
158.7742871234
 20
150.6232727255
 30
0.0
 10
159.0975463544
 20
150.6232727255
 30
0.0
  0
SPLINE
  5
31E
100
AcDbEntity
  8
BEZUGSACHSEN
100
AcDbSpline
 62
7
  6
CONTINUOUS
 70
0
 71
3
 72
11
 73
7
 74
0
 42
0.0000001
 43
0.0000001
 44
0.0000000001
 40
0.0
 40
0.0
 40
0.0
 40
0.0
 40
0.2333399957
 40
0.4745317366
 40
0.7312202242
 40
1.0
 40
1.0
 40
1.0
 40
1.0
 10
161.5975463367
 20
122.3430616292
 30
0.0
 10
161.5975445912
 20
122.0624255311
 30
0.0
 10
161.4623079503
 20
121.4831823718
 30
0.0
 10
160.8876956934
 20
120.7831615608
 30
0.0
 10
160.0578884941
 20
120.3380714732
 30
0.0
 10
159.4208055853
 20
120.2378079617
 30
0.0
 10
159.0975463544
 20
120.2378079617
 30
0.0
  0
SPLINE
  5
31F
100
AcDbEntity
  8
BEZUGSACHSEN
100
AcDbSpline
 62
7
  6
CONTINUOUS
 70
0
 71
3
 72
9
 73
5
 74
0
 42
0.0000001
 43
0.0000001
 44
0.0000000001
 40
0.0
 40
0.0
 40
0.0
 40
0.0
 40
0.247558069
 40
1.0
 40
1.0
 40
1.0
 40
1.0
 10
160.2839852594
 20
124.287320089
 30
0.0
 10
160.2251321106
 20
124.2598322439
 30
0.0
 10
159.9833964799
 20
124.1575025241
 30
0.0
 10
159.7267941669
 20
124.090877848
 30
0.0
 10
159.5316286833
 20
124.0610560947
 30
0.0
  0
SPLINE
  5
320
100
AcDbEntity
  8
BEZUGSACHSEN
100
AcDbSpline
 62
7
  6
CONTINUOUS
 70
0
 71
3
 72
9
 73
5
 74
0
 42
0.0000001
 43
0.0000001
 44
0.0000000001
 40
0.0
 40
0.0
 40
0.0
 40
0.0
 40
0.2475577888
 40
1.0
 40
1.0
 40
1.0
 40
1.0
 10
157.9110457126
 20
124.2873489246
 30
0.0
 10
157.9699031594
 20
124.259857229
 30
0.0
 10
158.2116573547
 20
124.1575132804
 30
0.0
 10
158.4682816518
 20
124.0908804289
 30
0.0
 10
158.6634640254
 20
124.0610560947
 30
0.0
  0
SPLINE
  5
321
100
AcDbEntity
  8
0
100
AcDbSpline
 62
7
  6
CONTINUOUS
 70
0
 71
3
 72
8
 73
4
 74
0
 42
0.0000001
 43
0.0000001
 44
0.0000000001
 40
0.0
 40
0.0
 40
0.0
 40
0.0
 40
1.0
 40
1.0
 40
1.0
 40
1.0
 10
68.897424401
 20
140.0557630036
 30
0.0
 10
68.8969947112
 20
140.1174749923
 30
0.0
 10
68.8951119053
 20
140.1792218318
 30
0.0
 10
68.8908120365
 20
140.2407853382
 30
0.0
  0
SPLINE
  5
322
100
AcDbEntity
  8
0
100
AcDbSpline
 62
7
  6
CONTINUOUS
 70
0
 71
3
 72
15
 73
11
 74
0
 42
0.0000001
 43
0.0000001
 44
0.0000000001
 40
0.0
 40
0.0
 40
0.0
 40
0.0
 40
0.2529176222
 40
0.3785524811
 40
0.5034347146
 40
0.6273379652
 40
0.7499890146
 40
0.8710889694
 40
0.9340922305
 40
1.0
 40
1.0
 40
1.0
 40
1.0
 10
68.8908120365
 20
140.2407853382
 30
0.0
 10
68.8879391186
 20
140.2819184299
 30
0.0
 10
68.8820736792
 20
140.3434152212
 30
0.0
 10
68.8691020133
 20
140.4244989157
 30
0.0
 10
68.8560857671
 20
140.48414789
 30
0.0
 10
68.8375968783
 20
140.5421106743
 30
0.0
 10
68.8126636934
 20
140.5961547033
 30
0.0
 10
68.7723233583
 20
140.633917053
 30
0.0
 10
68.7291073493
 20
140.6319550069
 30
0.0
 10
68.7109695432
 20
140.6201910418
 30
0.0
 10
68.7025694655
 20
140.6134907967
 30
0.0
  0
SPLINE
  5
323
100
AcDbEntity
  8
BEZUGSACHSEN
100
AcDbSpline
 62
7
  6
CONTINUOUS
 70
0
 71
3
 72
9
 73
5
 74
0
 42
0.0000001
 43
0.0000001
 44
0.0000000001
 40
0.0
 40
0.0
 40
0.0
 40
0.0
 40
0.2526340992
 40
1.0
 40
1.0
 40
1.0
 40
1.0
 10
158.6634640254
 20
146.8000245925
 30
0.0
 10
158.5979390691
 20
146.7900122223
 30
0.0
 10
158.3400209166
 20
146.7415303435
 30
0.0
 10
158.0887760347
 20
146.6567421661
 30
0.0
 10
157.9111074494
 20
146.5737605982
 30
0.0
  0
SPLINE
  5
324
100
AcDbEntity
  8
BEZUGSACHSEN
100
AcDbSpline
 62
7
  6
CONTINUOUS
 70
0
 71
3
 72
9
 73
5
 74
0
 42
0.0000001
 43
0.0000001
 44
0.0000000001
 40
0.0
 40
0.0
 40
0.0
 40
0.0
 40
0.2526344584
 40
1.0
 40
1.0
 40
1.0
 40
1.0
 10
159.5316286833
 20
146.8000245925
 30
0.0
 10
159.5971593787
 20
146.7900113453
 30
0.0
 10
159.8550996214
 20
146.7415245296
 30
0.0
 10
160.1063653209
 20
146.6567250082
 30
0.0
 10
160.2840469961
 20
146.5737317626
 30
0.0
  0
SPLINE
  5
325
100
AcDbEntity
  8
0
100
AcDbSpline
 62
7
  6
CONTINUOUS
 70
0
 71
3
 72
13
 73
9
 74
0
 42
0.0000001
 43
0.0000001
 44
0.0000000001
 40
0.0
 40
0.0
 40
0.0
 40
0.0
 40
0.1753307868
 40
0.3422637982
 40
0.4768046258
 40
0.5947351366
 40
0.8062611466
 40
1.0
 40
1.0
 40
1.0
 40
1.0
 10
68.7025694655
 20
113.9031116035
 30
0.0
 10
68.6386567206
 20
113.9300517651
 30
0.0
 10
68.5008796773
 20
113.9587897512
 30
0.0
 10
68.313232679
 20
113.9100109332
 30
0.0
 10
68.1716479953
 20
113.8211690302
 30
0.0
 10
68.0351827726
 20
113.6975664184
 30
0.0
 10
67.906764086
 20
113.5336898123
 30
0.0
 10
67.825724089
 20
113.39501882
 30
0.0
 10
67.7904395732
 20
113.3269836927
 30
0.0
  0
LINE
  5
326
100
AcDbEntity
  8
0
100
AcDbLine
 62
7
  6
CONTINUOUS
 10
67.1079479861
 20
112.0051555377
 11
67.3505751052
 21
112.5538114683
  0
SPLINE
  5
327
100
AcDbEntity
  8
0
100
AcDbSpline
 62
7
  6
CONTINUOUS
 70
0
 71
3
 72
12
 73
8
 74
0
 42
0.0000001
 43
0.0000001
 44
0.0000000001
 40
0.0
 40
0.0
 40
0.0
 40
0.0
 40
0.2873076234
 40
0.4555854673
 40
0.6473090081
 40
0.8177551754
 40
1.0
 40
1.0
 40
1.0
 40
1.0
 10
68.7025694655
 20
113.9031116035
 30
0.0
 10
68.7279557494
 20
113.8924109116
 30
0.0
 10
68.7706228124
 20
113.8798349678
 30
0.0
 10
68.8344280052
 20
113.8839934701
 30
0.0
 10
68.8773605026
 20
113.9183459687
 30
0.0
 10
68.8941903731
 20
113.9691462694
 30
0.0
 10
68.897136683
 20
114.0029091051
 30
0.0
 10
68.8974601477
 20
114.0203812184
 30
0.0
  0
SPLINE
  5
328
100
AcDbEntity
  8
0
100
AcDbSpline
 62
7
  6
CONTINUOUS
 70
0
 71
3
 72
15
 73
11
 74
0
 42
0.0000001
 43
0.0000001
 44
0.0000000001
 40
0.0
 40
0.0
 40
0.0
 40
0.0
 40
0.2503260428
 40
0.3755427651
 40
0.500769311
 40
0.625976783
 40
0.7510377775
 40
0.8746309833
 40
0.9372889186
 40
1.0
 40
1.0
 40
1.0
 40
1.0
 10
67.7904395732
 20
141.8450801043
 30
0.0
 10
67.8245743252
 20
141.7024355746
 30
0.0
 10
67.8819630795
 20
141.4897449384
 30
0.0
 10
67.9774654885
 20
141.2121534944
 30
0.0
 10
68.0614831149
 20
141.0086320787
 30
0.0
 10
68.1648627706
 20
140.8133439285
 30
0.0
 10
68.2928230401
 20
140.6365173942
 30
0.0
 10
68.4598610877
 20
140.5290726758
 30
0.0
 10
68.6105664034
 20
140.5506365958
 30
0.0
 10
68.6738442797
 20
140.5905784154
 30
0.0
 10
68.7025694655
 20
140.6134907967
 30
0.0
  0
SPLINE
  5
329
100
AcDbEntity
  8
0
100
AcDbSpline
 62
7
  6
CONTINUOUS
 70
0
 71
3
 72
13
 73
9
 74
0
 42
0.0000001
 43
0.0000001
 44
0.0000000001
 40
0.0
 40
0.0
 40
0.0
 40
0.0
 40
0.1670510693
 40
0.3289369806
 40
0.4609641718
 40
0.578209763
 40
0.7939442568
 40
1.0
 40
1.0
 40
1.0
 40
1.0
 10
68.7025694655
 20
151.7750186306
 30
0.0
 10
68.6381360147
 20
151.7992537356
 30
0.0
 10
68.4989350218
 20
151.821188078
 30
0.0
 10
68.3123270335
 20
151.7647119058
 30
0.0
 10
68.1708659953
 20
151.6691484512
 30
0.0
 10
68.033337398
 20
151.5347809821
 30
0.0
 10
67.9039176935
 20
151.3524087235
 30
0.0
 10
67.8249177269
 20
151.1971564824
 30
0.0
 10
67.7904395732
 20
151.1195572338
 30
0.0
  0
SPLINE
  5
32A
100
AcDbEntity
  8
0
100
AcDbSpline
 62
7
  6
CONTINUOUS
 70
0
 71
3
 72
15
 73
11
 74
0
 42
0.0000001
 43
0.0000001
 44
0.0000000001
 40
0.0
 40
0.0
 40
0.0
 40
0.0
 40
0.0735479282
 40
0.1546005725
 40
0.2292557381
 40
0.2979289731
 40
0.4260365971
 40
0.5473626904
 40
0.7785364517
 40
1.0
 40
1.0
 40
1.0
 40
1.0
 10
68.7025694655
 20
151.7750186306
 30
0.0
 10
68.7150212843
 20
151.7703351761
 30
0.0
 10
68.744171538
 20
151.7662546636
 30
0.0
 10
68.7836410296
 20
151.7844966908
 30
0.0
 10
68.8112027046
 20
151.8148999844
 30
0.0
 10
68.8370977146
 20
151.8567776672
 30
0.0
 10
68.8581836785
 20
151.9107078897
 30
0.0
 10
68.879822389
 20
151.9949785493
 30
0.0
 10
68.893692576
 20
152.0981894346
 30
0.0
 10
68.8971170656
 20
152.1800507847
 30
0.0
 10
68.8974601477
 20
152.220108031
 30
0.0
  0
ELLIPSE
  5
32B
100
AcDbEntity
  8
0
100
AcDbEllipse
 62
7
  6
CONTINUOUS
 10
66.750392165
 20
135.4305403436
 30
0.0
 11
14.7536831607
 21
31.0932549156
 31
0.0
 40
0.3419987131
 41
-1.0912395858
 42
-0.1578061866
  0
ELLIPSE
  5
32C
100
AcDbEntity
  8
0
100
AcDbEllipse
 62
7
  6
CONTINUOUS
 10
95.4447005437
 20
135.4305403436
 30
0.0
 11
-14.7536831607
 21
31.0932549156
 31
0.0
 40
0.3419987131
 41
0.1578061866
 42
1.0912395858
  0
ELLIPSE
  5
32D
100
AcDbEntity
  8
0
100
AcDbEllipse
 62
7
  6
CONTINUOUS
 10
95.4447005437
 20
135.4305403436
 30
0.0
 11
14.7536831607
 21
31.0932549156
 31
0.0
 40
0.3419987131
 41
-4.2328322393
 42
-3.2993988402
  0
ELLIPSE
  5
32E
100
AcDbEntity
  8
0
100
AcDbEllipse
 62
7
  6
CONTINUOUS
 10
66.750392165
 20
135.4305403436
 30
0.0
 11
-14.7536831607
 21
31.0932549156
 31
0.0
 40
0.3419987131
 41
-2.9837864669
 42
-2.0503530678
  0
ENDSEC
  0
SECTION
  2
OBJECTS
  0
DICTIONARY
  5
C
100
AcDbDictionary
280
0
281
1
  3
ACAD_GROUP
350
D
  3
ACAD_MLINESTYLE
350
17
  3
ACAD_LAYOUT
350
1A
  3
ACAD_PLOTSETTINGS
350
19
  3
ACAD_PLOTSTYLENAME
350
E
  0
DICTIONARY
  5
D
102
{ACAD_REACTORS
330
C
102
}
100
AcDbDictionary
280
0
281
1
  0
ACDBDICTIONARYWDFLT
  5
E
102
{ACAD_REACTORS
330
C
102
}
100
AcDbDictionary
281
1
  3
Normal
350
F
100
AcDbDictionaryWithDefault
340
F
  0
DICTIONARY
  5
17
102
{ACAD_REACTORS
330
C
102
}
100
AcDbDictionary
280
0
281
1
  3
Standard
350
18
  0
DICTIONARY
  5
19
102
{ACAD_REACTORS
330
C
102
}
100
AcDbDictionary
281
1
  0
DICTIONARY
  5
1A
102
{ACAD_REACTORS
330
C
102
}
100
AcDbDictionary
281
1
  3
Model
350
32F
  3
Layout1
350
330
  0
ACDBPLACEHOLDER
  5
F
102
{ACAD_REACTORS
330
E
102
}
  0
MLINESTYLE
  5
18
102
{ACAD_REACTORS
330
17
102
}
100
AcDbMlineStyle
  2
STANDARD
 70
0
  3

 62
256
 51
90.0
 52
90.0
 71
2
 49
0.5
 62
256
  6
BYLAYER
 49
-0.5
 62
256
  6
BYLAYER
  0
LAYOUT
  5
32F
102
{ACAD_REACTORS
330
1A
102
}
100
AcDbPlotSettings
  1

  2
none_device
  4
ISO_A4_(297.00_x_210.00_MM)
  6

 40
0.0
 41
0.0
 42
0.0
 43
0.0
 44
297.0
 45
210.0
 46
0.0
 47
0.0
 48
0.0
 49
0.0
140
0.0
141
0.0
142
1.0
143
1.0
 70
1024
 72
1
 73
0
 74
0
  7

 75
0
147
1.0
148
0.0
149
0.0
100
AcDbLayout
  1
Model
 70
0
 71
0
 10
0.0
 20
0.0
 11
297.0
 21
210.0
 12
0.0
 22
0.0
 32
0.0
 14
0.0
 24
0.0
 34
0.0
 15
0.0
 25
0.0
 35
0.0
146
0.0
 13
0.0
 23
0.0
 33
0.0
 16
1.0
 26
0.0
 36
0.0
 17
0.0
 27
1.0
 37
0.0
 76
0
330
217
345
0
346
0
  0
LAYOUT
  5
330
102
{ACAD_REACTORS
330
1A
102
}
100
AcDbPlotSettings
  1

  2
none_device
  4
ISO_A4_(297.00_x_210.00_MM)
  6

 40
0.0
 41
0.0
 42
0.0
 43
0.0
 44
297.0
 45
210.0
 46
0.0
 47
0.0
 48
0.0
 49
0.0
140
0.0
141
0.0
142
1.0
143
1.0
 70
0
 72
1
 73
0
 74
0
  7

 75
0
147
1.0
148
0.0
149
0.0
100
AcDbLayout
  1
Layout1
 70
0
 71
1
 10
0.0
 20
0.0
 11
297.0
 21
210.0
 12
0.0
 22
0.0
 32
0.0
 14
0.0
 24
0.0
 34
0.0
 15
0.0
 25
0.0
 35
0.0
146
0.0
 13
0.0
 23
0.0
 33
0.0
 16
1.0
 26
0.0
 36
0.0
 17
0.0
 27
1.0
 37
0.0
 76
0
330
218
345
0
346
0
  0
ENDSEC
  0
EOF
