999
DXF file: cc6-142-25.dxf
999
Pro/ENGINEER 2010430 by Parametric Technology Corporation
  0
SECTION
  2
HEADER
  9
$ACADVER
  1
AC1021
  9
$DWGCODEPAGE
  3
ANSI_1252
  9
$EXTMAX
 10
297.0
 20
210.0
 30
0.0
  9
$EXTMIN
 10
0.0
 20
0.0
 30
0.0
  9
$LIMMIN
 10
0.0
 20
0.0
  9
$LIMMAX
 10
297.0
 20
210.0
  9
$VIEWCTR
 10
148.5
 20
105.0
  9
$VIEWSIZE
 40
210.0
  9
$CLAYER
  8
0
  9
$LTSCALE
 40
16.335
  9
$CELTYPE
  6
BYLAYER
  9
$DIMSCALE
 40
1.0
  9
$DIMASZ
 40
3.5
  9
$DIMEXO
 40
1.85625
  9
$DIMDLI
 40
11.286
  9
$DIMEXE
 40
5.346
  9
$DIMCEN
 40
2.673
  9
$DIMLFAC
 40
1.0
  9
$DIMBLK
  1
_FILLED
  9
$DIMTXT
 40
3.5
  9
$DIMTOL
 70
1
  9
$DIMLIM
 70
0
  9
$DIMTFAC
 40
1.0
  9
$DIMTP
 40
0.005
  9
$DIMTM
 40
0.005
  9
$PDMODE
 70
3
  9
$PDSIZE
 40
0.3125
  9
$HANDSEED
  5
332
  9
$TILEMODE
 70
1
  9
$MEASUREMENT
 70
1
  9
$INSUNITS
 70
4
  0
ENDSEC
  0
SECTION
  2
CLASSES
  0
CLASS
  1
ACDBDICTIONARYWDFLT
  2
AcDbDictionaryWithDefault
  3
AutoCAD 2000
 90
0
 91
1
280
0
281
0
  0
CLASS
  1
ACDBPLACEHOLDER
  2
AcDbPlaceHolder
  3
AutoCAD 2000
 90
0
 91
1
280
0
281
0
  0
CLASS
  1
LAYOUT
  2
AcDbLayout
  3
AutoCAD 2000
 90
0
 91
0
280
0
281
0
  0
ENDSEC
  0
SECTION
  2
TABLES
  0
TABLE
  2
VPORT
  5
8
100
AcDbSymbolTable
 70
2
  0
VPORT
  5
1F4
100
AcDbSymbolTableRecord
100
AcDbViewportTableRecord
  2
*ACTIVE
 70
0
 10
0.0
 20
0.0
 11
1.0
 21
1.0
 12
148.5
 22
105.0
 13
0.0
 23
0.0
 14
1.0
 24
1.0
 15
0.0
 25
0.0
 16
0.0
 26
0.0
 36
1.0
 17
0.0
 27
0.0
 37
0.0
 40
210.0
 41
1.4142857143
 42
50.0
 43
0.0
 44
0.0
 50
0.0
 51
0.0
 71
0
 72
100
 73
1
 74
1
 75
0
 76
0
 77
0
 78
0
  0
ENDTAB
  0
TABLE
  2
LTYPE
  5
5
100
AcDbSymbolTable
 70
6
  0
LTYPE
  5
14
100
AcDbSymbolTableRecord
100
AcDbLinetypeTableRecord
  2
BYBLOCK
 70
0
  3

 72
65
 73
0
 40
0.0
  0
LTYPE
  5
15
100
AcDbSymbolTableRecord
100
AcDbLinetypeTableRecord
  2
BYLAYER
 70
0
  3

 72
65
 73
0
 40
0.0
  0
LTYPE
  5
16
100
AcDbSymbolTableRecord
100
AcDbLinetypeTableRecord
  2
CONTINUOUS
 70
64
  3
Solid line
 72
65
 73
0
 40
0.0
  0
LTYPE
  5
1F5
100
AcDbSymbolTableRecord
100
AcDbLinetypeTableRecord
  2
CENTER
 70
64
  3
____ _ ____ _ ____ _ ____ _ ____ _ ____ _ ____
 72
65
 73
4
 40
0.6
 49
0.375
 74
0
 49
-0.075
 74
0
 49
0.075
 74
0
 49
-0.075
 74
0
  0
LTYPE
  5
1F6
100
AcDbSymbolTableRecord
100
AcDbLinetypeTableRecord
  2
HIDDEN
 70
64
  3
- - - - - - - - - - - - - - - - - - - -
 72
65
 73
2
 40
0.2
 49
0.1
 74
0
 49
-0.1
 74
0
  0
LTYPE
  5
1F7
100
AcDbSymbolTableRecord
100
AcDbLinetypeTableRecord
  2
PHANTOM
 70
64
  3
_____ _ _ _____ _ _ _____ _ _ _____
 72
65
 73
6
 40
0.8
 49
0.45
 74
0
 49
-0.05
 74
0
 49
0.1
 74
0
 49
-0.05
 74
0
 49
0.1
 74
0
 49
-0.05
 74
0
  0
LTYPE
  5
1F8
100
AcDbSymbolTableRecord
100
AcDbLinetypeTableRecord
  2
DOT
 70
64
  3
. . . . . . . . . . . . . . . . . . . .
 72
65
 73
2
 40
0.2
 49
0.1
 74
0
 49
-0.1
 74
0
  0
LTYPE
  5
1F9
100
AcDbSymbolTableRecord
100
AcDbLinetypeTableRecord
  2
DASHED
 70
64
  3
- - - - - - - - - - - - - - - - - - - -
 72
65
 73
2
 40
0.2
 49
0.1
 74
0
 49
-0.1
 74
0
  0
ENDTAB
  0
TABLE
  2
LAYER
  5
2
100
AcDbSymbolTable
 70
36
  0
LAYER
  5
10
100
AcDbSymbolTableRecord
100
AcDbLayerTableRecord
  2
0
 70
0
 62
7
  6
CONTINUOUS
370
-3
390
F
  0
LAYER
  5
1FA
100
AcDbSymbolTableRecord
100
AcDbLayerTableRecord
  2
DEFAULT_1
 70
0
 62
7
  6
CENTER
370
-3
390
F
  0
LAYER
  5
1FB
100
AcDbSymbolTableRecord
100
AcDbLayerTableRecord
  2
DEFAULT_2
 70
0
 62
8
  6
HIDDEN
370
-3
390
F
  0
LAYER
  5
1FC
100
AcDbSymbolTableRecord
100
AcDbLayerTableRecord
  2
DEFAULT_3
 70
0
 62
7
  6
PHANTOM
370
-3
390
F
  0
LAYER
  5
1FD
100
AcDbSymbolTableRecord
100
AcDbLayerTableRecord
  2
ACHSEN
 70
0
 62
7
  6
CONTINUOUS
370
-3
390
F
  0
LAYER
  5
1FE
100
AcDbSymbolTableRecord
100
AcDbLayerTableRecord
  2
BEZUGSACHSEN
 70
0
 62
7
  6
CONTINUOUS
370
-3
390
F
  0
LAYER
  5
1FF
100
AcDbSymbolTableRecord
100
AcDbLayerTableRecord
  2
BEZUGSEBENE_B
 70
0
 62
7
  6
CONTINUOUS
370
-3
390
F
  0
LAYER
  5
200
100
AcDbSymbolTableRecord
100
AcDbLayerTableRecord
  2
BOHRUNGEN
 70
0
 62
7
  6
CONTINUOUS
370
-3
390
F
  0
LAYER
  5
201
100
AcDbSymbolTableRecord
100
AcDbLayerTableRecord
  2
EBENEN
 70
0
 62
7
  6
CONTINUOUS
370
-3
390
F
  0
LAYER
  5
202
100
AcDbSymbolTableRecord
100
AcDbLayerTableRecord
  2
FASEN
 70
0
 62
7
  6
CONTINUOUS
370
-3
390
F
  0
LAYER
  5
203
100
AcDbSymbolTableRecord
100
AcDbLayerTableRecord
  2
FLAECHEN
 70
0
 62
7
  6
CONTINUOUS
370
-3
390
F
  0
LAYER
  5
204
100
AcDbSymbolTableRecord
100
AcDbLayerTableRecord
  2
GEWINDE
 70
0
 62
7
  6
CONTINUOUS
370
-3
390
F
  0
LAYER
  5
205
100
AcDbSymbolTableRecord
100
AcDbLayerTableRecord
  2
KOORDSYS
 70
0
 62
7
  6
CONTINUOUS
370
-3
390
F
  0
LAYER
  5
206
100
AcDbSymbolTableRecord
100
AcDbLayerTableRecord
  2
KURVEN
 70
0
 62
7
  6
CONTINUOUS
370
-3
390
F
  0
LAYER
  5
207
100
AcDbSymbolTableRecord
100
AcDbLayerTableRecord
  2
KURVE_FUER_GTOL_DETAILANSICHT
 70
0
 62
7
  6
CONTINUOUS
370
-3
390
F
  0
LAYER
  5
208
100
AcDbSymbolTableRecord
100
AcDbLayerTableRecord
  2
KURVE_GAUGE2_POLIGON_INNENEINST
 70
0
 62
7
  6
CONTINUOUS
370
-3
390
F
  0
LAYER
  5
209
100
AcDbSymbolTableRecord
100
AcDbLayerTableRecord
  2
KURVE_PHANTOM1_GAUGE_PIN_1
 70
0
 62
7
  6
CONTINUOUS
370
-3
390
F
  0
LAYER
  5
20A
100
AcDbSymbolTableRecord
100
AcDbLayerTableRecord
  2
KURVE_PHANTOM2_GAUGE_PIN1
 70
0
 62
7
  6
CONTINUOUS
370
-3
390
F
  0
LAYER
  5
20B
100
AcDbSymbolTableRecord
100
AcDbLayerTableRecord
  2
KURVE_POLIGON_BEMASUNG
 70
0
 62
7
  6
CONTINUOUS
370
-3
390
F
  0
LAYER
  5
20C
100
AcDbSymbolTableRecord
100
AcDbLayerTableRecord
  2
PUNKTE
 70
0
 62
7
  6
CONTINUOUS
370
-3
390
F
  0
LAYER
  5
20D
100
AcDbSymbolTableRecord
100
AcDbLayerTableRecord
  2
RUNDUNGEN
 70
0
 62
7
  6
CONTINUOUS
370
-3
390
F
  0
LAYER
  5
20E
100
AcDbSymbolTableRecord
100
AcDbLayerTableRecord
  2
S_ACHSEN
 70
0
 62
7
  6
CONTINUOUS
370
-3
390
F
  0
LAYER
  5
20F
100
AcDbSymbolTableRecord
100
AcDbLayerTableRecord
  2
S_EBENEN
 70
0
 62
7
  6
CONTINUOUS
370
-3
390
F
  0
LAYER
  5
210
100
AcDbSymbolTableRecord
100
AcDbLayerTableRecord
  2
S_KOORDSYS
 70
0
 62
7
  6
CONTINUOUS
370
-3
390
F
  0
LAYER
  5
211
100
AcDbSymbolTableRecord
100
AcDbLayerTableRecord
  2
TOL_BEZUEGE
 70
0
 62
7
  6
CONTINUOUS
370
-3
390
F
  0
LAYER
  5
212
100
AcDbSymbolTableRecord
100
AcDbLayerTableRecord
  2
VERBFLAECHE
 70
0
 62
7
  6
CONTINUOUS
370
-3
390
F
  0
LAYER
  5
213
100
AcDbSymbolTableRecord
100
AcDbLayerTableRecord
  2
ZEICHNUNGSBEMASSUNGEN
 70
0
 62
7
  6
CONTINUOUS
370
-3
390
F
  0
ENDTAB
  0
TABLE
  2
STYLE
  5
3
100
AcDbSymbolTable
 70
1
  0
STYLE
  5
11
100
AcDbSymbolTableRecord
100
AcDbTextStyleTableRecord
  2
STANDARD
 70
0
 40
0.0
 41
0.7
 50
0.0
 71
0
 42
0.2
  3
txt
  4

  0
STYLE
  5
214
100
AcDbSymbolTableRecord
100
AcDbTextStyleTableRecord
  2
TEXTSTYLE_1
 70
0
 40
0.0
 41
0.8
 50
0.0
 71
0
 42
0.2
  3
gdt
  4

  0
STYLE
  5
215
100
AcDbSymbolTableRecord
100
AcDbTextStyleTableRecord
  2
TEXTSTYLE_2
 70
0
 40
0.0
 41
0.7
 50
0.0
 71
0
 42
0.2
  3
gdt
  4

  0
ENDTAB
  0
TABLE
  2
VIEW
  5
6
100
AcDbSymbolTable
 70
0
  0
ENDTAB
  0
TABLE
  2
UCS
  5
7
100
AcDbSymbolTable
 70
0
  0
ENDTAB
  0
TABLE
  2
APPID
  5
9
100
AcDbSymbolTable
 70
1
  0
APPID
  5
216
100
AcDbSymbolTableRecord
100
AcDbRegAppTableRecord
  2
ACAD
 70
0
  0
ENDTAB
  0
TABLE
  2
BLOCK_RECORD
  5
1
100
AcDbSymbolTable
 70
0
  0
BLOCK_RECORD
  5
217
100
AcDbSymbolTableRecord
100
AcDbBlockTableRecord
  2
*Model_Space
  0
BLOCK_RECORD
  5
218
100
AcDbSymbolTableRecord
100
AcDbBlockTableRecord
  2
*Paper_Space
  0
BLOCK_RECORD
  5
219
100
AcDbSymbolTableRecord
100
AcDbBlockTableRecord
  2
_FILLED
  0
BLOCK_RECORD
  5
21A
100
AcDbSymbolTableRecord
100
AcDbBlockTableRecord
  2
*D0
  0
BLOCK_RECORD
  5
21B
100
AcDbSymbolTableRecord
100
AcDbBlockTableRecord
  2
*D1
  0
BLOCK_RECORD
  5
21C
100
AcDbSymbolTableRecord
100
AcDbBlockTableRecord
  2
*D2
  0
BLOCK_RECORD
  5
21D
100
AcDbSymbolTableRecord
100
AcDbBlockTableRecord
  2
*D3
  0
BLOCK_RECORD
  5
21E
100
AcDbSymbolTableRecord
100
AcDbBlockTableRecord
  2
*D4
  0
BLOCK_RECORD
  5
21F
100
AcDbSymbolTableRecord
100
AcDbBlockTableRecord
  2
*D5
  0
BLOCK_RECORD
  5
220
100
AcDbSymbolTableRecord
100
AcDbBlockTableRecord
  2
*D6
  0
ENDTAB
  0
TABLE
  2
DIMSTYLE
  5
A
100
AcDbSymbolTable
 70
1
100
AcDbDimStyleTable
 71
0
  0
DIMSTYLE
105
221
100
AcDbSymbolTableRecord
100
AcDbDimStyleTableRecord
  2
STANDARD
 70
0
  3

  4

 40
1.0
 41
3.5
 42
0.0625
 43
0.38
 44
0.18
 45
0.0
 46
0.0
 47
0.005
 48
0.005
140
3.5
141
0.09
142
0.0
143
25.4
144
1.0
145
0.0
146
1.0
147
0.09
 71
1.0
 72
0.0
 73
0
 74
0
 75
0
 76
0
 77
1
 78
8
170
0
171
2
172
0
173
0
174
0
175
0
176
0
177
0
178
5
270
2
271
3
272
3
273
2
274
2
275
0
280
0
281
0
282
0
283
1
284
8
285
0
286
0
287
3
288
0
340
11
341
219
342
219
343
219
344
219
  0
DIMSTYLE
105
222
100
AcDbSymbolTableRecord
100
AcDbDimStyleTableRecord
  2
DIMSTYLE_1
 70
0
  3

  4

 40
1.0
 41
3.5
 42
0.0625
 43
0.38
 44
0.18
 45
0.0
 46
0.0
 47
0.0
 48
0.1
140
3.5
141
0.09
142
0.0
143
25.4
144
1.0
145
0.0
146
1.0
147
0.09
 71
0.0
 72
0.0
 73
0
 74
0
 75
0
 76
0
 77
1
 78
8
170
0
171
2
172
0
173
0
174
0
175
0
176
0
177
0
178
5
270
2
271
2
272
2
273
2
274
2
275
0
280
0
281
0
282
0
283
1
284
8
285
0
286
0
287
3
288
0
340
11
341
219
342
219
343
219
344
219
  0
DIMSTYLE
105
223
100
AcDbSymbolTableRecord
100
AcDbDimStyleTableRecord
  2
DIMSTYLE_2
 70
0
  3

  4

 40
1.0
 41
3.5
 42
0.0625
 43
0.38
 44
0.18
 45
0.0
 46
0.0
 47
0.25
 48
0.25
140
3.5
141
0.09
142
0.0
143
25.4
144
1.0
145
0.0
146
1.0
147
0.09
 71
0.0
 72
0.0
 73
0
 74
0
 75
0
 76
0
 77
1
 78
8
170
0
171
2
172
0
173
0
174
0
175
0
176
0
177
0
178
5
270
2
271
2
272
2
273
2
274
2
275
0
280
0
281
0
282
0
283
1
284
8
285
0
286
0
287
3
288
0
340
11
341
219
342
219
343
219
344
219
  0
DIMSTYLE
105
224
100
AcDbSymbolTableRecord
100
AcDbDimStyleTableRecord
  2
DIMSTYLE_3
 70
0
  3

  4

 40
1.0
 41
3.5
 42
0.0625
 43
0.38
 44
0.18
 45
0.0
 46
0.0
 47
0.5
 48
0.5
140
3.5
141
0.09
142
0.0
143
25.4
144
1.0
145
0.0
146
1.0
147
0.09
 71
0.0
 72
0.0
 73
0
 74
0
 75
0
 76
0
 77
1
 78
8
170
0
171
2
172
0
173
0
174
0
175
0
176
0
177
0
178
5
270
2
271
2
272
2
273
2
274
2
275
0
280
0
281
0
282
0
283
1
284
8
285
0
286
0
287
3
288
0
340
11
341
219
342
219
343
219
344
219
  0
DIMSTYLE
105
225
100
AcDbSymbolTableRecord
100
AcDbDimStyleTableRecord
  2
DIMSTYLE_4
 70
0
  3

  4

 40
1.0
 41
3.5
 42
0.0625
 43
0.38
 44
0.18
 45
0.0
 46
0.0
 47
-0.038
 48
0.043
140
3.5
141
0.09
142
0.0
143
25.4
144
1.0
145
0.0
146
1.0
147
0.09
 71
0.0
 72
0.0
 73
0
 74
0
 75
0
 76
0
 77
1
 78
8
170
0
171
2
172
0
173
0
174
0
175
0
176
0
177
0
178
5
270
2
271
3
272
3
273
2
274
2
275
0
280
0
281
0
282
0
283
1
284
8
285
0
286
0
287
3
288
0
340
11
341
219
342
219
343
219
344
219
  0
ENDTAB
  0
ENDSEC
  0
SECTION
  2
BLOCKS
  0
BLOCK
  5
20
100
AcDbEntity
  8
0
100
AcDbBlockBegin
  2
*Model_Space
 70
0
 10
0.0
 20
0.0
 30
0.0
  3
*Model_Space
  1

  0
ENDBLK
  5
21
100
AcDbEntity
  8
0
100
AcDbBlockEnd
  0
BLOCK
  5
1C
100
AcDbEntity
  8
0
100
AcDbBlockBegin
  2
*Paper_Space
 70
0
 10
0.0
 20
0.0
 30
0.0
  3
*Paper_Space
  1

  0
ENDBLK
  5
1D
100
AcDbEntity
  8
0
100
AcDbBlockEnd
  0
BLOCK
  5
226
100
AcDbEntity
  8
0
100
AcDbBlockBegin
  2
_FILLED
 70
64
 10
0.0
 20
0.0
  3
_FILLED
  1

  0
SOLID
  5
227
100
AcDbEntity
  8
0
  6
BYBLOCK
 62
0
100
AcDbTrace
 10
0.0
 20
0.0
 11
-1.0
 21
0.125
 12
-1.0
 22
-0.125
 13
-1.0
 23
-0.125
  0
ENDBLK
  5
228
100
AcDbEntity
  8
0
  6
BYBLOCK
 62
0
100
AcDbBlockEnd
  0
BLOCK
  5
229
100
AcDbEntity
  8
0
100
AcDbBlockBegin
 62
2
  6
CONTINUOUS
  2
*D0
 70
65
 10
0.0
 20
0.0
  3
*D0
  1

  0
MTEXT
  5
22A
100
AcDbEntity
  8
0
100
AcDbMText
 62
5
  6
CONTINUOUS
  7
TEXTSTYLE_2
 71
2
 72
1
 10
255.2552044417
 20
126.1319465183
 30
0.0
 11
0.0
 21
1.0
 31
0.0
 44
0.9
  1
{\Fgdt;n}\Ftxt;44
 40
3.5
 41
10.1666666667
  0
LINE
  5
22B
100
AcDbEntity
  8
0
100
AcDbLine
 62
2
  6
CONTINUOUS
 10
227.3812249324
 20
148.1069465183
 11
233.7337399114
 21
148.1069465183
  0
LINE
  5
22C
100
AcDbEntity
  8
0
100
AcDbLine
 62
2
  6
CONTINUOUS
 10
240.0173972642
 20
148.1069465183
 11
261.1302044417
 21
148.1069465183
  0
LINE
  5
22D
100
AcDbEntity
  8
0
100
AcDbLine
 62
2
  6
CONTINUOUS
 10
225.1760939908
 20
104.1569465183
 11
240.150523615
 21
104.1569465183
  0
LINE
  5
22E
100
AcDbEntity
  8
0
100
AcDbLine
 62
2
  6
CONTINUOUS
 10
245.9687248676
 20
104.1569465183
 11
261.1302044417
 21
104.1569465183
  0
LINE
  5
22F
100
AcDbEntity
  8
0
100
AcDbLine
 62
2
  6
CONTINUOUS
 10
259.6302044417
 20
148.1069465183
 11
259.6302044417
 21
126.1319465183
  0
LINE
  5
230
100
AcDbEntity
  8
0
100
AcDbLine
 62
2
  6
CONTINUOUS
 10
259.6302044417
 20
104.1569465183
 11
259.6302044417
 21
126.1319465183
  0
INSERT
  5
231
100
AcDbEntity
  8
0
100
AcDbBlockReference
 62
2
  6
CONTINUOUS
  2
_FILLED
 10
259.6302044417
 20
148.1069465183
 41
3.5
 42
3.5
 43
3.5
 50
90.0
  0
INSERT
  5
232
100
AcDbEntity
  8
0
100
AcDbBlockReference
 62
2
  6
CONTINUOUS
  2
_FILLED
 10
259.6302044417
 20
104.1569465183
 41
3.5
 42
3.5
 43
3.5
 50
270.0
  0
ENDBLK
  5
233
100
AcDbEntity
  8
0
  6
BYBLOCK
 62
0
100
AcDbBlockEnd
  0
BLOCK
  5
234
100
AcDbEntity
  8
0
100
AcDbBlockBegin
 62
2
  6
CONTINUOUS
  2
*D1
 70
65
 10
0.0
 20
0.0
  3
*D1
  1

  0
MTEXT
  5
235
100
AcDbEntity
  8
0
100
AcDbMText
 62
5
  6
CONTINUOUS
  7
STANDARD
 71
2
 72
1
 10
247.4793423597
 20
122.1984767961
 30
0.0
 11
0.268160258
 21
-0.9633743177
 31
0.0
 44
0.9
  1
4\Fgdt;{\Fgdt;~}\Ftxt;30'
 40
3.5
 41
12.3333333333
  0
LINE
  5
236
100
AcDbEntity
  8
0
100
AcDbLine
 62
2
  6
CONTINUOUS
 10
195.9988594559
 20
101.9787009202
 11
244.8159203223
 21
105.8206869326
  0
LINE
  5
237
100
AcDbEntity
  8
0
100
AcDbLine
 62
2
  6
CONTINUOUS
 10
167.998172678
 20
99.6569465183
 11
202.1359177842
 21
99.6569465183
  0
LINE
  5
238
100
AcDbEntity
  8
0
100
AcDbLine
 62
2
  6
CONTINUOUS
 10
231.9355626755
 20
99.6569465183
 11
245.0580943427
 21
99.6569465183
  0
ARC
  5
239
100
AcDbEntity
  8
0
100
AcDbCircle
 62
2
  6
CONTINUOUS
 10
166.498172678
 20
99.6569465183
 40
77.0599216648
100
AcDbArc
 50
4.5
 51
15.5548207641
  0
ARC
  5
23A
100
AcDbEntity
  8
0
100
AcDbCircle
 62
2
  6
CONTINUOUS
 10
166.498172678
 20
99.6569465183
 40
77.0599216648
100
AcDbArc
 50
355.5388654744
 51
0.0
  0
ARC
  5
23B
100
AcDbEntity
  8
0
100
AcDbCircle
 62
2
  6
CONTINUOUS
 10
166.498172678
 20
99.6569465183
 40
77.0599216648
100
AcDbArc
 50
360.0
 51
4.5
  0
SOLID
  5
23C
100
AcDbEntity
  8
0
100
AcDbTrace
 62
2
  6
CONTINUOUS
 10
242.5315171149
 20
109.1408526077
 11
243.3205443217
 21
105.702998289
 12
243.4020359382
 22
109.2292945565
 13
243.4020359382
 23
109.2292945565
  0
SOLID
  5
23D
100
AcDbEntity
  8
0
100
AcDbTrace
 62
2
  6
CONTINUOUS
 10
243.9160047642
 20
96.1479144039
 11
243.5580943427
 21
99.6569465183
 12
243.0412303846
 22
96.167783596
 13
243.0412303846
 23
96.167783596
  0
ENDBLK
  5
23E
100
AcDbEntity
  8
0
  6
BYBLOCK
 62
0
100
AcDbBlockEnd
  0
BLOCK
  5
23F
100
AcDbEntity
  8
0
100
AcDbBlockBegin
 62
2
  6
CONTINUOUS
  2
*D2
 70
65
 10
0.0
 20
0.0
  3
*D2
  1

  0
MTEXT
  5
240
100
AcDbEntity
  8
0
100
AcDbMText
 62
5
  6
CONTINUOUS
  7
STANDARD
 71
2
 72
1
 10
143.6760939908
 20
192.3773167414
 30
0.0
 11
1.0
 21
0.0
 31
0.0
 44
0.9
  1
160
 40
3.5
 41
7.5
  0
LINE
  5
241
100
AcDbEntity
  8
0
100
AcDbLine
 62
2
  6
CONTINUOUS
 10
63.6760939908
 20
153.7150638238
 11
63.6760939908
 21
189.5023167414
  0
LINE
  5
242
100
AcDbEntity
  8
0
100
AcDbLine
 62
2
  6
CONTINUOUS
 10
223.6760939908
 20
125.4325212271
 11
223.6760939908
 21
189.5023167414
  0
LINE
  5
243
100
AcDbEntity
  8
0
100
AcDbLine
 62
2
  6
CONTINUOUS
 10
63.6760939908
 20
188.0023167414
 11
143.6760939908
 21
188.0023167414
  0
LINE
  5
244
100
AcDbEntity
  8
0
100
AcDbLine
 62
2
  6
CONTINUOUS
 10
223.6760939908
 20
188.0023167414
 11
143.6760939908
 21
188.0023167414
  0
INSERT
  5
245
100
AcDbEntity
  8
0
100
AcDbBlockReference
 62
2
  6
CONTINUOUS
  2
_FILLED
 10
63.6760939908
 20
188.0023167414
 41
3.5
 42
3.5
 43
3.5
 50
180.0
  0
INSERT
  5
246
100
AcDbEntity
  8
0
100
AcDbBlockReference
 62
2
  6
CONTINUOUS
  2
_FILLED
 10
223.6760939908
 20
188.0023167414
 41
3.5
 42
3.5
 43
3.5
  0
ENDBLK
  5
247
100
AcDbEntity
  8
0
  6
BYBLOCK
 62
0
100
AcDbBlockEnd
  0
BLOCK
  5
248
100
AcDbEntity
  8
0
100
AcDbBlockBegin
 62
2
  6
CONTINUOUS
  2
*D3
 70
65
 10
0.0
 20
0.0
  3
*D3
  1

  0
MTEXT
  5
249
100
AcDbEntity
  8
0
100
AcDbMText
 62
5
  6
CONTINUOUS
  7
TEXTSTYLE_2
 71
2
 72
1
 10
232.9580436283
 20
126.1319465183
 30
0.0
 11
0.0
 21
1.0
 31
0.0
 44
0.9
  1
{\Fgdt;n}\Ftxt;25
 40
3.5
 41
9.9166666667
  0
LINE
  5
24A
100
AcDbEntity
  8
0
100
AcDbLine
 62
2
  6
CONTINUOUS
 10
224.9770010395
 20
113.6521965183
 11
238.8330436283
 21
113.6521965183
  0
LINE
  5
24B
100
AcDbEntity
  8
0
100
AcDbLine
 62
2
  6
CONTINUOUS
 10
224.6086278586
 20
138.6116965183
 11
238.8330436283
 21
138.6116965183
  0
LINE
  5
24C
100
AcDbEntity
  8
0
100
AcDbLine
 62
2
  6
CONTINUOUS
 10
237.3330436283
 20
113.6521965183
 11
237.3330436283
 21
126.1319465183
  0
LINE
  5
24D
100
AcDbEntity
  8
0
100
AcDbLine
 62
2
  6
CONTINUOUS
 10
237.3330436283
 20
138.6116965183
 11
237.3330436283
 21
126.1319465183
  0
INSERT
  5
24E
100
AcDbEntity
  8
0
100
AcDbBlockReference
 62
2
  6
CONTINUOUS
  2
_FILLED
 10
237.3330436283
 20
113.6521965183
 41
3.5
 42
3.5
 43
3.5
 50
270.0
  0
INSERT
  5
24F
100
AcDbEntity
  8
0
100
AcDbBlockReference
 62
2
  6
CONTINUOUS
  2
_FILLED
 10
237.3330436283
 20
138.6116965183
 41
3.5
 42
3.5
 43
3.5
 50
90.0
  0
ENDBLK
  5
250
100
AcDbEntity
  8
0
  6
BYBLOCK
 62
0
100
AcDbBlockEnd
  0
BLOCK
  5
251
100
AcDbEntity
  8
0
100
AcDbBlockBegin
 62
2
  6
CONTINUOUS
  2
*D4
 70
65
 10
0.0
 20
0.0
  3
*D4
  1

  0
MTEXT
  5
252
100
AcDbEntity
  8
0
100
AcDbMText
 62
5
  6
CONTINUOUS
  7
STANDARD
 71
2
 72
1
 10
154.6760939908
 20
185.5467843249
 30
0.0
 11
1.0
 21
0.0
 31
0.0
 44
0.9
  1
138
 40
3.5
 41
7.25
  0
LINE
  5
253
100
AcDbEntity
  8
0
100
AcDbLine
 62
2
  6
CONTINUOUS
 10
223.6760939908
 20
105.6569465183
 11
223.6760939908
 21
182.6717843249
  0
LINE
  5
254
100
AcDbEntity
  8
0
100
AcDbLine
 62
2
  6
CONTINUOUS
 10
85.6760939908
 20
155.3635541787
 11
85.6760939908
 21
182.6717843249
  0
LINE
  5
255
100
AcDbEntity
  8
0
100
AcDbLine
 62
2
  6
CONTINUOUS
 10
223.6760939908
 20
181.1717843249
 11
154.6760939908
 21
181.1717843249
  0
LINE
  5
256
100
AcDbEntity
  8
0
100
AcDbLine
 62
2
  6
CONTINUOUS
 10
85.6760939908
 20
181.1717843249
 11
154.6760939908
 21
181.1717843249
  0
INSERT
  5
257
100
AcDbEntity
  8
0
100
AcDbBlockReference
 62
2
  6
CONTINUOUS
  2
_FILLED
 10
223.6760939908
 20
181.1717843249
 41
3.5
 42
3.5
 43
3.5
  0
INSERT
  5
258
100
AcDbEntity
  8
0
100
AcDbBlockReference
 62
2
  6
CONTINUOUS
  2
_FILLED
 10
85.6760939908
 20
181.1717843249
 41
3.5
 42
3.5
 43
3.5
 50
180.0
  0
ENDBLK
  5
259
100
AcDbEntity
  8
0
  6
BYBLOCK
 62
0
100
AcDbBlockEnd
  0
BLOCK
  5
25A
100
AcDbEntity
  8
0
100
AcDbBlockBegin
 62
2
  6
CONTINUOUS
  2
*D5
 70
65
 10
0.0
 20
0.0
  3
*D5
  1

  0
MTEXT
  5
25B
100
AcDbEntity
  8
0
100
AcDbMText
 62
5
  6
CONTINUOUS
  7
STANDARD
 71
2
 72
1
 10
124.6760939908
 20
200.5384884288
 30
0.0
 11
1.0
 21
0.0
 31
0.0
 44
0.9
  1
198
 40
3.5
 41
7.5
  0
LINE
  5
25C
100
AcDbEntity
  8
0
100
AcDbLine
 62
2
  6
CONTINUOUS
 10
223.6760939908
 20
105.6569465183
 11
223.6760939908
 21
197.6634884288
  0
LINE
  5
25D
100
AcDbEntity
  8
0
100
AcDbLine
 62
2
  6
CONTINUOUS
 10
25.6760939908
 20
107.445830749
 11
25.6760939908
 21
197.6634884288
  0
LINE
  5
25E
100
AcDbEntity
  8
0
100
AcDbLine
 62
2
  6
CONTINUOUS
 10
223.6760939908
 20
196.1634884288
 11
124.6760939908
 21
196.1634884288
  0
LINE
  5
25F
100
AcDbEntity
  8
0
100
AcDbLine
 62
2
  6
CONTINUOUS
 10
25.6760939908
 20
196.1634884288
 11
124.6760939908
 21
196.1634884288
  0
INSERT
  5
260
100
AcDbEntity
  8
0
100
AcDbBlockReference
 62
2
  6
CONTINUOUS
  2
_FILLED
 10
223.6760939908
 20
196.1634884288
 41
3.5
 42
3.5
 43
3.5
  0
INSERT
  5
261
100
AcDbEntity
  8
0
100
AcDbBlockReference
 62
2
  6
CONTINUOUS
  2
_FILLED
 10
25.6760939908
 20
196.1634884288
 41
3.5
 42
3.5
 43
3.5
 50
180.0
  0
ENDBLK
  5
262
100
AcDbEntity
  8
0
  6
BYBLOCK
 62
0
100
AcDbBlockEnd
  0
BLOCK
  5
263
100
AcDbEntity
  8
0
100
AcDbBlockBegin
 62
2
  6
CONTINUOUS
  2
*D6
 70
65
 10
0.0
 20
0.0
  3
*D6
  1

  0
MTEXT
  5
264
100
AcDbEntity
  8
0
100
AcDbMText
 62
5
  6
CONTINUOUS
  7
TEXTSTYLE_2
 71
2
 72
1
 10
270.2607730553
 20
126.1319465183
 30
0.0
 11
0.0
 21
1.0
 31
0.0
 44
0.9
  1
{\Fgdt;n}\Ftxt;53
 40
3.5
 41
9.6666666667
  0
LINE
  5
265
100
AcDbEntity
  8
0
100
AcDbLine
 62
2
  6
CONTINUOUS
 10
167.998172678
 20
152.6069465183
 11
221.631881306
 21
152.6069465183
  0
LINE
  5
266
100
AcDbEntity
  8
0
100
AcDbLine
 62
2
  6
CONTINUOUS
 10
241.4913415816
 20
152.6069465183
 11
276.1357730553
 21
152.6069465183
  0
LINE
  5
267
100
AcDbEntity
  8
0
100
AcDbLine
 62
2
  6
CONTINUOUS
 10
167.998172678
 20
99.6569465183
 11
219.4264299824
 21
99.6569465183
  0
LINE
  5
268
100
AcDbEntity
  8
0
100
AcDbLine
 62
2
  6
CONTINUOUS
 10
230.9658624667
 20
99.6569465183
 11
276.1357730553
 21
99.6569465183
  0
LINE
  5
269
100
AcDbEntity
  8
0
100
AcDbLine
 62
2
  6
CONTINUOUS
 10
274.6357730553
 20
152.6069465183
 11
274.6357730553
 21
126.1319465183
  0
LINE
  5
26A
100
AcDbEntity
  8
0
100
AcDbLine
 62
2
  6
CONTINUOUS
 10
274.6357730553
 20
99.6569465183
 11
274.6357730553
 21
126.1319465183
  0
INSERT
  5
26B
100
AcDbEntity
  8
0
100
AcDbBlockReference
 62
2
  6
CONTINUOUS
  2
_FILLED
 10
274.6357730553
 20
152.6069465183
 41
3.5
 42
3.5
 43
3.5
 50
90.0
  0
INSERT
  5
26C
100
AcDbEntity
  8
0
100
AcDbBlockReference
 62
2
  6
CONTINUOUS
  2
_FILLED
 10
274.6357730553
 20
99.6569465183
 41
3.5
 42
3.5
 43
3.5
 50
270.0
  0
ENDBLK
  5
26D
100
AcDbEntity
  8
0
  6
BYBLOCK
 62
0
100
AcDbBlockEnd
  0
ENDSEC
  0
SECTION
  2
ENTITIES
  0
DIMENSION
  5
26E
100
AcDbEntity
  8
0
100
AcDbDimension
 62
2
  6
CONTINUOUS
  2
*D0
 10
259.6302044417
 20
104.1569465183
 11
258.144058216
 21
123.8597049983
 70
160
 71
2
 42
43.95
  1
%%c<>
  3
DIMSTYLE_1
100
AcDbAlignedDimension
 13
227.3812249324
 23
148.1069465183
 14
225.1760939908
 24
104.1569465183
 50
270.0
100
AcDbRotatedDimension
  0
DIMENSION
  5
26F
100
AcDbEntity
  8
0
100
AcDbDimension
 62
2
  6
CONTINUOUS
  2
*D1
 10
245.0580943427
 20
99.6569465183
 11
244.3454273174
 21
119.6912397505
 70
162
 71
2
 42
0.0785398163
  3
DIMSTYLE_2
100
AcDb2LineAngularDimension
 13
244.8159203223
 23
105.8206869326
 14
195.9988594559
 24
101.9787009202
 15
167.998172678
 25
99.6569465183
 16
243.4986839358
 26
102.6823048453
  0
DIMENSION
  5
270
100
AcDbEntity
  8
0
100
AcDbDimension
 62
2
  6
CONTINUOUS
  2
*D2
 10
223.6760939908
 20
188.0023167414
 11
139.9260939908
 21
190.6273167414
 70
160
 71
2
 42
160.0
  3
DIMSTYLE_3
100
AcDbAlignedDimension
 13
63.6760939908
 23
153.7150638238
 14
223.6760939908
 24
125.4325212271
100
AcDbRotatedDimension
  0
DIMENSION
  5
271
100
AcDbEntity
  8
0
100
AcDbDimension
 62
2
  6
CONTINUOUS
  2
*D3
 10
237.3330436283
 20
138.6116965183
 11
235.8188928016
 21
123.9155797898
 70
160
 71
2
 42
24.9595
  1
%%c<>
  3
DIMSTYLE_4
100
AcDbAlignedDimension
 13
224.9770010395
 23
113.6521965183
 14
224.6086278586
 24
138.6116965183
 50
90.0
100
AcDbRotatedDimension
  0
DIMENSION
  5
272
100
AcDbEntity
  8
0
100
AcDbDimension
 62
2
  6
CONTINUOUS
  2
*D4
 10
85.6760939908
 20
181.1717843249
 11
151.0510939908
 21
183.7967843249
 70
160
 71
2
 42
138.0
  3
DIMSTYLE_3
100
AcDbAlignedDimension
 13
223.6760939908
 23
105.6569465183
 14
85.6760939908
 24
155.3635541787
 50
180.0
100
AcDbRotatedDimension
  0
DIMENSION
  5
273
100
AcDbEntity
  8
0
100
AcDbDimension
 62
2
  6
CONTINUOUS
  2
*D5
 10
25.6760939908
 20
196.1634884288
 11
120.9260939908
 21
198.7884884288
 70
160
 71
2
 42
198.0
  3
DIMSTYLE_3
100
AcDbAlignedDimension
 13
223.6760939908
 23
105.6569465183
 14
25.6760939908
 24
107.445830749
 50
180.0
100
AcDbRotatedDimension
  0
DIMENSION
  5
274
100
AcDbEntity
  8
0
100
AcDbDimension
 62
2
  6
CONTINUOUS
  2
*D6
 10
274.6357730553
 20
99.6569465183
 11
273.0936176276
 21
123.9714545813
 70
160
 71
2
 42
52.95
  1
%%c<>
  3
DIMSTYLE_1
100
AcDbAlignedDimension
 13
167.998172678
 23
152.6069465183
 14
167.998172678
 24
99.6569465183
 50
270.0
100
AcDbRotatedDimension
  0
MTEXT
  5
275
100
AcDbEntity
  8
0
100
AcDbMText
 62
5
  6
CONTINUOUS
  7
STANDARD
 71
1
 72
1
 10
15.9093360187
 20
83.8266632017
 30
0.0
 11
1.0
 21
0.0
 31
0.0
 44
0.9
  3
Für diese Unterlage behalten wir das Ur-\Pheberrecht. Sie darf nur für den von uns \Pbestimmten Zweck benutzt und ohne unsere \PZustimmung weder vervielfältigt noch\PDritten zugänglich gemacht werden\P \PWe own the copyright of this document. It \Pde
  1
termined and may neither be copied or \Pmade accessible to outsiders without our\Ppermission.\P \PCe plan reste notre propriété. Il ne peut\Pêtre utilisé, copié ou reproduit sans notre\Paccord.\P 
 40
3.5
 41
104.8333333333
  0
LINE
  5
276
100
AcDbEntity
  8
0
100
AcDbLine
 62
7
  6
CONTINUOUS
 10
0.0
 20
0.0
 11
0.0
 21
210.0
  0
LINE
  5
277
100
AcDbEntity
  8
0
100
AcDbLine
 62
7
  6
CONTINUOUS
 10
0.0
 20
0.0
 11
297.0
 21
0.0
  0
LINE
  5
278
100
AcDbEntity
  8
0
100
AcDbLine
 62
7
  6
CONTINUOUS
 10
0.0
 20
210.0
 11
297.0
 21
210.0
  0
LINE
  5
279
100
AcDbEntity
  8
0
100
AcDbLine
 62
7
  6
CONTINUOUS
 10
297.0
 20
0.0
 11
297.0
 21
210.0
  0
LINE
  5
27A
100
AcDbEntity
  8
0
100
AcDbLine
 62
7
  6
CONTINUOUS
 10
25.6760939908
 20
104.4396085254
 11
25.6760939908
 21
141.0931911571
  0
LINE
  5
27B
100
AcDbEntity
  8
KURVEN
100
AcDbLine
 62
4
  6
CONTINUOUS
 10
25.6760939908
 20
103.6112683427
 11
25.6760939908
 21
145.3435205053
  0
LINE
  5
27C
100
AcDbEntity
  8
ACHSEN
100
AcDbLine
 62
7
  6
CONTINUOUS
 10
25.6760939908
 20
141.0931911571
 11
25.6760939908
 21
144.8804258323
  0
LINE
  5
27D
100
AcDbEntity
  8
ACHSEN
100
AcDbLine
 62
7
  6
CONTINUOUS
 10
27.1760939908
 20
145.6289361319
 11
27.1760939908
 21
141.8431911571
  0
LINE
  5
27E
100
AcDbEntity
  8
0
100
AcDbLine
 62
7
  6
CONTINUOUS
 10
27.1760939908
 20
141.8431911571
 11
27.1760939908
 21
103.5735831217
  0
LINE
  5
27F
100
AcDbEntity
  8
ACHSEN
100
AcDbLine
 62
7
  6
CENTER
 10
48.1760939908
 20
103.1984610113
 11
48.1760939908
 21
150.3203170829
  0
LINE
  5
280
100
AcDbEntity
  8
0
100
AcDbLine
 62
7
  6
CONTINUOUS
 10
63.6760958267
 20
157.331944611
 11
63.9760959166
 21
157.6319446649
  0
LINE
  5
281
100
AcDbEntity
  8
0
100
AcDbLine
 62
7
  6
CONTINUOUS
 10
61.4761570798
 20
146.7520468879
 11
61.4761570798
 21
142.589477267
  0
LINE
  5
282
100
AcDbEntity
  8
0
100
AcDbLine
 62
7
  6
CONTINUOUS
 10
61.4761570798
 20
131.3568176489
 11
61.4761570798
 21
104.4495446391
  0
LINE
  5
283
100
AcDbEntity
  8
0
100
AcDbLine
 62
9
  6
CONTINUOUS
 10
61.6811171019
 20
146.5571330881
 11
61.6811171019
 21
140.8168887231
  0
LINE
  5
284
100
AcDbEntity
  8
0
100
AcDbLine
 62
9
  6
CONTINUOUS
 10
61.6811171019
 20
134.3178897051
 11
61.6811171019
 21
103.2610611268
  0
LINE
  5
285
100
AcDbEntity
  8
0
100
AcDbLine
 62
9
  6
CONTINUOUS
 10
62.3689872096
 20
103.3890532995
 11
62.3689872096
 21
104.0283898674
  0
LINE
  5
286
100
AcDbEntity
  8
0
100
AcDbLine
 62
9
  6
CONTINUOUS
 10
62.3689872096
 20
132.5464862791
 11
62.3689872096
 21
141.8209634085
  0
LINE
  5
287
100
AcDbEntity
  8
0
100
AcDbLine
 62
9
  6
CONTINUOUS
 10
63.2811171019
 20
146.5973306572
 11
63.2811171019
 21
142.4764248053
  0
LINE
  5
288
100
AcDbEntity
  8
0
100
AcDbLine
 62
9
  6
CONTINUOUS
 10
63.2811171019
 20
131.3148969715
 11
63.2811171019
 21
104.6045177782
  0
LINE
  5
289
100
AcDbEntity
  8
0
100
AcDbLine
 62
7
  6
CONTINUOUS
 10
63.6760939908
 20
94.9322221879
 11
63.6760939908
 21
157.3316708488
  0
LINE
  5
28A
100
AcDbEntity
  8
0
100
AcDbLine
 62
7
  6
CONTINUOUS
 10
63.9760940643
 20
94.6319465183
 11
63.9760940643
 21
157.6319465183
  0
LINE
  5
28B
100
AcDbEntity
  8
0
100
AcDbLine
 62
7
  6
CONTINUOUS
 10
63.4760291389
 20
142.9215211041
 11
63.4760939908
 21
148.6654313793
  0
LINE
  5
28C
100
AcDbEntity
  8
0
100
AcDbLine
 62
7
  6
CONTINUOUS
 10
63.4760291389
 20
104.7217784269
 11
63.4759980244
 21
130.7571717324
  0
LINE
  5
28D
100
AcDbEntity
  8
0
100
AcDbLine
 62
9
  6
CONTINUOUS
 10
27.1760939908
 20
141.8431911571
 11
25.6760939908
 21
141.0931911571
  0
LINE
  5
28E
100
AcDbEntity
  8
0
100
AcDbLine
 62
7
  6
CONTINUOUS
 10
27.1760939908
 20
103.5735831217
 11
25.6760939908
 21
104.4396085254
  0
LINE
  5
28F
100
AcDbEntity
  8
0
100
AcDbLine
 62
7
  6
CONTINUOUS
 10
63.6760958267
 20
94.9319484257
 11
63.9760959166
 21
94.6319483718
  0
LINE
  5
290
100
AcDbEntity
  8
0
100
AcDbLine
 62
9
  6
CONTINUOUS
 10
73.7817564235
 20
156.0459013648
 11
73.7817564235
 21
136.0013591373
  0
LINE
  5
291
100
AcDbEntity
  8
0
100
AcDbLine
 62
9
  6
CONTINUOUS
 10
73.7817564235
 20
116.2625338994
 11
73.7817564235
 21
96.2179916719
  0
LINE
  5
292
100
AcDbEntity
  8
0
100
AcDbLine
 62
9
  6
CONTINUOUS
 10
27.1760939908
 20
105.195830749
 11
25.6760939908
 21
105.945830749
  0
LINE
  5
293
100
AcDbEntity
  8
0
100
AcDbLine
 62
9
  6
CONTINUOUS
 10
74.2147691253
 20
156.2125392786
 11
74.2147691253
 21
135.4811678329
  0
LINE
  5
294
100
AcDbEntity
  8
0
100
AcDbLine
 62
9
  6
CONTINUOUS
 10
74.2147691253
 20
116.7827252038
 11
74.2147691253
 21
96.051353758
  0
LINE
  5
295
100
AcDbEntity
  8
ACHSEN
100
AcDbLine
 62
7
  6
CENTER
 10
75.6760939908
 20
148.9759289123
 11
75.6760939908
 21
160.6319465183
  0
LINE
  5
296
100
AcDbEntity
  8
0
100
AcDbLine
 62
9
  6
CONTINUOUS
 10
77.1374188562
 20
156.2125392786
 11
77.1374188562
 21
135.4811678329
  0
LINE
  5
297
100
AcDbEntity
  8
0
100
AcDbLine
 62
9
  6
CONTINUOUS
 10
77.1374188562
 20
116.7827252038
 11
77.1374188562
 21
96.051353758
  0
LINE
  5
298
100
AcDbEntity
  8
0
100
AcDbLine
 62
9
  6
CONTINUOUS
 10
77.570431558
 20
156.0459013648
 11
77.570431558
 21
136.0013591373
  0
LINE
  5
299
100
AcDbEntity
  8
0
100
AcDbLine
 62
9
  6
CONTINUOUS
 10
77.570431558
 20
116.2625338994
 11
77.570431558
 21
96.2179916719
  0
LINE
  5
29A
100
AcDbEntity
  8
0
100
AcDbLine
 62
7
  6
CONTINUOUS
 10
85.6760939908
 20
94.6319465183
 11
85.6760939908
 21
157.6319465183
  0
LINE
  5
29B
100
AcDbEntity
  8
RUNDUNGEN
100
AcDbLine
 62
9
  6
CONTINUOUS
 10
86.6760939908
 20
152.6069465183
 11
86.6760939908
 21
99.6569465183
  0
LINE
  5
29C
100
AcDbEntity
  8
0
100
AcDbLine
 62
7
  6
CONTINUOUS
 10
62.3689872096
 20
103.3890532995
 11
61.6864968133
 21
102.7065629032
  0
LINE
  5
29D
100
AcDbEntity
  8
RUNDUNGEN
100
AcDbLine
 62
7
  6
CONTINUOUS
 10
222.7545530865
 20
104.0844196763
 11
166.498172678
 21
99.6569465183
  0
LINE
  5
29E
100
AcDbEntity
  8
0
100
AcDbLine
 62
7
  6
CONTINUOUS
 10
166.498172678
 20
99.6569465183
 11
222.7545530865
 21
104.0844196763
  0
LINE
  5
29F
100
AcDbEntity
  8
0
100
AcDbLine
 62
7
  6
CONTINUOUS
 10
85.6760939908
 20
94.6319465183
 11
63.9760940631
 21
94.6319465183
  0
LINE
  5
2A0
100
AcDbEntity
  8
0
100
AcDbLine
 62
7
  6
CONTINUOUS
 10
77.1374188562
 20
96.051353758
 11
74.2147691253
 21
96.051353758
  0
LINE
  5
2A1
100
AcDbEntity
  8
0
100
AcDbLine
 62
7
  6
CONTINUOUS
 10
166.498172678
 20
99.6569465183
 11
162.9260939908
 21
99.6569465183
  0
LINE
  5
2A2
100
AcDbEntity
  8
0
100
AcDbLine
 62
7
  6
CONTINUOUS
 10
154.4260939908
 20
99.6569465183
 11
86.6760939908
 21
99.6569465183
  0
LINE
  5
2A3
100
AcDbEntity
  8
0
100
AcDbLine
 62
7
  6
CONTINUOUS
 10
155.160068587
 20
99.9569465183
 11
156.1760939908
 21
99.9569465183
  0
LINE
  5
2A4
100
AcDbEntity
  8
0
100
AcDbLine
 62
7
  6
CONTINUOUS
 10
161.1760939908
 20
99.9569465183
 11
162.1921193945
 21
99.9569465183
  0
LINE
  5
2A5
100
AcDbEntity
  8
BEZUGSACHSEN
100
AcDbLine
 62
7
  6
CONTINUOUS
 10
161.1760939908
 20
99.9569465183
 11
162.1921193945
 21
99.9569465183
  0
LINE
  5
2A6
100
AcDbEntity
  8
0
100
AcDbLine
 62
9
  6
CONTINUOUS
 10
61.4761570798
 20
104.4495446391
 11
27.1760939908
 21
105.195830749
  0
LINE
  5
2A7
100
AcDbEntity
  8
0
100
AcDbLine
 62
7
  6
CONTINUOUS
 10
61.9291227416
 20
103.255217643
 11
61.6811171019
 21
103.2610611268
  0
LINE
  5
2A8
100
AcDbEntity
  8
0
100
AcDbLine
 62
7
  6
CONTINUOUS
 10
27.1760939908
 20
103.5735831217
 11
61.6864968136
 21
102.7065616825
  0
LINE
  5
2A9
100
AcDbEntity
  8
0
100
AcDbLine
 62
7
  6
CONTINUOUS
 10
162.5921193945
 20
152.4141261953
 11
162.9260939908
 21
152.6069465183
  0
LINE
  5
2AA
100
AcDbEntity
  8
RUNDUNGEN
100
AcDbLine
 62
7
  6
CONTINUOUS
 10
162.5921193945
 20
152.4141261953
 11
162.9260939908
 21
152.6069465183
  0
LINE
  5
2AB
100
AcDbEntity
  8
DEFAULT_2
100
AcDbLine
 62
8
  6
HIDDEN
 10
164.2258588743
 20
113.3021965183
 11
175.2908847096
 21
113.3021965183
  0
LINE
  5
2AC
100
AcDbEntity
  8
BOHRUNGEN
100
AcDbLine
 62
8
  6
HIDDEN
 10
176.6760939908
 20
113.6521965183
 11
219.5760939908
 21
113.6521965183
  0
LINE
  5
2AD
100
AcDbEntity
  8
0
100
AcDbLine
 62
7
  6
CONTINUOUS
 10
77.1374188562
 20
116.7827252038
 11
74.2147691253
 21
116.7827252038
  0
LINE
  5
2AE
100
AcDbEntity
  8
0
100
AcDbLine
 62
7
  6
CONTINUOUS
 10
162.5921193945
 20
99.8497668414
 11
162.9260939908
 21
99.6569465183
  0
LINE
  5
2AF
100
AcDbEntity
  8
RUNDUNGEN
100
AcDbLine
 62
7
  6
CONTINUOUS
 10
162.5921193945
 20
99.8497668414
 11
162.9260939908
 21
99.6569465183
  0
LINE
  5
2B0
100
AcDbEntity
  8
S_ACHSEN
100
AcDbLine
 62
7
  6
CENTER
 10
22.6760939908
 20
126.1319465183
 11
227.6760939908
 21
126.1319465183
  0
LINE
  5
2B1
100
AcDbEntity
  8
0
100
AcDbLine
 62
7
  6
CONTINUOUS
 10
61.6811171019
 20
134.3178897051
 11
61.9291227416
 21
134.318903961
  0
LINE
  5
2B2
100
AcDbEntity
  8
0
100
AcDbLine
 62
9
  6
CONTINUOUS
 10
25.6760939908
 20
131.3568176489
 11
61.4761570798
 21
131.3568176489
  0
LINE
  5
2B3
100
AcDbEntity
  8
0
100
AcDbLine
 62
7
  6
CONTINUOUS
 10
77.1374188562
 20
135.4811678329
 11
74.2147691253
 21
135.4811678329
  0
LINE
  5
2B4
100
AcDbEntity
  8
0
100
AcDbLine
 62
9
  6
CONTINUOUS
 10
27.1760939908
 20
141.8431911571
 11
61.4761570798
 21
142.589477267
  0
LINE
  5
2B5
100
AcDbEntity
  8
0
100
AcDbLine
 62
7
  6
CONTINUOUS
 10
61.9291227416
 20
140.821717951
 11
61.6811171019
 21
140.8168887231
  0
LINE
  5
2B6
100
AcDbEntity
  8
BOHRUNGEN
100
AcDbLine
 62
8
  6
HIDDEN
 10
176.6760939908
 20
138.6116965183
 11
219.5760939908
 21
138.6116965183
  0
LINE
  5
2B7
100
AcDbEntity
  8
RUNDUNGEN
100
AcDbLine
 62
8
  6
HIDDEN
 10
175.2908847096
 20
138.9616965183
 11
164.2258588743
 21
138.9616965183
  0
LINE
  5
2B8
100
AcDbEntity
  8
DEFAULT_2
100
AcDbLine
 62
8
  6
HIDDEN
 10
164.2258588743
 20
138.9616965183
 11
175.2908847096
 21
138.9616965183
  0
LINE
  5
2B9
100
AcDbEntity
  8
0
100
AcDbLine
 62
7
  6
CONTINUOUS
 10
154.4260939908
 20
152.6069465183
 11
154.4260939908
 21
99.6569465183
  0
LINE
  5
2BA
100
AcDbEntity
  8
RUNDUNGEN
100
AcDbLine
 62
9
  6
CONTINUOUS
 10
154.760068587
 20
99.8497668414
 11
154.760068587
 21
152.4141261953
  0
LINE
  5
2BB
100
AcDbEntity
  8
RUNDUNGEN
100
AcDbLine
 62
9
  6
CONTINUOUS
 10
155.160068587
 20
99.9569465183
 11
155.160068587
 21
152.3069465183
  0
LINE
  5
2BC
100
AcDbEntity
  8
0
100
AcDbLine
 62
7
  6
CONTINUOUS
 10
61.6811171019
 20
146.5571330881
 11
63.2811171019
 21
146.5973306572
  0
LINE
  5
2BD
100
AcDbEntity
  8
0
100
AcDbLine
 62
7
  6
CONTINUOUS
 10
33.9396987449
 20
146.0602352085
 11
43.7260939908
 21
146.3061035205
  0
LINE
  5
2BE
100
AcDbEntity
  8
0
100
AcDbLine
 62
7
  6
CONTINUOUS
 10
52.855455324
 20
146.5354648537
 11
61.4761570798
 21
146.7520468879
  0
LINE
  5
2BF
100
AcDbEntity
  8
BEZUGSACHSEN
100
AcDbLine
 62
7
  6
CENTER
 10
158.6760939908
 20
155.3069465183
 11
158.6760939908
 21
141.6069465183
  0
LINE
  5
2C0
100
AcDbEntity
  8
BEZUGSACHSEN
100
AcDbLine
 62
7
  6
CENTER
 10
158.6760939908
 20
96.9569465183
 11
158.6760939908
 21
110.6569465183
  0
LINE
  5
2C1
100
AcDbEntity
  8
RUNDUNGEN
100
AcDbLine
 62
9
  6
CONTINUOUS
 10
162.1921193945
 20
99.9569465183
 11
162.1921193945
 21
152.3069465183
  0
LINE
  5
2C2
100
AcDbEntity
  8
RUNDUNGEN
100
AcDbLine
 62
9
  6
CONTINUOUS
 10
162.5921193945
 20
99.8497668414
 11
162.5921193945
 21
152.4141261953
  0
LINE
  5
2C3
100
AcDbEntity
  8
0
100
AcDbLine
 62
7
  6
CONTINUOUS
 10
162.9260939908
 20
152.6069465183
 11
162.9260939908
 21
99.6569465183
  0
LINE
  5
2C4
100
AcDbEntity
  8
0
100
AcDbLine
 62
7
  6
CONTINUOUS
 10
154.4260939908
 20
99.6569465183
 11
154.760068587
 21
99.8497668414
  0
LINE
  5
2C5
100
AcDbEntity
  8
RUNDUNGEN
100
AcDbLine
 62
7
  6
CONTINUOUS
 10
154.4260939908
 20
99.6569465183
 11
154.760068587
 21
99.8497668414
  0
LINE
  5
2C6
100
AcDbEntity
  8
0
100
AcDbLine
 62
7
  6
CONTINUOUS
 10
155.160068587
 20
152.3069465183
 11
156.1760939908
 21
152.3069465183
  0
LINE
  5
2C7
100
AcDbEntity
  8
BEZUGSACHSEN
100
AcDbLine
 62
7
  6
CONTINUOUS
 10
155.160068587
 20
152.3069465183
 11
156.1760939908
 21
152.3069465183
  0
LINE
  5
2C8
100
AcDbEntity
  8
0
100
AcDbLine
 62
7
  6
CONTINUOUS
 10
161.1760939908
 20
152.3069465183
 11
162.1921193945
 21
152.3069465183
  0
LINE
  5
2C9
100
AcDbEntity
  8
BEZUGSACHSEN
100
AcDbLine
 62
7
  6
CONTINUOUS
 10
161.1760939908
 20
152.3069465183
 11
162.1921193945
 21
152.3069465183
  0
LINE
  5
2CA
100
AcDbEntity
  8
0
100
AcDbLine
 62
7
  6
CONTINUOUS
 10
166.498172678
 20
152.6069465183
 11
162.9260939908
 21
152.6069465183
  0
LINE
  5
2CB
100
AcDbEntity
  8
0
100
AcDbLine
 62
7
  6
CONTINUOUS
 10
86.6760939908
 20
152.6069465183
 11
154.4260939908
 21
152.6069465183
  0
LINE
  5
2CC
100
AcDbEntity
  8
0
100
AcDbLine
 62
7
  6
CONTINUOUS
 10
77.1374188562
 20
156.2125392786
 11
74.2147691253
 21
156.2125392786
  0
LINE
  5
2CD
100
AcDbEntity
  8
0
100
AcDbLine
 62
7
  6
CONTINUOUS
 10
85.6760939908
 20
157.6319465183
 11
80.8983712679
 21
157.6319465183
  0
LINE
  5
2CE
100
AcDbEntity
  8
0
100
AcDbLine
 62
7
  6
CONTINUOUS
 10
70.4538167136
 20
157.6319465183
 11
63.9760940631
 21
157.6319465183
  0
LINE
  5
2CF
100
AcDbEntity
  8
RUNDUNGEN
100
AcDbLine
 62
7
  6
CONTINUOUS
 10
222.7545530865
 20
148.1794733604
 11
166.498172678
 21
152.6069465183
  0
LINE
  5
2D0
100
AcDbEntity
  8
0
100
AcDbLine
 62
7
  6
CONTINUOUS
 10
166.498172678
 20
152.6069465183
 11
222.7545530865
 21
148.1794733604
  0
LINE
  5
2D1
100
AcDbEntity
  8
RUNDUNGEN
100
AcDbLine
 62
9
  6
CONTINUOUS
 10
164.2258588743
 20
113.3021965183
 11
164.2258588743
 21
138.9616965183
  0
LINE
  5
2D2
100
AcDbEntity
  8
0
100
AcDbLine
 62
7
  6
CONTINUOUS
 10
166.498172678
 20
99.6569465183
 11
166.498172678
 21
152.6069465183
  0
LINE
  5
2D3
100
AcDbEntity
  8
0
100
AcDbLine
 62
7
  6
CONTINUOUS
 10
154.4260939908
 20
152.6069465183
 11
154.760068587
 21
152.4141261953
  0
LINE
  5
2D4
100
AcDbEntity
  8
RUNDUNGEN
100
AcDbLine
 62
7
  6
CONTINUOUS
 10
154.4260939908
 20
152.6069465183
 11
154.760068587
 21
152.4141261953
  0
LINE
  5
2D5
100
AcDbEntity
  8
RUNDUNGEN
100
AcDbLine
 62
9
  6
CONTINUOUS
 10
222.7545530865
 20
104.0844196763
 11
222.7545530865
 21
148.1794733604
  0
LINE
  5
2D6
100
AcDbEntity
  8
RUNDUNGEN
100
AcDbLine
 62
7
  6
CONTINUOUS
 10
223.6760939908
 20
105.08133701
 11
223.6760939908
 21
147.1825560267
  0
ARC
  5
2D7
100
AcDbEntity
  8
0
100
AcDbCircle
 62
7
  6
CONTINUOUS
 10
-45.075917205
 20
106.8224576889
 40
110.4813700655
100
AcDbArc
 50
13.4640903998
 51
14.4111621352
  0
ARC
  5
2D8
100
AcDbEntity
  8
ACHSEN
100
AcDbCircle
 62
7
  6
CONTINUOUS
 10
38.9376656104
 20
110.5635433332
 40
35.8451025478
100
AcDbArc
 50
98.0149288422
 51
101.1172700805
  0
ARC
  5
2D9
100
AcDbEntity
  8
RUNDUNGEN
100
AcDbCircle
 62
7
  6
CONTINUOUS
 10
86.6760939908
 20
153.6069465183
 40
1.0
100
AcDbArc
 50
180.0000000002
 51
270.0
  0
ARC
  5
2DA
100
AcDbEntity
  8
RUNDUNGEN
100
AcDbCircle
 62
7
  6
CONTINUOUS
 10
86.6760939908
 20
98.6569465183
 40
1.0
100
AcDbArc
 50
90.0
 51
179.9999999995
  0
ARC
  5
2DB
100
AcDbEntity
  8
0
100
AcDbCircle
 62
7
  6
CONTINUOUS
 10
63.0760939908
 20
102.6819465183
 40
1.0
100
AcDbArc
 50
53.102347605
 51
135.0
  0
ARC
  5
2DC
100
AcDbEntity
  8
0
100
AcDbCircle
 62
7
  6
CONTINUOUS
 10
63.0760939908
 20
149.5819465183
 40
1.0
100
AcDbArc
 50
293.5781784782
 51
306.897652395
  0
ARC
  5
2DD
100
AcDbEntity
  8
0
100
AcDbCircle
 62
7
  6
CONTINUOUS
 10
63.2760939908
 20
146.7972675681
 40
0.2
100
AcDbArc
 50
271.439166666
 51
360.0
  0
ARC
  5
2DE
100
AcDbEntity
  8
0
100
AcDbCircle
 62
7
  6
CONTINUOUS
 10
61.6760939908
 20
146.757069999
 40
0.2
100
AcDbArc
 50
181.439166666
 51
271.439166666
  0
ARC
  5
2DF
100
AcDbEntity
  8
ACHSEN
100
AcDbCircle
 62
7
  6
CONTINUOUS
 10
-38.0821229872
 20
274.5278860709
 40
144.4768984251
100
AcDbArc
 50
296.187103939
 51
296.8519184685
  0
ARC
  5
2E0
100
AcDbEntity
  8
FASEN
100
AcDbCircle
 62
7
  6
CONTINUOUS
 10
75.0045998318
 20
192.8764943036
 40
35.7340046496
100
AcDbArc
 50
278.5204424671
 51
279.4937166383
  0
ARC
  5
2E1
100
AcDbEntity
  8
FASEN
100
AcDbCircle
 62
7
  6
CONTINUOUS
 10
75.9647375148
 20
190.4537319235
 40
33.2812609715
100
AcDbArc
 50
260.5303369408
 51
261.5206938832
  0
ARC
  5
2E2
100
AcDbEntity
  8
FASEN
100
AcDbCircle
 62
7
  6
CONTINUOUS
 10
75.6361176171
 20
188.7351551986
 40
31.5448080342
100
AcDbArc
 50
270.0726103042
 51
278.5005399283
  0
ARC
  5
2E3
100
AcDbEntity
  8
FASEN
100
AcDbCircle
 62
7
  6
CONTINUOUS
 10
75.6887814037
 20
188.3703963557
 40
31.1800264418
100
AcDbArc
 50
261.4577517885
 51
269.9766858686
  0
ARC
  5
2E4
100
AcDbEntity
  8
0
100
AcDbCircle
 62
7
  6
CONTINUOUS
 10
207.9102667667
 20
77.1577486464
 40
159.2595221596
100
AcDbArc
 50
156.0446773748
 51
156.4374589831
  0
ARC
  5
2E5
100
AcDbEntity
  8
BEZUGSACHSEN
100
AcDbCircle
 62
7
  6
CONTINUOUS
 10
158.687826241
 20
73.6792111745
 40
26.3975031716
100
AcDbArc
 50
90.7311611113
 51
95.459974707
  0
ARC
  5
2E6
100
AcDbEntity
  8
BEZUGSACHSEN
100
AcDbCircle
 62
7
  6
CONTINUOUS
 10
158.6707134263
 20
73.7942022125
 40
26.2824298988
100
AcDbArc
 50
84.5299567905
 51
89.1362720115
  0
ARC
  5
2E7
100
AcDbEntity
  8
BEZUGSACHSEN
100
AcDbCircle
 62
7
  6
CONTINUOUS
 10
158.6740471251
 20
74.0317808669
 40
26.0448279869
100
AcDbArc
 50
89.1357263988
 51
90.7177445095
  0
ARC
  5
2E8
100
AcDbEntity
  8
BEZUGSACHSEN
100
AcDbCircle
 62
7
  6
CONTINUOUS
 10
158.6774470792
 20
134.6533381397
 40
2.8811864948
100
AcDbArc
 50
90.8369239118
 51
98.6924516294
  0
ARC
  5
2E9
100
AcDbEntity
  8
BEZUGSACHSEN
100
AcDbCircle
 62
7
  6
CONTINUOUS
 10
158.6747409023
 20
134.6533381397
 40
2.8811864948
100
AcDbArc
 50
81.3075483705
 51
89.1630760882
  0
ARC
  5
2EA
100
AcDbEntity
  8
BEZUGSACHSEN
100
AcDbCircle
 62
7
  6
CONTINUOUS
 10
158.6747409023
 20
117.610554897
 40
2.8811864948
100
AcDbArc
 50
270.8369239118
 51
278.6924516294
  0
ARC
  5
2EB
100
AcDbEntity
  8
BEZUGSACHSEN
100
AcDbCircle
 62
7
  6
CONTINUOUS
 10
158.6774470792
 20
117.610554897
 40
2.8811864948
100
AcDbArc
 50
261.3075483706
 51
269.1630760882
  0
ARC
  5
2EC
100
AcDbEntity
  8
BEZUGSACHSEN
100
AcDbCircle
 62
7
  6
CONTINUOUS
 10
158.6760769121
 20
134.6985899217
 40
2.8359201061
100
AcDbArc
 50
89.176711383
 51
90.823288617
  0
ARC
  5
2ED
100
AcDbEntity
  8
BEZUGSACHSEN
100
AcDbCircle
 62
7
  6
CONTINUOUS
 10
158.6761110694
 20
117.5653031149
 40
2.8359201061
100
AcDbArc
 50
269.176711383
 51
270.8232886169
  0
ARC
  5
2EE
100
AcDbEntity
  8
RUNDUNGEN
100
AcDbCircle
 62
7
  6
CONTINUOUS
 10
222.6760939908
 20
147.1825560267
 40
1.0
100
AcDbArc
 50
0.0
 51
85.4999999973
  0
ARC
  5
2EF
100
AcDbEntity
  8
RUNDUNGEN
100
AcDbCircle
 62
7
  6
CONTINUOUS
 10
222.6760939908
 20
105.08133701
 40
1.0
100
AcDbArc
 50
274.5000000021
 51
360.0
  0
ARC
  5
2F0
100
AcDbEntity
  8
RUNDUNGEN
100
AcDbCircle
 62
7
  6
CONTINUOUS
 10
162.1921193945
 20
153.1069465183
 40
0.8
100
AcDbArc
 50
270.0
 51
300.000000002
  0
ARC
  5
2F1
100
AcDbEntity
  8
RUNDUNGEN
100
AcDbCircle
 62
7
  6
CONTINUOUS
 10
162.1921193945
 20
99.1569465183
 40
0.8
100
AcDbArc
 50
59.9999999978
 51
90.0
  0
ARC
  5
2F2
100
AcDbEntity
  8
RUNDUNGEN
100
AcDbCircle
 62
7
  6
CONTINUOUS
 10
155.160068587
 20
153.1069465183
 40
0.8
100
AcDbArc
 50
239.999999998
 51
270.0
  0
ARC
  5
2F3
100
AcDbEntity
  8
RUNDUNGEN
100
AcDbCircle
 62
7
  6
CONTINUOUS
 10
155.160068587
 20
99.1569465183
 40
0.8
100
AcDbArc
 50
90.0
 51
120.0000000021
  0
ARC
  5
2F4
100
AcDbEntity
  8
BEZUGSACHSEN
100
AcDbCircle
 62
7
  6
CONTINUOUS
 10
158.6643528182
 20
178.5848517696
 40
26.3976731571
100
AcDbArc
 50
270.7307382038
 51
275.4599588953
  0
ARC
  5
2F5
100
AcDbEntity
  8
BEZUGSACHSEN
100
AcDbCircle
 62
7
  6
CONTINUOUS
 10
158.6814738716
 20
178.4696661178
 40
26.2824052398
100
AcDbArc
 50
264.5299531398
 51
269.1367581807
  0
ARC
  5
2F6
100
AcDbEntity
  8
BEZUGSACHSEN
100
AcDbCircle
 62
7
  6
CONTINUOUS
 10
158.6781374265
 20
178.2321234797
 40
26.0448392967
100
AcDbArc
 50
269.1362242377
 51
270.7172967395
  0
SPLINE
  5
2F7
100
AcDbEntity
  8
0
100
AcDbSpline
 62
2
  6
CONTINUOUS
 70
0
 71
3
 72
18
 73
14
 74
0
 42
0.0000001
 43
0.0000001
 44
0.0000000001
 40
0.0
 40
0.0
 40
0.0
 40
0.0
 40
0.0909090909
 40
0.1818181818
 40
0.2727272727
 40
0.3636363636
 40
0.4545454545
 40
0.5454545455
 40
0.6363636364
 40
0.7272727273
 40
0.8181818182
 40
0.9090909091
 40
1.0
 40
1.0
 40
1.0
 40
1.0
 10
158.6760939908
 20
136.5351262559
 30
0.0
 10
158.9601792059
 20
136.5351262559
 30
0.0
 10
159.5290034182
 20
136.6104293158
 30
0.0
 10
160.3142983522
 20
136.9383566483
 30
0.0
 10
160.9717771532
 20
137.4554535759
 30
0.0
 10
161.435910524
 20
138.1030788719
 30
0.0
 10
161.6821697973
 20
138.821489384
 30
0.0
 10
161.6902309151
 20
139.588798383
 30
0.0
 10
161.4362635909
 20
140.3118698934
 30
0.0
 10
160.9716241847
 20
140.9093208492
 30
0.0
 10
160.313867812
 20
141.376654063
 30
0.0
 10
159.5291898384
 20
141.6654043155
 30
0.0
 10
158.9602776959
 20
141.7312786786
 30
0.0
 10
158.6760939908
 20
141.7312786786
 30
0.0
  0
SPLINE
  5
2F8
100
AcDbEntity
  8
0
100
AcDbSpline
 62
7
  6
CONTINUOUS
 70
0
 71
3
 72
21
 73
17
 74
0
 42
0.0000001
 43
0.0000001
 44
0.0000000001
 40
0.0
 40
0.0
 40
0.0
 40
0.0
 40
0.125
 40
0.1875
 40
0.25
 40
0.3125
 40
0.375
 40
0.4375
 40
0.5
 40
0.5625
 40
0.625
 40
0.6875
 40
0.75
 40
0.8125
 40
0.875
 40
1.0
 40
1.0
 40
1.0
 40
1.0
 10
160.5657383204
 20
137.7869913079
 30
0.0
 10
160.504189833
 20
137.8404809446
 30
0.0
 10
160.4132413166
 20
137.9216373573
 30
0.0
 10
160.2864797687
 20
138.0261580773
 30
0.0
 10
160.1756707769
 20
138.0930387857
 30
0.0
 10
160.07160158
 20
138.1663439215
 30
0.0
 10
159.9563110342
 20
138.2254611791
 30
0.0
 10
159.8375159939
 20
138.2791505247
 30
0.0
 10
159.7231352331
 20
138.3408618976
 30
0.0
 10
159.5946018484
 20
138.375913073
 30
0.0
 10
159.4702020142
 20
138.4190886068
 30
0.0
 10
159.343420602
 20
138.4564269044
 30
0.0
 10
159.2111428097
 20
138.4771544801
 30
0.0
 10
159.0814538326
 20
138.5064915634
 30
0.0
 10
158.9020566883
 20
138.5218379297
 30
0.0
 10
158.7663206722
 20
138.5288401861
 30
0.0
 10
158.6760940298
 20
138.5345100278
 30
0.0
  0
SPLINE
  5
2F9
100
AcDbEntity
  8
0
100
AcDbSpline
 62
7
  6
CONTINUOUS
 70
0
 71
3
 72
21
 73
17
 74
0
 42
0.0000001
 43
0.0000001
 44
0.0000000001
 40
0.0
 40
0.0
 40
0.0
 40
0.0
 40
0.125
 40
0.1875
 40
0.25
 40
0.3125
 40
0.375
 40
0.4375
 40
0.5
 40
0.5625
 40
0.625
 40
0.6875
 40
0.75
 40
0.8125
 40
0.875
 40
1.0
 40
1.0
 40
1.0
 40
1.0
 10
158.6760939908
 20
138.5345100278
 30
0.0
 10
158.5891108027
 20
138.5292424655
 30
0.0
 10
158.4587310936
 20
138.5228443107
 30
0.0
 10
158.2845111892
 20
138.5083006829
 30
0.0
 10
158.1535877963
 20
138.4795552038
 30
0.0
 10
158.0214700175
 20
138.4594278441
 30
0.0
 10
157.8943882469
 20
138.4226657653
 30
0.0
 10
157.7697493844
 20
138.3800558263
 30
0.0
 10
157.6409991587
 20
138.3455877382
 30
0.0
 10
157.5262514778
 20
138.284400107
 30
0.0
 10
157.4071191795
 20
138.2312374261
 30
0.0
 10
157.2915228057
 20
138.1726944869
 30
0.0
 10
157.1868233566
 20
138.0996759669
 30
0.0
 10
157.076312295
 20
138.0339967006
 30
0.0
 10
156.9454302468
 20
137.9265824336
 30
0.0
 10
156.8504166171
 20
137.8422844643
 30
0.0
 10
156.7863746625
 20
137.7869163223
 30
0.0
  0
SPLINE
  5
2FA
100
AcDbEntity
  8
0
100
AcDbSpline
 62
2
  6
CONTINUOUS
 70
0
 71
3
 72
18
 73
14
 74
0
 42
0.0000001
 43
0.0000001
 44
0.0000000001
 40
0.0
 40
0.0
 40
0.0
 40
0.0
 40
0.0909090909
 40
0.1818181818
 40
0.2727272727
 40
0.3636363636
 40
0.4545454545
 40
0.5454545455
 40
0.6363636364
 40
0.7272727273
 40
0.8181818182
 40
0.9090909091
 40
1.0
 40
1.0
 40
1.0
 40
1.0
 10
158.6760939908
 20
141.7312786786
 30
0.0
 10
158.3925486753
 20
141.7312786786
 30
0.0
 10
157.824830063
 20
141.665811968
 30
0.0
 10
157.0408758306
 20
141.3775765072
 30
0.0
 10
156.3839941229
 20
140.9133122773
 30
0.0
 10
155.9194802448
 20
140.3138315684
 30
0.0
 10
155.6704515825
 20
139.6245610687
 30
0.0
 10
155.6617680565
 20
138.8472519283
 30
0.0
 10
155.9189545485
 20
138.0943486315
 30
0.0
 10
156.3841461609
 20
137.4526894909
 30
0.0
 10
157.041314802
 20
136.9363188441
 30
0.0
 10
157.8246359128
 20
136.6103073556
 30
0.0
 10
158.3924466343
 20
136.5351262559
 30
0.0
 10
158.6760939908
 20
136.5351262559
 30
0.0
  0
SPLINE
  5
2FB
100
AcDbEntity
  8
0
100
AcDbSpline
 62
2
  6
CONTINUOUS
 70
0
 71
3
 72
18
 73
14
 74
0
 42
0.0000001
 43
0.0000001
 44
0.0000000001
 40
0.0
 40
0.0
 40
0.0
 40
0.0
 40
0.0909090909
 40
0.1818181818
 40
0.2727272727
 40
0.3636363636
 40
0.4545454545
 40
0.5454545455
 40
0.6363636364
 40
0.7272727273
 40
0.8181818182
 40
0.9090909091
 40
1.0
 40
1.0
 40
1.0
 40
1.0
 10
158.6760939908
 20
110.532614358
 30
0.0
 10
158.9601792059
 20
110.532614358
 30
0.0
 10
159.5290034182
 20
110.5983352881
 30
0.0
 10
160.3142983522
 20
110.8876883997
 30
0.0
 10
160.9717771532
 20
111.3538111691
 30
0.0
 10
161.435910524
 20
111.9552741502
 30
0.0
 10
161.6821697973
 20
112.6458337551
 30
0.0
 10
161.6902309151
 20
113.4122201692
 30
0.0
 10
161.4362635909
 20
114.1640499484
 30
0.0
 10
160.9716241847
 20
114.8076907368
 30
0.0
 10
160.313867812
 20
115.3260116388
 30
0.0
 10
159.5291898384
 20
115.6532994926
 30
0.0
 10
158.9602776959
 20
115.7287667807
 30
0.0
 10
158.6760939908
 20
115.7287667807
 30
0.0
  0
SPLINE
  5
2FC
100
AcDbEntity
  8
0
100
AcDbSpline
 62
7
  6
CONTINUOUS
 70
0
 71
3
 72
21
 73
17
 74
0
 42
0.0000001
 43
0.0000001
 44
0.0000000001
 40
0.0
 40
0.0
 40
0.0
 40
0.0
 40
0.125
 40
0.1875
 40
0.25
 40
0.3125
 40
0.375
 40
0.4375
 40
0.5
 40
0.5625
 40
0.625
 40
0.6875
 40
0.75
 40
0.8125
 40
0.875
 40
1.0
 40
1.0
 40
1.0
 40
1.0
 10
158.6760939908
 20
113.7293830089
 30
0.0
 10
158.7630771789
 20
113.7346505712
 30
0.0
 10
158.8934568879
 20
113.7410487259
 30
0.0
 10
159.0676767923
 20
113.7555923538
 30
0.0
 10
159.1986001852
 20
113.7843378328
 30
0.0
 10
159.330717964
 20
113.8044651925
 30
0.0
 10
159.4577997346
 20
113.8412272714
 30
0.0
 10
159.5824385971
 20
113.8838372103
 30
0.0
 10
159.7111888228
 20
113.9183052985
 30
0.0
 10
159.8259365037
 20
113.9794929297
 30
0.0
 10
159.945068802
 20
114.0326556105
 30
0.0
 10
160.0606651758
 20
114.0911985497
 30
0.0
 10
160.1653646249
 20
114.1642170697
 30
0.0
 10
160.2758756865
 20
114.2298963361
 30
0.0
 10
160.4067577347
 20
114.3373106031
 30
0.0
 10
160.5017713644
 20
114.4216085724
 30
0.0
 10
160.565813319
 20
114.4769767143
 30
0.0
  0
SPLINE
  5
2FD
100
AcDbEntity
  8
0
100
AcDbSpline
 62
7
  6
CONTINUOUS
 70
0
 71
3
 72
21
 73
17
 74
0
 42
0.0000001
 43
0.0000001
 44
0.0000000001
 40
0.0
 40
0.0
 40
0.0
 40
0.0
 40
0.125
 40
0.1875
 40
0.25
 40
0.3125
 40
0.375
 40
0.4375
 40
0.5
 40
0.5625
 40
0.625
 40
0.6875
 40
0.75
 40
0.8125
 40
0.875
 40
1.0
 40
1.0
 40
1.0
 40
1.0
 10
156.7864496611
 20
114.4769017288
 30
0.0
 10
156.8479981485
 20
114.423412092
 30
0.0
 10
156.938946665
 20
114.3422556794
 30
0.0
 10
157.0657082128
 20
114.2377349594
 30
0.0
 10
157.1765172046
 20
114.170854251
 30
0.0
 10
157.2805864015
 20
114.0975491151
 30
0.0
 10
157.3958769473
 20
114.0384318576
 30
0.0
 10
157.5146719876
 20
113.984742512
 30
0.0
 10
157.6290527484
 20
113.923031139
 30
0.0
 10
157.7575861331
 20
113.8879799637
 30
0.0
 10
157.8819859673
 20
113.8448044299
 30
0.0
 10
158.0087673795
 20
113.8074661323
 30
0.0
 10
158.1410451718
 20
113.7867385566
 30
0.0
 10
158.2707341489
 20
113.7574014733
 30
0.0
 10
158.4501312932
 20
113.742055107
 30
0.0
 10
158.5858673093
 20
113.7350528505
 30
0.0
 10
158.6760939517
 20
113.7293830089
 30
0.0
  0
SPLINE
  5
2FE
100
AcDbEntity
  8
0
100
AcDbSpline
 62
2
  6
CONTINUOUS
 70
0
 71
3
 72
18
 73
14
 74
0
 42
0.0000001
 43
0.0000001
 44
0.0000000001
 40
0.0
 40
0.0
 40
0.0
 40
0.0
 40
0.0909090909
 40
0.1818181818
 40
0.2727272727
 40
0.3636363636
 40
0.4545454545
 40
0.5454545455
 40
0.6363636364
 40
0.7272727273
 40
0.8181818182
 40
0.9090909091
 40
1.0
 40
1.0
 40
1.0
 40
1.0
 10
158.6760939908
 20
115.7287667807
 30
0.0
 10
158.3925486753
 20
115.7287667807
 30
0.0
 10
157.824830063
 20
115.653755143
 30
0.0
 10
157.0408758306
 20
115.3270868576
 30
0.0
 10
156.3839941229
 20
114.8119831714
 30
0.0
 10
155.9194802448
 20
114.1663733877
 30
0.0
 10
155.6704515825
 20
113.4489580423
 30
0.0
 10
155.6617680565
 20
112.6706547845
 30
0.0
 10
155.9189545485
 20
111.9468590829
 30
0.0
 10
156.3841461609
 20
111.3513729714
 30
0.0
 10
157.041314802
 20
110.8858553662
 30
0.0
 10
157.8246359128
 20
110.5982394217
 30
0.0
 10
158.3924466343
 20
110.532614358
 30
0.0
 10
158.6760939908
 20
110.532614358
 30
0.0
  0
SPLINE
  5
2FF
100
AcDbEntity
  8
0
100
AcDbSpline
 62
2
  6
CONTINUOUS
 70
0
 71
3
 72
13
 73
9
 74
0
 42
0.0000001
 43
0.0000001
 44
0.0000000001
 40
0.0
 40
0.0
 40
0.0
 40
0.0
 40
0.1666666667
 40
0.3333333333
 40
0.5
 40
0.6666666667
 40
0.8333333333
 40
1.0
 40
1.0
 40
1.0
 40
1.0
 10
161.6760939908
 20
99.9569465183
 30
0.0
 10
161.6760939908
 20
99.9569465183
 30
0.0
 10
161.6046357546
 20
99.9652755232
 30
0.0
 10
161.3006986618
 20
99.998255635
 30
0.0
 10
160.8212923176
 20
100.0430923522
 30
0.0
 10
160.1875494958
 20
100.0885626707
 30
0.0
 10
159.4594866451
 20
100.1213614801
 30
0.0
 10
158.9371181147
 20
100.1294346204
 30
0.0
 10
158.6760939908
 20
100.1294346204
 30
0.0
  0
SPLINE
  5
300
100
AcDbEntity
  8
0
100
AcDbSpline
 62
2
  6
CONTINUOUS
 70
0
 71
3
 72
13
 73
9
 74
0
 42
0.0000001
 43
0.0000001
 44
0.0000000001
 40
0.0
 40
0.0
 40
0.0
 40
0.0
 40
0.1666666667
 40
0.3333333333
 40
0.5
 40
0.6666666667
 40
0.8333333333
 40
1.0
 40
1.0
 40
1.0
 40
1.0
 10
158.6760939908
 20
100.1294346204
 30
0.0
 10
158.4151838183
 20
100.1294346204
 30
0.0
 10
157.8929981821
 20
100.1213685507
 30
0.0
 10
157.1650264974
 20
100.0885854666
 30
0.0
 10
156.531225621
 20
100.0431192094
 30
0.0
 10
156.0519191161
 20
99.9982990595
 30
0.0
 10
155.747707454
 20
99.9652938873
 30
0.0
 10
155.6760939908
 20
99.9569465183
 30
0.0
 10
155.6760939908
 20
99.9569465183
 30
0.0
  0
SPLINE
  5
301
100
AcDbEntity
  8
0
100
AcDbSpline
 62
2
  6
CONTINUOUS
 70
0
 71
3
 72
13
 73
9
 74
0
 42
0.0000001
 43
0.0000001
 44
0.0000000001
 40
0.0
 40
0.0
 40
0.0
 40
0.0
 40
0.1666666667
 40
0.3333333333
 40
0.5
 40
0.6666666667
 40
0.8333333333
 40
1.0
 40
1.0
 40
1.0
 40
1.0
 10
158.6760939908
 20
152.1344584162
 30
0.0
 10
158.9366406211
 20
152.1344584162
 30
0.0
 10
159.4582062568
 20
152.1424951841
 30
0.0
 10
160.1866147419
 20
152.1752752991
 30
0.0
 10
160.8192035932
 20
152.2206492813
 30
0.0
 10
161.2966597933
 20
152.2652158229
 30
0.0
 10
161.6076022263
 20
152.2989386092
 30
0.0
 10
161.6760939908
 20
152.3069465183
 30
0.0
 10
161.6760939908
 20
152.3069465183
 30
0.0
  0
SPLINE
  5
302
100
AcDbEntity
  8
0
100
AcDbSpline
 62
2
  6
CONTINUOUS
 70
0
 71
3
 72
13
 73
9
 74
0
 42
0.0000001
 43
0.0000001
 44
0.0000000001
 40
0.0
 40
0.0
 40
0.0
 40
0.0
 40
0.1666666667
 40
0.3333333333
 40
0.5
 40
0.6666666667
 40
0.8333333333
 40
1.0
 40
1.0
 40
1.0
 40
1.0
 10
155.6760939908
 20
152.3069465183
 30
0.0
 10
155.6760939908
 20
152.3069465183
 30
0.0
 10
155.7446352962
 20
152.2989348813
 30
0.0
 10
156.0548497701
 20
152.2652847877
 30
0.0
 10
156.5325979281
 20
152.2206798649
 30
0.0
 10
157.1650910899
 20
152.1753036656
 30
0.0
 10
157.893668094
 20
152.1425019974
 30
0.0
 10
158.4154295799
 20
152.1344584162
 30
0.0
 10
158.6760939908
 20
152.1344584162
 30
0.0
  0
LINE
  5
303
100
AcDbEntity
  8
FASEN
100
AcDbLine
 62
7
  6
CONTINUOUS
 10
70.4891259145
 20
157.6259996007
 11
70.4536413082
 21
157.6319134588
  0
LINE
  5
304
100
AcDbEntity
  8
FASEN
100
AcDbLine
 62
7
  6
CONTINUOUS
 10
80.863062067
 20
157.6259996007
 11
80.8985466733
 21
157.6319134588
  0
LINE
  5
305
100
AcDbEntity
  8
ACHSEN
100
AcDbLine
 62
7
  6
CONTINUOUS
 10
32.0260939908
 20
145.735997817
 11
27.1760939908
 21
145.6289361319
  0
LINE
  5
306
100
AcDbEntity
  8
ACHSEN
100
AcDbLine
 62
7
  6
CONTINUOUS
 10
33.8168650225
 20
146.0409859369
 11
33.9397133387
 21
146.0584985942
  0
LINE
  5
307
100
AcDbEntity
  8
ACHSEN
100
AcDbLine
 62
7
  6
CONTINUOUS
 10
33.9397133387
 20
146.0584985942
 11
33.9546642767
 21
146.0606043236
  0
SPLINE
  5
308
100
AcDbEntity
  8
BEZUGSACHSEN
100
AcDbSpline
 62
7
  6
CONTINUOUS
 70
0
 71
3
 72
13
 73
9
 74
0
 42
0.0000001
 43
0.0000001
 44
0.0000000001
 40
0.0
 40
0.0
 40
0.0
 40
0.0
 40
0.1158067289
 40
0.2340313372
 40
0.3553745228
 40
0.4799952306
 40
0.73655653
 40
1.0
 40
1.0
 40
1.0
 40
1.0
 10
161.1760939733
 20
139.2194675333
 30
0.0
 10
161.1760930691
 20
139.0769291055
 30
0.0
 10
161.1427793858
 20
138.7879226531
 30
0.0
 10
160.9980536574
 20
138.3717868799
 30
0.0
 10
160.7642430009
 20
137.985525944
 30
0.0
 10
160.3431132035
 20
137.5277891372
 30
0.0
 10
159.6460972816
 20
137.1097926288
 30
0.0
 10
159.0003481889
 20
136.9945518813
 30
0.0
 10
158.6760939908
 20
136.9945518813
 30
0.0
  0
SPLINE
  5
309
100
AcDbEntity
  8
BEZUGSACHSEN
100
AcDbSpline
 62
7
  6
CONTINUOUS
 70
0
 71
3
 72
13
 73
9
 74
0
 42
0.0000001
 43
0.0000001
 44
0.0000000001
 40
0.0
 40
0.0
 40
0.0
 40
0.0
 40
0.1158067289
 40
0.2340313372
 40
0.3553745228
 40
0.4799952306
 40
0.73655653
 40
1.0
 40
1.0
 40
1.0
 40
1.0
 10
156.1760940082
 20
113.0444255034
 30
0.0
 10
156.1760949124
 20
113.1869639311
 30
0.0
 10
156.2094085958
 20
113.4759703835
 30
0.0
 10
156.3541343241
 20
113.8921061567
 30
0.0
 10
156.5879449806
 20
114.2783670926
 30
0.0
 10
157.009074778
 20
114.7361038994
 30
0.0
 10
157.7060906999
 20
115.1541004078
 30
0.0
 10
158.3518397926
 20
115.2693411553
 30
0.0
 10
158.6760939908
 20
115.2693411553
 30
0.0
  0
SPLINE
  5
30A
100
AcDbEntity
  8
BEZUGSACHSEN
100
AcDbSpline
 62
7
  6
CONTINUOUS
 70
0
 71
3
 72
13
 73
9
 74
0
 42
0.0000001
 43
0.0000001
 44
0.0000000001
 40
0.0
 40
0.0
 40
0.0
 40
0.0
 40
0.2634437052
 40
0.5200033063
 40
0.6446235956
 40
0.7659711205
 40
0.8841958241
 40
1.0
 40
1.0
 40
1.0
 40
1.0
 10
158.6760939908
 20
115.2693411553
 30
0.0
 10
159.0003448958
 20
115.2693411553
 30
0.0
 10
159.6460829984
 20
115.1540996937
 30
0.0
 10
160.3430979165
 20
114.7361234515
 30
0.0
 10
160.7642242365
 20
114.2783881071
 30
0.0
 10
160.9980362744
 20
113.8921292133
 30
0.0
 10
161.1427790626
 20
113.4760023695
 30
0.0
 10
161.1760948775
 20
113.1870012475
 30
0.0
 10
161.1760939733
 20
113.0444675369
 30
0.0
  0
SPLINE
  5
30B
100
AcDbEntity
  8
BEZUGSACHSEN
100
AcDbSpline
 62
7
  6
CONTINUOUS
 70
0
 71
3
 72
13
 73
9
 74
0
 42
0.0000001
 43
0.0000001
 44
0.0000000001
 40
0.0
 40
0.0
 40
0.0
 40
0.0
 40
0.2634437052
 40
0.5200033063
 40
0.6446235956
 40
0.7659711205
 40
0.8841958241
 40
1.0
 40
1.0
 40
1.0
 40
1.0
 10
158.6760939908
 20
136.9945518813
 30
0.0
 10
158.3518430857
 20
136.9945518813
 30
0.0
 10
157.7061049831
 20
137.109793343
 30
0.0
 10
157.009090065
 20
137.5277695852
 30
0.0
 10
156.587963745
 20
137.9855049296
 30
0.0
 10
156.3541517071
 20
138.3717638233
 30
0.0
 10
156.2094089189
 20
138.7878906671
 30
0.0
 10
156.176093104
 20
139.0768917891
 30
0.0
 10
156.1760940082
 20
139.2194254998
 30
0.0
  0
LINE
  5
30C
100
AcDbEntity
  8
FASEN
100
AcDbLine
 62
7
  6
CONTINUOUS
 10
70.4536413083
 20
157.6319134588
 11
70.4914948369
 21
157.6256042761
  0
SPLINE
  5
30D
100
AcDbEntity
  8
ACHSEN
100
AcDbSpline
 62
7
  6
CONTINUOUS
 70
0
 71
3
 72
11
 73
7
 74
0
 42
0.0000001
 43
0.0000001
 44
0.0000000001
 40
0.0
 40
0.0
 40
0.0
 40
0.0
 40
0.1537099379
 40
0.500508937
 40
0.8472910559
 40
1.0
 40
1.0
 40
1.0
 40
1.0
 10
52.855455324
 20
146.5354648537
 30
0.0
 10
52.3918700549
 20
146.464187899
 30
0.0
 10
50.8776377407
 20
146.2601301266
 30
0.0
 10
48.2948633132
 20
146.0746210947
 30
0.0
 10
45.7088172832
 20
146.1275683134
 30
0.0
 10
44.1895281005
 20
146.2573348062
 30
0.0
 10
43.7260939908
 20
146.3061035205
 30
0.0
  0
LINE
  5
30E
100
AcDbEntity
  8
ACHSEN
100
AcDbLine
 62
7
  6
CONTINUOUS
 10
33.9546642763
 20
146.0606043236
 11
33.9397428889
 21
146.058502766
  0
SPLINE
  5
30F
100
AcDbEntity
  8
0
100
AcDbSpline
 62
7
  6
CONTINUOUS
 70
0
 71
3
 72
15
 73
11
 74
0
 42
0.0000001
 43
0.0000001
 44
0.0000000001
 40
0.0
 40
0.0
 40
0.0
 40
0.0
 40
0.0735479282
 40
0.1546005725
 40
0.2292557381
 40
0.2979289731
 40
0.4260365971
 40
0.5473626904
 40
0.7785364517
 40
1.0
 40
1.0
 40
1.0
 40
1.0
 10
63.2811171019
 20
142.4764248053
 30
0.0
 10
63.2935689207
 20
142.4717413508
 30
0.0
 10
63.3227191743
 20
142.4676608383
 30
0.0
 10
63.3621886659
 20
142.4859028655
 30
0.0
 10
63.389750341
 20
142.5163061591
 30
0.0
 10
63.415645351
 20
142.5581838419
 30
0.0
 10
63.4367313148
 20
142.6121140644
 30
0.0
 10
63.4583700254
 20
142.6963847241
 30
0.0
 10
63.4722402124
 20
142.7995956093
 30
0.0
 10
63.4756647019
 20
142.8814569595
 30
0.0
 10
63.4760077841
 20
142.9215142057
 30
0.0
  0
SPLINE
  5
310
100
AcDbEntity
  8
0
100
AcDbSpline
 62
7
  6
CONTINUOUS
 70
0
 71
3
 72
15
 73
11
 74
0
 42
0.0000001
 43
0.0000001
 44
0.0000000001
 40
0.0
 40
0.0
 40
0.0
 40
0.0
 40
0.2846444905
 40
0.5382195662
 40
0.6533996007
 40
0.761473341
 40
0.8135077243
 40
0.8652449798
 40
0.9195347039
 40
1.0
 40
1.0
 40
1.0
 40
1.0
 10
61.4761570798
 20
104.4495446391
 30
0.0
 10
61.4761570798
 20
104.3299712018
 30
0.0
 10
61.4761520479
 20
104.1039099747
 30
0.0
 10
61.4793545235
 20
103.8293183241
 30
0.0
 10
61.4929092653
 20
103.6294340507
 30
0.0
 10
61.5091109168
 20
103.5146524902
 30
0.0
 10
61.5309346149
 20
103.4283179019
 30
0.0
 10
61.5546742445
 20
103.3658882873
 30
0.0
 10
61.5934604759
 20
103.2983593377
 30
0.0
 10
61.6473246249
 20
103.2618573438
 30
0.0
 10
61.6811171019
 20
103.2610611268
 30
0.0
  0
SPLINE
  5
311
100
AcDbEntity
  8
0
100
AcDbSpline
 62
7
  6
CONTINUOUS
 70
0
 71
3
 72
9
 73
5
 74
0
 42
0.0000001
 43
0.0000001
 44
0.0000000001
 40
0.0
 40
0.0
 40
0.0
 40
0.0
 40
0.2573720101
 40
1.0
 40
1.0
 40
1.0
 40
1.0
 10
62.3689872096
 20
104.0283898674
 30
0.0
 10
62.3338478213
 20
103.9606345733
 30
0.0
 10
62.1948596858
 20
103.6986629223
 30
0.0
 10
62.0458761953
 20
103.4419537722
 30
0.0
 10
61.9291227416
 20
103.255217643
 30
0.0
  0
SPLINE
  5
312
100
AcDbEntity
  8
0
100
AcDbSpline
 62
7
  6
CONTINUOUS
 70
0
 71
3
 72
11
 73
7
 74
0
 42
0.0000001
 43
0.0000001
 44
0.0000000001
 40
0.0
 40
0.0
 40
0.0
 40
0.0
 40
0.2536313865
 40
0.5046749499
 40
0.7531440587
 40
1.0
 40
1.0
 40
1.0
 40
1.0
 10
77.1374188562
 20
116.7827252038
 30
0.0
 10
77.1980728231
 20
116.7827252038
 30
0.0
 10
77.3185506643
 20
116.7318489806
 30
0.0
 10
77.4352618363
 20
116.591736414
 30
0.0
 10
77.5173306264
 20
116.4322277637
 30
0.0
 10
77.5548548393
 20
116.3194754508
 30
0.0
 10
77.570431558
 20
116.2625338994
 30
0.0
  0
SPLINE
  5
313
100
AcDbEntity
  8
0
100
AcDbSpline
 62
7
  6
CONTINUOUS
 70
0
 71
3
 72
9
 73
5
 74
0
 42
0.0000001
 43
0.0000001
 44
0.0000000001
 40
0.0
 40
0.0
 40
0.0
 40
0.0
 40
0.1680195226
 40
1.0
 40
1.0
 40
1.0
 40
1.0
 10
77.570431558
 20
96.2179916719
 30
0.0
 10
77.553583285
 20
96.1976715559
 30
0.0
 10
77.4381300025
 20
96.0891905797
 30
0.0
 10
77.2681257675
 20
96.051353758
 30
0.0
 10
77.1374188562
 20
96.051353758
 30
0.0
  0
SPLINE
  5
314
100
AcDbEntity
  8
0
100
AcDbSpline
 62
7
  6
CONTINUOUS
 70
0
 71
3
 72
11
 73
7
 74
0
 42
0.0000001
 43
0.0000001
 44
0.0000000001
 40
0.0
 40
0.0
 40
0.0
 40
0.0
 40
0.2468743153
 40
0.4953615093
 40
0.7464260843
 40
1.0
 40
1.0
 40
1.0
 40
1.0
 10
73.7817564235
 20
116.2625338994
 30
0.0
 10
73.797334236
 20
116.3194794491
 30
0.0
 10
73.8348630134
 20
116.4322383024
 30
0.0
 10
73.9169345089
 20
116.5917624714
 30
0.0
 10
74.03366687
 20
116.7318495774
 30
0.0
 10
74.1541291575
 20
116.7827252038
 30
0.0
 10
74.2147691253
 20
116.7827252038
 30
0.0
  0
SPLINE
  5
315
100
AcDbEntity
  8
0
100
AcDbSpline
 62
7
  6
CONTINUOUS
 70
0
 71
3
 72
9
 73
5
 74
0
 42
0.0000001
 43
0.0000001
 44
0.0000000001
 40
0.0
 40
0.0
 40
0.0
 40
0.0
 40
0.3641598889
 40
1.0
 40
1.0
 40
1.0
 40
1.0
 10
74.2147691253
 20
96.051353758
 30
0.0
 10
74.1573927035
 20
96.051353758
 30
0.0
 10
74.0012063705
 20
96.067472852
 30
0.0
 10
73.8457003798
 20
96.1408710909
 30
0.0
 10
73.7817564235
 20
96.2179916719
 30
0.0
  0
SPLINE
  5
316
100
AcDbEntity
  8
0
100
AcDbSpline
 62
7
  6
CONTINUOUS
 70
0
 71
3
 72
9
 73
5
 74
0
 42
0.0000001
 43
0.0000001
 44
0.0000000001
 40
0.0
 40
0.0
 40
0.0
 40
0.0
 40
0.3642526053
 40
1.0
 40
1.0
 40
1.0
 40
1.0
 10
77.1374188562
 20
156.2125392786
 30
0.0
 10
77.1948102627
 20
156.2125392786
 30
0.0
 10
77.3509997212
 20
156.1964247231
 30
0.0
 10
77.5064965065
 20
156.123011206
 30
0.0
 10
77.570431558
 20
156.0459013648
 30
0.0
  0
SPLINE
  5
317
100
AcDbEntity
  8
0
100
AcDbSpline
 62
7
  6
CONTINUOUS
 70
0
 71
3
 72
21
 73
17
 74
0
 42
0.0000001
 43
0.0000001
 44
0.0000000001
 40
0.0
 40
0.0
 40
0.0
 40
0.0
 40
0.0152736556
 40
0.0307400416
 40
0.0615944727
 40
0.0924597446
 40
0.1233512662
 40
0.1852330485
 40
0.2472659363
 40
0.3094463907
 40
0.3717660941
 40
0.4967787028
 40
0.6222117836
 40
0.747963109
 40
0.8739278454
 40
1.0
 40
1.0
 40
1.0
 40
1.0
 10
61.6811171019
 20
134.3178897051
 30
0.0
 10
61.6658547867
 20
134.3178272857
 30
0.0
 10
61.6401666218
 20
134.2918301311
 30
0.0
 10
61.6144255291
 20
134.2380775952
 30
0.0
 10
61.5907779993
 20
134.1633057022
 30
0.0
 10
61.5709796259
 20
134.0732108778
 30
0.0
 10
61.5500019509
 20
133.9513135137
 30
0.0
 10
61.5310985508
 20
133.7977647102
 30
0.0
 10
61.5148709107
 20
133.612480758
 30
0.0
 10
61.5031017162
 20
133.4264466907
 30
0.0
 10
61.4916470762
 20
133.1773708383
 30
0.0
 10
61.4832333121
 20
132.8649253192
 30
0.0
 10
61.478480864
 20
132.4890298393
 30
0.0
 10
61.4766664413
 20
132.1121597831
 30
0.0
 10
61.4761931032
 20
131.7346491501
 30
0.0
 10
61.4761570798
 20
131.4827972512
 30
0.0
 10
61.4761570798
 20
131.3568176489
 30
0.0
  0
SPLINE
  5
318
100
AcDbEntity
  8
0
100
AcDbSpline
 62
7
  6
CONTINUOUS
 70
0
 71
3
 72
17
 73
13
 74
0
 42
0.0000001
 43
0.0000001
 44
0.0000000001
 40
0.0
 40
0.0
 40
0.0
 40
0.0
 40
0.2182009024
 40
0.3349220057
 40
0.456586696
 40
0.5831112211
 40
0.7144823146
 40
0.7820564401
 40
0.8510300181
 40
0.92186225
 40
0.958727904
 40
1.0
 40
1.0
 40
1.0
 40
1.0
 10
61.4761570798
 20
142.589477267
 30
0.0
 10
61.4761570798
 20
142.4571982527
 30
0.0
 10
61.4761393924
 20
142.2541585914
 30
0.0
 10
61.4785465013
 20
141.9773698211
 30
0.0
 10
61.4833716948
 20
141.7561974184
 30
0.0
 10
61.4936574329
 20
141.5262824375
 30
0.0
 10
61.5097824563
 20
141.3296137424
 30
0.0
 10
61.5313565568
 20
141.1684128707
 30
0.0
 10
61.5539610274
 20
141.0452425787
 30
0.0
 10
61.5835568237
 20
140.940091848
 30
0.0
 10
61.6179884984
 20
140.8606219938
 30
0.0
 10
61.656101635
 20
140.8164016172
 30
0.0
 10
61.6811171019
 20
140.8168887231
 30
0.0
  0
SPLINE
  5
319
100
AcDbEntity
  8
0
100
AcDbSpline
 62
7
  6
CONTINUOUS
 70
0
 71
3
 72
10
 73
6
 74
0
 42
0.0000001
 43
0.0000001
 44
0.0000000001
 40
0.0
 40
0.0
 40
0.0
 40
0.0
 40
0.2163947382
 40
0.4583018846
 40
1.0
 40
1.0
 40
1.0
 40
1.0
 10
61.9291227416
 20
140.821717951
 30
0.0
 10
61.8434213536
 20
140.3589963953
 30
0.0
 10
61.7210847614
 20
139.367734504
 30
0.0
 10
61.6459060354
 20
137.1927213194
 30
0.0
 10
61.7764108706
 20
135.4869882015
 30
0.0
 10
61.9291227416
 20
134.318903961
 30
0.0
  0
SPLINE
  5
31A
100
AcDbEntity
  8
BEZUGSACHSEN
100
AcDbSpline
 62
7
  6
CONTINUOUS
 70
0
 71
3
 72
11
 73
7
 74
0
 42
0.0000001
 43
0.0000001
 44
0.0000000001
 40
0.0
 40
0.0
 40
0.0
 40
0.0
 40
0.2687801499
 40
0.5254671831
 40
0.7666630635
 40
1.0
 40
1.0
 40
1.0
 40
1.0
 10
158.6760939908
 20
110.9392141364
 30
0.0
 10
158.3528380487
 20
110.9392141364
 30
0.0
 10
157.7157660543
 20
111.0394784096
 30
0.0
 10
156.8859544871
 20
111.4845500571
 30
0.0
 10
156.3113587963
 20
112.1845651458
 30
0.0
 10
156.1760922279
 20
112.7637963303
 30
0.0
 10
156.1760940082
 20
113.0444255034
 30
0.0
  0
SPLINE
  5
31B
100
AcDbEntity
  8
BEZUGSACHSEN
100
AcDbSpline
 62
7
  6
CONTINUOUS
 70
0
 71
3
 72
11
 73
7
 74
0
 42
0.0000001
 43
0.0000001
 44
0.0000000001
 40
0.0
 40
0.0
 40
0.0
 40
0.0
 40
0.2687801499
 40
0.5254671831
 40
0.7666630635
 40
1.0
 40
1.0
 40
1.0
 40
1.0
 10
158.6760939908
 20
141.3246789002
 30
0.0
 10
158.9993499328
 20
141.3246789002
 30
0.0
 10
159.6364219272
 20
141.2244146271
 30
0.0
 10
160.4662334945
 20
140.7793429796
 30
0.0
 10
161.0408291852
 20
140.0793278908
 30
0.0
 10
161.1760957536
 20
139.5000967064
 30
0.0
 10
161.1760939733
 20
139.2194675333
 30
0.0
  0
SPLINE
  5
31C
100
AcDbEntity
  8
0
100
AcDbSpline
 62
7
  6
CONTINUOUS
 70
0
 71
3
 72
13
 73
9
 74
0
 42
0.0000001
 43
0.0000001
 44
0.0000000001
 40
0.0
 40
0.0
 40
0.0
 40
0.0
 40
0.1753307868
 40
0.3422637982
 40
0.4768046258
 40
0.5947351366
 40
0.8062611466
 40
1.0
 40
1.0
 40
1.0
 40
1.0
 10
63.2811171019
 20
104.6045177782
 30
0.0
 10
63.217204357
 20
104.6314579399
 30
0.0
 10
63.0794273136
 20
104.6601959259
 30
0.0
 10
62.8917803154
 20
104.6114171079
 30
0.0
 10
62.7501956317
 20
104.522575205
 30
0.0
 10
62.613730409
 20
104.3989725931
 30
0.0
 10
62.4853117224
 20
104.235095987
 30
0.0
 10
62.4042717254
 20
104.0964249947
 30
0.0
 10
62.3689872096
 20
104.0283898674
 30
0.0
  0
SPLINE
  5
31D
100
AcDbEntity
  8
0
100
AcDbSpline
 62
7
  6
CONTINUOUS
 70
0
 71
3
 72
12
 73
8
 74
0
 42
0.0000001
 43
0.0000001
 44
0.0000000001
 40
0.0
 40
0.0
 40
0.0
 40
0.0
 40
0.2873076234
 40
0.4555854673
 40
0.6473090081
 40
0.8177551754
 40
1.0
 40
1.0
 40
1.0
 40
1.0
 10
63.2811171019
 20
104.6045177782
 30
0.0
 10
63.3065033858
 20
104.5938170863
 30
0.0
 10
63.3491704488
 20
104.5812411425
 30
0.0
 10
63.4129756416
 20
104.5853996448
 30
0.0
 10
63.455908139
 20
104.6197521434
 30
0.0
 10
63.4727380095
 20
104.6705524442
 30
0.0
 10
63.4756843194
 20
104.7043152798
 30
0.0
 10
63.4760077841
 20
104.7217873931
 30
0.0
  0
SPLINE
  5
31E
100
AcDbEntity
  8
0
100
AcDbSpline
 62
7
  6
CONTINUOUS
 70
0
 71
3
 72
11
 73
7
 74
0
 42
0.0000001
 43
0.0000001
 44
0.0000000001
 40
0.0
 40
0.0
 40
0.0
 40
0.0
 40
0.2468553946
 40
0.4953235696
 40
0.7463663429
 40
1.0
 40
1.0
 40
1.0
 40
1.0
 10
77.570431558
 20
136.0013591373
 30
0.0
 10
77.554854871
 20
135.944417702
 30
0.0
 10
77.5173308719
 20
135.831665636
 30
0.0
 10
77.4352620606
 20
135.672157681
 30
0.0
 10
77.3185518886
 20
135.5320440119
 30
0.0
 10
77.1980733768
 20
135.4811678329
 30
0.0
 10
77.1374188562
 20
135.4811678329
 30
0.0
  0
SPLINE
  5
31F
100
AcDbEntity
  8
0
100
AcDbSpline
 62
7
  6
CONTINUOUS
 70
0
 71
3
 72
15
 73
11
 74
0
 42
0.0000001
 43
0.0000001
 44
0.0000000001
 40
0.0
 40
0.0
 40
0.0
 40
0.0
 40
0.2503260428
 40
0.3755427651
 40
0.500769311
 40
0.625976783
 40
0.7510377775
 40
0.8746309833
 40
0.9372889186
 40
1.0
 40
1.0
 40
1.0
 40
1.0
 10
62.3689872096
 20
132.5464862791
 30
0.0
 10
62.4031219615
 20
132.4038417493
 30
0.0
 10
62.4605107159
 20
132.1911511131
 30
0.0
 10
62.5560131248
 20
131.9135596691
 30
0.0
 10
62.6400307513
 20
131.7100382534
 30
0.0
 10
62.743410407
 20
131.5147501032
 30
0.0
 10
62.8713706765
 20
131.3379235689
 30
0.0
 10
63.0384087241
 20
131.2304788505
 30
0.0
 10
63.1891140398
 20
131.2520427705
 30
0.0
 10
63.2523919161
 20
131.2919845901
 30
0.0
 10
63.2811171019
 20
131.3148969715
 30
0.0
  0
SPLINE
  5
320
100
AcDbEntity
  8
0
100
AcDbSpline
 62
7
  6
CONTINUOUS
 70
0
 71
3
 72
13
 73
9
 74
0
 42
0.0000001
 43
0.0000001
 44
0.0000000001
 40
0.0
 40
0.0
 40
0.0
 40
0.0
 40
0.1670510693
 40
0.3289369806
 40
0.4609641718
 40
0.578209763
 40
0.7939442568
 40
1.0
 40
1.0
 40
1.0
 40
1.0
 10
63.2811171019
 20
142.4764248053
 30
0.0
 10
63.2166836511
 20
142.5006599103
 30
0.0
 10
63.0774826582
 20
142.5225942527
 30
0.0
 10
62.8908746699
 20
142.4661180805
 30
0.0
 10
62.7494136317
 20
142.3705546259
 30
0.0
 10
62.6118850344
 20
142.2361871569
 30
0.0
 10
62.4824653299
 20
142.0538148982
 30
0.0
 10
62.4034653633
 20
141.8985626571
 30
0.0
 10
62.3689872096
 20
141.8209634085
 30
0.0
  0
SPLINE
  5
321
100
AcDbEntity
  8
0
100
AcDbSpline
 62
7
  6
CONTINUOUS
 70
0
 71
3
 72
9
 73
5
 74
0
 42
0.0000001
 43
0.0000001
 44
0.0000000001
 40
0.0
 40
0.0
 40
0.0
 40
0.0
 40
0.1680322176
 40
1.0
 40
1.0
 40
1.0
 40
1.0
 10
73.7817564235
 20
156.0459013648
 30
0.0
 10
73.7986059824
 20
156.0662230316
 30
0.0
 10
73.9140605592
 20
156.1747030636
 30
0.0
 10
74.0840641083
 20
156.2125392786
 30
0.0
 10
74.2147691253
 20
156.2125392786
 30
0.0
  0
SPLINE
  5
322
100
AcDbEntity
  8
0
100
AcDbSpline
 62
7
  6
CONTINUOUS
 70
0
 71
3
 72
11
 73
7
 74
0
 42
0.0000001
 43
0.0000001
 44
0.0000000001
 40
0.0
 40
0.0
 40
0.0
 40
0.0
 40
0.2535749038
 40
0.5046395871
 40
0.753126088
 40
1.0
 40
1.0
 40
1.0
 40
1.0
 10
74.2147691253
 20
135.4811678329
 30
0.0
 10
74.1541289195
 20
135.4811678329
 30
0.0
 10
74.0336662471
 20
135.5320435245
 30
0.0
 10
73.9169343882
 20
135.6721312044
 30
0.0
 10
73.8348628422
 20
135.831655032
 30
0.0
 10
73.797334211
 20
135.9444136789
 30
0.0
 10
73.7817564235
 20
136.0013591373
 30
0.0
  0
SPLINE
  5
323
100
AcDbEntity
  8
BEZUGSACHSEN
100
AcDbSpline
 62
7
  6
CONTINUOUS
 70
0
 71
3
 72
11
 73
7
 74
0
 42
0.0000001
 43
0.0000001
 44
0.0000000001
 40
0.0
 40
0.0
 40
0.0
 40
0.0
 40
0.2333400012
 40
0.4745317334
 40
0.7312202215
 40
1.0
 40
1.0
 40
1.0
 40
1.0
 10
156.1760940082
 20
139.2194254998
 30
0.0
 10
156.1760957885
 20
139.5000615846
 30
0.0
 10
156.3113324983
 20
140.0793046779
 30
0.0
 10
156.8859447591
 20
140.7793253885
 30
0.0
 10
157.7157519158
 20
141.2244153928
 30
0.0
 10
158.3528347795
 20
141.3246789002
 30
0.0
 10
158.6760939908
 20
141.3246789002
 30
0.0
  0
SPLINE
  5
324
100
AcDbEntity
  8
0
100
AcDbSpline
 62
7
  6
CONTINUOUS
 70
0
 71
3
 72
8
 73
4
 74
0
 42
0.0000001
 43
0.0000001
 44
0.0000000001
 40
0.0
 40
0.0
 40
0.0
 40
0.0
 40
1.0
 40
1.0
 40
1.0
 40
1.0
 10
63.4759720373
 20
130.7571691783
 30
0.0
 10
63.4755423476
 20
130.818881167
 30
0.0
 10
63.4736595417
 20
130.8806280066
 30
0.0
 10
63.4693596729
 20
130.9421915129
 30
0.0
  0
SPLINE
  5
325
100
AcDbEntity
  8
0
100
AcDbSpline
 62
7
  6
CONTINUOUS
 70
0
 71
3
 72
15
 73
11
 74
0
 42
0.0000001
 43
0.0000001
 44
0.0000000001
 40
0.0
 40
0.0
 40
0.0
 40
0.0
 40
0.2529176222
 40
0.3785524811
 40
0.5034347146
 40
0.6273379652
 40
0.7499890146
 40
0.8710889694
 40
0.9340922305
 40
1.0
 40
1.0
 40
1.0
 40
1.0
 10
63.4693596729
 20
130.9421915129
 30
0.0
 10
63.466486755
 20
130.9833246046
 30
0.0
 10
63.4606213155
 20
131.0448213959
 30
0.0
 10
63.4476496497
 20
131.1259050904
 30
0.0
 10
63.4346334034
 20
131.1855540647
 30
0.0
 10
63.4161445147
 20
131.243516849
 30
0.0
 10
63.3912113297
 20
131.297560878
 30
0.0
 10
63.3508709947
 20
131.3353232278
 30
0.0
 10
63.3076549857
 20
131.3333611816
 30
0.0
 10
63.2895171796
 20
131.3215972165
 30
0.0
 10
63.2811171019
 20
131.3148969715
 30
0.0
  0
SPLINE
  5
326
100
AcDbEntity
  8
BEZUGSACHSEN
100
AcDbSpline
 62
7
  6
CONTINUOUS
 70
0
 71
3
 72
9
 73
5
 74
0
 42
0.0000001
 43
0.0000001
 44
0.0000000001
 40
0.0
 40
0.0
 40
0.0
 40
0.0
 40
0.2526340984
 40
1.0
 40
1.0
 40
1.0
 40
1.0
 10
158.2420116618
 20
137.5014307673
 30
0.0
 10
158.1764867173
 20
137.4914183988
 30
0.0
 10
157.9185686106
 20
137.4429365303
 30
0.0
 10
157.6673237718
 20
137.3581483763
 30
0.0
 10
157.4896552136
 20
137.2751668326
 30
0.0
  0
SPLINE
  5
327
100
AcDbEntity
  8
BEZUGSACHSEN
100
AcDbSpline
 62
7
  6
CONTINUOUS
 70
0
 71
3
 72
9
 73
5
 74
0
 42
0.0000001
 43
0.0000001
 44
0.0000000001
 40
0.0
 40
0.0
 40
0.0
 40
0.0
 40
0.2526344557
 40
1.0
 40
1.0
 40
1.0
 40
1.0
 10
159.1101763197
 20
137.5014307673
 30
0.0
 10
159.1757069721
 20
137.4914175266
 30
0.0
 10
159.4336470494
 20
137.4429307479
 30
0.0
 10
159.684912593
 20
137.3581313114
 30
0.0
 10
159.8625941702
 20
137.2751381532
 30
0.0
  0
SPLINE
  5
328
100
AcDbEntity
  8
BEZUGSACHSEN
100
AcDbSpline
 62
7
  6
CONTINUOUS
 70
0
 71
3
 72
11
 73
7
 74
0
 42
0.0000001
 43
0.0000001
 44
0.0000000001
 40
0.0
 40
0.0
 40
0.0
 40
0.0
 40
0.2333400012
 40
0.4745317334
 40
0.7312202215
 40
1.0
 40
1.0
 40
1.0
 40
1.0
 10
161.1760939733
 20
113.0444675369
 30
0.0
 10
161.176092193
 20
112.763831452
 30
0.0
 10
161.0408554832
 20
112.1845883588
 30
0.0
 10
160.4662432224
 20
111.4845676481
 30
0.0
 10
159.6364360657
 20
111.0394776439
 30
0.0
 10
158.999353202
 20
110.9392141364
 30
0.0
 10
158.6760939908
 20
110.9392141364
 30
0.0
  0
SPLINE
  5
329
100
AcDbEntity
  8
BEZUGSACHSEN
100
AcDbSpline
 62
7
  6
CONTINUOUS
 70
0
 71
3
 72
9
 73
5
 74
0
 42
0.0000001
 43
0.0000001
 44
0.0000000001
 40
0.0
 40
0.0
 40
0.0
 40
0.0
 40
0.2475580696
 40
1.0
 40
1.0
 40
1.0
 40
1.0
 10
159.8625327679
 20
114.988726204
 30
0.0
 10
159.8036796281
 20
114.9612383669
 30
0.0
 10
159.5619440358
 20
114.8589086765
 30
0.0
 10
159.3053417683
 20
114.7922840174
 30
0.0
 10
159.1101763197
 20
114.7624622694
 30
0.0
  0
SPLINE
  5
32A
100
AcDbEntity
  8
BEZUGSACHSEN
100
AcDbSpline
 62
7
  6
CONTINUOUS
 70
0
 71
3
 72
9
 73
5
 74
0
 42
0.0000001
 43
0.0000001
 44
0.0000000001
 40
0.0
 40
0.0
 40
0.0
 40
0.0
 40
0.2475577909
 40
1.0
 40
1.0
 40
1.0
 40
1.0
 10
157.4895938113
 20
114.9887548834
 30
0.0
 10
157.5484512259
 20
114.9612632166
 30
0.0
 10
157.7902052821
 20
114.8589193746
 30
0.0
 10
158.0468294147
 20
114.7922865843
 30
0.0
 10
158.2420116618
 20
114.7624622694
 30
0.0
  0
LINE
  5
32B
100
AcDbEntity
  8
0
100
AcDbLine
 62
7
  6
CONTINUOUS
 10
61.6864956225
 20
102.7065617124
 11
61.9291227416
 21
103.255217643
  0
ELLIPSE
  5
32C
100
AcDbEntity
  8
0
100
AcDbEllipse
 62
7
  6
CONTINUOUS
 10
61.3289398014
 20
126.1319465183
 30
0.0
 11
14.7536831607
 21
31.0932549156
 31
0.0
 40
0.3419987131
 41
-1.0912395858
 42
-0.1578061866
  0
ELLIPSE
  5
32D
100
AcDbEntity
  8
0
100
AcDbEllipse
 62
7
  6
CONTINUOUS
 10
90.0232481801
 20
126.1319465183
 30
0.0
 11
-14.7536831607
 21
31.0932549156
 31
0.0
 40
0.3419987131
 41
0.1578061866
 42
1.0912395858
  0
ELLIPSE
  5
32E
100
AcDbEntity
  8
0
100
AcDbEllipse
 62
7
  6
CONTINUOUS
 10
90.0232481801
 20
126.1319465183
 30
0.0
 11
14.7536831607
 21
31.0932549156
 31
0.0
 40
0.3419987131
 41
-4.2328322393
 42
-3.2993988402
  0
ELLIPSE
  5
32F
100
AcDbEntity
  8
0
100
AcDbEllipse
 62
7
  6
CONTINUOUS
 10
61.3289398014
 20
126.1319465183
 30
0.0
 11
-14.7536831607
 21
31.0932549156
 31
0.0
 40
0.3419987131
 41
-2.9837864669
 42
-2.0503530678
  0
ENDSEC
  0
SECTION
  2
OBJECTS
  0
DICTIONARY
  5
C
100
AcDbDictionary
280
0
281
1
  3
ACAD_GROUP
350
D
  3
ACAD_MLINESTYLE
350
17
  3
ACAD_LAYOUT
350
1A
  3
ACAD_PLOTSETTINGS
350
19
  3
ACAD_PLOTSTYLENAME
350
E
  0
DICTIONARY
  5
D
102
{ACAD_REACTORS
330
C
102
}
100
AcDbDictionary
280
0
281
1
  0
ACDBDICTIONARYWDFLT
  5
E
102
{ACAD_REACTORS
330
C
102
}
100
AcDbDictionary
281
1
  3
Normal
350
F
100
AcDbDictionaryWithDefault
340
F
  0
DICTIONARY
  5
17
102
{ACAD_REACTORS
330
C
102
}
100
AcDbDictionary
280
0
281
1
  3
Standard
350
18
  0
DICTIONARY
  5
19
102
{ACAD_REACTORS
330
C
102
}
100
AcDbDictionary
281
1
  0
DICTIONARY
  5
1A
102
{ACAD_REACTORS
330
C
102
}
100
AcDbDictionary
281
1
  3
Model
350
330
  3
Layout1
350
331
  0
ACDBPLACEHOLDER
  5
F
102
{ACAD_REACTORS
330
E
102
}
  0
MLINESTYLE
  5
18
102
{ACAD_REACTORS
330
17
102
}
100
AcDbMlineStyle
  2
STANDARD
 70
0
  3

 62
256
 51
90.0
 52
90.0
 71
2
 49
0.5
 62
256
  6
BYLAYER
 49
-0.5
 62
256
  6
BYLAYER
  0
LAYOUT
  5
330
102
{ACAD_REACTORS
330
1A
102
}
100
AcDbPlotSettings
  1

  2
none_device
  4
ISO_A4_(297.00_x_210.00_MM)
  6

 40
0.0
 41
0.0
 42
0.0
 43
0.0
 44
297.0
 45
210.0
 46
0.0
 47
0.0
 48
0.0
 49
0.0
140
0.0
141
0.0
142
1.0
143
1.0
 70
1024
 72
1
 73
0
 74
0
  7

 75
0
147
1.0
148
0.0
149
0.0
100
AcDbLayout
  1
Model
 70
0
 71
0
 10
0.0
 20
0.0
 11
297.0
 21
210.0
 12
0.0
 22
0.0
 32
0.0
 14
0.0
 24
0.0
 34
0.0
 15
0.0
 25
0.0
 35
0.0
146
0.0
 13
0.0
 23
0.0
 33
0.0
 16
1.0
 26
0.0
 36
0.0
 17
0.0
 27
1.0
 37
0.0
 76
0
330
217
345
0
346
0
  0
LAYOUT
  5
331
102
{ACAD_REACTORS
330
1A
102
}
100
AcDbPlotSettings
  1

  2
none_device
  4
ISO_A4_(297.00_x_210.00_MM)
  6

 40
0.0
 41
0.0
 42
0.0
 43
0.0
 44
297.0
 45
210.0
 46
0.0
 47
0.0
 48
0.0
 49
0.0
140
0.0
141
0.0
142
1.0
143
1.0
 70
0
 72
1
 73
0
 74
0
  7

 75
0
147
1.0
148
0.0
149
0.0
100
AcDbLayout
  1
Layout1
 70
0
 71
1
 10
0.0
 20
0.0
 11
297.0
 21
210.0
 12
0.0
 22
0.0
 32
0.0
 14
0.0
 24
0.0
 34
0.0
 15
0.0
 25
0.0
 35
0.0
146
0.0
 13
0.0
 23
0.0
 33
0.0
 16
1.0
 26
0.0
 36
0.0
 17
0.0
 27
1.0
 37
0.0
 76
0
330
218
345
0
346
0
  0
ENDSEC
  0
EOF
