999
DXF file: cc6-142-20.dxf
999
Pro/ENGINEER 2010430 by Parametric Technology Corporation
  0
SECTION
  2
HEADER
  9
$ACADVER
  1
AC1021
  9
$DWGCODEPAGE
  3
ANSI_1252
  9
$EXTMAX
 10
297.0
 20
210.0
 30
0.0
  9
$EXTMIN
 10
0.0
 20
0.0
 30
0.0
  9
$LIMMIN
 10
0.0
 20
0.0
  9
$LIMMAX
 10
297.0
 20
210.0
  9
$VIEWCTR
 10
148.5
 20
105.0
  9
$VIEWSIZE
 40
210.0
  9
$CLAYER
  8
0
  9
$LTSCALE
 40
16.335
  9
$CELTYPE
  6
BYLAYER
  9
$DIMSCALE
 40
1.0
  9
$DIMASZ
 40
3.5
  9
$DIMEXO
 40
1.85625
  9
$DIMDLI
 40
11.286
  9
$DIMEXE
 40
5.346
  9
$DIMCEN
 40
2.673
  9
$DIMLFAC
 40
1.0
  9
$DIMBLK
  1
_FILLED
  9
$DIMTXT
 40
3.5
  9
$DIMTOL
 70
1
  9
$DIMLIM
 70
0
  9
$DIMTFAC
 40
1.0
  9
$DIMTP
 40
0.005
  9
$DIMTM
 40
0.005
  9
$PDMODE
 70
3
  9
$PDSIZE
 40
0.3125
  9
$HANDSEED
  5
31A
  9
$TILEMODE
 70
1
  9
$MEASUREMENT
 70
1
  9
$INSUNITS
 70
4
  0
ENDSEC
  0
SECTION
  2
CLASSES
  0
CLASS
  1
ACDBDICTIONARYWDFLT
  2
AcDbDictionaryWithDefault
  3
AutoCAD 2000
 90
0
 91
1
280
0
281
0
  0
CLASS
  1
ACDBPLACEHOLDER
  2
AcDbPlaceHolder
  3
AutoCAD 2000
 90
0
 91
1
280
0
281
0
  0
CLASS
  1
LAYOUT
  2
AcDbLayout
  3
AutoCAD 2000
 90
0
 91
0
280
0
281
0
  0
ENDSEC
  0
SECTION
  2
TABLES
  0
TABLE
  2
VPORT
  5
8
100
AcDbSymbolTable
 70
2
  0
VPORT
  5
1F4
100
AcDbSymbolTableRecord
100
AcDbViewportTableRecord
  2
*ACTIVE
 70
0
 10
0.0
 20
0.0
 11
1.0
 21
1.0
 12
148.5
 22
105.0
 13
0.0
 23
0.0
 14
1.0
 24
1.0
 15
0.0
 25
0.0
 16
0.0
 26
0.0
 36
1.0
 17
0.0
 27
0.0
 37
0.0
 40
210.0
 41
1.4142857143
 42
50.0
 43
0.0
 44
0.0
 50
0.0
 51
0.0
 71
0
 72
100
 73
1
 74
1
 75
0
 76
0
 77
0
 78
0
  0
ENDTAB
  0
TABLE
  2
LTYPE
  5
5
100
AcDbSymbolTable
 70
6
  0
LTYPE
  5
14
100
AcDbSymbolTableRecord
100
AcDbLinetypeTableRecord
  2
BYBLOCK
 70
0
  3

 72
65
 73
0
 40
0.0
  0
LTYPE
  5
15
100
AcDbSymbolTableRecord
100
AcDbLinetypeTableRecord
  2
BYLAYER
 70
0
  3

 72
65
 73
0
 40
0.0
  0
LTYPE
  5
16
100
AcDbSymbolTableRecord
100
AcDbLinetypeTableRecord
  2
CONTINUOUS
 70
64
  3
Solid line
 72
65
 73
0
 40
0.0
  0
LTYPE
  5
1F5
100
AcDbSymbolTableRecord
100
AcDbLinetypeTableRecord
  2
CENTER
 70
64
  3
____ _ ____ _ ____ _ ____ _ ____ _ ____ _ ____
 72
65
 73
4
 40
0.6
 49
0.375
 74
0
 49
-0.075
 74
0
 49
0.075
 74
0
 49
-0.075
 74
0
  0
LTYPE
  5
1F6
100
AcDbSymbolTableRecord
100
AcDbLinetypeTableRecord
  2
HIDDEN
 70
64
  3
- - - - - - - - - - - - - - - - - - - -
 72
65
 73
2
 40
0.2
 49
0.1
 74
0
 49
-0.1
 74
0
  0
LTYPE
  5
1F7
100
AcDbSymbolTableRecord
100
AcDbLinetypeTableRecord
  2
PHANTOM
 70
64
  3
_____ _ _ _____ _ _ _____ _ _ _____
 72
65
 73
6
 40
0.8
 49
0.45
 74
0
 49
-0.05
 74
0
 49
0.1
 74
0
 49
-0.05
 74
0
 49
0.1
 74
0
 49
-0.05
 74
0
  0
LTYPE
  5
1F8
100
AcDbSymbolTableRecord
100
AcDbLinetypeTableRecord
  2
DOT
 70
64
  3
. . . . . . . . . . . . . . . . . . . .
 72
65
 73
2
 40
0.2
 49
0.1
 74
0
 49
-0.1
 74
0
  0
LTYPE
  5
1F9
100
AcDbSymbolTableRecord
100
AcDbLinetypeTableRecord
  2
DASHED
 70
64
  3
- - - - - - - - - - - - - - - - - - - -
 72
65
 73
2
 40
0.2
 49
0.1
 74
0
 49
-0.1
 74
0
  0
ENDTAB
  0
TABLE
  2
LAYER
  5
2
100
AcDbSymbolTable
 70
36
  0
LAYER
  5
10
100
AcDbSymbolTableRecord
100
AcDbLayerTableRecord
  2
0
 70
0
 62
7
  6
CONTINUOUS
370
-3
390
F
  0
LAYER
  5
1FA
100
AcDbSymbolTableRecord
100
AcDbLayerTableRecord
  2
DEFAULT_1
 70
0
 62
7
  6
CENTER
370
-3
390
F
  0
LAYER
  5
1FB
100
AcDbSymbolTableRecord
100
AcDbLayerTableRecord
  2
DEFAULT_2
 70
0
 62
8
  6
HIDDEN
370
-3
390
F
  0
LAYER
  5
1FC
100
AcDbSymbolTableRecord
100
AcDbLayerTableRecord
  2
DEFAULT_3
 70
0
 62
7
  6
PHANTOM
370
-3
390
F
  0
LAYER
  5
1FD
100
AcDbSymbolTableRecord
100
AcDbLayerTableRecord
  2
ACHSEN
 70
0
 62
7
  6
CONTINUOUS
370
-3
390
F
  0
LAYER
  5
1FE
100
AcDbSymbolTableRecord
100
AcDbLayerTableRecord
  2
BEZUGSACHSEN
 70
0
 62
7
  6
CONTINUOUS
370
-3
390
F
  0
LAYER
  5
1FF
100
AcDbSymbolTableRecord
100
AcDbLayerTableRecord
  2
BEZUGSEBENE_B
 70
0
 62
7
  6
CONTINUOUS
370
-3
390
F
  0
LAYER
  5
200
100
AcDbSymbolTableRecord
100
AcDbLayerTableRecord
  2
BOHRUNGEN
 70
0
 62
7
  6
CONTINUOUS
370
-3
390
F
  0
LAYER
  5
201
100
AcDbSymbolTableRecord
100
AcDbLayerTableRecord
  2
EBENEN
 70
0
 62
7
  6
CONTINUOUS
370
-3
390
F
  0
LAYER
  5
202
100
AcDbSymbolTableRecord
100
AcDbLayerTableRecord
  2
FASEN
 70
0
 62
7
  6
CONTINUOUS
370
-3
390
F
  0
LAYER
  5
203
100
AcDbSymbolTableRecord
100
AcDbLayerTableRecord
  2
FLAECHEN
 70
0
 62
7
  6
CONTINUOUS
370
-3
390
F
  0
LAYER
  5
204
100
AcDbSymbolTableRecord
100
AcDbLayerTableRecord
  2
GEWINDE
 70
0
 62
7
  6
CONTINUOUS
370
-3
390
F
  0
LAYER
  5
205
100
AcDbSymbolTableRecord
100
AcDbLayerTableRecord
  2
KOORDSYS
 70
0
 62
7
  6
CONTINUOUS
370
-3
390
F
  0
LAYER
  5
206
100
AcDbSymbolTableRecord
100
AcDbLayerTableRecord
  2
KURVEN
 70
0
 62
7
  6
CONTINUOUS
370
-3
390
F
  0
LAYER
  5
207
100
AcDbSymbolTableRecord
100
AcDbLayerTableRecord
  2
KURVE_FUER_GTOL_DETAILANSICHT
 70
0
 62
7
  6
CONTINUOUS
370
-3
390
F
  0
LAYER
  5
208
100
AcDbSymbolTableRecord
100
AcDbLayerTableRecord
  2
KURVE_GAUGE2_POLIGON_INNENEINST
 70
0
 62
7
  6
CONTINUOUS
370
-3
390
F
  0
LAYER
  5
209
100
AcDbSymbolTableRecord
100
AcDbLayerTableRecord
  2
KURVE_PHANTOM1_GAUGE_PIN_1
 70
0
 62
7
  6
CONTINUOUS
370
-3
390
F
  0
LAYER
  5
20A
100
AcDbSymbolTableRecord
100
AcDbLayerTableRecord
  2
KURVE_PHANTOM2_GAUGE_PIN1
 70
0
 62
7
  6
CONTINUOUS
370
-3
390
F
  0
LAYER
  5
20B
100
AcDbSymbolTableRecord
100
AcDbLayerTableRecord
  2
KURVE_POLIGON_BEMASUNG
 70
0
 62
7
  6
CONTINUOUS
370
-3
390
F
  0
LAYER
  5
20C
100
AcDbSymbolTableRecord
100
AcDbLayerTableRecord
  2
PUNKTE
 70
0
 62
7
  6
CONTINUOUS
370
-3
390
F
  0
LAYER
  5
20D
100
AcDbSymbolTableRecord
100
AcDbLayerTableRecord
  2
RUNDUNGEN
 70
0
 62
7
  6
CONTINUOUS
370
-3
390
F
  0
LAYER
  5
20E
100
AcDbSymbolTableRecord
100
AcDbLayerTableRecord
  2
S_ACHSEN
 70
0
 62
7
  6
CONTINUOUS
370
-3
390
F
  0
LAYER
  5
20F
100
AcDbSymbolTableRecord
100
AcDbLayerTableRecord
  2
S_EBENEN
 70
0
 62
7
  6
CONTINUOUS
370
-3
390
F
  0
LAYER
  5
210
100
AcDbSymbolTableRecord
100
AcDbLayerTableRecord
  2
S_KOORDSYS
 70
0
 62
7
  6
CONTINUOUS
370
-3
390
F
  0
LAYER
  5
211
100
AcDbSymbolTableRecord
100
AcDbLayerTableRecord
  2
TOL_BEZUEGE
 70
0
 62
7
  6
CONTINUOUS
370
-3
390
F
  0
LAYER
  5
212
100
AcDbSymbolTableRecord
100
AcDbLayerTableRecord
  2
VERBFLAECHE
 70
0
 62
7
  6
CONTINUOUS
370
-3
390
F
  0
LAYER
  5
213
100
AcDbSymbolTableRecord
100
AcDbLayerTableRecord
  2
ZEICHNUNGSBEMASSUNGEN
 70
0
 62
7
  6
CONTINUOUS
370
-3
390
F
  0
ENDTAB
  0
TABLE
  2
STYLE
  5
3
100
AcDbSymbolTable
 70
1
  0
STYLE
  5
11
100
AcDbSymbolTableRecord
100
AcDbTextStyleTableRecord
  2
STANDARD
 70
0
 40
0.0
 41
0.7
 50
0.0
 71
0
 42
0.2
  3
txt
  4

  0
STYLE
  5
214
100
AcDbSymbolTableRecord
100
AcDbTextStyleTableRecord
  2
TEXTSTYLE_1
 70
0
 40
0.0
 41
0.8
 50
0.0
 71
0
 42
0.2
  3
gdt
  4

  0
STYLE
  5
215
100
AcDbSymbolTableRecord
100
AcDbTextStyleTableRecord
  2
TEXTSTYLE_2
 70
0
 40
0.0
 41
0.7
 50
0.0
 71
0
 42
0.2
  3
gdt
  4

  0
ENDTAB
  0
TABLE
  2
VIEW
  5
6
100
AcDbSymbolTable
 70
0
  0
ENDTAB
  0
TABLE
  2
UCS
  5
7
100
AcDbSymbolTable
 70
0
  0
ENDTAB
  0
TABLE
  2
APPID
  5
9
100
AcDbSymbolTable
 70
1
  0
APPID
  5
216
100
AcDbSymbolTableRecord
100
AcDbRegAppTableRecord
  2
ACAD
 70
0
  0
ENDTAB
  0
TABLE
  2
BLOCK_RECORD
  5
1
100
AcDbSymbolTable
 70
0
  0
BLOCK_RECORD
  5
217
100
AcDbSymbolTableRecord
100
AcDbBlockTableRecord
  2
*Model_Space
  0
BLOCK_RECORD
  5
218
100
AcDbSymbolTableRecord
100
AcDbBlockTableRecord
  2
*Paper_Space
  0
BLOCK_RECORD
  5
219
100
AcDbSymbolTableRecord
100
AcDbBlockTableRecord
  2
_FILLED
  0
BLOCK_RECORD
  5
21A
100
AcDbSymbolTableRecord
100
AcDbBlockTableRecord
  2
*D0
  0
BLOCK_RECORD
  5
21B
100
AcDbSymbolTableRecord
100
AcDbBlockTableRecord
  2
*D1
  0
BLOCK_RECORD
  5
21C
100
AcDbSymbolTableRecord
100
AcDbBlockTableRecord
  2
*D2
  0
BLOCK_RECORD
  5
21D
100
AcDbSymbolTableRecord
100
AcDbBlockTableRecord
  2
*D3
  0
BLOCK_RECORD
  5
21E
100
AcDbSymbolTableRecord
100
AcDbBlockTableRecord
  2
*D4
  0
BLOCK_RECORD
  5
21F
100
AcDbSymbolTableRecord
100
AcDbBlockTableRecord
  2
*D5
  0
BLOCK_RECORD
  5
220
100
AcDbSymbolTableRecord
100
AcDbBlockTableRecord
  2
*D6
  0
ENDTAB
  0
TABLE
  2
DIMSTYLE
  5
A
100
AcDbSymbolTable
 70
1
100
AcDbDimStyleTable
 71
0
  0
DIMSTYLE
105
221
100
AcDbSymbolTableRecord
100
AcDbDimStyleTableRecord
  2
STANDARD
 70
0
  3

  4

 40
1.0
 41
3.5
 42
0.0625
 43
0.38
 44
0.18
 45
0.0
 46
0.0
 47
0.005
 48
0.005
140
3.5
141
0.09
142
0.0
143
25.4
144
1.0
145
0.0
146
1.0
147
0.09
 71
1.0
 72
0.0
 73
0
 74
0
 75
0
 76
0
 77
1
 78
8
170
0
171
2
172
0
173
0
174
0
175
0
176
0
177
0
178
5
270
2
271
3
272
3
273
2
274
2
275
0
280
0
281
0
282
0
283
1
284
8
285
0
286
0
287
3
288
0
340
11
341
219
342
219
343
219
344
219
  0
DIMSTYLE
105
222
100
AcDbSymbolTableRecord
100
AcDbDimStyleTableRecord
  2
DIMSTYLE_1
 70
0
  3

  4

 40
1.0
 41
3.5
 42
0.0625
 43
0.38
 44
0.18
 45
0.0
 46
0.0
 47
0.0
 48
0.1
140
3.5
141
0.09
142
0.0
143
25.4
144
1.0
145
0.0
146
1.0
147
0.09
 71
0.0
 72
0.0
 73
0
 74
0
 75
0
 76
0
 77
1
 78
8
170
0
171
2
172
0
173
0
174
0
175
0
176
0
177
0
178
5
270
2
271
2
272
2
273
2
274
2
275
0
280
0
281
0
282
0
283
1
284
8
285
0
286
0
287
3
288
0
340
11
341
219
342
219
343
219
344
219
  0
DIMSTYLE
105
223
100
AcDbSymbolTableRecord
100
AcDbDimStyleTableRecord
  2
DIMSTYLE_2
 70
0
  3

  4

 40
1.0
 41
3.5
 42
0.0625
 43
0.38
 44
0.18
 45
0.0
 46
0.0
 47
0.25
 48
0.25
140
3.5
141
0.09
142
0.0
143
25.4
144
1.0
145
0.0
146
1.0
147
0.09
 71
0.0
 72
0.0
 73
0
 74
0
 75
0
 76
0
 77
1
 78
8
170
0
171
2
172
0
173
0
174
0
175
0
176
0
177
0
178
5
270
2
271
2
272
2
273
2
274
2
275
0
280
0
281
0
282
0
283
1
284
8
285
0
286
0
287
3
288
0
340
11
341
219
342
219
343
219
344
219
  0
DIMSTYLE
105
224
100
AcDbSymbolTableRecord
100
AcDbDimStyleTableRecord
  2
DIMSTYLE_3
 70
0
  3

  4

 40
1.0
 41
3.5
 42
0.0625
 43
0.38
 44
0.18
 45
0.0
 46
0.0
 47
0.5
 48
0.5
140
3.5
141
0.09
142
0.0
143
25.4
144
1.0
145
0.0
146
1.0
147
0.09
 71
0.0
 72
0.0
 73
0
 74
0
 75
0
 76
0
 77
1
 78
8
170
0
171
2
172
0
173
0
174
0
175
0
176
0
177
0
178
5
270
2
271
2
272
2
273
2
274
2
275
0
280
0
281
0
282
0
283
1
284
8
285
0
286
0
287
3
288
0
340
11
341
219
342
219
343
219
344
219
  0
DIMSTYLE
105
225
100
AcDbSymbolTableRecord
100
AcDbDimStyleTableRecord
  2
DIMSTYLE_4
 70
0
  3

  4

 40
1.0
 41
3.5
 42
0.0625
 43
0.38
 44
0.18
 45
0.0
 46
0.0
 47
-0.037
 48
0.042
140
3.5
141
0.09
142
0.0
143
25.4
144
1.0
145
0.0
146
1.0
147
0.09
 71
0.0
 72
0.0
 73
0
 74
0
 75
0
 76
0
 77
1
 78
8
170
0
171
2
172
0
173
0
174
0
175
0
176
0
177
0
178
5
270
2
271
3
272
3
273
2
274
2
275
0
280
0
281
0
282
0
283
1
284
8
285
0
286
0
287
3
288
0
340
11
341
219
342
219
343
219
344
219
  0
ENDTAB
  0
ENDSEC
  0
SECTION
  2
BLOCKS
  0
BLOCK
  5
20
100
AcDbEntity
  8
0
100
AcDbBlockBegin
  2
*Model_Space
 70
0
 10
0.0
 20
0.0
 30
0.0
  3
*Model_Space
  1

  0
ENDBLK
  5
21
100
AcDbEntity
  8
0
100
AcDbBlockEnd
  0
BLOCK
  5
1C
100
AcDbEntity
  8
0
100
AcDbBlockBegin
  2
*Paper_Space
 70
0
 10
0.0
 20
0.0
 30
0.0
  3
*Paper_Space
  1

  0
ENDBLK
  5
1D
100
AcDbEntity
  8
0
100
AcDbBlockEnd
  0
BLOCK
  5
226
100
AcDbEntity
  8
0
100
AcDbBlockBegin
  2
_FILLED
 70
64
 10
0.0
 20
0.0
  3
_FILLED
  1

  0
SOLID
  5
227
100
AcDbEntity
  8
0
  6
BYBLOCK
 62
0
100
AcDbTrace
 10
0.0
 20
0.0
 11
-1.0
 21
0.125
 12
-1.0
 22
-0.125
 13
-1.0
 23
-0.125
  0
ENDBLK
  5
228
100
AcDbEntity
  8
0
  6
BYBLOCK
 62
0
100
AcDbBlockEnd
  0
BLOCK
  5
229
100
AcDbEntity
  8
0
100
AcDbBlockBegin
 62
2
  6
CONTINUOUS
  2
*D0
 70
65
 10
0.0
 20
0.0
  3
*D0
  1

  0
MTEXT
  5
22A
100
AcDbEntity
  8
0
100
AcDbMText
 62
5
  6
CONTINUOUS
  7
TEXTSTYLE_2
 71
2
 72
1
 10
266.9376434565
 20
129.1101719908
 30
0.0
 11
0.0
 21
1.0
 31
0.0
 44
0.9
  1
{\Fgdt;n}\Ftxt;33
 40
3.5
 41
9.6666666667
  0
LINE
  5
22B
100
AcDbEntity
  8
0
100
AcDbLine
 62
2
  6
CONTINUOUS
 10
228.5632715342
 20
145.5851719908
 11
231.6084050771
 21
145.5851719908
  0
LINE
  5
22C
100
AcDbEntity
  8
0
100
AcDbLine
 62
2
  6
CONTINUOUS
 10
238.4509604255
 20
145.5851719908
 11
272.8126434565
 21
145.5851719908
  0
LINE
  5
22D
100
AcDbEntity
  8
0
100
AcDbLine
 62
2
  6
CONTINUOUS
 10
226.3581405925
 20
112.6351719908
 11
254.1472921327
 21
112.6351719908
  0
LINE
  5
22E
100
AcDbEntity
  8
0
100
AcDbLine
 62
2
  6
CONTINUOUS
 10
258.7657401226
 20
112.6351719908
 11
272.8126434565
 21
112.6351719908
  0
LINE
  5
22F
100
AcDbEntity
  8
0
100
AcDbLine
 62
2
  6
CONTINUOUS
 10
271.3126434565
 20
145.5851719908
 11
271.3126434565
 21
129.1101719908
  0
LINE
  5
230
100
AcDbEntity
  8
0
100
AcDbLine
 62
2
  6
CONTINUOUS
 10
271.3126434565
 20
112.6351719908
 11
271.3126434565
 21
129.1101719908
  0
INSERT
  5
231
100
AcDbEntity
  8
0
100
AcDbBlockReference
 62
2
  6
CONTINUOUS
  2
_FILLED
 10
271.3126434565
 20
145.5851719908
 41
3.5
 42
3.5
 43
3.5
 50
90.0
  0
INSERT
  5
232
100
AcDbEntity
  8
0
100
AcDbBlockReference
 62
2
  6
CONTINUOUS
  2
_FILLED
 10
271.3126434565
 20
112.6351719908
 41
3.5
 42
3.5
 43
3.5
 50
270.0
  0
ENDBLK
  5
233
100
AcDbEntity
  8
0
  6
BYBLOCK
 62
0
100
AcDbBlockEnd
  0
BLOCK
  5
234
100
AcDbEntity
  8
0
100
AcDbBlockBegin
 62
2
  6
CONTINUOUS
  2
*D1
 70
65
 10
0.0
 20
0.0
  3
*D1
  1

  0
MTEXT
  5
235
100
AcDbEntity
  8
0
100
AcDbMText
 62
5
  6
CONTINUOUS
  7
STANDARD
 71
2
 72
1
 10
260.4165675717
 20
130.6703558898
 30
0.0
 11
0.236130898
 21
-0.9717212558
 31
0.0
 44
0.9
  1
4\Fgdt;{\Fgdt;~}\Ftxt;30'
 40
3.5
 41
12.3333333333
  0
LINE
  5
236
100
AcDbEntity
  8
0
100
AcDbLine
 62
2
  6
CONTINUOUS
 10
197.1809060577
 20
110.4569263927
 11
257.3381133088
 21
115.1914012812
  0
LINE
  5
237
100
AcDbEntity
  8
0
100
AcDbLine
 62
2
  6
CONTINUOUS
 10
169.1802192797
 20
108.1351719908
 11
203.317964386
 21
108.1351719908
  0
LINE
  5
238
100
AcDbEntity
  8
0
100
AcDbLine
 62
2
  6
CONTINUOUS
 10
233.1176092773
 20
108.1351719908
 11
257.6153533127
 21
108.1351719908
  0
ARC
  5
239
100
AcDbEntity
  8
0
100
AcDbCircle
 62
2
  6
CONTINUOUS
 10
167.6802192797
 20
108.1351719908
 40
88.435134033
100
AcDbArc
 50
4.5
 51
13.6582947093
  0
ARC
  5
23A
100
AcDbEntity
  8
0
100
AcDbCircle
 62
2
  6
CONTINUOUS
 10
167.6802192797
 20
108.1351719908
 40
88.435134033
100
AcDbArc
 50
356.1126911737
 51
0.0
  0
ARC
  5
23B
100
AcDbEntity
  8
0
100
AcDbCircle
 62
2
  6
CONTINUOUS
 10
167.6802192797
 20
108.1351719908
 40
88.435134033
100
AcDbArc
 50
360.0
 51
4.5
  0
SOLID
  5
23C
100
AcDbEntity
  8
0
100
AcDbTrace
 62
2
  6
CONTINUOUS
 10
255.0637557173
 20
118.5138571013
 11
255.8427373082
 21
115.0737126376
 12
255.9345291727
 22
118.5997558171
 13
255.9345291727
 23
118.5997558171
  0
SOLID
  5
23D
100
AcDbEntity
  8
0
100
AcDbTrace
 62
2
  6
CONTINUOUS
 10
256.4835123729
 20
104.6272003323
 11
256.1153533127
 21
108.1351719908
 12
255.6086836859
 22
104.6445141532
 13
255.6086836859
 23
104.6445141532
  0
ENDBLK
  5
23E
100
AcDbEntity
  8
0
  6
BYBLOCK
 62
0
100
AcDbBlockEnd
  0
BLOCK
  5
23F
100
AcDbEntity
  8
0
100
AcDbBlockBegin
 62
2
  6
CONTINUOUS
  2
*D2
 70
65
 10
0.0
 20
0.0
  3
*D2
  1

  0
MTEXT
  5
240
100
AcDbEntity
  8
0
100
AcDbMText
 62
5
  6
CONTINUOUS
  7
STANDARD
 71
2
 72
1
 10
144.8581405925
 20
179.8702158996
 30
0.0
 11
1.0
 21
0.0
 31
0.0
 44
0.9
  1
160
 40
3.5
 41
7.5
  0
LINE
  5
241
100
AcDbEntity
  8
0
100
AcDbLine
 62
2
  6
CONTINUOUS
 10
64.8581405925
 20
150.5763466995
 11
64.8581405925
 21
176.9952158996
  0
LINE
  5
242
100
AcDbEntity
  8
0
100
AcDbLine
 62
2
  6
CONTINUOUS
 10
224.8581405925
 20
133.9107466995
 11
224.8581405925
 21
176.9952158996
  0
LINE
  5
243
100
AcDbEntity
  8
0
100
AcDbLine
 62
2
  6
CONTINUOUS
 10
64.8581405925
 20
175.4952158996
 11
144.8581405925
 21
175.4952158996
  0
LINE
  5
244
100
AcDbEntity
  8
0
100
AcDbLine
 62
2
  6
CONTINUOUS
 10
224.8581405925
 20
175.4952158996
 11
144.8581405925
 21
175.4952158996
  0
INSERT
  5
245
100
AcDbEntity
  8
0
100
AcDbBlockReference
 62
2
  6
CONTINUOUS
  2
_FILLED
 10
64.8581405925
 20
175.4952158996
 41
3.5
 42
3.5
 43
3.5
 50
180.0
  0
INSERT
  5
246
100
AcDbEntity
  8
0
100
AcDbBlockReference
 62
2
  6
CONTINUOUS
  2
_FILLED
 10
224.8581405925
 20
175.4952158996
 41
3.5
 42
3.5
 43
3.5
  0
ENDBLK
  5
247
100
AcDbEntity
  8
0
  6
BYBLOCK
 62
0
100
AcDbBlockEnd
  0
BLOCK
  5
248
100
AcDbEntity
  8
0
100
AcDbBlockBegin
 62
2
  6
CONTINUOUS
  2
*D3
 70
65
 10
0.0
 20
0.0
  3
*D3
  1

  0
MTEXT
  5
249
100
AcDbEntity
  8
0
100
AcDbMText
 62
5
  6
CONTINUOUS
  7
TEXTSTYLE_2
 71
2
 72
1
 10
240.8531275988
 20
129.1101719908
 30
0.0
 11
0.0
 21
1.0
 31
0.0
 44
0.9
  1
{\Fgdt;n}\Ftxt;20
 40
3.5
 41
10.1666666667
  0
LINE
  5
24A
100
AcDbEntity
  8
0
100
AcDbLine
 62
2
  6
CONTINUOUS
 10
204.121844694
 20
119.1299219908
 11
246.7281275988
 21
119.1299219908
  0
LINE
  5
24B
100
AcDbEntity
  8
0
100
AcDbLine
 62
2
  6
CONTINUOUS
 10
203.978484694
 20
139.0904219908
 11
246.7281275988
 21
139.0904219908
  0
LINE
  5
24C
100
AcDbEntity
  8
0
100
AcDbLine
 62
2
  6
CONTINUOUS
 10
245.2281275988
 20
119.1299219908
 11
245.2281275988
 21
129.1101719908
  0
LINE
  5
24D
100
AcDbEntity
  8
0
100
AcDbLine
 62
2
  6
CONTINUOUS
 10
245.2281275988
 20
139.0904219908
 11
245.2281275988
 21
129.1101719908
  0
INSERT
  5
24E
100
AcDbEntity
  8
0
100
AcDbBlockReference
 62
2
  6
CONTINUOUS
  2
_FILLED
 10
245.2281275988
 20
119.1299219908
 41
3.5
 42
3.5
 43
3.5
 50
270.0
  0
INSERT
  5
24F
100
AcDbEntity
  8
0
100
AcDbBlockReference
 62
2
  6
CONTINUOUS
  2
_FILLED
 10
245.2281275988
 20
139.0904219908
 41
3.5
 42
3.5
 43
3.5
 50
90.0
  0
ENDBLK
  5
250
100
AcDbEntity
  8
0
  6
BYBLOCK
 62
0
100
AcDbBlockEnd
  0
BLOCK
  5
251
100
AcDbEntity
  8
0
100
AcDbBlockBegin
 62
2
  6
CONTINUOUS
  2
*D4
 70
65
 10
0.0
 20
0.0
  3
*D4
  1

  0
MTEXT
  5
252
100
AcDbEntity
  8
0
100
AcDbMText
 62
5
  6
CONTINUOUS
  7
STANDARD
 71
2
 72
1
 10
155.8581405925
 20
173.0396834831
 30
0.0
 11
1.0
 21
0.0
 31
0.0
 44
0.9
  1
138
 40
3.5
 41
7.25
  0
LINE
  5
253
100
AcDbEntity
  8
0
100
AcDbLine
 62
2
  6
CONTINUOUS
 10
224.8581405925
 20
114.1351719908
 11
224.8581405925
 21
170.1646834831
  0
LINE
  5
254
100
AcDbEntity
  8
0
100
AcDbLine
 62
2
  6
CONTINUOUS
 10
86.8581405925
 20
153.8749171927
 11
86.8581405925
 21
170.1646834831
  0
LINE
  5
255
100
AcDbEntity
  8
0
100
AcDbLine
 62
2
  6
CONTINUOUS
 10
224.8581405925
 20
168.6646834831
 11
155.8581405925
 21
168.6646834831
  0
LINE
  5
256
100
AcDbEntity
  8
0
100
AcDbLine
 62
2
  6
CONTINUOUS
 10
86.8581405925
 20
168.6646834831
 11
155.8581405925
 21
168.6646834831
  0
INSERT
  5
257
100
AcDbEntity
  8
0
100
AcDbBlockReference
 62
2
  6
CONTINUOUS
  2
_FILLED
 10
224.8581405925
 20
168.6646834831
 41
3.5
 42
3.5
 43
3.5
  0
INSERT
  5
258
100
AcDbEntity
  8
0
100
AcDbBlockReference
 62
2
  6
CONTINUOUS
  2
_FILLED
 10
86.8581405925
 20
168.6646834831
 41
3.5
 42
3.5
 43
3.5
 50
180.0
  0
ENDBLK
  5
259
100
AcDbEntity
  8
0
  6
BYBLOCK
 62
0
100
AcDbBlockEnd
  0
BLOCK
  5
25A
100
AcDbEntity
  8
0
100
AcDbBlockBegin
 62
2
  6
CONTINUOUS
  2
*D5
 70
65
 10
0.0
 20
0.0
  3
*D5
  1

  0
MTEXT
  5
25B
100
AcDbEntity
  8
0
100
AcDbMText
 62
5
  6
CONTINUOUS
  7
STANDARD
 71
2
 72
1
 10
125.8581405925
 20
188.0313875871
 30
0.0
 11
1.0
 21
0.0
 31
0.0
 44
0.9
  1
198
 40
3.5
 41
7.5
  0
LINE
  5
25C
100
AcDbEntity
  8
0
100
AcDbLine
 62
2
  6
CONTINUOUS
 10
224.8581405925
 20
114.1351719908
 11
224.8581405925
 21
185.1563875871
  0
LINE
  5
25D
100
AcDbEntity
  8
0
100
AcDbLine
 62
2
  6
CONTINUOUS
 10
26.8581405925
 20
110.4240562214
 11
26.8581405925
 21
185.1563875871
  0
LINE
  5
25E
100
AcDbEntity
  8
0
100
AcDbLine
 62
2
  6
CONTINUOUS
 10
224.8581405925
 20
183.6563875871
 11
125.8581405925
 21
183.6563875871
  0
LINE
  5
25F
100
AcDbEntity
  8
0
100
AcDbLine
 62
2
  6
CONTINUOUS
 10
26.8581405925
 20
183.6563875871
 11
125.8581405925
 21
183.6563875871
  0
INSERT
  5
260
100
AcDbEntity
  8
0
100
AcDbBlockReference
 62
2
  6
CONTINUOUS
  2
_FILLED
 10
224.8581405925
 20
183.6563875871
 41
3.5
 42
3.5
 43
3.5
  0
INSERT
  5
261
100
AcDbEntity
  8
0
100
AcDbBlockReference
 62
2
  6
CONTINUOUS
  2
_FILLED
 10
26.8581405925
 20
183.6563875871
 41
3.5
 42
3.5
 43
3.5
 50
180.0
  0
ENDBLK
  5
262
100
AcDbEntity
  8
0
  6
BYBLOCK
 62
0
100
AcDbBlockEnd
  0
BLOCK
  5
263
100
AcDbEntity
  8
0
100
AcDbBlockBegin
 62
2
  6
CONTINUOUS
  2
*D6
 70
65
 10
0.0
 20
0.0
  3
*D6
  1

  0
MTEXT
  5
264
100
AcDbEntity
  8
0
100
AcDbMText
 62
5
  6
CONTINUOUS
  7
TEXTSTYLE_2
 71
2
 72
1
 10
282.1947612109
 20
129.1101719908
 30
0.0
 11
0.0
 21
1.0
 31
0.0
 44
0.9
  1
{\Fgdt;n}\Ftxt;42
 40
3.5
 41
10.1666666667
  0
LINE
  5
265
100
AcDbEntity
  8
0
100
AcDbLine
 62
2
  6
CONTINUOUS
 10
169.1802192797
 20
150.0851719908
 11
211.7842046844
 21
150.0851719908
  0
LINE
  5
266
100
AcDbEntity
  8
0
100
AcDbLine
 62
2
  6
CONTINUOUS
 10
240.5843008848
 20
150.0851719908
 11
288.0697612109
 21
150.0851719908
  0
LINE
  5
267
100
AcDbEntity
  8
0
100
AcDbLine
 62
2
  6
CONTINUOUS
 10
169.1802192797
 20
108.1351719908
 11
220.6084765842
 21
108.1351719908
  0
LINE
  5
268
100
AcDbEntity
  8
0
100
AcDbLine
 62
2
  6
CONTINUOUS
 10
232.1479090685
 20
108.1351719908
 11
288.0697612109
 21
108.1351719908
  0
LINE
  5
269
100
AcDbEntity
  8
0
100
AcDbLine
 62
2
  6
CONTINUOUS
 10
286.5697612109
 20
150.0851719908
 11
286.5697612109
 21
129.1101719908
  0
LINE
  5
26A
100
AcDbEntity
  8
0
100
AcDbLine
 62
2
  6
CONTINUOUS
 10
286.5697612109
 20
108.1351719908
 11
286.5697612109
 21
129.1101719908
  0
INSERT
  5
26B
100
AcDbEntity
  8
0
100
AcDbBlockReference
 62
2
  6
CONTINUOUS
  2
_FILLED
 10
286.5697612109
 20
150.0851719908
 41
3.5
 42
3.5
 43
3.5
 50
90.0
  0
INSERT
  5
26C
100
AcDbEntity
  8
0
100
AcDbBlockReference
 62
2
  6
CONTINUOUS
  2
_FILLED
 10
286.5697612109
 20
108.1351719908
 41
3.5
 42
3.5
 43
3.5
 50
270.0
  0
ENDBLK
  5
26D
100
AcDbEntity
  8
0
  6
BYBLOCK
 62
0
100
AcDbBlockEnd
  0
ENDSEC
  0
SECTION
  2
ENTITIES
  0
DIMENSION
  5
26E
100
AcDbEntity
  8
0
100
AcDbDimension
 62
2
  6
CONTINUOUS
  2
*D0
 10
271.3126434565
 20
112.6351719908
 11
269.7704880288
 21
126.9496800537
 70
160
 71
2
 42
32.95
  1
%%c<>
  3
DIMSTYLE_1
100
AcDbAlignedDimension
 13
228.5632715342
 23
145.5851719908
 14
226.3581405925
 24
112.6351719908
 50
270.0
100
AcDbRotatedDimension
  0
DIMENSION
  5
26F
100
AcDbEntity
  8
0
100
AcDbDimension
 62
2
  6
CONTINUOUS
  2
*D1
 10
257.6153533127
 20
108.1351719908
 11
257.1884447955
 21
132.2811433446
 70
162
 71
2
 42
0.0785398163
  3
DIMSTYLE_2
100
AcDb2LineAngularDimension
 13
257.3381133088
 23
115.1914012812
 14
197.1809060577
 24
110.4569263927
 15
169.1802192797
 25
108.1351719908
 16
256.0471730293
 26
111.6071190595
  0
DIMENSION
  5
270
100
AcDbEntity
  8
0
100
AcDbDimension
 62
2
  6
CONTINUOUS
  2
*D2
 10
224.8581405925
 20
175.4952158996
 11
141.1081405925
 21
178.1202158996
 70
160
 71
2
 42
160.0
  3
DIMSTYLE_3
100
AcDbAlignedDimension
 13
64.8581405925
 23
150.5763466995
 14
224.8581405925
 24
133.9107466995
100
AcDbRotatedDimension
  0
DIMENSION
  5
271
100
AcDbEntity
  8
0
100
AcDbDimension
 62
2
  6
CONTINUOUS
  2
*D3
 10
245.2281275988
 20
139.0904219908
 11
243.7419813731
 21
126.8379304708
 70
160
 71
2
 42
19.9605
  1
%%c<>
  3
DIMSTYLE_4
100
AcDbAlignedDimension
 13
204.121844694
 23
119.1299219908
 14
203.978484694
 24
139.0904219908
 50
90.0
100
AcDbRotatedDimension
  0
DIMENSION
  5
272
100
AcDbEntity
  8
0
100
AcDbDimension
 62
2
  6
CONTINUOUS
  2
*D4
 10
86.8581405925
 20
168.6646834831
 11
152.2331405925
 21
171.2896834831
 70
160
 71
2
 42
138.0
  3
DIMSTYLE_3
100
AcDbAlignedDimension
 13
224.8581405925
 23
114.1351719908
 14
86.8581405925
 24
153.8749171927
 50
180.0
100
AcDbRotatedDimension
  0
DIMENSION
  5
273
100
AcDbEntity
  8
0
100
AcDbDimension
 62
2
  6
CONTINUOUS
  2
*D5
 10
26.8581405925
 20
183.6563875871
 11
122.1081405925
 21
186.2813875871
 70
160
 71
2
 42
198.0
  3
DIMSTYLE_3
100
AcDbAlignedDimension
 13
224.8581405925
 23
114.1351719908
 14
26.8581405925
 24
110.4240562214
 50
180.0
100
AcDbRotatedDimension
  0
DIMENSION
  5
274
100
AcDbEntity
  8
0
100
AcDbDimension
 62
2
  6
CONTINUOUS
  2
*D6
 10
286.5697612109
 20
108.1351719908
 11
285.0836149852
 21
126.8379304708
 70
160
 71
2
 42
41.95
  1
%%c<>
  3
DIMSTYLE_1
100
AcDbAlignedDimension
 13
169.1802192797
 23
150.0851719908
 14
169.1802192797
 24
108.1351719908
 50
270.0
100
AcDbRotatedDimension
  0
MTEXT
  5
275
100
AcDbEntity
  8
0
100
AcDbMText
 62
5
  6
CONTINUOUS
  7
STANDARD
 71
1
 72
1
 10
15.1278586279
 20
83.566170738
 30
0.0
 11
1.0
 21
0.0
 31
0.0
 44
0.9
  3
Für diese Unterlage behalten wir das Ur-\Pheberrecht. Sie darf nur für den von uns \Pbestimmten Zweck benutzt und ohne unsere \PZustimmung weder vervielfältigt noch\PDritten zugänglich gemacht werden\P \PWe own the copyright of this document. It \Pde
  1
termined and may neither be copied or \Pmade accessible to outsiders without our\Ppermission.\P \PCe plan reste notre propriété. Il ne peut\Pêtre utilisé, copié ou reproduit sans notre\Paccord.\P 
 40
3.5
 41
104.8333333333
  0
LINE
  5
276
100
AcDbEntity
  8
0
100
AcDbLine
 62
7
  6
CONTINUOUS
 10
0.0
 20
0.0
 11
0.0
 21
210.0
  0
LINE
  5
277
100
AcDbEntity
  8
0
100
AcDbLine
 62
7
  6
CONTINUOUS
 10
0.0
 20
0.0
 11
297.0
 21
0.0
  0
LINE
  5
278
100
AcDbEntity
  8
0
100
AcDbLine
 62
7
  6
CONTINUOUS
 10
0.0
 20
210.0
 11
297.0
 21
210.0
  0
LINE
  5
279
100
AcDbEntity
  8
0
100
AcDbLine
 62
7
  6
CONTINUOUS
 10
297.0
 20
0.0
 11
297.0
 21
210.0
  0
LINE
  5
27A
100
AcDbEntity
  8
0
100
AcDbLine
 62
7
  6
CONTINUOUS
 10
26.8581405925
 20
107.4178339979
 11
26.8581405925
 21
144.0714166295
  0
LINE
  5
27B
100
AcDbEntity
  8
KURVEN
100
AcDbLine
 62
4
  6
CONTINUOUS
 10
26.8581405925
 20
106.5894938151
 11
26.8581405925
 21
148.3217459777
  0
LINE
  5
27C
100
AcDbEntity
  8
ACHSEN
100
AcDbLine
 62
7
  6
CONTINUOUS
 10
26.8581405925
 20
144.0714166295
 11
26.8581405925
 21
147.8586513047
  0
LINE
  5
27D
100
AcDbEntity
  8
ACHSEN
100
AcDbLine
 62
7
  6
CONTINUOUS
 10
28.3581405925
 20
148.6071616043
 11
28.3581405925
 21
144.8214166295
  0
LINE
  5
27E
100
AcDbEntity
  8
0
100
AcDbLine
 62
7
  6
CONTINUOUS
 10
28.3581405925
 20
144.8214166295
 11
28.3581405925
 21
106.5518085941
  0
LINE
  5
27F
100
AcDbEntity
  8
ACHSEN
100
AcDbLine
 62
7
  6
CENTER
 10
49.3581405925
 20
106.1766864837
 11
49.3581405925
 21
153.2985425553
  0
LINE
  5
280
100
AcDbEntity
  8
0
100
AcDbLine
 62
7
  6
CONTINUOUS
 10
64.8581424285
 20
160.3101700834
 11
65.1581425184
 21
160.6101701373
  0
LINE
  5
281
100
AcDbEntity
  8
0
100
AcDbLine
 62
7
  6
CONTINUOUS
 10
62.6582036816
 20
149.7302723603
 11
62.6582036816
 21
145.5677027394
  0
LINE
  5
282
100
AcDbEntity
  8
0
100
AcDbLine
 62
7
  6
CONTINUOUS
 10
62.6582036816
 20
134.3350431214
 11
62.6582036816
 21
107.4277701115
  0
LINE
  5
283
100
AcDbEntity
  8
0
100
AcDbLine
 62
9
  6
CONTINUOUS
 10
62.8631637036
 20
149.5353585605
 11
62.8631637036
 21
143.7951141955
  0
LINE
  5
284
100
AcDbEntity
  8
0
100
AcDbLine
 62
9
  6
CONTINUOUS
 10
62.8631637036
 20
137.2961151775
 11
62.8631637036
 21
106.2392865993
  0
LINE
  5
285
100
AcDbEntity
  8
0
100
AcDbLine
 62
9
  6
CONTINUOUS
 10
63.5510338113
 20
106.367278772
 11
63.5510338113
 21
107.0066153398
  0
LINE
  5
286
100
AcDbEntity
  8
0
100
AcDbLine
 62
9
  6
CONTINUOUS
 10
63.5510338113
 20
135.5247117515
 11
63.5510338113
 21
144.799188881
  0
LINE
  5
287
100
AcDbEntity
  8
0
100
AcDbLine
 62
9
  6
CONTINUOUS
 10
64.4631637036
 20
149.5755561296
 11
64.4631637036
 21
145.4546502777
  0
LINE
  5
288
100
AcDbEntity
  8
0
100
AcDbLine
 62
9
  6
CONTINUOUS
 10
64.4631637036
 20
134.2931224439
 11
64.4631637036
 21
107.5827432507
  0
LINE
  5
289
100
AcDbEntity
  8
0
100
AcDbLine
 62
7
  6
CONTINUOUS
 10
64.8581405925
 20
97.9104476603
 11
64.8581405925
 21
160.3098963212
  0
LINE
  5
28A
100
AcDbEntity
  8
0
100
AcDbLine
 62
7
  6
CONTINUOUS
 10
65.1581406661
 20
97.6101719908
 11
65.1581406661
 21
160.6101719908
  0
LINE
  5
28B
100
AcDbEntity
  8
0
100
AcDbLine
 62
7
  6
CONTINUOUS
 10
64.6580757407
 20
145.8997465765
 11
64.6581405925
 21
151.6436568518
  0
LINE
  5
28C
100
AcDbEntity
  8
0
100
AcDbLine
 62
7
  6
CONTINUOUS
 10
64.6580757407
 20
107.7000038993
 11
64.6580446262
 21
133.7353972049
  0
LINE
  5
28D
100
AcDbEntity
  8
0
100
AcDbLine
 62
9
  6
CONTINUOUS
 10
28.3581405925
 20
144.8214166295
 11
26.8581405925
 21
144.0714166295
  0
LINE
  5
28E
100
AcDbEntity
  8
0
100
AcDbLine
 62
7
  6
CONTINUOUS
 10
28.3581405925
 20
106.5518085941
 11
26.8581405925
 21
107.4178339979
  0
LINE
  5
28F
100
AcDbEntity
  8
0
100
AcDbLine
 62
7
  6
CONTINUOUS
 10
64.8581424285
 20
97.9101738981
 11
65.1581425184
 21
97.6101738442
  0
LINE
  5
290
100
AcDbEntity
  8
0
100
AcDbLine
 62
9
  6
CONTINUOUS
 10
74.9638030252
 20
159.0241268372
 11
74.9638030252
 21
138.9795846097
  0
LINE
  5
291
100
AcDbEntity
  8
0
100
AcDbLine
 62
9
  6
CONTINUOUS
 10
74.9638030252
 20
119.2407593718
 11
74.9638030252
 21
99.1962171443
  0
LINE
  5
292
100
AcDbEntity
  8
0
100
AcDbLine
 62
9
  6
CONTINUOUS
 10
28.3581405925
 20
108.1740562214
 11
26.8581405925
 21
108.9240562214
  0
LINE
  5
293
100
AcDbEntity
  8
0
100
AcDbLine
 62
9
  6
CONTINUOUS
 10
75.3968157271
 20
159.1907647511
 11
75.3968157271
 21
138.4593933053
  0
LINE
  5
294
100
AcDbEntity
  8
0
100
AcDbLine
 62
9
  6
CONTINUOUS
 10
75.3968157271
 20
119.7609506762
 11
75.3968157271
 21
99.0295792305
  0
LINE
  5
295
100
AcDbEntity
  8
ACHSEN
100
AcDbLine
 62
7
  6
CENTER
 10
76.8581405925
 20
152.3382889519
 11
76.8581405925
 21
163.6101719908
  0
LINE
  5
296
100
AcDbEntity
  8
0
100
AcDbLine
 62
9
  6
CONTINUOUS
 10
78.3194654579
 20
159.1907647511
 11
78.3194654579
 21
138.4593933053
  0
LINE
  5
297
100
AcDbEntity
  8
0
100
AcDbLine
 62
9
  6
CONTINUOUS
 10
78.3194654579
 20
119.7609506762
 11
78.3194654579
 21
99.0295792305
  0
LINE
  5
298
100
AcDbEntity
  8
0
100
AcDbLine
 62
9
  6
CONTINUOUS
 10
78.7524781598
 20
159.0241268372
 11
78.7524781598
 21
138.9795846097
  0
LINE
  5
299
100
AcDbEntity
  8
0
100
AcDbLine
 62
9
  6
CONTINUOUS
 10
78.7524781598
 20
119.2407593718
 11
78.7524781598
 21
99.1962171443
  0
LINE
  5
29A
100
AcDbEntity
  8
0
100
AcDbLine
 62
7
  6
CONTINUOUS
 10
86.8581405925
 20
97.6101719908
 11
86.8581405925
 21
160.6101719908
  0
LINE
  5
29B
100
AcDbEntity
  8
RUNDUNGEN
100
AcDbLine
 62
9
  6
CONTINUOUS
 10
92.3581405925
 20
150.0851719908
 11
92.3581405925
 21
108.1351719908
  0
LINE
  5
29C
100
AcDbEntity
  8
0
100
AcDbLine
 62
7
  6
CONTINUOUS
 10
63.5510338113
 20
106.367278772
 11
62.8685434151
 21
105.6847883757
  0
LINE
  5
29D
100
AcDbEntity
  8
0
100
AcDbLine
 62
7
  6
CONTINUOUS
 10
86.8581405925
 20
97.6101719908
 11
65.1581406649
 21
97.6101719908
  0
LINE
  5
29E
100
AcDbEntity
  8
0
100
AcDbLine
 62
7
  6
CONTINUOUS
 10
78.3194654579
 20
99.0295792305
 11
75.3968157271
 21
99.0295792305
  0
LINE
  5
29F
100
AcDbEntity
  8
RUNDUNGEN
100
AcDbLine
 62
7
  6
CONTINUOUS
 10
223.9365996882
 20
112.5626451487
 11
167.6802192797
 21
108.1351719908
  0
LINE
  5
2A0
100
AcDbEntity
  8
0
100
AcDbLine
 62
7
  6
CONTINUOUS
 10
167.6802192797
 20
108.1351719908
 11
223.9365996882
 21
112.5626451487
  0
LINE
  5
2A1
100
AcDbEntity
  8
0
100
AcDbLine
 62
7
  6
CONTINUOUS
 10
167.6802192797
 20
108.1351719908
 11
164.1081405925
 21
108.1351719908
  0
LINE
  5
2A2
100
AcDbEntity
  8
0
100
AcDbLine
 62
7
  6
CONTINUOUS
 10
155.6081405925
 20
108.1351719908
 11
92.3581405925
 21
108.1351719908
  0
LINE
  5
2A3
100
AcDbEntity
  8
0
100
AcDbLine
 62
7
  6
CONTINUOUS
 10
156.3421151887
 20
108.4351719908
 11
157.3581405925
 21
108.4351719908
  0
LINE
  5
2A4
100
AcDbEntity
  8
0
100
AcDbLine
 62
7
  6
CONTINUOUS
 10
162.3581405925
 20
108.4351719908
 11
163.3741659963
 21
108.4351719908
  0
LINE
  5
2A5
100
AcDbEntity
  8
0
100
AcDbLine
 62
9
  6
CONTINUOUS
 10
62.6582036816
 20
107.4277701115
 11
28.3581405925
 21
108.1740562214
  0
LINE
  5
2A6
100
AcDbEntity
  8
0
100
AcDbLine
 62
7
  6
CONTINUOUS
 10
63.1111693433
 20
106.2334431154
 11
62.8631637036
 21
106.2392865993
  0
LINE
  5
2A7
100
AcDbEntity
  8
0
100
AcDbLine
 62
7
  6
CONTINUOUS
 10
28.3581405925
 20
106.5518085941
 11
62.8685434153
 21
105.684787155
  0
LINE
  5
2A8
100
AcDbEntity
  8
0
100
AcDbLine
 62
7
  6
CONTINUOUS
 10
163.7741659963
 20
149.8923516677
 11
164.1081405925
 21
150.0851719908
  0
LINE
  5
2A9
100
AcDbEntity
  8
RUNDUNGEN
100
AcDbLine
 62
7
  6
CONTINUOUS
 10
163.7741659963
 20
149.8923516677
 11
164.1081405925
 21
150.0851719908
  0
LINE
  5
2AA
100
AcDbEntity
  8
DEFAULT_2
100
AcDbLine
 62
8
  6
HIDDEN
 10
172.4079054761
 20
118.7799219908
 11
182.4729313113
 21
118.7799219908
  0
LINE
  5
2AB
100
AcDbEntity
  8
BOHRUNGEN
100
AcDbLine
 62
8
  6
HIDDEN
 10
183.8581405925
 20
119.1299219908
 11
222.5581405925
 21
119.1299219908
  0
LINE
  5
2AC
100
AcDbEntity
  8
0
100
AcDbLine
 62
7
  6
CONTINUOUS
 10
78.3194654579
 20
119.7609506762
 11
75.3968157271
 21
119.7609506762
  0
LINE
  5
2AD
100
AcDbEntity
  8
S_ACHSEN
100
AcDbLine
 62
7
  6
CENTER
 10
23.8581405925
 20
129.1101719908
 11
228.8581405925
 21
129.1101719908
  0
LINE
  5
2AE
100
AcDbEntity
  8
0
100
AcDbLine
 62
7
  6
CONTINUOUS
 10
163.7741659963
 20
108.3279923138
 11
164.1081405925
 21
108.1351719908
  0
LINE
  5
2AF
100
AcDbEntity
  8
RUNDUNGEN
100
AcDbLine
 62
7
  6
CONTINUOUS
 10
163.7741659963
 20
108.3279923138
 11
164.1081405925
 21
108.1351719908
  0
LINE
  5
2B0
100
AcDbEntity
  8
0
100
AcDbLine
 62
7
  6
CONTINUOUS
 10
62.8631637036
 20
137.2961151775
 11
63.1111693433
 21
137.2971294334
  0
LINE
  5
2B1
100
AcDbEntity
  8
0
100
AcDbLine
 62
9
  6
CONTINUOUS
 10
26.8581405925
 20
134.3350431214
 11
62.6582036816
 21
134.3350431214
  0
LINE
  5
2B2
100
AcDbEntity
  8
0
100
AcDbLine
 62
7
  6
CONTINUOUS
 10
78.3194654579
 20
138.4593933053
 11
75.3968157271
 21
138.4593933053
  0
LINE
  5
2B3
100
AcDbEntity
  8
BOHRUNGEN
100
AcDbLine
 62
8
  6
HIDDEN
 10
183.8581405925
 20
139.0904219908
 11
222.5581405925
 21
139.0904219908
  0
LINE
  5
2B4
100
AcDbEntity
  8
RUNDUNGEN
100
AcDbLine
 62
8
  6
HIDDEN
 10
182.4729313113
 20
139.4404219908
 11
172.4079054761
 21
139.4404219908
  0
LINE
  5
2B5
100
AcDbEntity
  8
DEFAULT_2
100
AcDbLine
 62
8
  6
HIDDEN
 10
172.4079054761
 20
139.4404219908
 11
182.4729313113
 21
139.4404219908
  0
LINE
  5
2B6
100
AcDbEntity
  8
0
100
AcDbLine
 62
9
  6
CONTINUOUS
 10
28.3581405925
 20
144.8214166295
 11
62.6582036816
 21
145.5677027394
  0
LINE
  5
2B7
100
AcDbEntity
  8
0
100
AcDbLine
 62
7
  6
CONTINUOUS
 10
63.1111693433
 20
143.7999434234
 11
62.8631637036
 21
143.7951141955
  0
LINE
  5
2B8
100
AcDbEntity
  8
0
100
AcDbLine
 62
7
  6
CONTINUOUS
 10
155.6081405925
 20
150.0851719908
 11
155.6081405925
 21
108.1351719908
  0
LINE
  5
2B9
100
AcDbEntity
  8
RUNDUNGEN
100
AcDbLine
 62
9
  6
CONTINUOUS
 10
155.9421151887
 20
108.3279923138
 11
155.9421151887
 21
149.8923516677
  0
LINE
  5
2BA
100
AcDbEntity
  8
RUNDUNGEN
100
AcDbLine
 62
9
  6
CONTINUOUS
 10
156.3421151887
 20
108.4351719908
 11
156.3421151887
 21
149.7851719908
  0
LINE
  5
2BB
100
AcDbEntity
  8
0
100
AcDbLine
 62
7
  6
CONTINUOUS
 10
155.6081405925
 20
108.1351719908
 11
155.9421151887
 21
108.3279923138
  0
LINE
  5
2BC
100
AcDbEntity
  8
RUNDUNGEN
100
AcDbLine
 62
7
  6
CONTINUOUS
 10
155.6081405925
 20
108.1351719908
 11
155.9421151887
 21
108.3279923138
  0
LINE
  5
2BD
100
AcDbEntity
  8
0
100
AcDbLine
 62
7
  6
CONTINUOUS
 10
62.8631637036
 20
149.5353585605
 11
64.4631637036
 21
149.5755561296
  0
LINE
  5
2BE
100
AcDbEntity
  8
0
100
AcDbLine
 62
7
  6
CONTINUOUS
 10
35.1217453466
 20
149.0384606809
 11
44.9081405925
 21
149.284328993
  0
LINE
  5
2BF
100
AcDbEntity
  8
0
100
AcDbLine
 62
7
  6
CONTINUOUS
 10
54.0375019257
 20
149.5136903262
 11
62.6582036816
 21
149.7302723603
  0
LINE
  5
2C0
100
AcDbEntity
  8
0
100
AcDbLine
 62
7
  6
CONTINUOUS
 10
156.3421151887
 20
149.7851719908
 11
157.3581405925
 21
149.7851719908
  0
LINE
  5
2C1
100
AcDbEntity
  8
BEZUGSACHSEN
100
AcDbLine
 62
7
  6
CONTINUOUS
 10
156.3421151887
 20
149.7851719908
 11
157.3581405925
 21
149.7851719908
  0
LINE
  5
2C2
100
AcDbEntity
  8
0
100
AcDbLine
 62
7
  6
CONTINUOUS
 10
162.3581405925
 20
149.7851719908
 11
163.3741659963
 21
149.7851719908
  0
LINE
  5
2C3
100
AcDbEntity
  8
BEZUGSACHSEN
100
AcDbLine
 62
7
  6
CONTINUOUS
 10
162.3581405925
 20
149.7851719908
 11
163.3741659963
 21
149.7851719908
  0
LINE
  5
2C4
100
AcDbEntity
  8
0
100
AcDbLine
 62
7
  6
CONTINUOUS
 10
167.6802192797
 20
150.0851719908
 11
164.1081405925
 21
150.0851719908
  0
LINE
  5
2C5
100
AcDbEntity
  8
0
100
AcDbLine
 62
7
  6
CONTINUOUS
 10
155.6081405925
 20
150.0851719908
 11
92.3581405925
 21
150.0851719908
  0
LINE
  5
2C6
100
AcDbEntity
  8
RUNDUNGEN
100
AcDbLine
 62
7
  6
CONTINUOUS
 10
223.9365996882
 20
145.6576988328
 11
167.6802192797
 21
150.0851719908
  0
LINE
  5
2C7
100
AcDbEntity
  8
0
100
AcDbLine
 62
7
  6
CONTINUOUS
 10
167.6802192797
 20
150.0851719908
 11
223.9365996882
 21
145.6576988328
  0
LINE
  5
2C8
100
AcDbEntity
  8
BEZUGSACHSEN
100
AcDbLine
 62
7
  6
CENTER
 10
159.8581405925
 20
152.7851719908
 11
159.8581405925
 21
139.0851719908
  0
LINE
  5
2C9
100
AcDbEntity
  8
BEZUGSACHSEN
100
AcDbLine
 62
7
  6
CENTER
 10
159.8581405925
 20
105.4351719908
 11
159.8581405925
 21
119.1351719908
  0
LINE
  5
2CA
100
AcDbEntity
  8
RUNDUNGEN
100
AcDbLine
 62
9
  6
CONTINUOUS
 10
163.3741659963
 20
108.4351719908
 11
163.3741659963
 21
149.7851719908
  0
LINE
  5
2CB
100
AcDbEntity
  8
RUNDUNGEN
100
AcDbLine
 62
9
  6
CONTINUOUS
 10
163.7741659963
 20
108.3279923138
 11
163.7741659963
 21
149.8923516677
  0
LINE
  5
2CC
100
AcDbEntity
  8
0
100
AcDbLine
 62
7
  6
CONTINUOUS
 10
164.1081405925
 20
150.0851719908
 11
164.1081405925
 21
108.1351719908
  0
LINE
  5
2CD
100
AcDbEntity
  8
0
100
AcDbLine
 62
7
  6
CONTINUOUS
 10
78.3194654579
 20
159.1907647511
 11
75.3968157271
 21
159.1907647511
  0
LINE
  5
2CE
100
AcDbEntity
  8
0
100
AcDbLine
 62
7
  6
CONTINUOUS
 10
86.8581405925
 20
160.6101719908
 11
82.0804178696
 21
160.6101719908
  0
LINE
  5
2CF
100
AcDbEntity
  8
0
100
AcDbLine
 62
7
  6
CONTINUOUS
 10
71.6358633154
 20
160.6101719908
 11
65.1581406649
 21
160.6101719908
  0
LINE
  5
2D0
100
AcDbEntity
  8
0
100
AcDbLine
 62
7
  6
CONTINUOUS
 10
155.6081405925
 20
150.0851719908
 11
155.9421151887
 21
149.8923516677
  0
LINE
  5
2D1
100
AcDbEntity
  8
RUNDUNGEN
100
AcDbLine
 62
7
  6
CONTINUOUS
 10
155.6081405925
 20
150.0851719908
 11
155.9421151887
 21
149.8923516677
  0
LINE
  5
2D2
100
AcDbEntity
  8
0
100
AcDbLine
 62
7
  6
CONTINUOUS
 10
167.6802192797
 20
108.1351719908
 11
167.6802192797
 21
150.0851719908
  0
LINE
  5
2D3
100
AcDbEntity
  8
RUNDUNGEN
100
AcDbLine
 62
9
  6
CONTINUOUS
 10
172.4079054761
 20
118.7799219908
 11
172.4079054761
 21
139.4404219908
  0
LINE
  5
2D4
100
AcDbEntity
  8
RUNDUNGEN
100
AcDbLine
 62
9
  6
CONTINUOUS
 10
223.9365996882
 20
112.5626451487
 11
223.9365996882
 21
145.6576988328
  0
LINE
  5
2D5
100
AcDbEntity
  8
RUNDUNGEN
100
AcDbLine
 62
7
  6
CONTINUOUS
 10
224.8581405925
 20
144.6607814991
 11
224.8581405925
 21
113.5595624824
  0
ARC
  5
2D6
100
AcDbEntity
  8
0
100
AcDbCircle
 62
7
  6
CONTINUOUS
 10
-43.8938706034
 20
109.8006831613
 40
110.4813700658
100
AcDbArc
 50
13.4640903998
 51
14.4111621352
  0
ARC
  5
2D7
100
AcDbEntity
  8
ACHSEN
100
AcDbCircle
 62
7
  6
CONTINUOUS
 10
40.1197122121
 20
113.541768806
 40
35.8451025475
100
AcDbArc
 50
98.0149288422
 51
101.1172700805
  0
ARC
  5
2D8
100
AcDbEntity
  8
0
100
AcDbCircle
 62
7
  6
CONTINUOUS
 10
64.2581405925
 20
105.6601719908
 40
1.0
100
AcDbArc
 50
53.102347605
 51
135.0
  0
ARC
  5
2D9
100
AcDbEntity
  8
0
100
AcDbCircle
 62
7
  6
CONTINUOUS
 10
64.2581405925
 20
152.5601719908
 40
1.0
100
AcDbArc
 50
293.5781784782
 51
306.897652395
  0
ARC
  5
2DA
100
AcDbEntity
  8
0
100
AcDbCircle
 62
7
  6
CONTINUOUS
 10
64.4581405925
 20
149.7754930406
 40
0.2
100
AcDbArc
 50
271.439166666
 51
360.0
  0
ARC
  5
2DB
100
AcDbEntity
  8
0
100
AcDbCircle
 62
7
  6
CONTINUOUS
 10
62.8581405925
 20
149.7352954715
 40
0.2
100
AcDbArc
 50
181.439166666
 51
271.439166666
  0
ARC
  5
2DC
100
AcDbEntity
  8
ACHSEN
100
AcDbCircle
 62
7
  6
CONTINUOUS
 10
-36.9000763854
 20
277.5061115432
 40
144.4768984249
100
AcDbArc
 50
296.187103939
 51
296.8519184685
  0
ARC
  5
2DD
100
AcDbEntity
  8
FASEN
100
AcDbCircle
 62
7
  6
CONTINUOUS
 10
76.1866464335
 20
195.854719776
 40
35.7340046496
100
AcDbArc
 50
278.5204424671
 51
279.4937166383
  0
ARC
  5
2DE
100
AcDbEntity
  8
FASEN
100
AcDbCircle
 62
7
  6
CONTINUOUS
 10
77.1467841166
 20
193.4319573963
 40
33.2812609719
100
AcDbArc
 50
260.5303369409
 51
261.5206938832
  0
ARC
  5
2DF
100
AcDbEntity
  8
FASEN
100
AcDbCircle
 62
7
  6
CONTINUOUS
 10
76.8181642188
 20
191.713380671
 40
31.5448080342
100
AcDbArc
 50
270.0726103041
 51
278.5005399283
  0
ARC
  5
2E0
100
AcDbEntity
  8
FASEN
100
AcDbCircle
 62
7
  6
CONTINUOUS
 10
76.8708280055
 20
191.3486218281
 40
31.1800264418
100
AcDbArc
 50
261.4577517884
 51
269.9766858686
  0
ARC
  5
2E1
100
AcDbEntity
  8
0
100
AcDbCircle
 62
7
  6
CONTINUOUS
 10
209.0923133669
 20
80.1359741196
 40
159.2595221578
100
AcDbArc
 50
156.0446773748
 51
156.4374589831
  0
ARC
  5
2E2
100
AcDbEntity
  8
BEZUGSACHSEN
100
AcDbCircle
 62
7
  6
CONTINUOUS
 10
159.8382439353
 20
170.604009696
 40
20.9707864077
100
AcDbArc
 50
270.9416410392
 51
276.9014659663
  0
ARC
  5
2E3
100
AcDbEntity
  8
BEZUGSACHSEN
100
AcDbCircle
 62
7
  6
CONTINUOUS
 10
159.8780295215
 20
87.6164582562
 40
20.9706624067
100
AcDbArc
 50
90.9421873041
 51
96.9014857045
  0
ARC
  5
2E4
100
AcDbEntity
  8
BEZUGSACHSEN
100
AcDbCircle
 62
7
  6
CONTINUOUS
 10
159.8489072801
 20
87.7707411963
 40
20.8162184817
100
AcDbArc
 50
83.076602996
 51
88.8991698712
  0
ARC
  5
2E5
100
AcDbEntity
  8
BEZUGSACHSEN
100
AcDbCircle
 62
7
  6
CONTINUOUS
 10
159.8673720236
 20
170.449568403
 40
20.8161841234
100
AcDbArc
 50
263.076596729
 51
268.8998033488
  0
ARC
  5
2E6
100
AcDbEntity
  8
BEZUGSACHSEN
100
AcDbCircle
 62
7
  6
CONTINUOUS
 10
159.8602162091
 20
170.150952658
 40
20.5174860805
100
AcDbArc
 50
268.9037710147
 51
270.9101173485
  0
ARC
  5
2E7
100
AcDbEntity
  8
BEZUGSACHSEN
100
AcDbCircle
 62
7
  6
CONTINUOUS
 10
159.8560613892
 20
88.0693982221
 40
20.5174791824
100
AcDbArc
 50
88.9031213401
 51
90.9106971558
  0
ARC
  5
2E8
100
AcDbEntity
  8
RUNDUNGEN
100
AcDbCircle
 62
7
  6
CONTINUOUS
 10
92.3581405925
 20
155.5851719908
 40
5.5
100
AcDbArc
 50
180.0000000005
 51
270.0
  0
ARC
  5
2E9
100
AcDbEntity
  8
RUNDUNGEN
100
AcDbCircle
 62
7
  6
CONTINUOUS
 10
92.3581405925
 20
102.6351719908
 40
5.5
100
AcDbArc
 50
90.0
 51
179.9999999987
  0
ARC
  5
2EA
100
AcDbEntity
  8
0
100
AcDbCircle
 62
2
  6
CONTINUOUS
 10
159.8593776521
 20
129.1188777623
 40
3.0087060258
100
AcDbArc
 50
255.0542172997
 51
269.9764422667
  0
ARC
  5
2EB
100
AcDbEntity
  8
0
100
AcDbCircle
 62
2
  6
CONTINUOUS
 10
159.8577649687
 20
129.110646391
 40
2.9994613921
100
AcDbArc
 50
270.0
 51
195.018755855
  0
CIRCLE
  5
2EC
100
AcDbEntity
  8
BEZUGSACHSEN
100
AcDbCircle
 62
7
  6
CONTINUOUS
 10
159.8581405925
 20
129.1101719908
 40
2.5
  0
ARC
  5
2ED
100
AcDbEntity
  8
RUNDUNGEN
100
AcDbCircle
 62
7
  6
CONTINUOUS
 10
223.8581405925
 20
144.6607814991
 40
1.0
100
AcDbArc
 50
0.0
 51
85.4999999958
  0
ARC
  5
2EE
100
AcDbEntity
  8
RUNDUNGEN
100
AcDbCircle
 62
7
  6
CONTINUOUS
 10
223.8581405925
 20
113.5595624824
 40
1.0
100
AcDbArc
 50
274.5000000033
 51
360.0
  0
ARC
  5
2EF
100
AcDbEntity
  8
RUNDUNGEN
100
AcDbCircle
 62
7
  6
CONTINUOUS
 10
163.3741659963
 20
150.5851719908
 40
0.8
100
AcDbArc
 50
270.0
 51
300.0000000011
  0
ARC
  5
2F0
100
AcDbEntity
  8
RUNDUNGEN
100
AcDbCircle
 62
7
  6
CONTINUOUS
 10
163.3741659963
 20
107.6351719908
 40
0.8
100
AcDbArc
 50
59.9999999634
 51
90.0
  0
ARC
  5
2F1
100
AcDbEntity
  8
RUNDUNGEN
100
AcDbCircle
 62
7
  6
CONTINUOUS
 10
156.3421151887
 20
150.5851719908
 40
0.8
100
AcDbArc
 50
239.9999999989
 51
270.0
  0
ARC
  5
2F2
100
AcDbEntity
  8
RUNDUNGEN
100
AcDbCircle
 62
7
  6
CONTINUOUS
 10
156.3421151887
 20
107.6351719908
 40
0.8
100
AcDbArc
 50
90.0
 51
120.0000000359
  0
SPLINE
  5
2F3
100
AcDbEntity
  8
0
100
AcDbSpline
 62
2
  6
CONTINUOUS
 70
0
 71
3
 72
13
 73
9
 74
0
 42
0.0000001
 43
0.0000001
 44
0.0000000001
 40
0.0
 40
0.0
 40
0.0
 40
0.0
 40
0.1666666667
 40
0.3333333333
 40
0.5
 40
0.6666666667
 40
0.8333333333
 40
1.0
 40
1.0
 40
1.0
 40
1.0
 10
162.8581405925
 20
108.4351719908
 30
0.0
 10
162.8581405925
 20
108.4351719908
 30
0.0
 10
162.7867568688
 20
108.4457045617
 30
0.0
 10
162.4826814222
 20
108.4874971549
 30
0.0
 10
162.0029972519
 20
108.5443690143
 30
0.0
 10
161.3691420435
 20
108.6020842662
 30
0.0
 10
160.6407566503
 20
108.6437496187
 30
0.0
 10
160.1188378564
 20
108.6539840517
 30
0.0
 10
159.8581405925
 20
108.6539840517
 30
0.0
  0
SPLINE
  5
2F4
100
AcDbEntity
  8
0
100
AcDbSpline
 62
2
  6
CONTINUOUS
 70
0
 71
3
 72
13
 73
9
 74
0
 42
0.0000001
 43
0.0000001
 44
0.0000000001
 40
0.0
 40
0.0
 40
0.0
 40
0.0
 40
0.1666666667
 40
0.3333333333
 40
0.5
 40
0.6666666667
 40
0.8333333333
 40
1.0
 40
1.0
 40
1.0
 40
1.0
 10
159.8581405925
 20
108.6539840517
 30
0.0
 10
159.5975475109
 20
108.6539840517
 30
0.0
 10
159.0757991097
 20
108.6437577431
 30
0.0
 10
158.3475176247
 20
108.6021123427
 30
0.0
 10
157.7136125707
 20
108.5444029068
 30
0.0
 10
157.2340323072
 20
108.4875525178
 30
0.0
 10
156.9296821933
 20
108.445728193
 30
0.0
 10
156.8581405925
 20
108.4351719908
 30
0.0
 10
156.8581405925
 20
108.4351719908
 30
0.0
  0
SPLINE
  5
2F5
100
AcDbEntity
  8
0
100
AcDbSpline
 62
2
  6
CONTINUOUS
 70
0
 71
3
 72
13
 73
9
 74
0
 42
0.0000001
 43
0.0000001
 44
0.0000000001
 40
0.0
 40
0.0
 40
0.0
 40
0.0
 40
0.1666666667
 40
0.3333333333
 40
0.5
 40
0.6666666667
 40
0.8333333333
 40
1.0
 40
1.0
 40
1.0
 40
1.0
 10
159.8581405925
 20
149.5663599299
 30
0.0
 10
160.1183906314
 20
149.5663599299
 30
0.0
 10
160.6395626858
 20
149.5765506523
 30
0.0
 10
161.3683440934
 20
149.6181994228
 30
0.0
 10
162.0010700439
 20
149.6757997897
 30
0.0
 10
162.4787520904
 20
149.7323269864
 30
0.0
 10
162.7897920886
 20
149.7750560652
 30
0.0
 10
162.8581405925
 20
149.7851719908
 30
0.0
 10
162.8581405925
 20
149.7851719908
 30
0.0
  0
SPLINE
  5
2F6
100
AcDbEntity
  8
0
100
AcDbSpline
 62
2
  6
CONTINUOUS
 70
0
 71
3
 72
13
 73
9
 74
0
 42
0.0000001
 43
0.0000001
 44
0.0000000001
 40
0.0
 40
0.0
 40
0.0
 40
0.0
 40
0.1666666667
 40
0.3333333333
 40
0.5
 40
0.6666666667
 40
0.8333333333
 40
1.0
 40
1.0
 40
1.0
 40
1.0
 10
156.8581405925
 20
149.7851719908
 30
0.0
 10
156.8581405925
 20
149.7851719908
 30
0.0
 10
156.9265360124
 20
149.7750517108
 30
0.0
 10
157.2368475549
 20
149.732414766
 30
0.0
 10
157.7148255085
 20
149.675838455
 30
0.0
 10
158.3474673527
 20
149.6182343225
 30
0.0
 10
159.0764314942
 20
149.5765582972
 30
0.0
 10
159.5977844656
 20
149.5663599299
 30
0.0
 10
159.8581405925
 20
149.5663599299
 30
0.0
  0
LINE
  5
2F7
100
AcDbEntity
  8
FASEN
100
AcDbLine
 62
7
  6
CONTINUOUS
 10
71.6711725162
 20
160.6042250731
 11
71.63568791
 21
160.6101389312
  0
LINE
  5
2F8
100
AcDbEntity
  8
FASEN
100
AcDbLine
 62
7
  6
CONTINUOUS
 10
82.0428789083
 20
160.6038534693
 11
82.0805932751
 21
160.6101389312
  0
LINE
  5
2F9
100
AcDbEntity
  8
ACHSEN
100
AcDbLine
 62
7
  6
CONTINUOUS
 10
33.2081405925
 20
148.7142232894
 11
28.3581405925
 21
148.6071616043
  0
LINE
  5
2FA
100
AcDbEntity
  8
ACHSEN
100
AcDbLine
 62
7
  6
CONTINUOUS
 10
34.998911624
 20
149.0192114093
 11
35.1217599405
 21
149.0367240666
  0
LINE
  5
2FB
100
AcDbEntity
  8
ACHSEN
100
AcDbLine
 62
7
  6
CONTINUOUS
 10
35.1217599405
 20
149.0367240666
 11
35.1367108785
 21
149.038829796
  0
LINE
  5
2FC
100
AcDbEntity
  8
ACHSEN
100
AcDbLine
 62
7
  6
CONTINUOUS
 10
35.1367108781
 20
149.038829796
 11
35.1217894907
 21
149.0367282385
  0
SPLINE
  5
2FD
100
AcDbEntity
  8
ACHSEN
100
AcDbSpline
 62
7
  6
CONTINUOUS
 70
0
 71
3
 72
11
 73
7
 74
0
 42
0.0000001
 43
0.0000001
 44
0.0000000001
 40
0.0
 40
0.0
 40
0.0
 40
0.0
 40
0.1537099379
 40
0.500508937
 40
0.8472910559
 40
1.0
 40
1.0
 40
1.0
 40
1.0
 10
54.0375019257
 20
149.5136903262
 30
0.0
 10
53.5739166566
 20
149.4424133714
 30
0.0
 10
52.0596843425
 20
149.2383555991
 30
0.0
 10
49.476909915
 20
149.0528465671
 30
0.0
 10
46.890863885
 20
149.1057937859
 30
0.0
 10
45.3715747023
 20
149.2355602786
 30
0.0
 10
44.9081405925
 20
149.284328993
 30
0.0
  0
LINE
  5
2FE
100
AcDbEntity
  8
FASEN
100
AcDbLine
 62
7
  6
CONTINUOUS
 10
71.6356879101
 20
160.6101389312
 11
71.6735414387
 21
160.6038297485
  0
SPLINE
  5
2FF
100
AcDbEntity
  8
0
100
AcDbSpline
 62
7
  6
CONTINUOUS
 70
0
 71
3
 72
13
 73
9
 74
0
 42
0.0000001
 43
0.0000001
 44
0.0000000001
 40
0.0
 40
0.0
 40
0.0
 40
0.0
 40
0.1753307868
 40
0.3422637982
 40
0.4768046258
 40
0.5947351366
 40
0.8062611466
 40
1.0
 40
1.0
 40
1.0
 40
1.0
 10
64.4631637036
 20
107.5827432507
 30
0.0
 10
64.3992509587
 20
107.6096834123
 30
0.0
 10
64.2614739154
 20
107.6384213983
 30
0.0
 10
64.0738269172
 20
107.5896425804
 30
0.0
 10
63.9322422335
 20
107.5008006774
 30
0.0
 10
63.7957770107
 20
107.3771980655
 30
0.0
 10
63.6673583242
 20
107.2133214594
 30
0.0
 10
63.5863183272
 20
107.0746504671
 30
0.0
 10
63.5510338113
 20
107.0066153398
 30
0.0
  0
SPLINE
  5
300
100
AcDbEntity
  8
0
100
AcDbSpline
 62
7
  6
CONTINUOUS
 70
0
 71
3
 72
12
 73
8
 74
0
 42
0.0000001
 43
0.0000001
 44
0.0000000001
 40
0.0
 40
0.0
 40
0.0
 40
0.0
 40
0.2873076234
 40
0.4555854673
 40
0.6473090081
 40
0.8177551754
 40
1.0
 40
1.0
 40
1.0
 40
1.0
 10
64.4631637036
 20
107.5827432507
 30
0.0
 10
64.4885499875
 20
107.5720425588
 30
0.0
 10
64.5312170506
 20
107.559466615
 30
0.0
 10
64.5950222434
 20
107.5636251172
 30
0.0
 10
64.6379547407
 20
107.5979776158
 30
0.0
 10
64.6547846113
 20
107.6487779166
 30
0.0
 10
64.6577309212
 20
107.6825407523
 30
0.0
 10
64.6580543858
 20
107.7000128656
 30
0.0
  0
SPLINE
  5
301
100
AcDbEntity
  8
0
100
AcDbSpline
 62
7
  6
CONTINUOUS
 70
0
 71
3
 72
15
 73
11
 74
0
 42
0.0000001
 43
0.0000001
 44
0.0000000001
 40
0.0
 40
0.0
 40
0.0
 40
0.0
 40
0.2503260428
 40
0.3755427651
 40
0.500769311
 40
0.625976783
 40
0.7510377775
 40
0.8746309833
 40
0.9372889186
 40
1.0
 40
1.0
 40
1.0
 40
1.0
 10
63.5510338113
 20
135.5247117515
 30
0.0
 10
63.5851685633
 20
135.3820672218
 30
0.0
 10
63.6425573177
 20
135.1693765856
 30
0.0
 10
63.7380597266
 20
134.8917851416
 30
0.0
 10
63.822077353
 20
134.6882637259
 30
0.0
 10
63.9254570087
 20
134.4929755756
 30
0.0
 10
64.0534172783
 20
134.3161490413
 30
0.0
 10
64.2204553259
 20
134.2087043229
 30
0.0
 10
64.3711606415
 20
134.2302682429
 30
0.0
 10
64.4344385179
 20
134.2702100626
 30
0.0
 10
64.4631637036
 20
134.2931224439
 30
0.0
  0
SPLINE
  5
302
100
AcDbEntity
  8
0
100
AcDbSpline
 62
7
  6
CONTINUOUS
 70
0
 71
3
 72
13
 73
9
 74
0
 42
0.0000001
 43
0.0000001
 44
0.0000000001
 40
0.0
 40
0.0
 40
0.0
 40
0.0
 40
0.1670510693
 40
0.3289369806
 40
0.4609641718
 40
0.578209763
 40
0.7939442568
 40
1.0
 40
1.0
 40
1.0
 40
1.0
 10
64.4631637036
 20
145.4546502777
 30
0.0
 10
64.3987302529
 20
145.4788853827
 30
0.0
 10
64.2595292599
 20
145.5008197252
 30
0.0
 10
64.0729212716
 20
145.444343553
 30
0.0
 10
63.9314602335
 20
145.3487800983
 30
0.0
 10
63.7939316361
 20
145.2144126293
 30
0.0
 10
63.6645119316
 20
145.0320403707
 30
0.0
 10
63.585511965
 20
144.8767881296
 30
0.0
 10
63.5510338113
 20
144.799188881
 30
0.0
  0
SPLINE
  5
303
100
AcDbEntity
  8
0
100
AcDbSpline
 62
7
  6
CONTINUOUS
 70
0
 71
3
 72
15
 73
11
 74
0
 42
0.0000001
 43
0.0000001
 44
0.0000000001
 40
0.0
 40
0.0
 40
0.0
 40
0.0
 40
0.0735479282
 40
0.1546005725
 40
0.2292557381
 40
0.2979289731
 40
0.4260365971
 40
0.5473626904
 40
0.7785364517
 40
1.0
 40
1.0
 40
1.0
 40
1.0
 10
64.4631637036
 20
145.4546502777
 30
0.0
 10
64.4756155224
 20
145.4499668232
 30
0.0
 10
64.5047657761
 20
145.4458863107
 30
0.0
 10
64.5442352677
 20
145.4641283379
 30
0.0
 10
64.5717969428
 20
145.4945316315
 30
0.0
 10
64.5976919528
 20
145.5364093143
 30
0.0
 10
64.6187779166
 20
145.5903395369
 30
0.0
 10
64.6404166272
 20
145.6746101965
 30
0.0
 10
64.6542868142
 20
145.7778210817
 30
0.0
 10
64.6577113037
 20
145.8596824319
 30
0.0
 10
64.6580543858
 20
145.8997396782
 30
0.0
  0
SPLINE
  5
304
100
AcDbEntity
  8
0
100
AcDbSpline
 62
7
  6
CONTINUOUS
 70
0
 71
3
 72
15
 73
11
 74
0
 42
0.0000001
 43
0.0000001
 44
0.0000000001
 40
0.0
 40
0.0
 40
0.0
 40
0.0
 40
0.2846444905
 40
0.5382195662
 40
0.6533996007
 40
0.761473341
 40
0.8135077243
 40
0.8652449798
 40
0.9195347039
 40
1.0
 40
1.0
 40
1.0
 40
1.0
 10
62.6582036816
 20
107.4277701115
 30
0.0
 10
62.6582036816
 20
107.3081966742
 30
0.0
 10
62.6581986496
 20
107.0821354471
 30
0.0
 10
62.6614011253
 20
106.8075437966
 30
0.0
 10
62.6749558671
 20
106.6076595231
 30
0.0
 10
62.6911575186
 20
106.4928779627
 30
0.0
 10
62.7129812167
 20
106.4065433744
 30
0.0
 10
62.7367208463
 20
106.3441137598
 30
0.0
 10
62.7755070777
 20
106.2765848101
 30
0.0
 10
62.8293712267
 20
106.2400828162
 30
0.0
 10
62.8631637036
 20
106.2392865993
 30
0.0
  0
SPLINE
  5
305
100
AcDbEntity
  8
0
100
AcDbSpline
 62
7
  6
CONTINUOUS
 70
0
 71
3
 72
9
 73
5
 74
0
 42
0.0000001
 43
0.0000001
 44
0.0000000001
 40
0.0
 40
0.0
 40
0.0
 40
0.0
 40
0.2573720101
 40
1.0
 40
1.0
 40
1.0
 40
1.0
 10
63.5510338113
 20
107.0066153398
 30
0.0
 10
63.5158944231
 20
106.9388600457
 30
0.0
 10
63.3769062876
 20
106.6768883947
 30
0.0
 10
63.227922797
 20
106.4201792447
 30
0.0
 10
63.1111693433
 20
106.2334431154
 30
0.0
  0
SPLINE
  5
306
100
AcDbEntity
  8
0
100
AcDbSpline
 62
7
  6
CONTINUOUS
 70
0
 71
3
 72
8
 73
4
 74
0
 42
0.0000001
 43
0.0000001
 44
0.0000000001
 40
0.0
 40
0.0
 40
0.0
 40
0.0
 40
1.0
 40
1.0
 40
1.0
 40
1.0
 10
64.6580186391
 20
133.7353946507
 30
0.0
 10
64.6575889493
 20
133.7971066394
 30
0.0
 10
64.6557061435
 20
133.858853479
 30
0.0
 10
64.6514062747
 20
133.9204169853
 30
0.0
  0
SPLINE
  5
307
100
AcDbEntity
  8
0
100
AcDbSpline
 62
7
  6
CONTINUOUS
 70
0
 71
3
 72
15
 73
11
 74
0
 42
0.0000001
 43
0.0000001
 44
0.0000000001
 40
0.0
 40
0.0
 40
0.0
 40
0.0
 40
0.2529176222
 40
0.3785524811
 40
0.5034347146
 40
0.6273379652
 40
0.7499890146
 40
0.8710889694
 40
0.9340922305
 40
1.0
 40
1.0
 40
1.0
 40
1.0
 10
64.6514062747
 20
133.9204169853
 30
0.0
 10
64.6485333568
 20
133.961550077
 30
0.0
 10
64.6426679173
 20
134.0230468684
 30
0.0
 10
64.6296962515
 20
134.1041305628
 30
0.0
 10
64.6166800052
 20
134.1637795371
 30
0.0
 10
64.5981911165
 20
134.2217423215
 30
0.0
 10
64.5732579315
 20
134.2757863504
 30
0.0
 10
64.5329175965
 20
134.3135487002
 30
0.0
 10
64.4897015874
 20
134.3115866541
 30
0.0
 10
64.4715637813
 20
134.299822689
 30
0.0
 10
64.4631637036
 20
134.2931224439
 30
0.0
  0
SPLINE
  5
308
100
AcDbEntity
  8
0
100
AcDbSpline
 62
7
  6
CONTINUOUS
 70
0
 71
3
 72
11
 73
7
 74
0
 42
0.0000001
 43
0.0000001
 44
0.0000000001
 40
0.0
 40
0.0
 40
0.0
 40
0.0
 40
0.2536313865
 40
0.5046749499
 40
0.7531440587
 40
1.0
 40
1.0
 40
1.0
 40
1.0
 10
78.3194654579
 20
119.7609506762
 30
0.0
 10
78.3801194249
 20
119.7609506762
 30
0.0
 10
78.500597266
 20
119.710074453
 30
0.0
 10
78.6173084381
 20
119.5699618865
 30
0.0
 10
78.6993772282
 20
119.4104532362
 30
0.0
 10
78.736901441
 20
119.2977009232
 30
0.0
 10
78.7524781598
 20
119.2407593718
 30
0.0
  0
SPLINE
  5
309
100
AcDbEntity
  8
0
100
AcDbSpline
 62
7
  6
CONTINUOUS
 70
0
 71
3
 72
9
 73
5
 74
0
 42
0.0000001
 43
0.0000001
 44
0.0000000001
 40
0.0
 40
0.0
 40
0.0
 40
0.0
 40
0.1680195226
 40
1.0
 40
1.0
 40
1.0
 40
1.0
 10
78.7524781598
 20
99.1962171443
 30
0.0
 10
78.7356298868
 20
99.1758970284
 30
0.0
 10
78.6201766042
 20
99.0674160521
 30
0.0
 10
78.4501723692
 20
99.0295792305
 30
0.0
 10
78.3194654579
 20
99.0295792305
 30
0.0
  0
SPLINE
  5
30A
100
AcDbEntity
  8
0
100
AcDbSpline
 62
7
  6
CONTINUOUS
 70
0
 71
3
 72
11
 73
7
 74
0
 42
0.0000001
 43
0.0000001
 44
0.0000000001
 40
0.0
 40
0.0
 40
0.0
 40
0.0
 40
0.2468743153
 40
0.4953615093
 40
0.7464260843
 40
1.0
 40
1.0
 40
1.0
 40
1.0
 10
74.9638030252
 20
119.2407593718
 30
0.0
 10
74.9793808378
 20
119.2977049216
 30
0.0
 10
75.0169096152
 20
119.4104637749
 30
0.0
 10
75.0989811107
 20
119.5699879438
 30
0.0
 10
75.2157134718
 20
119.7100750499
 30
0.0
 10
75.3361757593
 20
119.7609506762
 30
0.0
 10
75.3968157271
 20
119.7609506762
 30
0.0
  0
SPLINE
  5
30B
100
AcDbEntity
  8
0
100
AcDbSpline
 62
7
  6
CONTINUOUS
 70
0
 71
3
 72
9
 73
5
 74
0
 42
0.0000001
 43
0.0000001
 44
0.0000000001
 40
0.0
 40
0.0
 40
0.0
 40
0.0
 40
0.3641598889
 40
1.0
 40
1.0
 40
1.0
 40
1.0
 10
75.3968157271
 20
99.0295792305
 30
0.0
 10
75.3394393053
 20
99.0295792305
 30
0.0
 10
75.1832529722
 20
99.0456983245
 30
0.0
 10
75.0277469815
 20
99.1190965633
 30
0.0
 10
74.9638030252
 20
99.1962171443
 30
0.0
  0
SPLINE
  5
30C
100
AcDbEntity
  8
0
100
AcDbSpline
 62
7
  6
CONTINUOUS
 70
0
 71
3
 72
9
 73
5
 74
0
 42
0.0000001
 43
0.0000001
 44
0.0000000001
 40
0.0
 40
0.0
 40
0.0
 40
0.0
 40
0.3642526053
 40
1.0
 40
1.0
 40
1.0
 40
1.0
 10
78.3194654579
 20
159.1907647511
 30
0.0
 10
78.3768568644
 20
159.1907647511
 30
0.0
 10
78.533046323
 20
159.1746501956
 30
0.0
 10
78.6885431083
 20
159.1012366784
 30
0.0
 10
78.7524781598
 20
159.0241268372
 30
0.0
  0
SPLINE
  5
30D
100
AcDbEntity
  8
0
100
AcDbSpline
 62
7
  6
CONTINUOUS
 70
0
 71
3
 72
21
 73
17
 74
0
 42
0.0000001
 43
0.0000001
 44
0.0000000001
 40
0.0
 40
0.0
 40
0.0
 40
0.0
 40
0.0152736556
 40
0.0307400416
 40
0.0615944727
 40
0.0924597446
 40
0.1233512662
 40
0.1852330485
 40
0.2472659363
 40
0.3094463907
 40
0.3717660941
 40
0.4967787028
 40
0.6222117836
 40
0.747963109
 40
0.8739278454
 40
1.0
 40
1.0
 40
1.0
 40
1.0
 10
62.8631637036
 20
137.2961151775
 30
0.0
 10
62.8479013884
 20
137.2960527582
 30
0.0
 10
62.8222132235
 20
137.2700556035
 30
0.0
 10
62.7964721309
 20
137.2163030677
 30
0.0
 10
62.7728246011
 20
137.1415311746
 30
0.0
 10
62.7530262277
 20
137.0514363503
 30
0.0
 10
62.7320485527
 20
136.9295389861
 30
0.0
 10
62.7131451526
 20
136.7759901827
 30
0.0
 10
62.6969175125
 20
136.5907062305
 30
0.0
 10
62.6851483179
 20
136.4046721631
 30
0.0
 10
62.673693678
 20
136.1555963108
 30
0.0
 10
62.6652799139
 20
135.8431507917
 30
0.0
 10
62.6605274657
 20
135.4672553117
 30
0.0
 10
62.6587130431
 20
135.0903852555
 30
0.0
 10
62.6582397049
 20
134.7128746225
 30
0.0
 10
62.6582036816
 20
134.4610227236
 30
0.0
 10
62.6582036816
 20
134.3350431214
 30
0.0
  0
LINE
  5
30E
100
AcDbEntity
  8
0
100
AcDbLine
 62
7
  6
CONTINUOUS
 10
62.8685422243
 20
105.6847871849
 11
63.1111693433
 21
106.2334431154
  0
SPLINE
  5
30F
100
AcDbEntity
  8
0
100
AcDbSpline
 62
7
  6
CONTINUOUS
 70
0
 71
3
 72
17
 73
13
 74
0
 42
0.0000001
 43
0.0000001
 44
0.0000000001
 40
0.0
 40
0.0
 40
0.0
 40
0.0
 40
0.2182009024
 40
0.3349220057
 40
0.456586696
 40
0.5831112211
 40
0.7144823146
 40
0.7820564401
 40
0.8510300181
 40
0.92186225
 40
0.958727904
 40
1.0
 40
1.0
 40
1.0
 40
1.0
 10
62.6582036816
 20
145.5677027394
 30
0.0
 10
62.6582036816
 20
145.4354237252
 30
0.0
 10
62.6581859942
 20
145.2323840638
 30
0.0
 10
62.6605931031
 20
144.9555952935
 30
0.0
 10
62.6654182966
 20
144.7344228908
 30
0.0
 10
62.6757040347
 20
144.5045079099
 30
0.0
 10
62.691829058
 20
144.3078392148
 30
0.0
 10
62.7134031586
 20
144.1466383432
 30
0.0
 10
62.7360076292
 20
144.0234680511
 30
0.0
 10
62.7656034254
 20
143.9183173204
 30
0.0
 10
62.8000351002
 20
143.8388474662
 30
0.0
 10
62.8381482367
 20
143.7946270896
 30
0.0
 10
62.8631637036
 20
143.7951141955
 30
0.0
  0
SPLINE
  5
310
100
AcDbEntity
  8
0
100
AcDbSpline
 62
7
  6
CONTINUOUS
 70
0
 71
3
 72
10
 73
6
 74
0
 42
0.0000001
 43
0.0000001
 44
0.0000000001
 40
0.0
 40
0.0
 40
0.0
 40
0.0
 40
0.2163947382
 40
0.4583018846
 40
1.0
 40
1.0
 40
1.0
 40
1.0
 10
63.1111693433
 20
143.7999434234
 30
0.0
 10
63.0254679554
 20
143.3372218678
 30
0.0
 10
62.9031313632
 20
142.3459599765
 30
0.0
 10
62.8279526372
 20
140.1709467918
 30
0.0
 10
62.9584574724
 20
138.465213674
 30
0.0
 10
63.1111693433
 20
137.2971294334
 30
0.0
  0
SPLINE
  5
311
100
AcDbEntity
  8
0
100
AcDbSpline
 62
7
  6
CONTINUOUS
 70
0
 71
3
 72
11
 73
7
 74
0
 42
0.0000001
 43
0.0000001
 44
0.0000000001
 40
0.0
 40
0.0
 40
0.0
 40
0.0
 40
0.2468553946
 40
0.4953235696
 40
0.7463663429
 40
1.0
 40
1.0
 40
1.0
 40
1.0
 10
78.7524781598
 20
138.9795846097
 30
0.0
 10
78.7369014728
 20
138.9226431744
 30
0.0
 10
78.6993774736
 20
138.8098911084
 30
0.0
 10
78.6173086623
 20
138.6503831535
 30
0.0
 10
78.5005984904
 20
138.5102694843
 30
0.0
 10
78.3801199785
 20
138.4593933053
 30
0.0
 10
78.3194654579
 20
138.4593933053
 30
0.0
  0
SPLINE
  5
312
100
AcDbEntity
  8
0
100
AcDbSpline
 62
7
  6
CONTINUOUS
 70
0
 71
3
 72
9
 73
5
 74
0
 42
0.0000001
 43
0.0000001
 44
0.0000000001
 40
0.0
 40
0.0
 40
0.0
 40
0.0
 40
0.1680322176
 40
1.0
 40
1.0
 40
1.0
 40
1.0
 10
74.9638030252
 20
159.0241268372
 30
0.0
 10
74.9806525842
 20
159.0444485041
 30
0.0
 10
75.096107161
 20
159.1529285361
 30
0.0
 10
75.2661107101
 20
159.1907647511
 30
0.0
 10
75.3968157271
 20
159.1907647511
 30
0.0
  0
SPLINE
  5
313
100
AcDbEntity
  8
0
100
AcDbSpline
 62
7
  6
CONTINUOUS
 70
0
 71
3
 72
11
 73
7
 74
0
 42
0.0000001
 43
0.0000001
 44
0.0000000001
 40
0.0
 40
0.0
 40
0.0
 40
0.0
 40
0.2535749038
 40
0.5046395871
 40
0.753126088
 40
1.0
 40
1.0
 40
1.0
 40
1.0
 10
75.3968157271
 20
138.4593933053
 30
0.0
 10
75.3361755213
 20
138.4593933053
 30
0.0
 10
75.2157128489
 20
138.510268997
 30
0.0
 10
75.0989809899
 20
138.6503566769
 30
0.0
 10
75.016909444
 20
138.8098805044
 30
0.0
 10
74.9793808128
 20
138.9226391514
 30
0.0
 10
74.9638030252
 20
138.9795846097
 30
0.0
  0
ELLIPSE
  5
314
100
AcDbEntity
  8
0
100
AcDbEllipse
 62
7
  6
CONTINUOUS
 10
62.5109864032
 20
129.1101719908
 30
0.0
 11
14.7536831607
 21
31.0932549156
 31
0.0
 40
0.3419987131
 41
-1.0912395858
 42
-0.1578061866
  0
ELLIPSE
  5
315
100
AcDbEntity
  8
0
100
AcDbEllipse
 62
7
  6
CONTINUOUS
 10
62.5109864032
 20
129.1101719908
 30
0.0
 11
-14.7536831607
 21
31.0932549156
 31
0.0
 40
0.3419987131
 41
-2.9837864669
 42
-2.0503530678
  0
ELLIPSE
  5
316
100
AcDbEntity
  8
0
100
AcDbEllipse
 62
7
  6
CONTINUOUS
 10
91.2052947819
 20
129.1101719908
 30
0.0
 11
-14.7536831607
 21
31.0932549156
 31
0.0
 40
0.3419987131
 41
0.1578061866
 42
1.0912395858
  0
ELLIPSE
  5
317
100
AcDbEntity
  8
0
100
AcDbEllipse
 62
7
  6
CONTINUOUS
 10
91.2052947819
 20
129.1101719908
 30
0.0
 11
14.7536831607
 21
31.0932549156
 31
0.0
 40
0.3419987131
 41
-4.2328322393
 42
-3.2993988402
  0
ENDSEC
  0
SECTION
  2
OBJECTS
  0
DICTIONARY
  5
C
100
AcDbDictionary
280
0
281
1
  3
ACAD_GROUP
350
D
  3
ACAD_MLINESTYLE
350
17
  3
ACAD_LAYOUT
350
1A
  3
ACAD_PLOTSETTINGS
350
19
  3
ACAD_PLOTSTYLENAME
350
E
  0
DICTIONARY
  5
D
102
{ACAD_REACTORS
330
C
102
}
100
AcDbDictionary
280
0
281
1
  0
ACDBDICTIONARYWDFLT
  5
E
102
{ACAD_REACTORS
330
C
102
}
100
AcDbDictionary
281
1
  3
Normal
350
F
100
AcDbDictionaryWithDefault
340
F
  0
DICTIONARY
  5
17
102
{ACAD_REACTORS
330
C
102
}
100
AcDbDictionary
280
0
281
1
  3
Standard
350
18
  0
DICTIONARY
  5
19
102
{ACAD_REACTORS
330
C
102
}
100
AcDbDictionary
281
1
  0
DICTIONARY
  5
1A
102
{ACAD_REACTORS
330
C
102
}
100
AcDbDictionary
281
1
  3
Model
350
318
  3
Layout1
350
319
  0
ACDBPLACEHOLDER
  5
F
102
{ACAD_REACTORS
330
E
102
}
  0
MLINESTYLE
  5
18
102
{ACAD_REACTORS
330
17
102
}
100
AcDbMlineStyle
  2
STANDARD
 70
0
  3

 62
256
 51
90.0
 52
90.0
 71
2
 49
0.5
 62
256
  6
BYLAYER
 49
-0.5
 62
256
  6
BYLAYER
  0
LAYOUT
  5
318
102
{ACAD_REACTORS
330
1A
102
}
100
AcDbPlotSettings
  1

  2
none_device
  4
ISO_A4_(297.00_x_210.00_MM)
  6

 40
0.0
 41
0.0
 42
0.0
 43
0.0
 44
297.0
 45
210.0
 46
0.0
 47
0.0
 48
0.0
 49
0.0
140
0.0
141
0.0
142
1.0
143
1.0
 70
1024
 72
1
 73
0
 74
0
  7

 75
0
147
1.0
148
0.0
149
0.0
100
AcDbLayout
  1
Model
 70
0
 71
0
 10
0.0
 20
0.0
 11
297.0
 21
210.0
 12
0.0
 22
0.0
 32
0.0
 14
0.0
 24
0.0
 34
0.0
 15
0.0
 25
0.0
 35
0.0
146
0.0
 13
0.0
 23
0.0
 33
0.0
 16
1.0
 26
0.0
 36
0.0
 17
0.0
 27
1.0
 37
0.0
 76
0
330
217
345
0
346
0
  0
LAYOUT
  5
319
102
{ACAD_REACTORS
330
1A
102
}
100
AcDbPlotSettings
  1

  2
none_device
  4
ISO_A4_(297.00_x_210.00_MM)
  6

 40
0.0
 41
0.0
 42
0.0
 43
0.0
 44
297.0
 45
210.0
 46
0.0
 47
0.0
 48
0.0
 49
0.0
140
0.0
141
0.0
142
1.0
143
1.0
 70
0
 72
1
 73
0
 74
0
  7

 75
0
147
1.0
148
0.0
149
0.0
100
AcDbLayout
  1
Layout1
 70
0
 71
1
 10
0.0
 20
0.0
 11
297.0
 21
210.0
 12
0.0
 22
0.0
 32
0.0
 14
0.0
 24
0.0
 34
0.0
 15
0.0
 25
0.0
 35
0.0
146
0.0
 13
0.0
 23
0.0
 33
0.0
 16
1.0
 26
0.0
 36
0.0
 17
0.0
 27
1.0
 37
0.0
 76
0
330
218
345
0
346
0
  0
ENDSEC
  0
EOF
