999
DXF file: cc6-142-18.dxf
999
Pro/ENGINEER 2010430 by Parametric Technology Corporation
  0
SECTION
  2
HEADER
  9
$ACADVER
  1
AC1021
  9
$DWGCODEPAGE
  3
ANSI_1252
  9
$EXTMAX
 10
297.0
 20
210.0
 30
0.0
  9
$EXTMIN
 10
0.0
 20
0.0
 30
0.0
  9
$LIMMIN
 10
0.0
 20
0.0
  9
$LIMMAX
 10
297.0
 20
210.0
  9
$VIEWCTR
 10
148.5
 20
105.0
  9
$VIEWSIZE
 40
210.0
  9
$CLAYER
  8
0
  9
$LTSCALE
 40
16.335
  9
$CELTYPE
  6
BYLAYER
  9
$DIMSCALE
 40
1.0
  9
$DIMASZ
 40
3.5
  9
$DIMEXO
 40
1.85625
  9
$DIMDLI
 40
11.286
  9
$DIMEXE
 40
5.346
  9
$DIMCEN
 40
2.673
  9
$DIMLFAC
 40
1.0
  9
$DIMBLK
  1
_FILLED
  9
$DIMTXT
 40
3.5
  9
$DIMTOL
 70
1
  9
$DIMLIM
 70
0
  9
$DIMTFAC
 40
1.0
  9
$DIMTP
 40
0.005
  9
$DIMTM
 40
0.005
  9
$PDMODE
 70
3
  9
$PDSIZE
 40
0.3125
  9
$HANDSEED
  5
319
  9
$TILEMODE
 70
1
  9
$MEASUREMENT
 70
1
  9
$INSUNITS
 70
4
  0
ENDSEC
  0
SECTION
  2
CLASSES
  0
CLASS
  1
ACDBDICTIONARYWDFLT
  2
AcDbDictionaryWithDefault
  3
AutoCAD 2000
 90
0
 91
1
280
0
281
0
  0
CLASS
  1
ACDBPLACEHOLDER
  2
AcDbPlaceHolder
  3
AutoCAD 2000
 90
0
 91
1
280
0
281
0
  0
CLASS
  1
LAYOUT
  2
AcDbLayout
  3
AutoCAD 2000
 90
0
 91
0
280
0
281
0
  0
ENDSEC
  0
SECTION
  2
TABLES
  0
TABLE
  2
VPORT
  5
8
100
AcDbSymbolTable
 70
2
  0
VPORT
  5
1F4
100
AcDbSymbolTableRecord
100
AcDbViewportTableRecord
  2
*ACTIVE
 70
0
 10
0.0
 20
0.0
 11
1.0
 21
1.0
 12
148.5
 22
105.0
 13
0.0
 23
0.0
 14
1.0
 24
1.0
 15
0.0
 25
0.0
 16
0.0
 26
0.0
 36
1.0
 17
0.0
 27
0.0
 37
0.0
 40
210.0
 41
1.4142857143
 42
50.0
 43
0.0
 44
0.0
 50
0.0
 51
0.0
 71
0
 72
100
 73
1
 74
1
 75
0
 76
0
 77
0
 78
0
  0
ENDTAB
  0
TABLE
  2
LTYPE
  5
5
100
AcDbSymbolTable
 70
6
  0
LTYPE
  5
14
100
AcDbSymbolTableRecord
100
AcDbLinetypeTableRecord
  2
BYBLOCK
 70
0
  3

 72
65
 73
0
 40
0.0
  0
LTYPE
  5
15
100
AcDbSymbolTableRecord
100
AcDbLinetypeTableRecord
  2
BYLAYER
 70
0
  3

 72
65
 73
0
 40
0.0
  0
LTYPE
  5
16
100
AcDbSymbolTableRecord
100
AcDbLinetypeTableRecord
  2
CONTINUOUS
 70
64
  3
Solid line
 72
65
 73
0
 40
0.0
  0
LTYPE
  5
1F5
100
AcDbSymbolTableRecord
100
AcDbLinetypeTableRecord
  2
CENTER
 70
64
  3
____ _ ____ _ ____ _ ____ _ ____ _ ____ _ ____
 72
65
 73
4
 40
0.6
 49
0.375
 74
0
 49
-0.075
 74
0
 49
0.075
 74
0
 49
-0.075
 74
0
  0
LTYPE
  5
1F6
100
AcDbSymbolTableRecord
100
AcDbLinetypeTableRecord
  2
HIDDEN
 70
64
  3
- - - - - - - - - - - - - - - - - - - -
 72
65
 73
2
 40
0.2
 49
0.1
 74
0
 49
-0.1
 74
0
  0
LTYPE
  5
1F7
100
AcDbSymbolTableRecord
100
AcDbLinetypeTableRecord
  2
PHANTOM
 70
64
  3
_____ _ _ _____ _ _ _____ _ _ _____
 72
65
 73
6
 40
0.8
 49
0.45
 74
0
 49
-0.05
 74
0
 49
0.1
 74
0
 49
-0.05
 74
0
 49
0.1
 74
0
 49
-0.05
 74
0
  0
LTYPE
  5
1F8
100
AcDbSymbolTableRecord
100
AcDbLinetypeTableRecord
  2
DOT
 70
64
  3
. . . . . . . . . . . . . . . . . . . .
 72
65
 73
2
 40
0.2
 49
0.1
 74
0
 49
-0.1
 74
0
  0
LTYPE
  5
1F9
100
AcDbSymbolTableRecord
100
AcDbLinetypeTableRecord
  2
DASHED
 70
64
  3
- - - - - - - - - - - - - - - - - - - -
 72
65
 73
2
 40
0.2
 49
0.1
 74
0
 49
-0.1
 74
0
  0
ENDTAB
  0
TABLE
  2
LAYER
  5
2
100
AcDbSymbolTable
 70
36
  0
LAYER
  5
10
100
AcDbSymbolTableRecord
100
AcDbLayerTableRecord
  2
0
 70
0
 62
7
  6
CONTINUOUS
370
-3
390
F
  0
LAYER
  5
1FA
100
AcDbSymbolTableRecord
100
AcDbLayerTableRecord
  2
DEFAULT_1
 70
0
 62
7
  6
CENTER
370
-3
390
F
  0
LAYER
  5
1FB
100
AcDbSymbolTableRecord
100
AcDbLayerTableRecord
  2
DEFAULT_2
 70
0
 62
8
  6
HIDDEN
370
-3
390
F
  0
LAYER
  5
1FC
100
AcDbSymbolTableRecord
100
AcDbLayerTableRecord
  2
DEFAULT_3
 70
0
 62
7
  6
PHANTOM
370
-3
390
F
  0
LAYER
  5
1FD
100
AcDbSymbolTableRecord
100
AcDbLayerTableRecord
  2
ACHSEN
 70
0
 62
7
  6
CONTINUOUS
370
-3
390
F
  0
LAYER
  5
1FE
100
AcDbSymbolTableRecord
100
AcDbLayerTableRecord
  2
BEZUGSACHSEN
 70
0
 62
7
  6
CONTINUOUS
370
-3
390
F
  0
LAYER
  5
1FF
100
AcDbSymbolTableRecord
100
AcDbLayerTableRecord
  2
BEZUGSEBENE_B
 70
0
 62
7
  6
CONTINUOUS
370
-3
390
F
  0
LAYER
  5
200
100
AcDbSymbolTableRecord
100
AcDbLayerTableRecord
  2
BOHRUNGEN
 70
0
 62
7
  6
CONTINUOUS
370
-3
390
F
  0
LAYER
  5
201
100
AcDbSymbolTableRecord
100
AcDbLayerTableRecord
  2
EBENEN
 70
0
 62
7
  6
CONTINUOUS
370
-3
390
F
  0
LAYER
  5
202
100
AcDbSymbolTableRecord
100
AcDbLayerTableRecord
  2
FASEN
 70
0
 62
7
  6
CONTINUOUS
370
-3
390
F
  0
LAYER
  5
203
100
AcDbSymbolTableRecord
100
AcDbLayerTableRecord
  2
FLAECHEN
 70
0
 62
7
  6
CONTINUOUS
370
-3
390
F
  0
LAYER
  5
204
100
AcDbSymbolTableRecord
100
AcDbLayerTableRecord
  2
GEWINDE
 70
0
 62
7
  6
CONTINUOUS
370
-3
390
F
  0
LAYER
  5
205
100
AcDbSymbolTableRecord
100
AcDbLayerTableRecord
  2
KOORDSYS
 70
0
 62
7
  6
CONTINUOUS
370
-3
390
F
  0
LAYER
  5
206
100
AcDbSymbolTableRecord
100
AcDbLayerTableRecord
  2
KURVEN
 70
0
 62
7
  6
CONTINUOUS
370
-3
390
F
  0
LAYER
  5
207
100
AcDbSymbolTableRecord
100
AcDbLayerTableRecord
  2
KURVE_FUER_GTOL_DETAILANSICHT
 70
0
 62
7
  6
CONTINUOUS
370
-3
390
F
  0
LAYER
  5
208
100
AcDbSymbolTableRecord
100
AcDbLayerTableRecord
  2
KURVE_GAUGE2_POLIGON_INNENEINST
 70
0
 62
7
  6
CONTINUOUS
370
-3
390
F
  0
LAYER
  5
209
100
AcDbSymbolTableRecord
100
AcDbLayerTableRecord
  2
KURVE_PHANTOM1_GAUGE_PIN_1
 70
0
 62
7
  6
CONTINUOUS
370
-3
390
F
  0
LAYER
  5
20A
100
AcDbSymbolTableRecord
100
AcDbLayerTableRecord
  2
KURVE_PHANTOM2_GAUGE_PIN1
 70
0
 62
7
  6
CONTINUOUS
370
-3
390
F
  0
LAYER
  5
20B
100
AcDbSymbolTableRecord
100
AcDbLayerTableRecord
  2
KURVE_POLIGON_BEMASUNG
 70
0
 62
7
  6
CONTINUOUS
370
-3
390
F
  0
LAYER
  5
20C
100
AcDbSymbolTableRecord
100
AcDbLayerTableRecord
  2
PUNKTE
 70
0
 62
7
  6
CONTINUOUS
370
-3
390
F
  0
LAYER
  5
20D
100
AcDbSymbolTableRecord
100
AcDbLayerTableRecord
  2
RUNDUNGEN
 70
0
 62
7
  6
CONTINUOUS
370
-3
390
F
  0
LAYER
  5
20E
100
AcDbSymbolTableRecord
100
AcDbLayerTableRecord
  2
S_ACHSEN
 70
0
 62
7
  6
CONTINUOUS
370
-3
390
F
  0
LAYER
  5
20F
100
AcDbSymbolTableRecord
100
AcDbLayerTableRecord
  2
S_EBENEN
 70
0
 62
7
  6
CONTINUOUS
370
-3
390
F
  0
LAYER
  5
210
100
AcDbSymbolTableRecord
100
AcDbLayerTableRecord
  2
S_KOORDSYS
 70
0
 62
7
  6
CONTINUOUS
370
-3
390
F
  0
LAYER
  5
211
100
AcDbSymbolTableRecord
100
AcDbLayerTableRecord
  2
TOL_BEZUEGE
 70
0
 62
7
  6
CONTINUOUS
370
-3
390
F
  0
LAYER
  5
212
100
AcDbSymbolTableRecord
100
AcDbLayerTableRecord
  2
VERBFLAECHE
 70
0
 62
7
  6
CONTINUOUS
370
-3
390
F
  0
LAYER
  5
213
100
AcDbSymbolTableRecord
100
AcDbLayerTableRecord
  2
ZEICHNUNGSBEMASSUNGEN
 70
0
 62
7
  6
CONTINUOUS
370
-3
390
F
  0
ENDTAB
  0
TABLE
  2
STYLE
  5
3
100
AcDbSymbolTable
 70
1
  0
STYLE
  5
11
100
AcDbSymbolTableRecord
100
AcDbTextStyleTableRecord
  2
STANDARD
 70
0
 40
0.0
 41
0.7
 50
0.0
 71
0
 42
0.2
  3
txt
  4

  0
STYLE
  5
214
100
AcDbSymbolTableRecord
100
AcDbTextStyleTableRecord
  2
TEXTSTYLE_1
 70
0
 40
0.0
 41
0.8
 50
0.0
 71
0
 42
0.2
  3
gdt
  4

  0
STYLE
  5
215
100
AcDbSymbolTableRecord
100
AcDbTextStyleTableRecord
  2
TEXTSTYLE_2
 70
0
 40
0.0
 41
0.7
 50
0.0
 71
0
 42
0.2
  3
gdt
  4

  0
ENDTAB
  0
TABLE
  2
VIEW
  5
6
100
AcDbSymbolTable
 70
0
  0
ENDTAB
  0
TABLE
  2
UCS
  5
7
100
AcDbSymbolTable
 70
0
  0
ENDTAB
  0
TABLE
  2
APPID
  5
9
100
AcDbSymbolTable
 70
1
  0
APPID
  5
216
100
AcDbSymbolTableRecord
100
AcDbRegAppTableRecord
  2
ACAD
 70
0
  0
ENDTAB
  0
TABLE
  2
BLOCK_RECORD
  5
1
100
AcDbSymbolTable
 70
0
  0
BLOCK_RECORD
  5
217
100
AcDbSymbolTableRecord
100
AcDbBlockTableRecord
  2
*Model_Space
  0
BLOCK_RECORD
  5
218
100
AcDbSymbolTableRecord
100
AcDbBlockTableRecord
  2
*Paper_Space
  0
BLOCK_RECORD
  5
219
100
AcDbSymbolTableRecord
100
AcDbBlockTableRecord
  2
_FILLED
  0
BLOCK_RECORD
  5
21A
100
AcDbSymbolTableRecord
100
AcDbBlockTableRecord
  2
*D0
  0
BLOCK_RECORD
  5
21B
100
AcDbSymbolTableRecord
100
AcDbBlockTableRecord
  2
*D1
  0
BLOCK_RECORD
  5
21C
100
AcDbSymbolTableRecord
100
AcDbBlockTableRecord
  2
*D2
  0
BLOCK_RECORD
  5
21D
100
AcDbSymbolTableRecord
100
AcDbBlockTableRecord
  2
*D3
  0
BLOCK_RECORD
  5
21E
100
AcDbSymbolTableRecord
100
AcDbBlockTableRecord
  2
*D4
  0
BLOCK_RECORD
  5
21F
100
AcDbSymbolTableRecord
100
AcDbBlockTableRecord
  2
*D5
  0
BLOCK_RECORD
  5
220
100
AcDbSymbolTableRecord
100
AcDbBlockTableRecord
  2
*D6
  0
ENDTAB
  0
TABLE
  2
DIMSTYLE
  5
A
100
AcDbSymbolTable
 70
1
100
AcDbDimStyleTable
 71
0
  0
DIMSTYLE
105
221
100
AcDbSymbolTableRecord
100
AcDbDimStyleTableRecord
  2
STANDARD
 70
0
  3

  4

 40
1.0
 41
3.5
 42
0.0625
 43
0.38
 44
0.18
 45
0.0
 46
0.0
 47
0.005
 48
0.005
140
3.5
141
0.09
142
0.0
143
25.4
144
1.0
145
0.0
146
1.0
147
0.09
 71
1.0
 72
0.0
 73
0
 74
0
 75
0
 76
0
 77
1
 78
8
170
0
171
2
172
0
173
0
174
0
175
0
176
0
177
0
178
5
270
2
271
3
272
3
273
2
274
2
275
0
280
0
281
0
282
0
283
1
284
8
285
0
286
0
287
3
288
0
340
11
341
219
342
219
343
219
344
219
  0
DIMSTYLE
105
222
100
AcDbSymbolTableRecord
100
AcDbDimStyleTableRecord
  2
DIMSTYLE_1
 70
0
  3

  4

 40
1.0
 41
3.5
 42
0.0625
 43
0.38
 44
0.18
 45
0.0
 46
0.0
 47
0.0
 48
0.1
140
3.5
141
0.09
142
0.0
143
25.4
144
1.0
145
0.0
146
1.0
147
0.09
 71
0.0
 72
0.0
 73
0
 74
0
 75
0
 76
0
 77
1
 78
8
170
0
171
2
172
0
173
0
174
0
175
0
176
0
177
0
178
5
270
2
271
2
272
2
273
2
274
2
275
0
280
0
281
0
282
0
283
1
284
8
285
0
286
0
287
3
288
0
340
11
341
219
342
219
343
219
344
219
  0
DIMSTYLE
105
223
100
AcDbSymbolTableRecord
100
AcDbDimStyleTableRecord
  2
DIMSTYLE_2
 70
0
  3

  4

 40
1.0
 41
3.5
 42
0.0625
 43
0.38
 44
0.18
 45
0.0
 46
0.0
 47
0.25
 48
0.25
140
3.5
141
0.09
142
0.0
143
25.4
144
1.0
145
0.0
146
1.0
147
0.09
 71
0.0
 72
0.0
 73
0
 74
0
 75
0
 76
0
 77
1
 78
8
170
0
171
2
172
0
173
0
174
0
175
0
176
0
177
0
178
5
270
2
271
2
272
2
273
2
274
2
275
0
280
0
281
0
282
0
283
1
284
8
285
0
286
0
287
3
288
0
340
11
341
219
342
219
343
219
344
219
  0
DIMSTYLE
105
224
100
AcDbSymbolTableRecord
100
AcDbDimStyleTableRecord
  2
DIMSTYLE_3
 70
0
  3

  4

 40
1.0
 41
3.5
 42
0.0625
 43
0.38
 44
0.18
 45
0.0
 46
0.0
 47
0.5
 48
0.5
140
3.5
141
0.09
142
0.0
143
25.4
144
1.0
145
0.0
146
1.0
147
0.09
 71
0.0
 72
0.0
 73
0
 74
0
 75
0
 76
0
 77
1
 78
8
170
0
171
2
172
0
173
0
174
0
175
0
176
0
177
0
178
5
270
2
271
2
272
2
273
2
274
2
275
0
280
0
281
0
282
0
283
1
284
8
285
0
286
0
287
3
288
0
340
11
341
219
342
219
343
219
344
219
  0
DIMSTYLE
105
225
100
AcDbSymbolTableRecord
100
AcDbDimStyleTableRecord
  2
DIMSTYLE_4
 70
0
  3

  4

 40
1.0
 41
3.5
 42
0.0625
 43
0.38
 44
0.18
 45
0.0
 46
0.0
 47
0.003
 48
0.003
140
3.5
141
0.09
142
0.0
143
25.4
144
1.0
145
0.0
146
1.0
147
0.09
 71
0.0
 72
0.0
 73
0
 74
0
 75
0
 76
0
 77
1
 78
8
170
0
171
2
172
0
173
0
174
0
175
0
176
0
177
0
178
5
270
2
271
3
272
3
273
2
274
2
275
0
280
0
281
0
282
0
283
1
284
8
285
0
286
0
287
3
288
0
340
11
341
219
342
219
343
219
344
219
  0
ENDTAB
  0
ENDSEC
  0
SECTION
  2
BLOCKS
  0
BLOCK
  5
20
100
AcDbEntity
  8
0
100
AcDbBlockBegin
  2
*Model_Space
 70
0
 10
0.0
 20
0.0
 30
0.0
  3
*Model_Space
  1

  0
ENDBLK
  5
21
100
AcDbEntity
  8
0
100
AcDbBlockEnd
  0
BLOCK
  5
1C
100
AcDbEntity
  8
0
100
AcDbBlockBegin
  2
*Paper_Space
 70
0
 10
0.0
 20
0.0
 30
0.0
  3
*Paper_Space
  1

  0
ENDBLK
  5
1D
100
AcDbEntity
  8
0
100
AcDbBlockEnd
  0
BLOCK
  5
226
100
AcDbEntity
  8
0
100
AcDbBlockBegin
  2
_FILLED
 70
64
 10
0.0
 20
0.0
  3
_FILLED
  1

  0
SOLID
  5
227
100
AcDbEntity
  8
0
  6
BYBLOCK
 62
0
100
AcDbTrace
 10
0.0
 20
0.0
 11
-1.0
 21
0.125
 12
-1.0
 22
-0.125
 13
-1.0
 23
-0.125
  0
ENDBLK
  5
228
100
AcDbEntity
  8
0
  6
BYBLOCK
 62
0
100
AcDbBlockEnd
  0
BLOCK
  5
229
100
AcDbEntity
  8
0
100
AcDbBlockBegin
 62
2
  6
CONTINUOUS
  2
*D0
 70
65
 10
0.0
 20
0.0
  3
*D0
  1

  0
MTEXT
  5
22A
100
AcDbEntity
  8
0
100
AcDbMText
 62
5
  6
CONTINUOUS
  7
TEXTSTYLE_2
 71
2
 72
1
 10
260.2661783017
 20
137.0964154939
 30
0.0
 11
0.0
 21
1.0
 31
0.0
 44
0.9
  1
{\Fgdt;n}\Ftxt;33
 40
3.5
 41
9.6666666667
  0
LINE
  5
22B
100
AcDbEntity
  8
0
100
AcDbLine
 62
2
  6
CONTINUOUS
 10
221.3315056818
 20
153.5714154939
 11
224.3766392247
 21
153.5714154939
  0
LINE
  5
22C
100
AcDbEntity
  8
0
100
AcDbLine
 62
2
  6
CONTINUOUS
 10
231.2191945731
 20
153.5714154939
 11
266.1411783017
 21
153.5714154939
  0
LINE
  5
22D
100
AcDbEntity
  8
0
100
AcDbLine
 62
2
  6
CONTINUOUS
 10
219.1263747401
 20
120.6214154939
 11
247.7268712264
 21
120.6214154939
  0
LINE
  5
22E
100
AcDbEntity
  8
0
100
AcDbLine
 62
2
  6
CONTINUOUS
 10
251.5339742702
 20
120.6214154939
 11
266.1411783017
 21
120.6214154939
  0
LINE
  5
22F
100
AcDbEntity
  8
0
100
AcDbLine
 62
2
  6
CONTINUOUS
 10
264.6411783017
 20
153.5714154939
 11
264.6411783017
 21
137.0964154939
  0
LINE
  5
230
100
AcDbEntity
  8
0
100
AcDbLine
 62
2
  6
CONTINUOUS
 10
264.6411783017
 20
120.6214154939
 11
264.6411783017
 21
137.0964154939
  0
INSERT
  5
231
100
AcDbEntity
  8
0
100
AcDbBlockReference
 62
2
  6
CONTINUOUS
  2
_FILLED
 10
264.6411783017
 20
153.5714154939
 41
3.5
 42
3.5
 43
3.5
 50
90.0
  0
INSERT
  5
232
100
AcDbEntity
  8
0
100
AcDbBlockReference
 62
2
  6
CONTINUOUS
  2
_FILLED
 10
264.6411783017
 20
120.6214154939
 41
3.5
 42
3.5
 43
3.5
 50
270.0
  0
ENDBLK
  5
233
100
AcDbEntity
  8
0
  6
BYBLOCK
 62
0
100
AcDbBlockEnd
  0
BLOCK
  5
234
100
AcDbEntity
  8
0
100
AcDbBlockBegin
 62
2
  6
CONTINUOUS
  2
*D1
 70
65
 10
0.0
 20
0.0
  3
*D1
  1

  0
MTEXT
  5
235
100
AcDbEntity
  8
0
100
AcDbMText
 62
5
  6
CONTINUOUS
  7
STANDARD
 71
2
 72
1
 10
253.9442107567
 20
138.7285816464
 30
0.0
 11
0.235025847
 21
-0.971989121
 31
0.0
 44
0.9
  1
4\Fgdt;{\Fgdt;~}\Ftxt;30'
 40
3.5
 41
12.3333333333
  0
LINE
  5
236
100
AcDbEntity
  8
0
100
AcDbLine
 62
2
  6
CONTINUOUS
 10
189.9491402053
 20
118.4431698958
 11
250.8590133833
 21
123.2368808774
  0
LINE
  5
237
100
AcDbEntity
  8
0
100
AcDbLine
 62
2
  6
CONTINUOUS
 10
161.9484534273
 20
116.1214154939
 11
196.0861985336
 21
116.1214154939
  0
LINE
  5
238
100
AcDbEntity
  8
0
100
AcDbLine
 62
2
  6
CONTINUOUS
 10
225.8858434249
 20
116.1214154939
 11
251.1385807796
 21
116.1214154939
  0
ARC
  5
239
100
AcDbEntity
  8
0
100
AcDbCircle
 62
2
  6
CONTINUOUS
 10
160.4484534273
 20
116.1214154939
 40
89.1901273522
100
AcDbArc
 50
4.5
 51
13.5931463696
  0
ARC
  5
23A
100
AcDbEntity
  8
0
100
AcDbCircle
 62
2
  6
CONTINUOUS
 10
160.4484534273
 20
116.1214154939
 40
89.1901273522
100
AcDbArc
 50
356.1455971946
 51
0.0
  0
ARC
  5
23B
100
AcDbEntity
  8
0
100
AcDbCircle
 62
2
  6
CONTINUOUS
 10
160.4484534273
 20
116.1214154939
 40
89.1901273522
100
AcDbArc
 50
360.0
 51
4.5
  0
SOLID
  5
23C
100
AcDbEntity
  8
0
100
AcDbTrace
 62
2
  6
CONTINUOUS
 10
248.5852320597
 20
126.5594671361
 11
249.3636373827
 21
123.1191922338
 12
249.4560198917
 22
126.6452199878
 13
249.4560198917
 23
126.6452199878
  0
SOLID
  5
23D
100
AcDbEntity
  8
0
100
AcDbTrace
 62
2
  6
CONTINUOUS
 10
250.0073274533
 20
112.6135055548
 11
249.6385807796
 21
116.1214154939
 12
249.1324958783
 22
112.6306728333
 13
249.1324958783
 23
112.6306728333
  0
ENDBLK
  5
23E
100
AcDbEntity
  8
0
  6
BYBLOCK
 62
0
100
AcDbBlockEnd
  0
BLOCK
  5
23F
100
AcDbEntity
  8
0
100
AcDbBlockBegin
 62
2
  6
CONTINUOUS
  2
*D2
 70
65
 10
0.0
 20
0.0
  3
*D2
  1

  0
MTEXT
  5
240
100
AcDbEntity
  8
0
100
AcDbMText
 62
5
  6
CONTINUOUS
  7
STANDARD
 71
2
 72
1
 10
137.6263747401
 20
184.129758666
 30
0.0
 11
1.0
 21
0.0
 31
0.0
 44
0.9
  1
160
 40
3.5
 41
7.5
  0
LINE
  5
241
100
AcDbEntity
  8
0
100
AcDbLine
 62
2
  6
CONTINUOUS
 10
57.6263747401
 20
167.3025319685
 11
57.6263747401
 21
181.254758666
  0
LINE
  5
242
100
AcDbEntity
  8
0
100
AcDbLine
 62
2
  6
CONTINUOUS
 10
217.6263747401
 20
141.8969902027
 11
217.6263747401
 21
181.254758666
  0
LINE
  5
243
100
AcDbEntity
  8
0
100
AcDbLine
 62
2
  6
CONTINUOUS
 10
57.6263747401
 20
179.754758666
 11
137.6263747401
 21
179.754758666
  0
LINE
  5
244
100
AcDbEntity
  8
0
100
AcDbLine
 62
2
  6
CONTINUOUS
 10
217.6263747401
 20
179.754758666
 11
137.6263747401
 21
179.754758666
  0
INSERT
  5
245
100
AcDbEntity
  8
0
100
AcDbBlockReference
 62
2
  6
CONTINUOUS
  2
_FILLED
 10
57.6263747401
 20
179.754758666
 41
3.5
 42
3.5
 43
3.5
 50
180.0
  0
INSERT
  5
246
100
AcDbEntity
  8
0
100
AcDbBlockReference
 62
2
  6
CONTINUOUS
  2
_FILLED
 10
217.6263747401
 20
179.754758666
 41
3.5
 42
3.5
 43
3.5
  0
ENDBLK
  5
247
100
AcDbEntity
  8
0
  6
BYBLOCK
 62
0
100
AcDbBlockEnd
  0
BLOCK
  5
248
100
AcDbEntity
  8
0
100
AcDbBlockBegin
 62
2
  6
CONTINUOUS
  2
*D3
 70
65
 10
0.0
 20
0.0
  3
*D3
  1

  0
MTEXT
  5
249
100
AcDbEntity
  8
0
100
AcDbMText
 62
5
  6
CONTINUOUS
  7
TEXTSTYLE_2
 71
2
 72
1
 10
234.6145208726
 20
137.0964154939
 30
0.0
 11
0.0
 21
1.0
 31
0.0
 44
0.9
  1
{\Fgdt;n}\Ftxt;18
 40
3.5
 41
9.4166666667
  0
LINE
  5
24A
100
AcDbEntity
  8
0
100
AcDbLine
 62
2
  6
CONTINUOUS
 10
198.8900788416
 20
128.0964154939
 11
240.4895208726
 21
128.0964154939
  0
LINE
  5
24B
100
AcDbEntity
  8
0
100
AcDbLine
 62
2
  6
CONTINUOUS
 10
198.7467188416
 20
146.0964154939
 11
240.4895208726
 21
146.0964154939
  0
LINE
  5
24C
100
AcDbEntity
  8
0
100
AcDbLine
 62
2
  6
CONTINUOUS
 10
238.9895208726
 20
128.0964154939
 11
238.9895208726
 21
137.0964154939
  0
LINE
  5
24D
100
AcDbEntity
  8
0
100
AcDbLine
 62
2
  6
CONTINUOUS
 10
238.9895208726
 20
146.0964154939
 11
238.9895208726
 21
137.0964154939
  0
INSERT
  5
24E
100
AcDbEntity
  8
0
100
AcDbBlockReference
 62
2
  6
CONTINUOUS
  2
_FILLED
 10
238.9895208726
 20
128.0964154939
 41
3.5
 42
3.5
 43
3.5
 50
270.0
  0
INSERT
  5
24F
100
AcDbEntity
  8
0
100
AcDbBlockReference
 62
2
  6
CONTINUOUS
  2
_FILLED
 10
238.9895208726
 20
146.0964154939
 41
3.5
 42
3.5
 43
3.5
 50
90.0
  0
ENDBLK
  5
250
100
AcDbEntity
  8
0
  6
BYBLOCK
 62
0
100
AcDbBlockEnd
  0
BLOCK
  5
251
100
AcDbEntity
  8
0
100
AcDbBlockBegin
 62
2
  6
CONTINUOUS
  2
*D4
 70
65
 10
0.0
 20
0.0
  3
*D4
  1

  0
MTEXT
  5
252
100
AcDbEntity
  8
0
100
AcDbMText
 62
5
  6
CONTINUOUS
  7
STANDARD
 71
2
 72
1
 10
148.6263747401
 20
177.2992262495
 30
0.0
 11
1.0
 21
0.0
 31
0.0
 44
0.9
  1
138
 40
3.5
 41
7.25
  0
LINE
  5
253
100
AcDbEntity
  8
0
100
AcDbLine
 62
2
  6
CONTINUOUS
 10
217.6263747401
 20
122.1214154939
 11
217.6263747401
 21
174.4242262495
  0
LINE
  5
254
100
AcDbEntity
  8
0
100
AcDbLine
 62
2
  6
CONTINUOUS
 10
79.6263747401
 20
167.295667485
 11
79.6263747401
 21
174.4242262495
  0
LINE
  5
255
100
AcDbEntity
  8
0
100
AcDbLine
 62
2
  6
CONTINUOUS
 10
217.6263747401
 20
172.9242262495
 11
148.6263747401
 21
172.9242262495
  0
LINE
  5
256
100
AcDbEntity
  8
0
100
AcDbLine
 62
2
  6
CONTINUOUS
 10
79.6263747401
 20
172.9242262495
 11
148.6263747401
 21
172.9242262495
  0
INSERT
  5
257
100
AcDbEntity
  8
0
100
AcDbBlockReference
 62
2
  6
CONTINUOUS
  2
_FILLED
 10
217.6263747401
 20
172.9242262495
 41
3.5
 42
3.5
 43
3.5
  0
INSERT
  5
258
100
AcDbEntity
  8
0
100
AcDbBlockReference
 62
2
  6
CONTINUOUS
  2
_FILLED
 10
79.6263747401
 20
172.9242262495
 41
3.5
 42
3.5
 43
3.5
 50
180.0
  0
ENDBLK
  5
259
100
AcDbEntity
  8
0
  6
BYBLOCK
 62
0
100
AcDbBlockEnd
  0
BLOCK
  5
25A
100
AcDbEntity
  8
0
100
AcDbBlockBegin
 62
2
  6
CONTINUOUS
  2
*D5
 70
65
 10
0.0
 20
0.0
  3
*D5
  1

  0
MTEXT
  5
25B
100
AcDbEntity
  8
0
100
AcDbMText
 62
5
  6
CONTINUOUS
  7
STANDARD
 71
2
 72
1
 10
118.6263747401
 20
192.2909303534
 30
0.0
 11
1.0
 21
0.0
 31
0.0
 44
0.9
  1
198
 40
3.5
 41
7.5
  0
LINE
  5
25C
100
AcDbEntity
  8
0
100
AcDbLine
 62
2
  6
CONTINUOUS
 10
217.6263747401
 20
122.1214154939
 11
217.6263747401
 21
189.4159303534
  0
LINE
  5
25D
100
AcDbEntity
  8
0
100
AcDbLine
 62
2
  6
CONTINUOUS
 10
19.6263747401
 20
118.4102997246
 11
19.6263747401
 21
189.4159303534
  0
LINE
  5
25E
100
AcDbEntity
  8
0
100
AcDbLine
 62
2
  6
CONTINUOUS
 10
217.6263747401
 20
187.9159303534
 11
118.6263747401
 21
187.9159303534
  0
LINE
  5
25F
100
AcDbEntity
  8
0
100
AcDbLine
 62
2
  6
CONTINUOUS
 10
19.6263747401
 20
187.9159303534
 11
118.6263747401
 21
187.9159303534
  0
INSERT
  5
260
100
AcDbEntity
  8
0
100
AcDbBlockReference
 62
2
  6
CONTINUOUS
  2
_FILLED
 10
217.6263747401
 20
187.9159303534
 41
3.5
 42
3.5
 43
3.5
  0
INSERT
  5
261
100
AcDbEntity
  8
0
100
AcDbBlockReference
 62
2
  6
CONTINUOUS
  2
_FILLED
 10
19.6263747401
 20
187.9159303534
 41
3.5
 42
3.5
 43
3.5
 50
180.0
  0
ENDBLK
  5
262
100
AcDbEntity
  8
0
  6
BYBLOCK
 62
0
100
AcDbBlockEnd
  0
BLOCK
  5
263
100
AcDbEntity
  8
0
100
AcDbBlockBegin
 62
2
  6
CONTINUOUS
  2
*D6
 70
65
 10
0.0
 20
0.0
  3
*D6
  1

  0
MTEXT
  5
264
100
AcDbEntity
  8
0
100
AcDbMText
 62
5
  6
CONTINUOUS
  7
TEXTSTYLE_2
 71
2
 72
1
 10
276.4081143475
 20
137.0964154939
 30
0.0
 11
0.0
 21
1.0
 31
0.0
 44
0.9
  1
{\Fgdt;n}\Ftxt;42
 40
3.5
 41
10.1666666667
  0
LINE
  5
265
100
AcDbEntity
  8
0
100
AcDbLine
 62
2
  6
CONTINUOUS
 10
161.9484534273
 20
158.0714154939
 11
204.552438832
 21
158.0714154939
  0
LINE
  5
266
100
AcDbEntity
  8
0
100
AcDbLine
 62
2
  6
CONTINUOUS
 10
233.3525350324
 20
158.0714154939
 11
282.2831143475
 21
158.0714154939
  0
LINE
  5
267
100
AcDbEntity
  8
0
100
AcDbLine
 62
2
  6
CONTINUOUS
 10
161.9484534273
 20
116.1214154939
 11
213.3767107318
 21
116.1214154939
  0
LINE
  5
268
100
AcDbEntity
  8
0
100
AcDbLine
 62
2
  6
CONTINUOUS
 10
224.9161432161
 20
116.1214154939
 11
282.2831143475
 21
116.1214154939
  0
LINE
  5
269
100
AcDbEntity
  8
0
100
AcDbLine
 62
2
  6
CONTINUOUS
 10
280.7831143475
 20
158.0714154939
 11
280.7831143475
 21
137.0964154939
  0
LINE
  5
26A
100
AcDbEntity
  8
0
100
AcDbLine
 62
2
  6
CONTINUOUS
 10
280.7831143475
 20
116.1214154939
 11
280.7831143475
 21
137.0964154939
  0
INSERT
  5
26B
100
AcDbEntity
  8
0
100
AcDbBlockReference
 62
2
  6
CONTINUOUS
  2
_FILLED
 10
280.7831143475
 20
158.0714154939
 41
3.5
 42
3.5
 43
3.5
 50
90.0
  0
INSERT
  5
26C
100
AcDbEntity
  8
0
100
AcDbBlockReference
 62
2
  6
CONTINUOUS
  2
_FILLED
 10
280.7831143475
 20
116.1214154939
 41
3.5
 42
3.5
 43
3.5
 50
270.0
  0
ENDBLK
  5
26D
100
AcDbEntity
  8
0
  6
BYBLOCK
 62
0
100
AcDbBlockEnd
  0
ENDSEC
  0
SECTION
  2
ENTITIES
  0
DIMENSION
  5
26E
100
AcDbEntity
  8
0
100
AcDbDimension
 62
2
  6
CONTINUOUS
  2
*D0
 10
264.6411783017
 20
120.6214154939
 11
263.099022874
 21
134.9359235569
 70
160
 71
2
 42
32.95
  1
%%c<>
  3
DIMSTYLE_1
100
AcDbAlignedDimension
 13
221.3315056818
 23
153.5714154939
 14
219.1263747401
 24
120.6214154939
 50
270.0
100
AcDbRotatedDimension
  0
DIMENSION
  5
26F
100
AcDbEntity
  8
0
100
AcDbDimension
 62
2
  6
CONTINUOUS
  2
*D1
 10
251.1385807796
 20
116.1214154939
 11
250.9083881023
 21
140.4325423423
 70
162
 71
2
 42
0.0785398163
  3
DIMSTYLE_2
100
AcDb2LineAngularDimension
 13
250.8590133833
 23
123.2368808774
 14
189.9491402053
 24
118.4431698958
 15
161.9484534273
 25
116.1214154939
 16
249.5698184237
 26
119.6230034613
  0
DIMENSION
  5
270
100
AcDbEntity
  8
0
100
AcDbDimension
 62
2
  6
CONTINUOUS
  2
*D2
 10
217.6263747401
 20
179.754758666
 11
133.8763747401
 21
182.379758666
 70
160
 71
2
 42
160.0
  3
DIMSTYLE_3
100
AcDbAlignedDimension
 13
57.6263747401
 23
167.3025319685
 14
217.6263747401
 24
141.8969902027
100
AcDbRotatedDimension
  0
DIMENSION
  5
271
100
AcDbEntity
  8
0
100
AcDbDimension
 62
2
  6
CONTINUOUS
  2
*D3
 10
238.9895208726
 20
146.0964154939
 11
237.4193608439
 21
134.9917983483
 70
160
 71
2
 42
18.0
  1
%%c<>
  3
DIMSTYLE_4
100
AcDbAlignedDimension
 13
198.8900788416
 23
128.0964154939
 14
198.7467188416
 24
146.0964154939
 50
90.0
100
AcDbRotatedDimension
  0
DIMENSION
  5
272
100
AcDbEntity
  8
0
100
AcDbDimension
 62
2
  6
CONTINUOUS
  2
*D4
 10
79.6263747401
 20
172.9242262495
 11
145.0013747401
 21
175.5492262495
 70
160
 71
2
 42
138.0
  3
DIMSTYLE_3
100
AcDbAlignedDimension
 13
217.6263747401
 23
122.1214154939
 14
79.6263747401
 24
167.295667485
 50
180.0
100
AcDbRotatedDimension
  0
DIMENSION
  5
273
100
AcDbEntity
  8
0
100
AcDbDimension
 62
2
  6
CONTINUOUS
  2
*D5
 10
19.6263747401
 20
187.9159303534
 11
114.8763747401
 21
190.5409303534
 70
160
 71
2
 42
198.0
  3
DIMSTYLE_3
100
AcDbAlignedDimension
 13
217.6263747401
 23
122.1214154939
 14
19.6263747401
 24
118.4102997246
 50
180.0
100
AcDbRotatedDimension
  0
DIMENSION
  5
274
100
AcDbEntity
  8
0
100
AcDbDimension
 62
2
  6
CONTINUOUS
  2
*D6
 10
280.7831143475
 20
116.1214154939
 11
279.2969681218
 21
134.8241739739
 70
160
 71
2
 42
41.95
  1
%%c<>
  3
DIMSTYLE_1
100
AcDbAlignedDimension
 13
161.9484534273
 23
158.0714154939
 14
161.9484534273
 24
116.1214154939
 50
270.0
100
AcDbRotatedDimension
  0
MTEXT
  5
275
100
AcDbEntity
  8
0
100
AcDbMText
 62
5
  6
CONTINUOUS
  7
STANDARD
 71
1
 72
1
 10
19.0352455821
 20
78.3563214657
 30
0.0
 11
1.0
 21
0.0
 31
0.0
 44
0.9
  3
Für diese Unterlage behalten wir das Ur-\Pheberrecht. Sie darf nur für den von uns \Pbestimmten Zweck benutzt und ohne unsere \PZustimmung weder vervielfältigt noch\PDritten zugänglich gemacht werden\P \PWe own the copyright of this document. It \Pde
  1
termined and may neither be copied or \Pmade accessible to outsiders without our\Ppermission.\P \PCe plan reste notre propriété. Il ne peut\Pêtre utilisé, copié ou reproduit sans notre\Paccord.\P 
 40
3.5
 41
104.8333333333
  0
LINE
  5
276
100
AcDbEntity
  8
0
100
AcDbLine
 62
7
  6
CONTINUOUS
 10
0.0
 20
0.0
 11
0.0
 21
210.0
  0
LINE
  5
277
100
AcDbEntity
  8
0
100
AcDbLine
 62
7
  6
CONTINUOUS
 10
0.0
 20
0.0
 11
297.0
 21
0.0
  0
LINE
  5
278
100
AcDbEntity
  8
0
100
AcDbLine
 62
7
  6
CONTINUOUS
 10
0.0
 20
210.0
 11
297.0
 21
210.0
  0
LINE
  5
279
100
AcDbEntity
  8
0
100
AcDbLine
 62
7
  6
CONTINUOUS
 10
297.0
 20
0.0
 11
297.0
 21
210.0
  0
LINE
  5
27A
100
AcDbEntity
  8
0
100
AcDbLine
 62
7
  6
CONTINUOUS
 10
19.6263747401
 20
115.404077501
 11
19.6263747401
 21
152.0576601326
  0
LINE
  5
27B
100
AcDbEntity
  8
KURVEN
100
AcDbLine
 62
4
  6
CONTINUOUS
 10
19.6263747401
 20
114.5757373183
 11
19.6263747401
 21
156.3079894808
  0
LINE
  5
27C
100
AcDbEntity
  8
ACHSEN
100
AcDbLine
 62
7
  6
CONTINUOUS
 10
19.6263747401
 20
152.0576601326
 11
19.6263747401
 21
155.8448948079
  0
LINE
  5
27D
100
AcDbEntity
  8
ACHSEN
100
AcDbLine
 62
7
  6
CONTINUOUS
 10
21.1263747401
 20
156.5934051074
 11
21.1263747401
 21
152.8076601326
  0
LINE
  5
27E
100
AcDbEntity
  8
0
100
AcDbLine
 62
7
  6
CONTINUOUS
 10
21.1263747401
 20
152.8076601326
 11
21.1263747401
 21
114.5380520972
  0
LINE
  5
27F
100
AcDbEntity
  8
ACHSEN
100
AcDbLine
 62
7
  6
CENTER
 10
42.1263747401
 20
114.1629299868
 11
42.1263747401
 21
161.2847860585
  0
LINE
  5
280
100
AcDbEntity
  8
0
100
AcDbLine
 62
7
  6
CONTINUOUS
 10
57.6263765761
 20
168.2964135865
 11
57.926376666
 21
168.5964136404
  0
LINE
  5
281
100
AcDbEntity
  8
0
100
AcDbLine
 62
7
  6
CONTINUOUS
 10
55.4264378292
 20
157.7165158635
 11
55.4264378292
 21
153.5539462425
  0
LINE
  5
282
100
AcDbEntity
  8
0
100
AcDbLine
 62
7
  6
CONTINUOUS
 10
55.4264378292
 20
142.3212866245
 11
55.4264378292
 21
115.4140136147
  0
LINE
  5
283
100
AcDbEntity
  8
0
100
AcDbLine
 62
9
  6
CONTINUOUS
 10
55.6313978512
 20
157.5216020636
 11
55.6313978512
 21
151.7813576987
  0
LINE
  5
284
100
AcDbEntity
  8
0
100
AcDbLine
 62
9
  6
CONTINUOUS
 10
55.6313978512
 20
145.2823586806
 11
55.6313978512
 21
114.2255301024
  0
LINE
  5
285
100
AcDbEntity
  8
0
100
AcDbLine
 62
9
  6
CONTINUOUS
 10
56.3192679589
 20
114.3535222751
 11
56.3192679589
 21
114.992858843
  0
LINE
  5
286
100
AcDbEntity
  8
0
100
AcDbLine
 62
9
  6
CONTINUOUS
 10
56.3192679589
 20
143.5109552546
 11
56.3192679589
 21
152.7854323841
  0
LINE
  5
287
100
AcDbEntity
  8
0
100
AcDbLine
 62
9
  6
CONTINUOUS
 10
57.2313978512
 20
157.5617996328
 11
57.2313978512
 21
153.4408937808
  0
LINE
  5
288
100
AcDbEntity
  8
0
100
AcDbLine
 62
9
  6
CONTINUOUS
 10
57.2313978512
 20
142.279365947
 11
57.2313978512
 21
115.5689867538
  0
LINE
  5
289
100
AcDbEntity
  8
0
100
AcDbLine
 62
7
  6
CONTINUOUS
 10
57.6263747401
 20
105.8966911634
 11
57.6263747401
 21
168.2961398243
  0
LINE
  5
28A
100
AcDbEntity
  8
0
100
AcDbLine
 62
7
  6
CONTINUOUS
 10
57.9263748137
 20
105.5964154939
 11
57.9263748137
 21
168.5964154939
  0
LINE
  5
28B
100
AcDbEntity
  8
0
100
AcDbLine
 62
7
  6
CONTINUOUS
 10
57.4263098883
 20
153.8859900796
 11
57.4263747401
 21
159.6299003549
  0
LINE
  5
28C
100
AcDbEntity
  8
0
100
AcDbLine
 62
7
  6
CONTINUOUS
 10
57.4263098883
 20
115.6862474025
 11
57.4262787738
 21
141.721640708
  0
LINE
  5
28D
100
AcDbEntity
  8
0
100
AcDbLine
 62
9
  6
CONTINUOUS
 10
21.1263747401
 20
152.8076601326
 11
19.6263747401
 21
152.0576601326
  0
LINE
  5
28E
100
AcDbEntity
  8
0
100
AcDbLine
 62
7
  6
CONTINUOUS
 10
21.1263747401
 20
114.5380520972
 11
19.6263747401
 21
115.404077501
  0
LINE
  5
28F
100
AcDbEntity
  8
0
100
AcDbLine
 62
7
  6
CONTINUOUS
 10
57.6263765761
 20
105.8964174012
 11
57.926376666
 21
105.5964173473
  0
LINE
  5
290
100
AcDbEntity
  8
0
100
AcDbLine
 62
9
  6
CONTINUOUS
 10
67.7320371728
 20
167.0103703404
 11
67.7320371728
 21
146.9658281129
  0
LINE
  5
291
100
AcDbEntity
  8
0
100
AcDbLine
 62
9
  6
CONTINUOUS
 10
67.7320371728
 20
127.2270028749
 11
67.7320371728
 21
107.1824606474
  0
LINE
  5
292
100
AcDbEntity
  8
0
100
AcDbLine
 62
9
  6
CONTINUOUS
 10
21.1263747401
 20
116.1602997246
 11
19.6263747401
 21
116.9102997246
  0
LINE
  5
293
100
AcDbEntity
  8
0
100
AcDbLine
 62
9
  6
CONTINUOUS
 10
68.1650498747
 20
167.1770082542
 11
68.1650498747
 21
146.4456368084
  0
LINE
  5
294
100
AcDbEntity
  8
0
100
AcDbLine
 62
9
  6
CONTINUOUS
 10
68.1650498747
 20
127.7471941794
 11
68.1650498747
 21
107.0158227336
  0
LINE
  5
295
100
AcDbEntity
  8
ACHSEN
100
AcDbLine
 62
7
  6
CENTER
 10
69.6263747401
 20
161.0284637856
 11
69.6263747401
 21
171.5964154939
  0
LINE
  5
296
100
AcDbEntity
  8
0
100
AcDbLine
 62
9
  6
CONTINUOUS
 10
71.0876996055
 20
167.1770082542
 11
71.0876996055
 21
146.4456368084
  0
LINE
  5
297
100
AcDbEntity
  8
0
100
AcDbLine
 62
9
  6
CONTINUOUS
 10
71.0876996055
 20
127.7471941794
 11
71.0876996055
 21
107.0158227336
  0
LINE
  5
298
100
AcDbEntity
  8
0
100
AcDbLine
 62
9
  6
CONTINUOUS
 10
71.5207123074
 20
167.0103703404
 11
71.5207123074
 21
146.9658281129
  0
LINE
  5
299
100
AcDbEntity
  8
0
100
AcDbLine
 62
9
  6
CONTINUOUS
 10
71.5207123074
 20
127.2270028749
 11
71.5207123074
 21
107.1824606474
  0
LINE
  5
29A
100
AcDbEntity
  8
0
100
AcDbLine
 62
7
  6
CONTINUOUS
 10
79.6263747401
 20
105.5964154939
 11
79.6263747401
 21
168.5964154939
  0
LINE
  5
29B
100
AcDbEntity
  8
RUNDUNGEN
100
AcDbLine
 62
9
  6
CONTINUOUS
 10
85.1263747401
 20
158.0714154939
 11
85.1263747401
 21
116.1214154939
  0
LINE
  5
29C
100
AcDbEntity
  8
0
100
AcDbLine
 62
7
  6
CONTINUOUS
 10
56.3192679589
 20
114.3535222751
 11
55.6367775627
 21
113.6710318788
  0
LINE
  5
29D
100
AcDbEntity
  8
0
100
AcDbLine
 62
7
  6
CONTINUOUS
 10
79.6263747401
 20
105.5964154939
 11
57.9263748125
 21
105.5964154939
  0
LINE
  5
29E
100
AcDbEntity
  8
0
100
AcDbLine
 62
7
  6
CONTINUOUS
 10
71.0876996055
 20
107.0158227336
 11
68.1650498747
 21
107.0158227336
  0
LINE
  5
29F
100
AcDbEntity
  8
RUNDUNGEN
100
AcDbLine
 62
7
  6
CONTINUOUS
 10
216.7048338359
 20
120.5488886518
 11
160.4484534273
 21
116.1214154939
  0
LINE
  5
2A0
100
AcDbEntity
  8
0
100
AcDbLine
 62
7
  6
CONTINUOUS
 10
160.4484534273
 20
116.1214154939
 11
216.7048338359
 21
120.5488886518
  0
LINE
  5
2A1
100
AcDbEntity
  8
0
100
AcDbLine
 62
7
  6
CONTINUOUS
 10
160.4484534273
 20
116.1214154939
 11
156.8763747401
 21
116.1214154939
  0
LINE
  5
2A2
100
AcDbEntity
  8
0
100
AcDbLine
 62
7
  6
CONTINUOUS
 10
148.3763747401
 20
116.1214154939
 11
85.1263747401
 21
116.1214154939
  0
LINE
  5
2A3
100
AcDbEntity
  8
0
100
AcDbLine
 62
7
  6
CONTINUOUS
 10
149.1103493363
 20
116.4214154939
 11
150.1263747401
 21
116.4214154939
  0
LINE
  5
2A4
100
AcDbEntity
  8
0
100
AcDbLine
 62
7
  6
CONTINUOUS
 10
155.1263747401
 20
116.4214154939
 11
156.1424001439
 21
116.4214154939
  0
LINE
  5
2A5
100
AcDbEntity
  8
0
100
AcDbLine
 62
9
  6
CONTINUOUS
 10
55.4264378292
 20
115.4140136147
 11
21.1263747401
 21
116.1602997246
  0
LINE
  5
2A6
100
AcDbEntity
  8
0
100
AcDbLine
 62
7
  6
CONTINUOUS
 10
55.879403491
 20
114.2196866186
 11
55.6313978512
 21
114.2255301024
  0
LINE
  5
2A7
100
AcDbEntity
  8
0
100
AcDbLine
 62
7
  6
CONTINUOUS
 10
21.1263747401
 20
114.5380520972
 11
55.6367775629
 21
113.6710306581
  0
LINE
  5
2A8
100
AcDbEntity
  8
0
100
AcDbLine
 62
7
  6
CONTINUOUS
 10
156.5424001439
 20
157.8785951709
 11
156.8763747401
 21
158.0714154939
  0
LINE
  5
2A9
100
AcDbEntity
  8
RUNDUNGEN
100
AcDbLine
 62
7
  6
CONTINUOUS
 10
156.5424001439
 20
157.8785951709
 11
156.8763747401
 21
158.0714154939
  0
LINE
  5
2AA
100
AcDbEntity
  8
DEFAULT_2
100
AcDbLine
 62
8
  6
HIDDEN
 10
167.1761396237
 20
127.7464154939
 11
177.2411654589
 21
127.7464154939
  0
LINE
  5
2AB
100
AcDbEntity
  8
0
100
AcDbLine
 62
7
  6
CONTINUOUS
 10
71.0876996055
 20
127.7471941794
 11
68.1650498747
 21
127.7471941794
  0
LINE
  5
2AC
100
AcDbEntity
  8
BOHRUNGEN
100
AcDbLine
 62
8
  6
HIDDEN
 10
178.6263747401
 20
128.0964154939
 11
215.5263747401
 21
128.0964154939
  0
LINE
  5
2AD
100
AcDbEntity
  8
S_ACHSEN
100
AcDbLine
 62
7
  6
CENTER
 10
16.6263747401
 20
137.0964154939
 11
221.6263747401
 21
137.0964154939
  0
LINE
  5
2AE
100
AcDbEntity
  8
0
100
AcDbLine
 62
7
  6
CONTINUOUS
 10
156.5424001439
 20
116.3142358169
 11
156.8763747401
 21
116.1214154939
  0
LINE
  5
2AF
100
AcDbEntity
  8
0
100
AcDbLine
 62
7
  6
CONTINUOUS
 10
55.6313978512
 20
145.2823586806
 11
55.879403491
 21
145.2833729365
  0
LINE
  5
2B0
100
AcDbEntity
  8
0
100
AcDbLine
 62
9
  6
CONTINUOUS
 10
19.6263747401
 20
142.3212866245
 11
55.4264378292
 21
142.3212866245
  0
LINE
  5
2B1
100
AcDbEntity
  8
BOHRUNGEN
100
AcDbLine
 62
8
  6
HIDDEN
 10
178.6263747401
 20
146.0964154939
 11
215.5263747401
 21
146.0964154939
  0
LINE
  5
2B2
100
AcDbEntity
  8
0
100
AcDbLine
 62
7
  6
CONTINUOUS
 10
71.0876996055
 20
146.4456368084
 11
68.1650498747
 21
146.4456368084
  0
LINE
  5
2B3
100
AcDbEntity
  8
RUNDUNGEN
100
AcDbLine
 62
8
  6
HIDDEN
 10
177.2411654589
 20
146.4464154939
 11
167.1761396237
 21
146.4464154939
  0
LINE
  5
2B4
100
AcDbEntity
  8
DEFAULT_2
100
AcDbLine
 62
8
  6
HIDDEN
 10
167.1761396237
 20
146.4464154939
 11
177.2411654589
 21
146.4464154939
  0
LINE
  5
2B5
100
AcDbEntity
  8
0
100
AcDbLine
 62
9
  6
CONTINUOUS
 10
21.1263747401
 20
152.8076601326
 11
55.4264378292
 21
153.5539462425
  0
LINE
  5
2B6
100
AcDbEntity
  8
0
100
AcDbLine
 62
7
  6
CONTINUOUS
 10
55.879403491
 20
151.7861869266
 11
55.6313978512
 21
151.7813576987
  0
LINE
  5
2B7
100
AcDbEntity
  8
0
100
AcDbLine
 62
7
  6
CONTINUOUS
 10
148.3763747401
 20
158.0714154939
 11
148.3763747401
 21
116.1214154939
  0
LINE
  5
2B8
100
AcDbEntity
  8
RUNDUNGEN
100
AcDbLine
 62
9
  6
CONTINUOUS
 10
148.7103493363
 20
116.3142358169
 11
148.7103493363
 21
157.8785951709
  0
LINE
  5
2B9
100
AcDbEntity
  8
RUNDUNGEN
100
AcDbLine
 62
9
  6
CONTINUOUS
 10
149.1103493363
 20
116.4214154939
 11
149.1103493363
 21
157.7714154939
  0
LINE
  5
2BA
100
AcDbEntity
  8
0
100
AcDbLine
 62
7
  6
CONTINUOUS
 10
148.3763747401
 20
116.1214154939
 11
148.7103493363
 21
116.3142358169
  0
LINE
  5
2BB
100
AcDbEntity
  8
RUNDUNGEN
100
AcDbLine
 62
7
  6
CONTINUOUS
 10
148.3763747401
 20
116.1214154939
 11
148.7103493363
 21
116.3142358169
  0
LINE
  5
2BC
100
AcDbEntity
  8
0
100
AcDbLine
 62
7
  6
CONTINUOUS
 10
55.6313978512
 20
157.5216020636
 11
57.2313978512
 21
157.5617996328
  0
LINE
  5
2BD
100
AcDbEntity
  8
0
100
AcDbLine
 62
7
  6
CONTINUOUS
 10
27.8899794942
 20
157.024704184
 11
37.6763747401
 21
157.2705724961
  0
LINE
  5
2BE
100
AcDbEntity
  8
0
100
AcDbLine
 62
7
  6
CONTINUOUS
 10
46.8057360734
 20
157.4999338293
 11
55.4264378292
 21
157.7165158635
  0
LINE
  5
2BF
100
AcDbEntity
  8
0
100
AcDbLine
 62
7
  6
CONTINUOUS
 10
149.1103493363
 20
157.7714154939
 11
150.1263747401
 21
157.7714154939
  0
LINE
  5
2C0
100
AcDbEntity
  8
BEZUGSACHSEN
100
AcDbLine
 62
7
  6
CONTINUOUS
 10
149.1103493363
 20
157.7714154939
 11
150.1263747401
 21
157.7714154939
  0
LINE
  5
2C1
100
AcDbEntity
  8
0
100
AcDbLine
 62
7
  6
CONTINUOUS
 10
155.1263747401
 20
157.7714154939
 11
156.1424001439
 21
157.7714154939
  0
LINE
  5
2C2
100
AcDbEntity
  8
BEZUGSACHSEN
100
AcDbLine
 62
7
  6
CONTINUOUS
 10
155.1263747401
 20
157.7714154939
 11
156.1424001439
 21
157.7714154939
  0
LINE
  5
2C3
100
AcDbEntity
  8
0
100
AcDbLine
 62
7
  6
CONTINUOUS
 10
160.4484534273
 20
158.0714154939
 11
156.8763747401
 21
158.0714154939
  0
LINE
  5
2C4
100
AcDbEntity
  8
0
100
AcDbLine
 62
7
  6
CONTINUOUS
 10
148.3763747401
 20
158.0714154939
 11
85.1263747401
 21
158.0714154939
  0
LINE
  5
2C5
100
AcDbEntity
  8
RUNDUNGEN
100
AcDbLine
 62
7
  6
CONTINUOUS
 10
216.7048338359
 20
153.643942336
 11
160.4484534273
 21
158.0714154939
  0
LINE
  5
2C6
100
AcDbEntity
  8
0
100
AcDbLine
 62
7
  6
CONTINUOUS
 10
160.4484534273
 20
158.0714154939
 11
216.7048338359
 21
153.643942336
  0
LINE
  5
2C7
100
AcDbEntity
  8
BEZUGSACHSEN
100
AcDbLine
 62
7
  6
CENTER
 10
152.6263747401
 20
160.7714154939
 11
152.6263747401
 21
147.0714154939
  0
LINE
  5
2C8
100
AcDbEntity
  8
BEZUGSACHSEN
100
AcDbLine
 62
7
  6
CENTER
 10
152.6263747401
 20
113.4214154939
 11
152.6263747401
 21
127.1214154939
  0
LINE
  5
2C9
100
AcDbEntity
  8
RUNDUNGEN
100
AcDbLine
 62
9
  6
CONTINUOUS
 10
156.1424001439
 20
116.4214154939
 11
156.1424001439
 21
157.7714154939
  0
LINE
  5
2CA
100
AcDbEntity
  8
RUNDUNGEN
100
AcDbLine
 62
9
  6
CONTINUOUS
 10
156.5424001439
 20
116.3142358169
 11
156.5424001439
 21
157.8785951709
  0
LINE
  5
2CB
100
AcDbEntity
  8
0
100
AcDbLine
 62
7
  6
CONTINUOUS
 10
156.8763747401
 20
158.0714154939
 11
156.8763747401
 21
116.1214154939
  0
LINE
  5
2CC
100
AcDbEntity
  8
0
100
AcDbLine
 62
7
  6
CONTINUOUS
 10
71.0876996055
 20
167.1770082542
 11
68.1650498747
 21
167.1770082542
  0
LINE
  5
2CD
100
AcDbEntity
  8
0
100
AcDbLine
 62
7
  6
CONTINUOUS
 10
79.6263747401
 20
168.5964154939
 11
74.8486520173
 21
168.5964154939
  0
LINE
  5
2CE
100
AcDbEntity
  8
0
100
AcDbLine
 62
7
  6
CONTINUOUS
 10
64.404097463
 20
168.5964154939
 11
57.9263748125
 21
168.5964154939
  0
LINE
  5
2CF
100
AcDbEntity
  8
0
100
AcDbLine
 62
7
  6
CONTINUOUS
 10
148.3763747401
 20
158.0714154939
 11
148.7103493363
 21
157.8785951709
  0
LINE
  5
2D0
100
AcDbEntity
  8
RUNDUNGEN
100
AcDbLine
 62
7
  6
CONTINUOUS
 10
148.3763747401
 20
158.0714154939
 11
148.7103493363
 21
157.8785951709
  0
LINE
  5
2D1
100
AcDbEntity
  8
0
100
AcDbLine
 62
7
  6
CONTINUOUS
 10
160.4484534273
 20
116.1214154939
 11
160.4484534273
 21
158.0714154939
  0
LINE
  5
2D2
100
AcDbEntity
  8
RUNDUNGEN
100
AcDbLine
 62
9
  6
CONTINUOUS
 10
167.1761396237
 20
127.7464154939
 11
167.1761396237
 21
146.4464154939
  0
LINE
  5
2D3
100
AcDbEntity
  8
RUNDUNGEN
100
AcDbLine
 62
9
  6
CONTINUOUS
 10
216.7048338359
 20
120.5488886518
 11
216.7048338359
 21
153.643942336
  0
LINE
  5
2D4
100
AcDbEntity
  8
RUNDUNGEN
100
AcDbLine
 62
7
  6
CONTINUOUS
 10
217.6263747401
 20
152.6470250022
 11
217.6263747401
 21
121.5458059855
  0
ARC
  5
2D5
100
AcDbEntity
  8
0
100
AcDbCircle
 62
7
  6
CONTINUOUS
 10
-51.1256364558
 20
117.7869266644
 40
110.4813700658
100
AcDbArc
 50
13.4640903998
 51
14.4111621352
  0
ARC
  5
2D6
100
AcDbEntity
  8
ACHSEN
100
AcDbCircle
 62
7
  6
CONTINUOUS
 10
32.8879463597
 20
121.5280123091
 40
35.8451025475
100
AcDbArc
 50
98.0149288422
 51
101.1172700805
  0
ARC
  5
2D7
100
AcDbEntity
  8
0
100
AcDbCircle
 62
7
  6
CONTINUOUS
 10
57.0263747401
 20
113.6464154939
 40
1.0
100
AcDbArc
 50
53.102347605
 51
135.0
  0
ARC
  5
2D8
100
AcDbEntity
  8
0
100
AcDbCircle
 62
7
  6
CONTINUOUS
 10
57.0263747401
 20
160.5464154939
 40
1.0
100
AcDbArc
 50
293.5781784782
 51
306.897652395
  0
ARC
  5
2D9
100
AcDbEntity
  8
0
100
AcDbCircle
 62
7
  6
CONTINUOUS
 10
57.2263747401
 20
157.7617365437
 40
0.2
100
AcDbArc
 50
271.439166666
 51
360.0
  0
ARC
  5
2DA
100
AcDbEntity
  8
0
100
AcDbCircle
 62
7
  6
CONTINUOUS
 10
55.6263747401
 20
157.7215389746
 40
0.2
100
AcDbArc
 50
181.439166666
 51
271.439166666
  0
ARC
  5
2DB
100
AcDbEntity
  8
ACHSEN
100
AcDbCircle
 62
7
  6
CONTINUOUS
 10
-44.1318422378
 20
285.4923550463
 40
144.4768984249
100
AcDbArc
 50
296.187103939
 51
296.8519184685
  0
ARC
  5
2DC
100
AcDbEntity
  8
FASEN
100
AcDbCircle
 62
7
  6
CONTINUOUS
 10
68.9548805811
 20
203.8409632793
 40
35.7340046497
100
AcDbArc
 50
278.5204424671
 51
279.4937166383
  0
ARC
  5
2DD
100
AcDbEntity
  8
FASEN
100
AcDbCircle
 62
7
  6
CONTINUOUS
 10
69.9150182642
 20
201.418200899
 40
33.2812609715
100
AcDbArc
 50
260.5303369408
 51
261.5206938832
  0
ARC
  5
2DE
100
AcDbEntity
  8
FASEN
100
AcDbCircle
 62
7
  6
CONTINUOUS
 10
69.5863983664
 20
199.6996241741
 40
31.5448080341
100
AcDbArc
 50
270.0726103041
 51
278.5005399283
  0
ARC
  5
2DF
100
AcDbEntity
  8
FASEN
100
AcDbCircle
 62
7
  6
CONTINUOUS
 10
69.6390621531
 20
199.3348653313
 40
31.1800264418
100
AcDbArc
 50
261.4577517884
 51
269.9766858686
  0
ARC
  5
2E0
100
AcDbEntity
  8
0
100
AcDbCircle
 62
7
  6
CONTINUOUS
 10
201.8605475116
 20
88.122217624
 40
159.2595221547
100
AcDbArc
 50
156.0446773748
 51
156.4374589831
  0
ARC
  5
2E1
100
AcDbEntity
  8
BEZUGSACHSEN
100
AcDbCircle
 62
7
  6
CONTINUOUS
 10
152.6064780829
 20
178.5902531991
 40
20.9707864077
100
AcDbArc
 50
270.9416410392
 51
276.9014659663
  0
ARC
  5
2E2
100
AcDbEntity
  8
BEZUGSACHSEN
100
AcDbCircle
 62
7
  6
CONTINUOUS
 10
152.6462636691
 20
95.6027017593
 40
20.9706624068
100
AcDbArc
 50
90.9421873041
 51
96.9014857045
  0
ARC
  5
2E3
100
AcDbEntity
  8
BEZUGSACHSEN
100
AcDbCircle
 62
7
  6
CONTINUOUS
 10
152.6171414277
 20
95.7569846994
 40
20.8162184817
100
AcDbArc
 50
83.076602996
 51
88.8991698712
  0
ARC
  5
2E4
100
AcDbEntity
  8
BEZUGSACHSEN
100
AcDbCircle
 62
7
  6
CONTINUOUS
 10
152.6356061712
 20
178.4358119062
 40
20.8161841234
100
AcDbArc
 50
263.076596729
 51
268.8998033488
  0
ARC
  5
2E5
100
AcDbEntity
  8
BEZUGSACHSEN
100
AcDbCircle
 62
7
  6
CONTINUOUS
 10
152.6284503567
 20
178.1371961611
 40
20.5174860805
100
AcDbArc
 50
268.9037710147
 51
270.9101173485
  0
ARC
  5
2E6
100
AcDbEntity
  8
BEZUGSACHSEN
100
AcDbCircle
 62
7
  6
CONTINUOUS
 10
152.6242955368
 20
96.0556417252
 40
20.5174791824
100
AcDbArc
 50
88.9031213401
 51
90.9106971558
  0
ARC
  5
2E7
100
AcDbEntity
  8
RUNDUNGEN
100
AcDbCircle
 62
7
  6
CONTINUOUS
 10
85.1263747401
 20
163.5714154939
 40
5.5
100
AcDbArc
 50
180.0000000005
 51
270.0
  0
ARC
  5
2E8
100
AcDbEntity
  8
RUNDUNGEN
100
AcDbCircle
 62
7
  6
CONTINUOUS
 10
85.1263747401
 20
110.6214154939
 40
5.5
100
AcDbArc
 50
90.0
 51
179.9999999987
  0
ARC
  5
2E9
100
AcDbEntity
  8
0
100
AcDbCircle
 62
2
  6
CONTINUOUS
 10
152.6276117997
 20
137.1051212654
 40
3.0087060258
100
AcDbArc
 50
255.0542172997
 51
269.9764422667
  0
ARC
  5
2EA
100
AcDbEntity
  8
0
100
AcDbCircle
 62
2
  6
CONTINUOUS
 10
152.6259991169
 20
137.0968898937
 40
2.9994613926
100
AcDbArc
 50
270.0
 51
195.0187558456
  0
CIRCLE
  5
2EB
100
AcDbEntity
  8
BEZUGSACHSEN
100
AcDbCircle
 62
7
  6
CONTINUOUS
 10
152.6263747401
 20
137.0964154939
 40
2.5
  0
ARC
  5
2EC
100
AcDbEntity
  8
RUNDUNGEN
100
AcDbCircle
 62
7
  6
CONTINUOUS
 10
216.6263747401
 20
152.6470250022
 40
1.0
100
AcDbArc
 50
0.0
 51
85.4999999958
  0
ARC
  5
2ED
100
AcDbEntity
  8
RUNDUNGEN
100
AcDbCircle
 62
7
  6
CONTINUOUS
 10
216.6263747401
 20
121.5458059855
 40
1.0
100
AcDbArc
 50
274.5000000033
 51
360.0
  0
ARC
  5
2EE
100
AcDbEntity
  8
RUNDUNGEN
100
AcDbCircle
 62
7
  6
CONTINUOUS
 10
156.1424001439
 20
158.5714154939
 40
0.8
100
AcDbArc
 50
270.0
 51
300.0000000366
  0
ARC
  5
2EF
100
AcDbEntity
  8
RUNDUNGEN
100
AcDbCircle
 62
7
  6
CONTINUOUS
 10
156.1424001439
 20
115.6214154939
 40
0.8
100
AcDbArc
 50
59.9999999989
 51
90.0
  0
ARC
  5
2F0
100
AcDbEntity
  8
RUNDUNGEN
100
AcDbCircle
 62
7
  6
CONTINUOUS
 10
149.1103493363
 20
158.5714154939
 40
0.8
100
AcDbArc
 50
239.9999999989
 51
270.0
  0
ARC
  5
2F1
100
AcDbEntity
  8
RUNDUNGEN
100
AcDbCircle
 62
7
  6
CONTINUOUS
 10
149.1103493363
 20
115.6214154939
 40
0.8
100
AcDbArc
 50
90.0
 51
120.0000000359
  0
SPLINE
  5
2F2
100
AcDbEntity
  8
0
100
AcDbSpline
 62
2
  6
CONTINUOUS
 70
0
 71
3
 72
13
 73
9
 74
0
 42
0.0000001
 43
0.0000001
 44
0.0000000001
 40
0.0
 40
0.0
 40
0.0
 40
0.0
 40
0.1666666667
 40
0.3333333333
 40
0.5
 40
0.6666666667
 40
0.8333333333
 40
1.0
 40
1.0
 40
1.0
 40
1.0
 10
155.6263747401
 20
116.4214154939
 30
0.0
 10
155.6263747401
 20
116.4214154939
 30
0.0
 10
155.5549910164
 20
116.4319480648
 30
0.0
 10
155.2509155698
 20
116.473740658
 30
0.0
 10
154.7712313995
 20
116.5306125174
 30
0.0
 10
154.1373761911
 20
116.5883277693
 30
0.0
 10
153.4089907979
 20
116.6299931218
 30
0.0
 10
152.887072004
 20
116.6402275548
 30
0.0
 10
152.6263747401
 20
116.6402275548
 30
0.0
  0
SPLINE
  5
2F3
100
AcDbEntity
  8
0
100
AcDbSpline
 62
2
  6
CONTINUOUS
 70
0
 71
3
 72
13
 73
9
 74
0
 42
0.0000001
 43
0.0000001
 44
0.0000000001
 40
0.0
 40
0.0
 40
0.0
 40
0.0
 40
0.1666666667
 40
0.3333333333
 40
0.5
 40
0.6666666667
 40
0.8333333333
 40
1.0
 40
1.0
 40
1.0
 40
1.0
 10
152.6263747401
 20
116.6402275548
 30
0.0
 10
152.3657816585
 20
116.6402275548
 30
0.0
 10
151.8440332573
 20
116.6300012462
 30
0.0
 10
151.1157517723
 20
116.5883558458
 30
0.0
 10
150.4818467183
 20
116.5306464099
 30
0.0
 10
150.0022664549
 20
116.4737960209
 30
0.0
 10
149.6979163409
 20
116.4319716961
 30
0.0
 10
149.6263747401
 20
116.4214154939
 30
0.0
 10
149.6263747401
 20
116.4214154939
 30
0.0
  0
SPLINE
  5
2F4
100
AcDbEntity
  8
0
100
AcDbSpline
 62
2
  6
CONTINUOUS
 70
0
 71
3
 72
13
 73
9
 74
0
 42
0.0000001
 43
0.0000001
 44
0.0000000001
 40
0.0
 40
0.0
 40
0.0
 40
0.0
 40
0.1666666667
 40
0.3333333333
 40
0.5
 40
0.6666666667
 40
0.8333333333
 40
1.0
 40
1.0
 40
1.0
 40
1.0
 10
152.6263747401
 20
157.552603433
 30
0.0
 10
152.8866247791
 20
157.552603433
 30
0.0
 10
153.4077968334
 20
157.5627941554
 30
0.0
 10
154.136578241
 20
157.604442926
 30
0.0
 10
154.7693041915
 20
157.6620432928
 30
0.0
 10
155.246986238
 20
157.7185704895
 30
0.0
 10
155.5580262362
 20
157.7612995683
 30
0.0
 10
155.6263747401
 20
157.7714154939
 30
0.0
 10
155.6263747401
 20
157.7714154939
 30
0.0
  0
SPLINE
  5
2F5
100
AcDbEntity
  8
0
100
AcDbSpline
 62
2
  6
CONTINUOUS
 70
0
 71
3
 72
13
 73
9
 74
0
 42
0.0000001
 43
0.0000001
 44
0.0000000001
 40
0.0
 40
0.0
 40
0.0
 40
0.0
 40
0.1666666667
 40
0.3333333333
 40
0.5
 40
0.6666666667
 40
0.8333333333
 40
1.0
 40
1.0
 40
1.0
 40
1.0
 10
149.6263747401
 20
157.7714154939
 30
0.0
 10
149.6263747401
 20
157.7714154939
 30
0.0
 10
149.69477016
 20
157.761295214
 30
0.0
 10
150.0050817025
 20
157.7186582691
 30
0.0
 10
150.4830596561
 20
157.6620819581
 30
0.0
 10
151.1157015003
 20
157.6044778256
 30
0.0
 10
151.8446656418
 20
157.5628018003
 30
0.0
 10
152.3660186132
 20
157.552603433
 30
0.0
 10
152.6263747401
 20
157.552603433
 30
0.0
  0
LINE
  5
2F6
100
AcDbEntity
  8
FASEN
100
AcDbLine
 62
7
  6
CONTINUOUS
 10
64.4394066638
 20
168.5904685762
 11
64.4039220576
 21
168.5963824344
  0
LINE
  5
2F7
100
AcDbEntity
  8
FASEN
100
AcDbLine
 62
7
  6
CONTINUOUS
 10
74.8111130559
 20
168.5900969724
 11
74.8488274227
 21
168.5963824344
  0
LINE
  5
2F8
100
AcDbEntity
  8
ACHSEN
100
AcDbLine
 62
7
  6
CONTINUOUS
 10
25.9763747401
 20
156.7004667925
 11
21.1263747401
 21
156.5934051074
  0
LINE
  5
2F9
100
AcDbEntity
  8
ACHSEN
100
AcDbLine
 62
7
  6
CONTINUOUS
 10
27.7671457716
 20
157.0054549125
 11
27.8899940881
 21
157.0229675697
  0
LINE
  5
2FA
100
AcDbEntity
  8
ACHSEN
100
AcDbLine
 62
7
  6
CONTINUOUS
 10
27.8899940881
 20
157.0229675697
 11
27.9049450261
 21
157.0250732992
  0
LINE
  5
2FB
100
AcDbEntity
  8
ACHSEN
100
AcDbLine
 62
7
  6
CONTINUOUS
 10
27.9049450257
 20
157.0250732991
 11
27.8900236383
 21
157.0229717416
  0
SPLINE
  5
2FC
100
AcDbEntity
  8
ACHSEN
100
AcDbSpline
 62
7
  6
CONTINUOUS
 70
0
 71
3
 72
11
 73
7
 74
0
 42
0.0000001
 43
0.0000001
 44
0.0000000001
 40
0.0
 40
0.0
 40
0.0
 40
0.0
 40
0.1537099379
 40
0.500508937
 40
0.8472910559
 40
1.0
 40
1.0
 40
1.0
 40
1.0
 10
46.8057360734
 20
157.4999338293
 30
0.0
 10
46.3421508042
 20
157.4286568746
 30
0.0
 10
44.8279184901
 20
157.2245991022
 30
0.0
 10
42.2451440626
 20
157.0390900703
 30
0.0
 10
39.6590980326
 20
157.092037289
 30
0.0
 10
38.1398088499
 20
157.2218037817
 30
0.0
 10
37.6763747401
 20
157.2705724961
 30
0.0
  0
LINE
  5
2FD
100
AcDbEntity
  8
FASEN
100
AcDbLine
 62
7
  6
CONTINUOUS
 10
64.4039220577
 20
168.5963824343
 11
64.4417755863
 21
168.5900732516
  0
SPLINE
  5
2FE
100
AcDbEntity
  8
0
100
AcDbSpline
 62
7
  6
CONTINUOUS
 70
0
 71
3
 72
13
 73
9
 74
0
 42
0.0000001
 43
0.0000001
 44
0.0000000001
 40
0.0
 40
0.0
 40
0.0
 40
0.0
 40
0.1753307868
 40
0.3422637982
 40
0.4768046258
 40
0.5947351366
 40
0.8062611466
 40
1.0
 40
1.0
 40
1.0
 40
1.0
 10
57.2313978512
 20
115.5689867538
 30
0.0
 10
57.1674851063
 20
115.5959269154
 30
0.0
 10
57.029708063
 20
115.6246649014
 30
0.0
 10
56.8420610648
 20
115.5758860835
 30
0.0
 10
56.7004763811
 20
115.4870441805
 30
0.0
 10
56.5640111584
 20
115.3634415686
 30
0.0
 10
56.4355924718
 20
115.1995649625
 30
0.0
 10
56.3545524748
 20
115.0608939702
 30
0.0
 10
56.3192679589
 20
114.992858843
 30
0.0
  0
SPLINE
  5
2FF
100
AcDbEntity
  8
0
100
AcDbSpline
 62
7
  6
CONTINUOUS
 70
0
 71
3
 72
12
 73
8
 74
0
 42
0.0000001
 43
0.0000001
 44
0.0000000001
 40
0.0
 40
0.0
 40
0.0
 40
0.0
 40
0.2873076234
 40
0.4555854673
 40
0.6473090081
 40
0.8177551754
 40
1.0
 40
1.0
 40
1.0
 40
1.0
 10
57.2313978512
 20
115.5689867538
 30
0.0
 10
57.2567841352
 20
115.5582860619
 30
0.0
 10
57.2994511982
 20
115.5457101181
 30
0.0
 10
57.363256391
 20
115.5498686203
 30
0.0
 10
57.4061888883
 20
115.5842211189
 30
0.0
 10
57.4230187589
 20
115.6350214197
 30
0.0
 10
57.4259650688
 20
115.6687842554
 30
0.0
 10
57.4262885334
 20
115.6862563687
 30
0.0
  0
SPLINE
  5
300
100
AcDbEntity
  8
0
100
AcDbSpline
 62
7
  6
CONTINUOUS
 70
0
 71
3
 72
15
 73
11
 74
0
 42
0.0000001
 43
0.0000001
 44
0.0000000001
 40
0.0
 40
0.0
 40
0.0
 40
0.0
 40
0.2503260428
 40
0.3755427651
 40
0.500769311
 40
0.625976783
 40
0.7510377775
 40
0.8746309833
 40
0.9372889186
 40
1.0
 40
1.0
 40
1.0
 40
1.0
 10
56.3192679589
 20
143.5109552546
 30
0.0
 10
56.3534027109
 20
143.3683107249
 30
0.0
 10
56.4107914653
 20
143.1556200887
 30
0.0
 10
56.5062938742
 20
142.8780286447
 30
0.0
 10
56.5903115007
 20
142.674507229
 30
0.0
 10
56.6936911563
 20
142.4792190788
 30
0.0
 10
56.8216514259
 20
142.3023925444
 30
0.0
 10
56.9886894735
 20
142.1949478261
 30
0.0
 10
57.1393947892
 20
142.216511746
 30
0.0
 10
57.2026726655
 20
142.2564535657
 30
0.0
 10
57.2313978512
 20
142.279365947
 30
0.0
  0
SPLINE
  5
301
100
AcDbEntity
  8
0
100
AcDbSpline
 62
7
  6
CONTINUOUS
 70
0
 71
3
 72
13
 73
9
 74
0
 42
0.0000001
 43
0.0000001
 44
0.0000000001
 40
0.0
 40
0.0
 40
0.0
 40
0.0
 40
0.1670510693
 40
0.3289369806
 40
0.4609641718
 40
0.578209763
 40
0.7939442568
 40
1.0
 40
1.0
 40
1.0
 40
1.0
 10
57.2313978512
 20
153.4408937808
 30
0.0
 10
57.1669644005
 20
153.4651288859
 30
0.0
 10
57.0277634075
 20
153.4870632283
 30
0.0
 10
56.8411554192
 20
153.4305870561
 30
0.0
 10
56.6996943811
 20
153.3350236014
 30
0.0
 10
56.5621657838
 20
153.2006561324
 30
0.0
 10
56.4327460792
 20
153.0182838738
 30
0.0
 10
56.3537461126
 20
152.8630316327
 30
0.0
 10
56.3192679589
 20
152.7854323841
 30
0.0
  0
SPLINE
  5
302
100
AcDbEntity
  8
0
100
AcDbSpline
 62
7
  6
CONTINUOUS
 70
0
 71
3
 72
15
 73
11
 74
0
 42
0.0000001
 43
0.0000001
 44
0.0000000001
 40
0.0
 40
0.0
 40
0.0
 40
0.0
 40
0.0735479282
 40
0.1546005725
 40
0.2292557381
 40
0.2979289731
 40
0.4260365971
 40
0.5473626904
 40
0.7785364517
 40
1.0
 40
1.0
 40
1.0
 40
1.0
 10
57.2313978512
 20
153.4408937808
 30
0.0
 10
57.24384967
 20
153.4362103263
 30
0.0
 10
57.2729999237
 20
153.4321298138
 30
0.0
 10
57.3124694153
 20
153.4503718411
 30
0.0
 10
57.3400310904
 20
153.4807751347
 30
0.0
 10
57.3659261004
 20
153.5226528174
 30
0.0
 10
57.3870120642
 20
153.57658304
 30
0.0
 10
57.4086507748
 20
153.6608536996
 30
0.0
 10
57.4225209618
 20
153.7640645849
 30
0.0
 10
57.4259454513
 20
153.845925935
 30
0.0
 10
57.4262885334
 20
153.8859831813
 30
0.0
  0
SPLINE
  5
303
100
AcDbEntity
  8
0
100
AcDbSpline
 62
7
  6
CONTINUOUS
 70
0
 71
3
 72
15
 73
11
 74
0
 42
0.0000001
 43
0.0000001
 44
0.0000000001
 40
0.0
 40
0.0
 40
0.0
 40
0.0
 40
0.2846444905
 40
0.5382195662
 40
0.6533996007
 40
0.761473341
 40
0.8135077243
 40
0.8652449798
 40
0.9195347039
 40
1.0
 40
1.0
 40
1.0
 40
1.0
 10
55.4264378292
 20
115.4140136147
 30
0.0
 10
55.4264378292
 20
115.2944401773
 30
0.0
 10
55.4264327972
 20
115.0683789502
 30
0.0
 10
55.4296352729
 20
114.7937872997
 30
0.0
 10
55.4431900147
 20
114.5939030263
 30
0.0
 10
55.4593916662
 20
114.4791214658
 30
0.0
 10
55.4812153643
 20
114.3927868775
 30
0.0
 10
55.5049549939
 20
114.3303572629
 30
0.0
 10
55.5437412253
 20
114.2628283133
 30
0.0
 10
55.5976053743
 20
114.2263263193
 30
0.0
 10
55.6313978512
 20
114.2255301024
 30
0.0
  0
SPLINE
  5
304
100
AcDbEntity
  8
0
100
AcDbSpline
 62
7
  6
CONTINUOUS
 70
0
 71
3
 72
9
 73
5
 74
0
 42
0.0000001
 43
0.0000001
 44
0.0000000001
 40
0.0
 40
0.0
 40
0.0
 40
0.0
 40
0.2573720101
 40
1.0
 40
1.0
 40
1.0
 40
1.0
 10
56.3192679589
 20
114.992858843
 30
0.0
 10
56.2841285707
 20
114.9251035488
 30
0.0
 10
56.1451404352
 20
114.6631318978
 30
0.0
 10
55.9961569447
 20
114.4064227478
 30
0.0
 10
55.879403491
 20
114.2196866186
 30
0.0
  0
SPLINE
  5
305
100
AcDbEntity
  8
0
100
AcDbSpline
 62
7
  6
CONTINUOUS
 70
0
 71
3
 72
8
 73
4
 74
0
 42
0.0000001
 43
0.0000001
 44
0.0000000001
 40
0.0
 40
0.0
 40
0.0
 40
0.0
 40
1.0
 40
1.0
 40
1.0
 40
1.0
 10
57.4262527867
 20
141.7216381538
 30
0.0
 10
57.4258230969
 20
141.7833501426
 30
0.0
 10
57.4239402911
 20
141.8450969821
 30
0.0
 10
57.4196404223
 20
141.9066604885
 30
0.0
  0
SPLINE
  5
306
100
AcDbEntity
  8
0
100
AcDbSpline
 62
7
  6
CONTINUOUS
 70
0
 71
3
 72
15
 73
11
 74
0
 42
0.0000001
 43
0.0000001
 44
0.0000000001
 40
0.0
 40
0.0
 40
0.0
 40
0.0
 40
0.2529176222
 40
0.3785524811
 40
0.5034347146
 40
0.6273379652
 40
0.7499890146
 40
0.8710889694
 40
0.9340922305
 40
1.0
 40
1.0
 40
1.0
 40
1.0
 10
57.4196404223
 20
141.9066604885
 30
0.0
 10
57.4167675044
 20
141.9477935801
 30
0.0
 10
57.4109020649
 20
142.0092903715
 30
0.0
 10
57.3979303991
 20
142.0903740659
 30
0.0
 10
57.3849141528
 20
142.1500230402
 30
0.0
 10
57.3664252641
 20
142.2079858246
 30
0.0
 10
57.3414920791
 20
142.2620298535
 30
0.0
 10
57.3011517441
 20
142.2997922033
 30
0.0
 10
57.257935735
 20
142.2978301572
 30
0.0
 10
57.239797929
 20
142.2860661921
 30
0.0
 10
57.2313978512
 20
142.279365947
 30
0.0
  0
SPLINE
  5
307
100
AcDbEntity
  8
0
100
AcDbSpline
 62
7
  6
CONTINUOUS
 70
0
 71
3
 72
11
 73
7
 74
0
 42
0.0000001
 43
0.0000001
 44
0.0000000001
 40
0.0
 40
0.0
 40
0.0
 40
0.0
 40
0.2536313865
 40
0.5046749499
 40
0.7531440587
 40
1.0
 40
1.0
 40
1.0
 40
1.0
 10
71.0876996055
 20
127.7471941794
 30
0.0
 10
71.1483535725
 20
127.7471941794
 30
0.0
 10
71.2688314136
 20
127.6963179562
 30
0.0
 10
71.3855425857
 20
127.5562053896
 30
0.0
 10
71.4676113758
 20
127.3966967393
 30
0.0
 10
71.5051355887
 20
127.2839444263
 30
0.0
 10
71.5207123074
 20
127.2270028749
 30
0.0
  0
SPLINE
  5
308
100
AcDbEntity
  8
0
100
AcDbSpline
 62
7
  6
CONTINUOUS
 70
0
 71
3
 72
9
 73
5
 74
0
 42
0.0000001
 43
0.0000001
 44
0.0000000001
 40
0.0
 40
0.0
 40
0.0
 40
0.0
 40
0.1680195226
 40
1.0
 40
1.0
 40
1.0
 40
1.0
 10
71.5207123074
 20
107.1824606474
 30
0.0
 10
71.5038640344
 20
107.1621405315
 30
0.0
 10
71.3884107519
 20
107.0536595553
 30
0.0
 10
71.2184065168
 20
107.0158227336
 30
0.0
 10
71.0876996055
 20
107.0158227336
 30
0.0
  0
SPLINE
  5
309
100
AcDbEntity
  8
0
100
AcDbSpline
 62
7
  6
CONTINUOUS
 70
0
 71
3
 72
11
 73
7
 74
0
 42
0.0000001
 43
0.0000001
 44
0.0000000001
 40
0.0
 40
0.0
 40
0.0
 40
0.0
 40
0.2468743153
 40
0.4953615093
 40
0.7464260843
 40
1.0
 40
1.0
 40
1.0
 40
1.0
 10
67.7320371728
 20
127.2270028749
 30
0.0
 10
67.7476149854
 20
127.2839484247
 30
0.0
 10
67.7851437628
 20
127.396707278
 30
0.0
 10
67.8672152583
 20
127.5562314469
 30
0.0
 10
67.9839476194
 20
127.696318553
 30
0.0
 10
68.1044099069
 20
127.7471941794
 30
0.0
 10
68.1650498747
 20
127.7471941794
 30
0.0
  0
SPLINE
  5
30A
100
AcDbEntity
  8
0
100
AcDbSpline
 62
7
  6
CONTINUOUS
 70
0
 71
3
 72
9
 73
5
 74
0
 42
0.0000001
 43
0.0000001
 44
0.0000000001
 40
0.0
 40
0.0
 40
0.0
 40
0.0
 40
0.3641598889
 40
1.0
 40
1.0
 40
1.0
 40
1.0
 10
68.1650498747
 20
107.0158227336
 30
0.0
 10
68.1076734529
 20
107.0158227336
 30
0.0
 10
67.9514871198
 20
107.0319418276
 30
0.0
 10
67.7959811292
 20
107.1053400665
 30
0.0
 10
67.7320371728
 20
107.1824606474
 30
0.0
  0
SPLINE
  5
30B
100
AcDbEntity
  8
0
100
AcDbSpline
 62
7
  6
CONTINUOUS
 70
0
 71
3
 72
9
 73
5
 74
0
 42
0.0000001
 43
0.0000001
 44
0.0000000001
 40
0.0
 40
0.0
 40
0.0
 40
0.0
 40
0.3642526053
 40
1.0
 40
1.0
 40
1.0
 40
1.0
 10
71.0876996055
 20
167.1770082542
 30
0.0
 10
71.145091012
 20
167.1770082542
 30
0.0
 10
71.3012804706
 20
167.1608936987
 30
0.0
 10
71.4567772559
 20
167.0874801816
 30
0.0
 10
71.5207123074
 20
167.0103703404
 30
0.0
  0
SPLINE
  5
30C
100
AcDbEntity
  8
0
100
AcDbSpline
 62
7
  6
CONTINUOUS
 70
0
 71
3
 72
21
 73
17
 74
0
 42
0.0000001
 43
0.0000001
 44
0.0000000001
 40
0.0
 40
0.0
 40
0.0
 40
0.0
 40
0.0152736556
 40
0.0307400416
 40
0.0615944727
 40
0.0924597446
 40
0.1233512662
 40
0.1852330485
 40
0.2472659363
 40
0.3094463907
 40
0.3717660941
 40
0.4967787028
 40
0.6222117836
 40
0.747963109
 40
0.8739278454
 40
1.0
 40
1.0
 40
1.0
 40
1.0
 10
55.6313978512
 20
145.2823586806
 30
0.0
 10
55.616135536
 20
145.2822962613
 30
0.0
 10
55.5904473712
 20
145.2562991066
 30
0.0
 10
55.5647062785
 20
145.2025465708
 30
0.0
 10
55.5410587487
 20
145.1277746778
 30
0.0
 10
55.5212603753
 20
145.0376798534
 30
0.0
 10
55.5002827003
 20
144.9157824892
 30
0.0
 10
55.4813793002
 20
144.7622336858
 30
0.0
 10
55.4651516601
 20
144.5769497336
 30
0.0
 10
55.4533824655
 20
144.3909156662
 30
0.0
 10
55.4419278256
 20
144.1418398139
 30
0.0
 10
55.4335140615
 20
143.8293942948
 30
0.0
 10
55.4287616134
 20
143.4534988148
 30
0.0
 10
55.4269471907
 20
143.0766287586
 30
0.0
 10
55.4264738526
 20
142.6991181257
 30
0.0
 10
55.4264378292
 20
142.4472662267
 30
0.0
 10
55.4264378292
 20
142.3212866245
 30
0.0
  0
LINE
  5
30D
100
AcDbEntity
  8
0
100
AcDbLine
 62
7
  6
CONTINUOUS
 10
55.6367763719
 20
113.671030688
 11
55.879403491
 21
114.2196866186
  0
SPLINE
  5
30E
100
AcDbEntity
  8
0
100
AcDbSpline
 62
7
  6
CONTINUOUS
 70
0
 71
3
 72
17
 73
13
 74
0
 42
0.0000001
 43
0.0000001
 44
0.0000000001
 40
0.0
 40
0.0
 40
0.0
 40
0.0
 40
0.2182009024
 40
0.3349220057
 40
0.456586696
 40
0.5831112211
 40
0.7144823146
 40
0.7820564401
 40
0.8510300181
 40
0.92186225
 40
0.958727904
 40
1.0
 40
1.0
 40
1.0
 40
1.0
 10
55.4264378292
 20
153.5539462425
 30
0.0
 10
55.4264378292
 20
153.4216672283
 30
0.0
 10
55.4264201418
 20
153.2186275669
 30
0.0
 10
55.4288272507
 20
152.9418387966
 30
0.0
 10
55.4336524442
 20
152.720666394
 30
0.0
 10
55.4439381823
 20
152.490751413
 30
0.0
 10
55.4600632057
 20
152.2940827179
 30
0.0
 10
55.4816373062
 20
152.1328818463
 30
0.0
 10
55.5042417768
 20
152.0097115542
 30
0.0
 10
55.5338375731
 20
151.9045608236
 30
0.0
 10
55.5682692478
 20
151.8250909693
 30
0.0
 10
55.6063823843
 20
151.7808705927
 30
0.0
 10
55.6313978512
 20
151.7813576987
 30
0.0
  0
SPLINE
  5
30F
100
AcDbEntity
  8
0
100
AcDbSpline
 62
7
  6
CONTINUOUS
 70
0
 71
3
 72
10
 73
6
 74
0
 42
0.0000001
 43
0.0000001
 44
0.0000000001
 40
0.0
 40
0.0
 40
0.0
 40
0.0
 40
0.2163947382
 40
0.4583018846
 40
1.0
 40
1.0
 40
1.0
 40
1.0
 10
55.879403491
 20
151.7861869266
 30
0.0
 10
55.793702103
 20
151.3234653709
 30
0.0
 10
55.6713655108
 20
150.3322034796
 30
0.0
 10
55.5961867848
 20
148.1571902949
 30
0.0
 10
55.72669162
 20
146.4514571771
 30
0.0
 10
55.879403491
 20
145.2833729365
 30
0.0
  0
SPLINE
  5
310
100
AcDbEntity
  8
0
100
AcDbSpline
 62
7
  6
CONTINUOUS
 70
0
 71
3
 72
11
 73
7
 74
0
 42
0.0000001
 43
0.0000001
 44
0.0000000001
 40
0.0
 40
0.0
 40
0.0
 40
0.0
 40
0.2468553946
 40
0.4953235696
 40
0.7463663429
 40
1.0
 40
1.0
 40
1.0
 40
1.0
 10
71.5207123074
 20
146.9658281129
 30
0.0
 10
71.5051356204
 20
146.9088866776
 30
0.0
 10
71.4676116213
 20
146.7961346116
 30
0.0
 10
71.3855428099
 20
146.6366266566
 30
0.0
 10
71.268832638
 20
146.4965129875
 30
0.0
 10
71.1483541261
 20
146.4456368084
 30
0.0
 10
71.0876996055
 20
146.4456368084
 30
0.0
  0
SPLINE
  5
311
100
AcDbEntity
  8
0
100
AcDbSpline
 62
7
  6
CONTINUOUS
 70
0
 71
3
 72
9
 73
5
 74
0
 42
0.0000001
 43
0.0000001
 44
0.0000000001
 40
0.0
 40
0.0
 40
0.0
 40
0.0
 40
0.1680322176
 40
1.0
 40
1.0
 40
1.0
 40
1.0
 10
67.7320371728
 20
167.0103703404
 30
0.0
 10
67.7488867318
 20
167.0306920072
 30
0.0
 10
67.8643413086
 20
167.1391720392
 30
0.0
 10
68.0343448577
 20
167.1770082542
 30
0.0
 10
68.1650498747
 20
167.1770082542
 30
0.0
  0
SPLINE
  5
312
100
AcDbEntity
  8
0
100
AcDbSpline
 62
7
  6
CONTINUOUS
 70
0
 71
3
 72
11
 73
7
 74
0
 42
0.0000001
 43
0.0000001
 44
0.0000000001
 40
0.0
 40
0.0
 40
0.0
 40
0.0
 40
0.2535749038
 40
0.5046395871
 40
0.753126088
 40
1.0
 40
1.0
 40
1.0
 40
1.0
 10
68.1650498747
 20
146.4456368084
 30
0.0
 10
68.1044096689
 20
146.4456368084
 30
0.0
 10
67.9839469965
 20
146.4965125001
 30
0.0
 10
67.8672151375
 20
146.63660018
 30
0.0
 10
67.7851435916
 20
146.7961240075
 30
0.0
 10
67.7476149604
 20
146.9088826545
 30
0.0
 10
67.7320371728
 20
146.9658281129
 30
0.0
  0
ELLIPSE
  5
313
100
AcDbEntity
  8
0
100
AcDbEllipse
 62
7
  6
CONTINUOUS
 10
55.2792205508
 20
137.0964154939
 30
0.0
 11
14.7536831607
 21
31.0932549156
 31
0.0
 40
0.3419987131
 41
-1.0912395858
 42
-0.1578061866
  0
ELLIPSE
  5
314
100
AcDbEntity
  8
0
100
AcDbEllipse
 62
7
  6
CONTINUOUS
 10
55.2792205508
 20
137.0964154939
 30
0.0
 11
-14.7536831607
 21
31.0932549156
 31
0.0
 40
0.3419987131
 41
-2.9837864669
 42
-2.0503530678
  0
ELLIPSE
  5
315
100
AcDbEntity
  8
0
100
AcDbEllipse
 62
7
  6
CONTINUOUS
 10
83.9735289295
 20
137.0964154939
 30
0.0
 11
-14.7536831607
 21
31.0932549156
 31
0.0
 40
0.3419987131
 41
0.1578061866
 42
1.0912395858
  0
ELLIPSE
  5
316
100
AcDbEntity
  8
0
100
AcDbEllipse
 62
7
  6
CONTINUOUS
 10
83.9735289295
 20
137.0964154939
 30
0.0
 11
14.7536831607
 21
31.0932549156
 31
0.0
 40
0.3419987131
 41
-4.2328322393
 42
-3.2993988402
  0
ENDSEC
  0
SECTION
  2
OBJECTS
  0
DICTIONARY
  5
C
100
AcDbDictionary
280
0
281
1
  3
ACAD_GROUP
350
D
  3
ACAD_MLINESTYLE
350
17
  3
ACAD_LAYOUT
350
1A
  3
ACAD_PLOTSETTINGS
350
19
  3
ACAD_PLOTSTYLENAME
350
E
  0
DICTIONARY
  5
D
102
{ACAD_REACTORS
330
C
102
}
100
AcDbDictionary
280
0
281
1
  0
ACDBDICTIONARYWDFLT
  5
E
102
{ACAD_REACTORS
330
C
102
}
100
AcDbDictionary
281
1
  3
Normal
350
F
100
AcDbDictionaryWithDefault
340
F
  0
DICTIONARY
  5
17
102
{ACAD_REACTORS
330
C
102
}
100
AcDbDictionary
280
0
281
1
  3
Standard
350
18
  0
DICTIONARY
  5
19
102
{ACAD_REACTORS
330
C
102
}
100
AcDbDictionary
281
1
  0
DICTIONARY
  5
1A
102
{ACAD_REACTORS
330
C
102
}
100
AcDbDictionary
281
1
  3
Model
350
317
  3
Layout1
350
318
  0
ACDBPLACEHOLDER
  5
F
102
{ACAD_REACTORS
330
E
102
}
  0
MLINESTYLE
  5
18
102
{ACAD_REACTORS
330
17
102
}
100
AcDbMlineStyle
  2
STANDARD
 70
0
  3

 62
256
 51
90.0
 52
90.0
 71
2
 49
0.5
 62
256
  6
BYLAYER
 49
-0.5
 62
256
  6
BYLAYER
  0
LAYOUT
  5
317
102
{ACAD_REACTORS
330
1A
102
}
100
AcDbPlotSettings
  1

  2
none_device
  4
ISO_A4_(297.00_x_210.00_MM)
  6

 40
0.0
 41
0.0
 42
0.0
 43
0.0
 44
297.0
 45
210.0
 46
0.0
 47
0.0
 48
0.0
 49
0.0
140
0.0
141
0.0
142
1.0
143
1.0
 70
1024
 72
1
 73
0
 74
0
  7

 75
0
147
1.0
148
0.0
149
0.0
100
AcDbLayout
  1
Model
 70
0
 71
0
 10
0.0
 20
0.0
 11
297.0
 21
210.0
 12
0.0
 22
0.0
 32
0.0
 14
0.0
 24
0.0
 34
0.0
 15
0.0
 25
0.0
 35
0.0
146
0.0
 13
0.0
 23
0.0
 33
0.0
 16
1.0
 26
0.0
 36
0.0
 17
0.0
 27
1.0
 37
0.0
 76
0
330
217
345
0
346
0
  0
LAYOUT
  5
318
102
{ACAD_REACTORS
330
1A
102
}
100
AcDbPlotSettings
  1

  2
none_device
  4
ISO_A4_(297.00_x_210.00_MM)
  6

 40
0.0
 41
0.0
 42
0.0
 43
0.0
 44
297.0
 45
210.0
 46
0.0
 47
0.0
 48
0.0
 49
0.0
140
0.0
141
0.0
142
1.0
143
1.0
 70
0
 72
1
 73
0
 74
0
  7

 75
0
147
1.0
148
0.0
149
0.0
100
AcDbLayout
  1
Layout1
 70
0
 71
1
 10
0.0
 20
0.0
 11
297.0
 21
210.0
 12
0.0
 22
0.0
 32
0.0
 14
0.0
 24
0.0
 34
0.0
 15
0.0
 25
0.0
 35
0.0
146
0.0
 13
0.0
 23
0.0
 33
0.0
 16
1.0
 26
0.0
 36
0.0
 17
0.0
 27
1.0
 37
0.0
 76
0
330
218
345
0
346
0
  0
ENDSEC
  0
EOF
