999
DXF file: cc6-142-14.dxf
999
Pro/ENGINEER 2010430 by Parametric Technology Corporation
  0
SECTION
  2
HEADER
  9
$ACADVER
  1
AC1021
  9
$DWGCODEPAGE
  3
ANSI_1252
  9
$EXTMAX
 10
297.0
 20
210.0
 30
0.0
  9
$EXTMIN
 10
0.0
 20
0.0
 30
0.0
  9
$LIMMIN
 10
0.0
 20
0.0
  9
$LIMMAX
 10
297.0
 20
210.0
  9
$VIEWCTR
 10
148.5
 20
105.0
  9
$VIEWSIZE
 40
210.0
  9
$CLAYER
  8
0
  9
$LTSCALE
 40
16.335
  9
$CELTYPE
  6
BYLAYER
  9
$DIMSCALE
 40
1.0
  9
$DIMASZ
 40
3.5
  9
$DIMEXO
 40
1.85625
  9
$DIMDLI
 40
11.286
  9
$DIMEXE
 40
5.346
  9
$DIMCEN
 40
2.673
  9
$DIMLFAC
 40
1.0
  9
$DIMBLK
  1
_FILLED
  9
$DIMTXT
 40
3.5
  9
$DIMTOL
 70
1
  9
$DIMLIM
 70
0
  9
$DIMTFAC
 40
1.0
  9
$DIMTP
 40
0.005
  9
$DIMTM
 40
0.005
  9
$PDMODE
 70
3
  9
$PDSIZE
 40
0.3125
  9
$HANDSEED
  5
31C
  9
$TILEMODE
 70
1
  9
$MEASUREMENT
 70
1
  9
$INSUNITS
 70
4
  0
ENDSEC
  0
SECTION
  2
CLASSES
  0
CLASS
  1
ACDBDICTIONARYWDFLT
  2
AcDbDictionaryWithDefault
  3
AutoCAD 2000
 90
0
 91
1
280
0
281
0
  0
CLASS
  1
ACDBPLACEHOLDER
  2
AcDbPlaceHolder
  3
AutoCAD 2000
 90
0
 91
1
280
0
281
0
  0
CLASS
  1
LAYOUT
  2
AcDbLayout
  3
AutoCAD 2000
 90
0
 91
0
280
0
281
0
  0
ENDSEC
  0
SECTION
  2
TABLES
  0
TABLE
  2
VPORT
  5
8
100
AcDbSymbolTable
 70
2
  0
VPORT
  5
1F4
100
AcDbSymbolTableRecord
100
AcDbViewportTableRecord
  2
*ACTIVE
 70
0
 10
0.0
 20
0.0
 11
1.0
 21
1.0
 12
148.5
 22
105.0
 13
0.0
 23
0.0
 14
1.0
 24
1.0
 15
0.0
 25
0.0
 16
0.0
 26
0.0
 36
1.0
 17
0.0
 27
0.0
 37
0.0
 40
210.0
 41
1.4142857143
 42
50.0
 43
0.0
 44
0.0
 50
0.0
 51
0.0
 71
0
 72
100
 73
1
 74
1
 75
0
 76
0
 77
0
 78
0
  0
ENDTAB
  0
TABLE
  2
LTYPE
  5
5
100
AcDbSymbolTable
 70
6
  0
LTYPE
  5
14
100
AcDbSymbolTableRecord
100
AcDbLinetypeTableRecord
  2
BYBLOCK
 70
0
  3

 72
65
 73
0
 40
0.0
  0
LTYPE
  5
15
100
AcDbSymbolTableRecord
100
AcDbLinetypeTableRecord
  2
BYLAYER
 70
0
  3

 72
65
 73
0
 40
0.0
  0
LTYPE
  5
16
100
AcDbSymbolTableRecord
100
AcDbLinetypeTableRecord
  2
CONTINUOUS
 70
64
  3
Solid line
 72
65
 73
0
 40
0.0
  0
LTYPE
  5
1F5
100
AcDbSymbolTableRecord
100
AcDbLinetypeTableRecord
  2
CENTER
 70
64
  3
____ _ ____ _ ____ _ ____ _ ____ _ ____ _ ____
 72
65
 73
4
 40
0.6
 49
0.375
 74
0
 49
-0.075
 74
0
 49
0.075
 74
0
 49
-0.075
 74
0
  0
LTYPE
  5
1F6
100
AcDbSymbolTableRecord
100
AcDbLinetypeTableRecord
  2
HIDDEN
 70
64
  3
- - - - - - - - - - - - - - - - - - - -
 72
65
 73
2
 40
0.2
 49
0.1
 74
0
 49
-0.1
 74
0
  0
LTYPE
  5
1F7
100
AcDbSymbolTableRecord
100
AcDbLinetypeTableRecord
  2
PHANTOM
 70
64
  3
_____ _ _ _____ _ _ _____ _ _ _____
 72
65
 73
6
 40
0.8
 49
0.45
 74
0
 49
-0.05
 74
0
 49
0.1
 74
0
 49
-0.05
 74
0
 49
0.1
 74
0
 49
-0.05
 74
0
  0
LTYPE
  5
1F8
100
AcDbSymbolTableRecord
100
AcDbLinetypeTableRecord
  2
DOT
 70
64
  3
. . . . . . . . . . . . . . . . . . . .
 72
65
 73
2
 40
0.2
 49
0.1
 74
0
 49
-0.1
 74
0
  0
LTYPE
  5
1F9
100
AcDbSymbolTableRecord
100
AcDbLinetypeTableRecord
  2
DASHED
 70
64
  3
- - - - - - - - - - - - - - - - - - - -
 72
65
 73
2
 40
0.2
 49
0.1
 74
0
 49
-0.1
 74
0
  0
ENDTAB
  0
TABLE
  2
LAYER
  5
2
100
AcDbSymbolTable
 70
36
  0
LAYER
  5
10
100
AcDbSymbolTableRecord
100
AcDbLayerTableRecord
  2
0
 70
0
 62
7
  6
CONTINUOUS
370
-3
390
F
  0
LAYER
  5
1FA
100
AcDbSymbolTableRecord
100
AcDbLayerTableRecord
  2
DEFAULT_1
 70
0
 62
7
  6
CENTER
370
-3
390
F
  0
LAYER
  5
1FB
100
AcDbSymbolTableRecord
100
AcDbLayerTableRecord
  2
DEFAULT_2
 70
0
 62
8
  6
HIDDEN
370
-3
390
F
  0
LAYER
  5
1FC
100
AcDbSymbolTableRecord
100
AcDbLayerTableRecord
  2
DEFAULT_3
 70
0
 62
7
  6
PHANTOM
370
-3
390
F
  0
LAYER
  5
1FD
100
AcDbSymbolTableRecord
100
AcDbLayerTableRecord
  2
ACHSEN
 70
0
 62
7
  6
CONTINUOUS
370
-3
390
F
  0
LAYER
  5
1FE
100
AcDbSymbolTableRecord
100
AcDbLayerTableRecord
  2
BEZUGSACHSEN
 70
0
 62
7
  6
CONTINUOUS
370
-3
390
F
  0
LAYER
  5
1FF
100
AcDbSymbolTableRecord
100
AcDbLayerTableRecord
  2
BEZUGSEBENE_B
 70
0
 62
7
  6
CONTINUOUS
370
-3
390
F
  0
LAYER
  5
200
100
AcDbSymbolTableRecord
100
AcDbLayerTableRecord
  2
BOHRUNGEN
 70
0
 62
7
  6
CONTINUOUS
370
-3
390
F
  0
LAYER
  5
201
100
AcDbSymbolTableRecord
100
AcDbLayerTableRecord
  2
EBENEN
 70
0
 62
7
  6
CONTINUOUS
370
-3
390
F
  0
LAYER
  5
202
100
AcDbSymbolTableRecord
100
AcDbLayerTableRecord
  2
FASEN
 70
0
 62
7
  6
CONTINUOUS
370
-3
390
F
  0
LAYER
  5
203
100
AcDbSymbolTableRecord
100
AcDbLayerTableRecord
  2
FLAECHEN
 70
0
 62
7
  6
CONTINUOUS
370
-3
390
F
  0
LAYER
  5
204
100
AcDbSymbolTableRecord
100
AcDbLayerTableRecord
  2
GEWINDE
 70
0
 62
7
  6
CONTINUOUS
370
-3
390
F
  0
LAYER
  5
205
100
AcDbSymbolTableRecord
100
AcDbLayerTableRecord
  2
KOORDSYS
 70
0
 62
7
  6
CONTINUOUS
370
-3
390
F
  0
LAYER
  5
206
100
AcDbSymbolTableRecord
100
AcDbLayerTableRecord
  2
KURVEN
 70
0
 62
7
  6
CONTINUOUS
370
-3
390
F
  0
LAYER
  5
207
100
AcDbSymbolTableRecord
100
AcDbLayerTableRecord
  2
KURVE_FUER_GTOL_DETAILANSICHT
 70
0
 62
7
  6
CONTINUOUS
370
-3
390
F
  0
LAYER
  5
208
100
AcDbSymbolTableRecord
100
AcDbLayerTableRecord
  2
KURVE_GAUGE2_POLIGON_INNENEINST
 70
0
 62
7
  6
CONTINUOUS
370
-3
390
F
  0
LAYER
  5
209
100
AcDbSymbolTableRecord
100
AcDbLayerTableRecord
  2
KURVE_PHANTOM1_GAUGE_PIN_1
 70
0
 62
7
  6
CONTINUOUS
370
-3
390
F
  0
LAYER
  5
20A
100
AcDbSymbolTableRecord
100
AcDbLayerTableRecord
  2
KURVE_PHANTOM2_GAUGE_PIN1
 70
0
 62
7
  6
CONTINUOUS
370
-3
390
F
  0
LAYER
  5
20B
100
AcDbSymbolTableRecord
100
AcDbLayerTableRecord
  2
KURVE_POLIGON_BEMASUNG
 70
0
 62
7
  6
CONTINUOUS
370
-3
390
F
  0
LAYER
  5
20C
100
AcDbSymbolTableRecord
100
AcDbLayerTableRecord
  2
PUNKTE
 70
0
 62
7
  6
CONTINUOUS
370
-3
390
F
  0
LAYER
  5
20D
100
AcDbSymbolTableRecord
100
AcDbLayerTableRecord
  2
RUNDUNGEN
 70
0
 62
7
  6
CONTINUOUS
370
-3
390
F
  0
LAYER
  5
20E
100
AcDbSymbolTableRecord
100
AcDbLayerTableRecord
  2
S_ACHSEN
 70
0
 62
7
  6
CONTINUOUS
370
-3
390
F
  0
LAYER
  5
20F
100
AcDbSymbolTableRecord
100
AcDbLayerTableRecord
  2
S_EBENEN
 70
0
 62
7
  6
CONTINUOUS
370
-3
390
F
  0
LAYER
  5
210
100
AcDbSymbolTableRecord
100
AcDbLayerTableRecord
  2
S_KOORDSYS
 70
0
 62
7
  6
CONTINUOUS
370
-3
390
F
  0
LAYER
  5
211
100
AcDbSymbolTableRecord
100
AcDbLayerTableRecord
  2
TOL_BEZUEGE
 70
0
 62
7
  6
CONTINUOUS
370
-3
390
F
  0
LAYER
  5
212
100
AcDbSymbolTableRecord
100
AcDbLayerTableRecord
  2
VERBFLAECHE
 70
0
 62
7
  6
CONTINUOUS
370
-3
390
F
  0
LAYER
  5
213
100
AcDbSymbolTableRecord
100
AcDbLayerTableRecord
  2
ZEICHNUNGSBEMASSUNGEN
 70
0
 62
7
  6
CONTINUOUS
370
-3
390
F
  0
ENDTAB
  0
TABLE
  2
STYLE
  5
3
100
AcDbSymbolTable
 70
1
  0
STYLE
  5
11
100
AcDbSymbolTableRecord
100
AcDbTextStyleTableRecord
  2
STANDARD
 70
0
 40
0.0
 41
0.7
 50
0.0
 71
0
 42
0.2
  3
txt
  4

  0
STYLE
  5
214
100
AcDbSymbolTableRecord
100
AcDbTextStyleTableRecord
  2
TEXTSTYLE_1
 70
0
 40
0.0
 41
0.8
 50
0.0
 71
0
 42
0.2
  3
gdt
  4

  0
STYLE
  5
215
100
AcDbSymbolTableRecord
100
AcDbTextStyleTableRecord
  2
TEXTSTYLE_2
 70
0
 40
0.0
 41
0.7
 50
0.0
 71
0
 42
0.2
  3
gdt
  4

  0
ENDTAB
  0
TABLE
  2
VIEW
  5
6
100
AcDbSymbolTable
 70
0
  0
ENDTAB
  0
TABLE
  2
UCS
  5
7
100
AcDbSymbolTable
 70
0
  0
ENDTAB
  0
TABLE
  2
APPID
  5
9
100
AcDbSymbolTable
 70
1
  0
APPID
  5
216
100
AcDbSymbolTableRecord
100
AcDbRegAppTableRecord
  2
ACAD
 70
0
  0
ENDTAB
  0
TABLE
  2
BLOCK_RECORD
  5
1
100
AcDbSymbolTable
 70
0
  0
BLOCK_RECORD
  5
217
100
AcDbSymbolTableRecord
100
AcDbBlockTableRecord
  2
*Model_Space
  0
BLOCK_RECORD
  5
218
100
AcDbSymbolTableRecord
100
AcDbBlockTableRecord
  2
*Paper_Space
  0
BLOCK_RECORD
  5
219
100
AcDbSymbolTableRecord
100
AcDbBlockTableRecord
  2
_FILLED
  0
BLOCK_RECORD
  5
21A
100
AcDbSymbolTableRecord
100
AcDbBlockTableRecord
  2
*D0
  0
BLOCK_RECORD
  5
21B
100
AcDbSymbolTableRecord
100
AcDbBlockTableRecord
  2
*D1
  0
BLOCK_RECORD
  5
21C
100
AcDbSymbolTableRecord
100
AcDbBlockTableRecord
  2
*D2
  0
BLOCK_RECORD
  5
21D
100
AcDbSymbolTableRecord
100
AcDbBlockTableRecord
  2
*D3
  0
BLOCK_RECORD
  5
21E
100
AcDbSymbolTableRecord
100
AcDbBlockTableRecord
  2
*D4
  0
BLOCK_RECORD
  5
21F
100
AcDbSymbolTableRecord
100
AcDbBlockTableRecord
  2
*D5
  0
BLOCK_RECORD
  5
220
100
AcDbSymbolTableRecord
100
AcDbBlockTableRecord
  2
*D6
  0
ENDTAB
  0
TABLE
  2
DIMSTYLE
  5
A
100
AcDbSymbolTable
 70
1
100
AcDbDimStyleTable
 71
0
  0
DIMSTYLE
105
221
100
AcDbSymbolTableRecord
100
AcDbDimStyleTableRecord
  2
STANDARD
 70
0
  3

  4

 40
1.0
 41
3.5
 42
0.0625
 43
0.38
 44
0.18
 45
0.0
 46
0.0
 47
0.005
 48
0.005
140
3.5
141
0.09
142
0.0
143
25.4
144
1.0
145
0.0
146
1.0
147
0.09
 71
1.0
 72
0.0
 73
0
 74
0
 75
0
 76
0
 77
1
 78
8
170
0
171
2
172
0
173
0
174
0
175
0
176
0
177
0
178
5
270
2
271
3
272
3
273
2
274
2
275
0
280
0
281
0
282
0
283
1
284
8
285
0
286
0
287
3
288
0
340
11
341
219
342
219
343
219
344
219
  0
DIMSTYLE
105
222
100
AcDbSymbolTableRecord
100
AcDbDimStyleTableRecord
  2
DIMSTYLE_1
 70
0
  3

  4

 40
1.0
 41
3.5
 42
0.0625
 43
0.38
 44
0.18
 45
0.0
 46
0.0
 47
0.0
 48
0.1
140
3.5
141
0.09
142
0.0
143
25.4
144
1.0
145
0.0
146
1.0
147
0.09
 71
0.0
 72
0.0
 73
0
 74
0
 75
0
 76
0
 77
1
 78
8
170
0
171
2
172
0
173
0
174
0
175
0
176
0
177
0
178
5
270
2
271
2
272
2
273
2
274
2
275
0
280
0
281
0
282
0
283
1
284
8
285
0
286
0
287
3
288
0
340
11
341
219
342
219
343
219
344
219
  0
DIMSTYLE
105
223
100
AcDbSymbolTableRecord
100
AcDbDimStyleTableRecord
  2
DIMSTYLE_2
 70
0
  3

  4

 40
1.0
 41
3.5
 42
0.0625
 43
0.38
 44
0.18
 45
0.0
 46
0.0
 47
0.25
 48
0.25
140
3.5
141
0.09
142
0.0
143
25.4
144
1.0
145
0.0
146
1.0
147
0.09
 71
0.0
 72
0.0
 73
0
 74
0
 75
0
 76
0
 77
1
 78
8
170
0
171
2
172
0
173
0
174
0
175
0
176
0
177
0
178
5
270
2
271
2
272
2
273
2
274
2
275
0
280
0
281
0
282
0
283
1
284
8
285
0
286
0
287
3
288
0
340
11
341
219
342
219
343
219
344
219
  0
DIMSTYLE
105
224
100
AcDbSymbolTableRecord
100
AcDbDimStyleTableRecord
  2
DIMSTYLE_3
 70
0
  3

  4

 40
1.0
 41
3.5
 42
0.0625
 43
0.38
 44
0.18
 45
0.0
 46
0.0
 47
0.5
 48
0.5
140
3.5
141
0.09
142
0.0
143
25.4
144
1.0
145
0.0
146
1.0
147
0.09
 71
0.0
 72
0.0
 73
0
 74
0
 75
0
 76
0
 77
1
 78
8
170
0
171
2
172
0
173
0
174
0
175
0
176
0
177
0
178
5
270
2
271
2
272
2
273
2
274
2
275
0
280
0
281
0
282
0
283
1
284
8
285
0
286
0
287
3
288
0
340
11
341
219
342
219
343
219
344
219
  0
DIMSTYLE
105
225
100
AcDbSymbolTableRecord
100
AcDbDimStyleTableRecord
  2
DIMSTYLE_4
 70
0
  3

  4

 40
1.0
 41
3.5
 42
0.0625
 43
0.38
 44
0.18
 45
0.0
 46
0.0
 47
-0.025
 48
0.03
140
3.5
141
0.09
142
0.0
143
25.4
144
1.0
145
0.0
146
1.0
147
0.09
 71
0.0
 72
0.0
 73
0
 74
0
 75
0
 76
0
 77
1
 78
8
170
0
171
2
172
0
173
0
174
0
175
0
176
0
177
0
178
5
270
2
271
3
272
3
273
2
274
2
275
0
280
0
281
0
282
0
283
1
284
8
285
0
286
0
287
3
288
0
340
11
341
219
342
219
343
219
344
219
  0
ENDTAB
  0
ENDSEC
  0
SECTION
  2
BLOCKS
  0
BLOCK
  5
20
100
AcDbEntity
  8
0
100
AcDbBlockBegin
  2
*Model_Space
 70
0
 10
0.0
 20
0.0
 30
0.0
  3
*Model_Space
  1

  0
ENDBLK
  5
21
100
AcDbEntity
  8
0
100
AcDbBlockEnd
  0
BLOCK
  5
1C
100
AcDbEntity
  8
0
100
AcDbBlockBegin
  2
*Paper_Space
 70
0
 10
0.0
 20
0.0
 30
0.0
  3
*Paper_Space
  1

  0
ENDBLK
  5
1D
100
AcDbEntity
  8
0
100
AcDbBlockEnd
  0
BLOCK
  5
226
100
AcDbEntity
  8
0
100
AcDbBlockBegin
  2
_FILLED
 70
64
 10
0.0
 20
0.0
  3
_FILLED
  1

  0
SOLID
  5
227
100
AcDbEntity
  8
0
  6
BYBLOCK
 62
0
100
AcDbTrace
 10
0.0
 20
0.0
 11
-1.0
 21
0.125
 12
-1.0
 22
-0.125
 13
-1.0
 23
-0.125
  0
ENDBLK
  5
228
100
AcDbEntity
  8
0
  6
BYBLOCK
 62
0
100
AcDbBlockEnd
  0
BLOCK
  5
229
100
AcDbEntity
  8
0
100
AcDbBlockBegin
 62
2
  6
CONTINUOUS
  2
*D0
 70
65
 10
0.0
 20
0.0
  3
*D0
  1

  0
MTEXT
  5
22A
100
AcDbEntity
  8
0
100
AcDbMText
 62
5
  6
CONTINUOUS
  7
TEXTSTYLE_2
 71
2
 72
1
 10
254.0743705441
 20
135.0781688191
 30
0.0
 11
0.0
 21
1.0
 31
0.0
 44
0.9
  1
{\Fgdt;n}\Ftxt;27
 40
3.5
 41
10.1666666667
  0
LINE
  5
22B
100
AcDbEntity
  8
0
100
AcDbLine
 62
2
  6
CONTINUOUS
 10
225.1942769639
 20
148.5531688191
 11
259.9493705441
 21
148.5531688191
  0
LINE
  5
22C
100
AcDbEntity
  8
0
100
AcDbLine
 62
2
  6
CONTINUOUS
 10
222.9891460222
 20
121.6031688191
 11
250.1174341224
 21
121.6031688191
  0
LINE
  5
22D
100
AcDbEntity
  8
0
100
AcDbLine
 62
2
  6
CONTINUOUS
 10
255.3967455523
 20
121.6031688191
 11
259.9493705441
 21
121.6031688191
  0
LINE
  5
22E
100
AcDbEntity
  8
0
100
AcDbLine
 62
2
  6
CONTINUOUS
 10
258.4493705441
 20
148.5531688191
 11
258.4493705441
 21
135.0781688191
  0
LINE
  5
22F
100
AcDbEntity
  8
0
100
AcDbLine
 62
2
  6
CONTINUOUS
 10
258.4493705441
 20
121.6031688191
 11
258.4493705441
 21
135.0781688191
  0
INSERT
  5
230
100
AcDbEntity
  8
0
100
AcDbBlockReference
 62
2
  6
CONTINUOUS
  2
_FILLED
 10
258.4493705441
 20
148.5531688191
 41
3.5
 42
3.5
 43
3.5
 50
90.0
  0
INSERT
  5
231
100
AcDbEntity
  8
0
100
AcDbBlockReference
 62
2
  6
CONTINUOUS
  2
_FILLED
 10
258.4493705441
 20
121.6031688191
 41
3.5
 42
3.5
 43
3.5
 50
270.0
  0
ENDBLK
  5
232
100
AcDbEntity
  8
0
  6
BYBLOCK
 62
0
100
AcDbBlockEnd
  0
BLOCK
  5
233
100
AcDbEntity
  8
0
100
AcDbBlockBegin
 62
2
  6
CONTINUOUS
  2
*D1
 70
65
 10
0.0
 20
0.0
  3
*D1
  1

  0
MTEXT
  5
234
100
AcDbEntity
  8
0
100
AcDbMText
 62
5
  6
CONTINUOUS
  7
STANDARD
 71
2
 72
1
 10
244.0921221249
 20
105.0941969395
 30
0.0
 11
0.1903995978
 21
0.9817066737
 31
0.0
 44
0.9
  1
4\Fgdt;{\Fgdt;~}\Ftxt;30'
 40
3.5
 41
12.3333333333
  0
LINE
  5
235
100
AcDbEntity
  8
0
100
AcDbLine
 62
2
  6
CONTINUOUS
 10
206.5181162236
 20
120.424923221
 11
253.6051813676
 21
124.1307556172
  0
LINE
  5
236
100
AcDbEntity
  8
0
100
AcDbLine
 62
2
  6
CONTINUOUS
 10
178.5174294456
 20
118.1031688191
 11
212.6551745518
 21
118.1031688191
  0
LINE
  5
237
100
AcDbEntity
  8
0
100
AcDbLine
 62
2
  6
CONTINUOUS
 10
228.2987897884
 20
118.1031688191
 11
253.8420058979
 21
118.1031688191
  0
ARC
  5
238
100
AcDbEntity
  8
0
100
AcDbCircle
 62
2
  6
CONTINUOUS
 10
177.0174294456
 20
118.1031688191
 40
75.3245764523
100
AcDbArc
 50
4.5
 51
9.0639111864
  0
ARC
  5
239
100
AcDbEntity
  8
0
100
AcDbCircle
 62
2
  6
CONTINUOUS
 10
177.0174294456
 20
118.1031688191
 40
75.3245764523
100
AcDbArc
 50
349.0238948156
 51
0.0
  0
ARC
  5
23A
100
AcDbEntity
  8
0
100
AcDbCircle
 62
2
  6
CONTINUOUS
 10
177.0174294456
 20
118.1031688191
 40
75.3245764523
100
AcDbArc
 50
360.0
 51
4.5
  0
SOLID
  5
23B
100
AcDbEntity
  8
0
100
AcDbTrace
 62
2
  6
CONTINUOUS
 10
251.3189796205
 20
127.4505080115
 11
252.109805367
 21
124.0130669736
 12
252.1894520527
 22
127.5394053941
 13
252.1894520527
 23
127.5394053941
  0
SOLID
  5
23C
100
AcDbEntity
  8
0
100
AcDbTrace
 62
2
  6
CONTINUOUS
 10
252.6980803832
 20
114.5939499301
 11
252.3420058979
 21
118.1031688191
 12
251.8233165187
 22
114.6142767918
 13
251.8233165187
 23
114.6142767918
  0
ENDBLK
  5
23D
100
AcDbEntity
  8
0
  6
BYBLOCK
 62
0
100
AcDbBlockEnd
  0
BLOCK
  5
23E
100
AcDbEntity
  8
0
100
AcDbBlockBegin
 62
2
  6
CONTINUOUS
  2
*D2
 70
65
 10
0.0
 20
0.0
  3
*D2
  1

  0
MTEXT
  5
23F
100
AcDbEntity
  8
0
100
AcDbMText
 62
5
  6
CONTINUOUS
  7
STANDARD
 71
2
 72
1
 10
141.4891460222
 20
184.0408567629
 30
0.0
 11
1.0
 21
0.0
 31
0.0
 44
0.9
  1
160
 40
3.5
 41
7.5
  0
LINE
  5
240
100
AcDbEntity
  8
0
100
AcDbLine
 62
2
  6
CONTINUOUS
 10
61.4891460222
 20
159.5443435279
 11
61.4891460222
 21
181.1658567629
  0
LINE
  5
241
100
AcDbEntity
  8
0
100
AcDbLine
 62
2
  6
CONTINUOUS
 10
221.4891460222
 20
142.8787435279
 11
221.4891460222
 21
181.1658567629
  0
LINE
  5
242
100
AcDbEntity
  8
0
100
AcDbLine
 62
2
  6
CONTINUOUS
 10
61.4891460222
 20
179.6658567629
 11
141.4891460222
 21
179.6658567629
  0
LINE
  5
243
100
AcDbEntity
  8
0
100
AcDbLine
 62
2
  6
CONTINUOUS
 10
221.4891460222
 20
179.6658567629
 11
141.4891460222
 21
179.6658567629
  0
INSERT
  5
244
100
AcDbEntity
  8
0
100
AcDbBlockReference
 62
2
  6
CONTINUOUS
  2
_FILLED
 10
61.4891460222
 20
179.6658567629
 41
3.5
 42
3.5
 43
3.5
 50
180.0
  0
INSERT
  5
245
100
AcDbEntity
  8
0
100
AcDbBlockReference
 62
2
  6
CONTINUOUS
  2
_FILLED
 10
221.4891460222
 20
179.6658567629
 41
3.5
 42
3.5
 43
3.5
  0
ENDBLK
  5
246
100
AcDbEntity
  8
0
  6
BYBLOCK
 62
0
100
AcDbBlockEnd
  0
BLOCK
  5
247
100
AcDbEntity
  8
0
100
AcDbBlockBegin
 62
2
  6
CONTINUOUS
  2
*D3
 70
65
 10
0.0
 20
0.0
  3
*D3
  1

  0
MTEXT
  5
248
100
AcDbEntity
  8
0
100
AcDbMText
 62
5
  6
CONTINUOUS
  7
TEXTSTYLE_2
 71
2
 72
1
 10
238.6083996325
 20
135.0781688191
 30
0.0
 11
0.0
 21
1.0
 31
0.0
 44
0.9
  1
{\Fgdt;n}\Ftxt;14
 40
3.5
 41
9.4166666667
  0
LINE
  5
249
100
AcDbEntity
  8
0
100
AcDbLine
 62
2
  6
CONTINUOUS
 10
205.7528501237
 20
128.0919188191
 11
244.4833996325
 21
128.0919188191
  0
LINE
  5
24A
100
AcDbEntity
  8
0
100
AcDbLine
 62
2
  6
CONTINUOUS
 10
205.6094901237
 20
142.0644188191
 11
244.4833996325
 21
142.0644188191
  0
LINE
  5
24B
100
AcDbEntity
  8
0
100
AcDbLine
 62
2
  6
CONTINUOUS
 10
242.9833996325
 20
128.0919188191
 11
242.9833996325
 21
135.0781688191
  0
LINE
  5
24C
100
AcDbEntity
  8
0
100
AcDbLine
 62
2
  6
CONTINUOUS
 10
242.9833996325
 20
142.0644188191
 11
242.9833996325
 21
135.0781688191
  0
INSERT
  5
24D
100
AcDbEntity
  8
0
100
AcDbBlockReference
 62
2
  6
CONTINUOUS
  2
_FILLED
 10
242.9833996325
 20
128.0919188191
 41
3.5
 42
3.5
 43
3.5
 50
270.0
  0
INSERT
  5
24E
100
AcDbEntity
  8
0
100
AcDbBlockReference
 62
2
  6
CONTINUOUS
  2
_FILLED
 10
242.9833996325
 20
142.0644188191
 41
3.5
 42
3.5
 43
3.5
 50
90.0
  0
ENDBLK
  5
24F
100
AcDbEntity
  8
0
  6
BYBLOCK
 62
0
100
AcDbBlockEnd
  0
BLOCK
  5
250
100
AcDbEntity
  8
0
100
AcDbBlockBegin
 62
2
  6
CONTINUOUS
  2
*D4
 70
65
 10
0.0
 20
0.0
  3
*D4
  1

  0
MTEXT
  5
251
100
AcDbEntity
  8
0
100
AcDbMText
 62
5
  6
CONTINUOUS
  7
STANDARD
 71
2
 72
1
 10
152.4891460222
 20
176.7557773735
 30
0.0
 11
1.0
 21
0.0
 31
0.0
 44
0.9
  1
138
 40
3.5
 41
7.25
  0
LINE
  5
252
100
AcDbEntity
  8
0
100
AcDbLine
 62
2
  6
CONTINUOUS
 10
221.4891460222
 20
123.1031688191
 11
221.4891460222
 21
173.8807773735
  0
LINE
  5
253
100
AcDbEntity
  8
0
100
AcDbLine
 62
2
  6
CONTINUOUS
 10
83.4891460222
 20
163.5571006699
 11
83.4891460222
 21
173.8807773735
  0
LINE
  5
254
100
AcDbEntity
  8
0
100
AcDbLine
 62
2
  6
CONTINUOUS
 10
221.4891460222
 20
172.3807773735
 11
152.4891460222
 21
172.3807773735
  0
LINE
  5
255
100
AcDbEntity
  8
0
100
AcDbLine
 62
2
  6
CONTINUOUS
 10
83.4891460222
 20
172.3807773735
 11
152.4891460222
 21
172.3807773735
  0
INSERT
  5
256
100
AcDbEntity
  8
0
100
AcDbBlockReference
 62
2
  6
CONTINUOUS
  2
_FILLED
 10
221.4891460222
 20
172.3807773735
 41
3.5
 42
3.5
 43
3.5
  0
INSERT
  5
257
100
AcDbEntity
  8
0
100
AcDbBlockReference
 62
2
  6
CONTINUOUS
  2
_FILLED
 10
83.4891460222
 20
172.3807773735
 41
3.5
 42
3.5
 43
3.5
 50
180.0
  0
ENDBLK
  5
258
100
AcDbEntity
  8
0
  6
BYBLOCK
 62
0
100
AcDbBlockEnd
  0
BLOCK
  5
259
100
AcDbEntity
  8
0
100
AcDbBlockBegin
 62
2
  6
CONTINUOUS
  2
*D5
 70
65
 10
0.0
 20
0.0
  3
*D5
  1

  0
MTEXT
  5
25A
100
AcDbEntity
  8
0
100
AcDbMText
 62
5
  6
CONTINUOUS
  7
STANDARD
 71
2
 72
1
 10
122.4891460222
 20
190.4747499534
 30
0.0
 11
1.0
 21
0.0
 31
0.0
 44
0.9
  1
198
 40
3.5
 41
7.5
  0
LINE
  5
25B
100
AcDbEntity
  8
0
100
AcDbLine
 62
2
  6
CONTINUOUS
 10
221.4891460222
 20
123.1031688191
 11
221.4891460222
 21
187.5997499534
  0
LINE
  5
25C
100
AcDbEntity
  8
0
100
AcDbLine
 62
2
  6
CONTINUOUS
 10
23.4891460222
 20
116.3920530498
 11
23.4891460222
 21
187.5997499534
  0
LINE
  5
25D
100
AcDbEntity
  8
0
100
AcDbLine
 62
2
  6
CONTINUOUS
 10
221.4891460222
 20
186.0997499534
 11
122.4891460222
 21
186.0997499534
  0
LINE
  5
25E
100
AcDbEntity
  8
0
100
AcDbLine
 62
2
  6
CONTINUOUS
 10
23.4891460222
 20
186.0997499534
 11
122.4891460222
 21
186.0997499534
  0
INSERT
  5
25F
100
AcDbEntity
  8
0
100
AcDbBlockReference
 62
2
  6
CONTINUOUS
  2
_FILLED
 10
221.4891460222
 20
186.0997499534
 41
3.5
 42
3.5
 43
3.5
  0
INSERT
  5
260
100
AcDbEntity
  8
0
100
AcDbBlockReference
 62
2
  6
CONTINUOUS
  2
_FILLED
 10
23.4891460222
 20
186.0997499534
 41
3.5
 42
3.5
 43
3.5
 50
180.0
  0
ENDBLK
  5
261
100
AcDbEntity
  8
0
  6
BYBLOCK
 62
0
100
AcDbBlockEnd
  0
BLOCK
  5
262
100
AcDbEntity
  8
0
100
AcDbBlockBegin
 62
2
  6
CONTINUOUS
  2
*D6
 70
65
 10
0.0
 20
0.0
  3
*D6
  1

  0
MTEXT
  5
263
100
AcDbEntity
  8
0
100
AcDbMText
 62
5
  6
CONTINUOUS
  7
TEXTSTYLE_2
 71
2
 72
1
 10
267.0950840429
 20
135.0781688191
 30
0.0
 11
0.0
 21
1.0
 31
0.0
 44
0.9
  1
{\Fgdt;n}\Ftxt;34
 40
3.5
 41
9.9166666667
  0
LINE
  5
264
100
AcDbEntity
  8
0
100
AcDbLine
 62
2
  6
CONTINUOUS
 10
178.5174294456
 20
152.0531688191
 11
213.6873470427
 21
152.0531688191
  0
LINE
  5
265
100
AcDbEntity
  8
0
100
AcDbLine
 62
2
  6
CONTINUOUS
 10
224.9417003638
 20
152.0531688191
 11
272.9700840429
 21
152.0531688191
  0
LINE
  5
266
100
AcDbEntity
  8
0
100
AcDbLine
 62
2
  6
CONTINUOUS
 10
178.5174294456
 20
118.1031688191
 11
272.9700840429
 21
118.1031688191
  0
LINE
  5
267
100
AcDbEntity
  8
0
100
AcDbLine
 62
2
  6
CONTINUOUS
 10
271.4700840429
 20
152.0531688191
 11
271.4700840429
 21
135.0781688191
  0
LINE
  5
268
100
AcDbEntity
  8
0
100
AcDbLine
 62
2
  6
CONTINUOUS
 10
271.4700840429
 20
118.1031688191
 11
271.4700840429
 21
135.0781688191
  0
INSERT
  5
269
100
AcDbEntity
  8
0
100
AcDbBlockReference
 62
2
  6
CONTINUOUS
  2
_FILLED
 10
271.4700840429
 20
152.0531688191
 41
3.5
 42
3.5
 43
3.5
 50
90.0
  0
INSERT
  5
26A
100
AcDbEntity
  8
0
100
AcDbBlockReference
 62
2
  6
CONTINUOUS
  2
_FILLED
 10
271.4700840429
 20
118.1031688191
 41
3.5
 42
3.5
 43
3.5
 50
270.0
  0
ENDBLK
  5
26B
100
AcDbEntity
  8
0
  6
BYBLOCK
 62
0
100
AcDbBlockEnd
  0
ENDSEC
  0
SECTION
  2
ENTITIES
  0
DIMENSION
  5
26C
100
AcDbEntity
  8
0
100
AcDbDimension
 62
2
  6
CONTINUOUS
  2
*D0
 10
258.4493705441
 20
121.6031688191
 11
256.9632243185
 21
132.8059272991
 70
160
 71
2
 42
26.95
  1
%%c<>
  3
DIMSTYLE_1
100
AcDbAlignedDimension
 13
225.1942769639
 23
148.5531688191
 14
222.9891460222
 24
121.6031688191
 50
270.0
100
AcDbRotatedDimension
  0
DIMENSION
  5
26D
100
AcDbEntity
  8
0
100
AcDbDimension
 62
2
  6
CONTINUOUS
  2
*D1
 10
253.8420058979
 20
118.1031688191
 11
248.022869293
 21
105.924479924
 70
162
 71
2
 42
0.0785398163
  3
DIMSTYLE_2
100
AcDb2LineAngularDimension
 13
253.6051813676
 23
124.1307556172
 14
206.5181162236
 24
120.424923221
 15
178.5174294456
 25
118.1031688191
 16
252.2839333793
 26
121.0603978127
  0
DIMENSION
  5
26E
100
AcDbEntity
  8
0
100
AcDbDimension
 62
2
  6
CONTINUOUS
  2
*D2
 10
221.4891460222
 20
179.6658567629
 11
137.7391460222
 21
182.2908567629
 70
160
 71
2
 42
160.0
  3
DIMSTYLE_3
100
AcDbAlignedDimension
 13
61.4891460222
 23
159.5443435279
 14
221.4891460222
 24
142.8787435279
100
AcDbRotatedDimension
  0
DIMENSION
  5
26F
100
AcDbEntity
  8
0
100
AcDbDimension
 62
2
  6
CONTINUOUS
  2
*D3
 10
242.9833996325
 20
142.0644188191
 11
241.4132396038
 21
132.9735516735
 70
160
 71
2
 42
13.9725
  1
%%c<>
  3
DIMSTYLE_4
100
AcDbAlignedDimension
 13
205.7528501237
 23
128.0919188191
 14
205.6094901237
 24
142.0644188191
 50
90.0
100
AcDbRotatedDimension
  0
DIMENSION
  5
270
100
AcDbEntity
  8
0
100
AcDbDimension
 62
2
  6
CONTINUOUS
  2
*D4
 10
83.4891460222
 20
172.3807773735
 11
148.8641460222
 21
175.0057773735
 70
160
 71
2
 42
138.0
  3
DIMSTYLE_3
100
AcDbAlignedDimension
 13
221.4891460222
 23
123.1031688191
 14
83.4891460222
 24
163.5571006699
 50
180.0
100
AcDbRotatedDimension
  0
DIMENSION
  5
271
100
AcDbEntity
  8
0
100
AcDbDimension
 62
2
  6
CONTINUOUS
  2
*D5
 10
23.4891460222
 20
186.0997499534
 11
118.7391460222
 21
188.7247499534
 70
160
 71
2
 42
198.0
  3
DIMSTYLE_3
100
AcDbAlignedDimension
 13
221.4891460222
 23
123.1031688191
 14
23.4891460222
 24
116.3920530498
 50
180.0
100
AcDbRotatedDimension
  0
DIMENSION
  5
272
100
AcDbEntity
  8
0
100
AcDbDimension
 62
2
  6
CONTINUOUS
  2
*D6
 10
271.4700840429
 20
118.1031688191
 11
269.9559332163
 21
132.8618020906
 70
160
 71
2
 42
33.95
  1
%%c<>
  3
DIMSTYLE_1
100
AcDbAlignedDimension
 13
178.5174294456
 23
152.0531688191
 14
178.5174294456
 24
118.1031688191
 50
270.0
100
AcDbRotatedDimension
  0
MTEXT
  5
273
100
AcDbEntity
  8
0
100
AcDbMText
 62
5
  6
CONTINUOUS
  7
STANDARD
 71
1
 72
1
 10
11.4809641372
 20
85.650110447
 30
0.0
 11
1.0
 21
0.0
 31
0.0
 44
0.9
  3
Für diese Unterlage behalten wir das Ur-\Pheberrecht. Sie darf nur für den von uns \Pbestimmten Zweck benutzt und ohne unsere \PZustimmung weder vervielfältigt noch\PDritten zugänglich gemacht werden\P \PWe own the copyright of this document. It \Pde
  1
termined and may neither be copied or \Pmade accessible to outsiders without our\Ppermission.\P \PCe plan reste notre propriété. Il ne peut\Pêtre utilisé, copié ou reproduit sans notre\Paccord.\P 
 40
3.5
 41
104.8333333333
  0
LINE
  5
274
100
AcDbEntity
  8
0
100
AcDbLine
 62
7
  6
CONTINUOUS
 10
0.0
 20
0.0
 11
0.0
 21
210.0
  0
LINE
  5
275
100
AcDbEntity
  8
0
100
AcDbLine
 62
7
  6
CONTINUOUS
 10
0.0
 20
0.0
 11
297.0
 21
0.0
  0
LINE
  5
276
100
AcDbEntity
  8
0
100
AcDbLine
 62
7
  6
CONTINUOUS
 10
0.0
 20
210.0
 11
297.0
 21
210.0
  0
LINE
  5
277
100
AcDbEntity
  8
0
100
AcDbLine
 62
7
  6
CONTINUOUS
 10
297.0
 20
0.0
 11
297.0
 21
210.0
  0
LINE
  5
278
100
AcDbEntity
  8
0
100
AcDbLine
 62
7
  6
CONTINUOUS
 10
23.4891460222
 20
113.3858308262
 11
23.4891460222
 21
150.0394134578
  0
LINE
  5
279
100
AcDbEntity
  8
KURVEN
100
AcDbLine
 62
4
  6
CONTINUOUS
 10
23.4891460222
 20
112.5574906435
 11
23.4891460222
 21
154.2897428061
  0
LINE
  5
27A
100
AcDbEntity
  8
ACHSEN
100
AcDbLine
 62
7
  6
CONTINUOUS
 10
23.4891460222
 20
150.0394134578
 11
23.4891460222
 21
153.8266481331
  0
LINE
  5
27B
100
AcDbEntity
  8
ACHSEN
100
AcDbLine
 62
7
  6
CONTINUOUS
 10
24.9891460222
 20
154.5751584326
 11
24.9891460222
 21
150.7894134578
  0
LINE
  5
27C
100
AcDbEntity
  8
0
100
AcDbLine
 62
7
  6
CONTINUOUS
 10
24.9891460222
 20
150.7894134578
 11
24.9891460222
 21
112.5198054224
  0
LINE
  5
27D
100
AcDbEntity
  8
ACHSEN
100
AcDbLine
 62
7
  6
CENTER
 10
45.9891460222
 20
112.144683312
 11
45.9891460222
 21
159.2665393837
  0
LINE
  5
27E
100
AcDbEntity
  8
0
100
AcDbLine
 62
7
  6
CONTINUOUS
 10
61.4891478582
 20
166.2781669117
 11
61.7891479481
 21
166.5781669656
  0
LINE
  5
27F
100
AcDbEntity
  8
0
100
AcDbLine
 62
7
  6
CONTINUOUS
 10
59.2892091113
 20
155.6982691887
 11
59.2892091113
 21
151.5356995677
  0
LINE
  5
280
100
AcDbEntity
  8
0
100
AcDbLine
 62
7
  6
CONTINUOUS
 10
59.2892091113
 20
140.3030399497
 11
59.2892091113
 21
113.3957669399
  0
LINE
  5
281
100
AcDbEntity
  8
0
100
AcDbLine
 62
9
  6
CONTINUOUS
 10
59.4941691333
 20
155.5033553889
 11
59.4941691333
 21
149.7631110239
  0
LINE
  5
282
100
AcDbEntity
  8
0
100
AcDbLine
 62
9
  6
CONTINUOUS
 10
59.4941691333
 20
143.2641120058
 11
59.4941691333
 21
112.2072834276
  0
LINE
  5
283
100
AcDbEntity
  8
0
100
AcDbLine
 62
9
  6
CONTINUOUS
 10
60.182039241
 20
112.3352756003
 11
60.182039241
 21
112.9746121682
  0
LINE
  5
284
100
AcDbEntity
  8
0
100
AcDbLine
 62
9
  6
CONTINUOUS
 10
60.182039241
 20
141.4927085798
 11
60.182039241
 21
150.7671857093
  0
LINE
  5
285
100
AcDbEntity
  8
0
100
AcDbLine
 62
9
  6
CONTINUOUS
 10
61.0941691333
 20
155.543552958
 11
61.0941691333
 21
151.4226471061
  0
LINE
  5
286
100
AcDbEntity
  8
0
100
AcDbLine
 62
9
  6
CONTINUOUS
 10
61.0941691333
 20
140.2611192722
 11
61.0941691333
 21
113.550740079
  0
LINE
  5
287
100
AcDbEntity
  8
0
100
AcDbLine
 62
7
  6
CONTINUOUS
 10
61.4891460222
 20
103.8784444886
 11
61.4891460222
 21
166.2778931496
  0
LINE
  5
288
100
AcDbEntity
  8
0
100
AcDbLine
 62
7
  6
CONTINUOUS
 10
61.7891460958
 20
103.5781688191
 11
61.7891460958
 21
166.5781688191
  0
LINE
  5
289
100
AcDbEntity
  8
0
100
AcDbLine
 62
7
  6
CONTINUOUS
 10
61.2890811704
 20
151.8677434048
 11
61.2891460222
 21
157.6116536801
  0
LINE
  5
28A
100
AcDbEntity
  8
0
100
AcDbLine
 62
7
  6
CONTINUOUS
 10
61.2890811704
 20
113.6680007277
 11
61.2890500559
 21
139.7033940332
  0
LINE
  5
28B
100
AcDbEntity
  8
0
100
AcDbLine
 62
9
  6
CONTINUOUS
 10
24.9891460222
 20
150.7894134578
 11
23.4891460222
 21
150.0394134578
  0
LINE
  5
28C
100
AcDbEntity
  8
0
100
AcDbLine
 62
7
  6
CONTINUOUS
 10
24.9891460222
 20
112.5198054224
 11
23.4891460222
 21
113.3858308262
  0
LINE
  5
28D
100
AcDbEntity
  8
0
100
AcDbLine
 62
7
  6
CONTINUOUS
 10
61.4891478582
 20
103.8781707264
 11
61.7891479481
 21
103.5781706726
  0
LINE
  5
28E
100
AcDbEntity
  8
0
100
AcDbLine
 62
9
  6
CONTINUOUS
 10
71.5948084549
 20
164.9921236656
 11
71.5948084549
 21
144.9475814381
  0
LINE
  5
28F
100
AcDbEntity
  8
0
100
AcDbLine
 62
9
  6
CONTINUOUS
 10
71.5948084549
 20
125.2087562001
 11
71.5948084549
 21
105.1642139726
  0
LINE
  5
290
100
AcDbEntity
  8
0
100
AcDbLine
 62
9
  6
CONTINUOUS
 10
24.9891460222
 20
114.1420530498
 11
23.4891460222
 21
114.8920530498
  0
LINE
  5
291
100
AcDbEntity
  8
0
100
AcDbLine
 62
9
  6
CONTINUOUS
 10
72.0278211568
 20
165.1587615794
 11
72.0278211568
 21
144.4273901336
  0
LINE
  5
292
100
AcDbEntity
  8
0
100
AcDbLine
 62
9
  6
CONTINUOUS
 10
72.0278211568
 20
125.7289475046
 11
72.0278211568
 21
104.9975760588
  0
LINE
  5
293
100
AcDbEntity
  8
ACHSEN
100
AcDbLine
 62
7
  6
CENTER
 10
73.4891460222
 20
158.3003662549
 11
73.4891460222
 21
169.5781688191
  0
LINE
  5
294
100
AcDbEntity
  8
0
100
AcDbLine
 62
9
  6
CONTINUOUS
 10
74.9504708876
 20
165.1587615794
 11
74.9504708876
 21
144.4273901336
  0
LINE
  5
295
100
AcDbEntity
  8
0
100
AcDbLine
 62
9
  6
CONTINUOUS
 10
74.9504708876
 20
125.7289475046
 11
74.9504708876
 21
104.9975760588
  0
LINE
  5
296
100
AcDbEntity
  8
0
100
AcDbLine
 62
9
  6
CONTINUOUS
 10
75.3834835895
 20
164.9921236656
 11
75.3834835895
 21
144.9475814381
  0
LINE
  5
297
100
AcDbEntity
  8
0
100
AcDbLine
 62
9
  6
CONTINUOUS
 10
75.3834835895
 20
125.2087562001
 11
75.3834835895
 21
105.1642139726
  0
LINE
  5
298
100
AcDbEntity
  8
0
100
AcDbLine
 62
7
  6
CONTINUOUS
 10
83.4891460222
 20
103.5781688191
 11
83.4891460222
 21
166.5781688191
  0
LINE
  5
299
100
AcDbEntity
  8
RUNDUNGEN
100
AcDbLine
 62
9
  6
CONTINUOUS
 10
88.6344948594
 20
155.6220591343
 11
88.6344948594
 21
114.5342785039
  0
LINE
  5
29A
100
AcDbEntity
  8
0
100
AcDbLine
 62
7
  6
CONTINUOUS
 10
60.182039241
 20
112.3352756003
 11
59.4995488448
 21
111.652785204
  0
LINE
  5
29B
100
AcDbEntity
  8
0
100
AcDbLine
 62
7
  6
CONTINUOUS
 10
83.4891460222
 20
103.5781688191
 11
61.7891460946
 21
103.5781688191
  0
LINE
  5
29C
100
AcDbEntity
  8
0
100
AcDbLine
 62
7
  6
CONTINUOUS
 10
74.9504708876
 20
104.9975760588
 11
72.0278211568
 21
104.9975760588
  0
LINE
  5
29D
100
AcDbEntity
  8
RUNDUNGEN
100
AcDbLine
 62
7
  6
CONTINUOUS
 10
220.567605118
 20
121.530641977
 11
177.0174294456
 21
118.1031688191
  0
LINE
  5
29E
100
AcDbEntity
  8
0
100
AcDbLine
 62
7
  6
CONTINUOUS
 10
177.0174294456
 20
118.1031688191
 11
220.567605118
 21
121.530641977
  0
LINE
  5
29F
100
AcDbEntity
  8
0
100
AcDbLine
 62
9
  6
CONTINUOUS
 10
59.2892091113
 20
113.3957669399
 11
24.9891460222
 21
114.1420530498
  0
LINE
  5
2A0
100
AcDbEntity
  8
0
100
AcDbLine
 62
7
  6
CONTINUOUS
 10
59.7421747731
 20
112.2014399438
 11
59.4941691333
 21
112.2072834276
  0
LINE
  5
2A1
100
AcDbEntity
  8
0
100
AcDbLine
 62
7
  6
CONTINUOUS
 10
24.9891460222
 20
112.5198054224
 11
59.499548845
 21
111.6527839833
  0
LINE
  5
2A2
100
AcDbEntity
  8
0
100
AcDbLine
 62
7
  6
CONTINUOUS
 10
177.0174294456
 20
118.1031688191
 11
170.7391460222
 21
118.1031688191
  0
LINE
  5
2A3
100
AcDbEntity
  8
0
100
AcDbLine
 62
7
  6
CONTINUOUS
 10
162.2391460222
 20
118.1031688191
 11
138.4891460222
 21
118.1031688191
  0
LINE
  5
2A4
100
AcDbEntity
  8
0
100
AcDbLine
 62
7
  6
CONTINUOUS
 10
162.9731206184
 20
118.4031688191
 11
163.9891460222
 21
118.4031688191
  0
LINE
  5
2A5
100
AcDbEntity
  8
0
100
AcDbLine
 62
7
  6
CONTINUOUS
 10
168.9891460222
 20
118.4031688191
 11
170.005171426
 21
118.4031688191
  0
LINE
  5
2A6
100
AcDbEntity
  8
0
100
AcDbLine
 62
7
  6
CONTINUOUS
 10
74.9504708876
 20
125.7289475046
 11
72.0278211568
 21
125.7289475046
  0
LINE
  5
2A7
100
AcDbEntity
  8
DEFAULT_2
100
AcDbLine
 62
8
  6
HIDDEN
 10
174.0389109058
 20
127.7419188191
 11
184.103936741
 21
127.7419188191
  0
LINE
  5
2A8
100
AcDbEntity
  8
BOHRUNGEN
100
AcDbLine
 62
8
  6
HIDDEN
 10
185.4891460222
 20
128.0919188191
 11
219.1891460222
 21
128.0919188191
  0
LINE
  5
2A9
100
AcDbEntity
  8
0
100
AcDbLine
 62
7
  6
CONTINUOUS
 10
170.405171426
 20
151.8603484961
 11
170.7391460222
 21
152.0531688191
  0
LINE
  5
2AA
100
AcDbEntity
  8
RUNDUNGEN
100
AcDbLine
 62
7
  6
CONTINUOUS
 10
170.405171426
 20
151.8603484961
 11
170.7391460222
 21
152.0531688191
  0
LINE
  5
2AB
100
AcDbEntity
  8
S_ACHSEN
100
AcDbLine
 62
7
  6
CENTER
 10
20.4891460222
 20
135.0781688191
 11
225.4891460222
 21
135.0781688191
  0
LINE
  5
2AC
100
AcDbEntity
  8
0
100
AcDbLine
 62
9
  6
CONTINUOUS
 10
138.4891460222
 20
118.1031688191
 11
138.4891460222
 21
152.0531688191
  0
LINE
  5
2AD
100
AcDbEntity
  8
0
100
AcDbLine
 62
7
  6
CONTINUOUS
 10
59.4941691333
 20
143.2641120058
 11
59.7421747731
 21
143.2651262617
  0
LINE
  5
2AE
100
AcDbEntity
  8
0
100
AcDbLine
 62
9
  6
CONTINUOUS
 10
23.4891460222
 20
140.3030399497
 11
59.2892091113
 21
140.3030399497
  0
LINE
  5
2AF
100
AcDbEntity
  8
BOHRUNGEN
100
AcDbLine
 62
8
  6
HIDDEN
 10
185.4891460222
 20
142.0644188191
 11
219.1891460222
 21
142.0644188191
  0
LINE
  5
2B0
100
AcDbEntity
  8
RUNDUNGEN
100
AcDbLine
 62
8
  6
HIDDEN
 10
184.103936741
 20
142.4144188191
 11
174.0389109058
 21
142.4144188191
  0
LINE
  5
2B1
100
AcDbEntity
  8
DEFAULT_2
100
AcDbLine
 62
8
  6
HIDDEN
 10
174.0389109058
 20
142.4144188191
 11
184.103936741
 21
142.4144188191
  0
LINE
  5
2B2
100
AcDbEntity
  8
0
100
AcDbLine
 62
7
  6
CONTINUOUS
 10
74.9504708876
 20
144.4273901336
 11
72.0278211568
 21
144.4273901336
  0
LINE
  5
2B3
100
AcDbEntity
  8
0
100
AcDbLine
 62
7
  6
CONTINUOUS
 10
170.405171426
 20
118.2959891421
 11
170.7391460222
 21
118.1031688191
  0
LINE
  5
2B4
100
AcDbEntity
  8
RUNDUNGEN
100
AcDbLine
 62
7
  6
CONTINUOUS
 10
170.405171426
 20
118.2959891421
 11
170.7391460222
 21
118.1031688191
  0
LINE
  5
2B5
100
AcDbEntity
  8
0
100
AcDbLine
 62
9
  6
CONTINUOUS
 10
24.9891460222
 20
150.7894134578
 11
59.2892091113
 21
151.5356995677
  0
LINE
  5
2B6
100
AcDbEntity
  8
0
100
AcDbLine
 62
7
  6
CONTINUOUS
 10
59.7421747731
 20
149.7679402518
 11
59.4941691333
 21
149.7631110239
  0
LINE
  5
2B7
100
AcDbEntity
  8
0
100
AcDbLine
 62
7
  6
CONTINUOUS
 10
162.9731206184
 20
151.7531688191
 11
163.9891460222
 21
151.7531688191
  0
LINE
  5
2B8
100
AcDbEntity
  8
BEZUGSACHSEN
100
AcDbLine
 62
7
  6
CONTINUOUS
 10
162.9731206184
 20
151.7531688191
 11
163.9891460222
 21
151.7531688191
  0
LINE
  5
2B9
100
AcDbEntity
  8
0
100
AcDbLine
 62
7
  6
CONTINUOUS
 10
168.9891460222
 20
151.7531688191
 11
170.005171426
 21
151.7531688191
  0
LINE
  5
2BA
100
AcDbEntity
  8
BEZUGSACHSEN
100
AcDbLine
 62
7
  6
CONTINUOUS
 10
168.9891460222
 20
151.7531688191
 11
170.005171426
 21
151.7531688191
  0
LINE
  5
2BB
100
AcDbEntity
  8
0
100
AcDbLine
 62
7
  6
CONTINUOUS
 10
177.0174294456
 20
152.0531688191
 11
170.7391460222
 21
152.0531688191
  0
LINE
  5
2BC
100
AcDbEntity
  8
0
100
AcDbLine
 62
7
  6
CONTINUOUS
 10
162.2391460222
 20
152.0531688191
 11
138.4891460222
 21
152.0531688191
  0
LINE
  5
2BD
100
AcDbEntity
  8
0
100
AcDbLine
 62
7
  6
CONTINUOUS
 10
162.2391460222
 20
118.1031688191
 11
162.5731206184
 21
118.2959891421
  0
LINE
  5
2BE
100
AcDbEntity
  8
RUNDUNGEN
100
AcDbLine
 62
7
  6
CONTINUOUS
 10
162.2391460222
 20
118.1031688191
 11
162.5731206184
 21
118.2959891421
  0
LINE
  5
2BF
100
AcDbEntity
  8
0
100
AcDbLine
 62
7
  6
CONTINUOUS
 10
59.4941691333
 20
155.5033553889
 11
61.0941691333
 21
155.543552958
  0
LINE
  5
2C0
100
AcDbEntity
  8
0
100
AcDbLine
 62
7
  6
CONTINUOUS
 10
31.7527507763
 20
155.0064575092
 11
41.5391460222
 21
155.2523258213
  0
LINE
  5
2C1
100
AcDbEntity
  8
0
100
AcDbLine
 62
7
  6
CONTINUOUS
 10
50.6685073555
 20
155.4816871545
 11
59.2892091113
 21
155.6982691887
  0
LINE
  5
2C2
100
AcDbEntity
  8
RUNDUNGEN
100
AcDbLine
 62
7
  6
CONTINUOUS
 10
220.567605118
 20
148.6256956612
 11
177.0174294456
 21
152.0531688191
  0
LINE
  5
2C3
100
AcDbEntity
  8
0
100
AcDbLine
 62
7
  6
CONTINUOUS
 10
177.0174294456
 20
152.0531688191
 11
220.567605118
 21
148.6256956612
  0
LINE
  5
2C4
100
AcDbEntity
  8
0
100
AcDbLine
 62
7
  6
CONTINUOUS
 10
74.9504708876
 20
165.1587615794
 11
72.0278211568
 21
165.1587615794
  0
LINE
  5
2C5
100
AcDbEntity
  8
0
100
AcDbLine
 62
7
  6
CONTINUOUS
 10
83.4891460222
 20
166.5781688191
 11
78.7114232994
 21
166.5781688191
  0
LINE
  5
2C6
100
AcDbEntity
  8
0
100
AcDbLine
 62
7
  6
CONTINUOUS
 10
68.2668687451
 20
166.5781688191
 11
61.7891460946
 21
166.5781688191
  0
LINE
  5
2C7
100
AcDbEntity
  8
0
100
AcDbLine
 62
7
  6
CONTINUOUS
 10
162.2391460222
 20
152.0531688191
 11
162.2391460222
 21
118.1031688191
  0
LINE
  5
2C8
100
AcDbEntity
  8
RUNDUNGEN
100
AcDbLine
 62
9
  6
CONTINUOUS
 10
162.5731206184
 20
118.2959891421
 11
162.5731206184
 21
151.8603484961
  0
LINE
  5
2C9
100
AcDbEntity
  8
RUNDUNGEN
100
AcDbLine
 62
9
  6
CONTINUOUS
 10
162.9731206184
 20
118.4031688191
 11
162.9731206184
 21
151.7531688191
  0
LINE
  5
2CA
100
AcDbEntity
  8
BEZUGSACHSEN
100
AcDbLine
 62
7
  6
CENTER
 10
166.4891460222
 20
154.7531688191
 11
166.4891460222
 21
141.0531688191
  0
LINE
  5
2CB
100
AcDbEntity
  8
BEZUGSACHSEN
100
AcDbLine
 62
7
  6
CENTER
 10
166.4891460222
 20
115.4031688191
 11
166.4891460222
 21
129.1031688191
  0
LINE
  5
2CC
100
AcDbEntity
  8
0
100
AcDbLine
 62
7
  6
CONTINUOUS
 10
162.2391460222
 20
152.0531688191
 11
162.5731206184
 21
151.8603484961
  0
LINE
  5
2CD
100
AcDbEntity
  8
RUNDUNGEN
100
AcDbLine
 62
7
  6
CONTINUOUS
 10
162.2391460222
 20
152.0531688191
 11
162.5731206184
 21
151.8603484961
  0
LINE
  5
2CE
100
AcDbEntity
  8
RUNDUNGEN
100
AcDbLine
 62
9
  6
CONTINUOUS
 10
170.005171426
 20
118.4031688191
 11
170.005171426
 21
151.7531688191
  0
LINE
  5
2CF
100
AcDbEntity
  8
RUNDUNGEN
100
AcDbLine
 62
9
  6
CONTINUOUS
 10
170.405171426
 20
118.2959891421
 11
170.405171426
 21
151.8603484961
  0
LINE
  5
2D0
100
AcDbEntity
  8
0
100
AcDbLine
 62
7
  6
CONTINUOUS
 10
170.7391460222
 20
152.0531688191
 11
170.7391460222
 21
118.1031688191
  0
LINE
  5
2D1
100
AcDbEntity
  8
RUNDUNGEN
100
AcDbLine
 62
9
  6
CONTINUOUS
 10
174.0389109058
 20
127.7419188191
 11
174.0389109058
 21
142.4144188191
  0
LINE
  5
2D2
100
AcDbEntity
  8
0
100
AcDbLine
 62
7
  6
CONTINUOUS
 10
177.0174294456
 20
118.1031688191
 11
177.0174294456
 21
152.0531688191
  0
LINE
  5
2D3
100
AcDbEntity
  8
RUNDUNGEN
100
AcDbLine
 62
9
  6
CONTINUOUS
 10
220.567605118
 20
121.530641977
 11
220.567605118
 21
148.6256956612
  0
LINE
  5
2D4
100
AcDbEntity
  8
RUNDUNGEN
100
AcDbLine
 62
7
  6
CONTINUOUS
 10
221.4891460222
 20
147.6287783274
 11
221.4891460222
 21
122.5275593108
  0
ARC
  5
2D5
100
AcDbEntity
  8
0
100
AcDbCircle
 62
7
  6
CONTINUOUS
 10
-47.2628651737
 20
115.7686799896
 40
110.4813700658
100
AcDbArc
 50
13.4640903998
 51
14.4111621352
  0
ARC
  5
2D6
100
AcDbEntity
  8
ACHSEN
100
AcDbCircle
 62
7
  6
CONTINUOUS
 10
36.7507176419
 20
119.5097656341
 40
35.8451025477
100
AcDbArc
 50
98.0149288422
 51
101.1172700805
  0
ARC
  5
2D7
100
AcDbEntity
  8
0
100
AcDbCircle
 62
7
  6
CONTINUOUS
 10
60.8891460222
 20
111.6281688191
 40
1.0
100
AcDbArc
 50
53.102347605
 51
135.0
  0
ARC
  5
2D8
100
AcDbEntity
  8
ACHSEN
100
AcDbCircle
 62
7
  6
CONTINUOUS
 10
-40.2690709557
 20
283.4741083716
 40
144.4768984249
100
AcDbArc
 50
296.187103939
 51
296.8519184685
  0
ARC
  5
2D9
100
AcDbEntity
  8
FASEN
100
AcDbCircle
 62
7
  6
CONTINUOUS
 10
72.8176518632
 20
201.8227166047
 40
35.7340046499
100
AcDbArc
 50
278.5204424671
 51
279.4937166383
  0
ARC
  5
2DA
100
AcDbEntity
  8
FASEN
100
AcDbCircle
 62
7
  6
CONTINUOUS
 10
73.7777895462
 20
199.3999542236
 40
33.2812609709
100
AcDbArc
 50
260.5303369408
 51
261.5206938832
  0
ARC
  5
2DB
100
AcDbEntity
  8
FASEN
100
AcDbCircle
 62
7
  6
CONTINUOUS
 10
73.4491696485
 20
197.6813774993
 40
31.5448080342
100
AcDbArc
 50
270.0726103041
 51
278.5005399283
  0
ARC
  5
2DC
100
AcDbEntity
  8
FASEN
100
AcDbCircle
 62
7
  6
CONTINUOUS
 10
73.5018334352
 20
197.3166186565
 40
31.1800264418
100
AcDbArc
 50
261.4577517884
 51
269.9766858686
  0
ARC
  5
2DD
100
AcDbEntity
  8
0
100
AcDbCircle
 62
7
  6
CONTINUOUS
 10
60.8891460222
 20
158.5281688191
 40
1.0
100
AcDbArc
 50
293.5781784782
 51
306.897652395
  0
ARC
  5
2DE
100
AcDbEntity
  8
0
100
AcDbCircle
 62
7
  6
CONTINUOUS
 10
61.0891460222
 20
155.7434898689
 40
0.2
100
AcDbArc
 50
271.439166666
 51
360.0
  0
ARC
  5
2DF
100
AcDbEntity
  8
0
100
AcDbCircle
 62
7
  6
CONTINUOUS
 10
59.4891460222
 20
155.7032922998
 40
0.2
100
AcDbArc
 50
181.439166666
 51
271.439166666
  0
ARC
  5
2E0
100
AcDbEntity
  8
RUNDUNGEN
100
AcDbCircle
 62
7
  6
CONTINUOUS
 10
138.4891460222
 20
-231.8968311809
 40
350.0
100
AcDbArc
 50
90.0
 51
98.1891709248
  0
ARC
  5
2E1
100
AcDbEntity
  8
0
100
AcDbCircle
 62
7
  6
CONTINUOUS
 10
138.4891460222
 20
-231.8968311809
 40
350.0
100
AcDbArc
 50
90.0
 51
98.1891709248
  0
ARC
  5
2E2
100
AcDbEntity
  8
0
100
AcDbCircle
 62
7
  6
CONTINUOUS
 10
205.7233187966
 20
86.1039709479
 40
159.2595221578
100
AcDbArc
 50
156.0446773748
 51
156.4374589831
  0
ARC
  5
2E3
100
AcDbEntity
  8
BEZUGSACHSEN
100
AcDbCircle
 62
7
  6
CONTINUOUS
 10
166.5208133222
 20
101.5393490386
 40
17.0527932288
100
AcDbArc
 50
91.1973745926
 51
98.5377245189
  0
ARC
  5
2E4
100
AcDbEntity
  8
BEZUGSACHSEN
100
AcDbCircle
 62
7
  6
CONTINUOUS
 10
166.4743462774
 20
101.7374191276
 40
16.8544187244
100
AcDbArc
 50
81.4190175831
 51
88.6220678962
  0
ARC
  5
2E5
100
AcDbEntity
  8
BEZUGSACHSEN
100
AcDbCircle
 62
7
  6
CONTINUOUS
 10
166.4870202971
 20
102.1069266447
 40
16.4847137199
100
AcDbArc
 50
88.6352225476
 51
91.1327359651
  0
ARC
  5
2E6
100
AcDbEntity
  8
RUNDUNGEN
100
AcDbCircle
 62
7
  6
CONTINUOUS
 10
89.4891460222
 20
108.5954594807
 40
6.0
100
AcDbArc
 50
98.189170925
 51
179.9999999993
  0
ARC
  5
2E7
100
AcDbEntity
  8
RUNDUNGEN
100
AcDbCircle
 62
7
  6
CONTINUOUS
 10
220.4891460222
 20
122.5275593108
 40
1.0
100
AcDbArc
 50
274.5000000055
 51
360.0
  0
ARC
  5
2E8
100
AcDbEntity
  8
RUNDUNGEN
100
AcDbCircle
 62
7
  6
CONTINUOUS
 10
170.005171426
 20
117.6031688191
 40
0.8
100
AcDbArc
 50
59.9999999498
 51
90.0
  0
ARC
  5
2E9
100
AcDbEntity
  8
RUNDUNGEN
100
AcDbCircle
 62
7
  6
CONTINUOUS
 10
162.9731206184
 20
117.6031688191
 40
0.8
100
AcDbArc
 50
90.0
 51
120.0000000491
  0
ARC
  5
2EA
100
AcDbEntity
  8
RUNDUNGEN
100
AcDbCircle
 62
7
  6
CONTINUOUS
 10
138.4891460222
 20
502.0531688191
 40
350.0
100
AcDbArc
 50
261.8108290752
 51
270.0
  0
ARC
  5
2EB
100
AcDbEntity
  8
0
100
AcDbCircle
 62
7
  6
CONTINUOUS
 10
138.4891460222
 20
502.0531688191
 40
350.0
100
AcDbArc
 50
261.8108290752
 51
270.0
  0
ARC
  5
2EC
100
AcDbEntity
  8
BEZUGSACHSEN
100
AcDbCircle
 62
7
  6
CONTINUOUS
 10
166.4574726978
 20
168.6170774979
 40
17.0528820364
100
AcDbArc
 50
271.1966719824
 51
278.5377001928
  0
ARC
  5
2ED
100
AcDbEntity
  8
BEZUGSACHSEN
100
AcDbCircle
 62
7
  6
CONTINUOUS
 10
166.5039420242
 20
168.418872164
 40
16.8543723381
100
AcDbArc
 50
261.419006656
 51
268.6228929181
  0
ARC
  5
2EE
100
AcDbEntity
  8
BEZUGSACHSEN
100
AcDbCircle
 62
7
  6
CONTINUOUS
 10
166.4912678941
 20
168.0494140012
 40
16.4847167271
100
AcDbArc
 50
268.636070576
 51
271.1319873523
  0
ARC
  5
2EF
100
AcDbEntity
  8
RUNDUNGEN
100
AcDbCircle
 62
7
  6
CONTINUOUS
 10
89.4891460222
 20
161.5608781575
 40
6.0
100
AcDbArc
 50
180.0000000019
 51
261.8108290746
  0
ARC
  5
2F0
100
AcDbEntity
  8
0
100
AcDbCircle
 62
2
  6
CONTINUOUS
 10
166.4887735446
 20
135.0786392502
 40
2.9994659177
100
AcDbArc
 50
255.0663032222
 51
195.0122681395
  0
CIRCLE
  5
2F1
100
AcDbEntity
  8
BEZUGSACHSEN
100
AcDbCircle
 62
7
  6
CONTINUOUS
 10
166.4891460222
 20
135.0781688191
 40
2.5
  0
ARC
  5
2F2
100
AcDbEntity
  8
RUNDUNGEN
100
AcDbCircle
 62
7
  6
CONTINUOUS
 10
220.4891460222
 20
147.6287783274
 40
1.0
100
AcDbArc
 50
0.0
 51
85.499999993
  0
ARC
  5
2F3
100
AcDbEntity
  8
RUNDUNGEN
100
AcDbCircle
 62
7
  6
CONTINUOUS
 10
170.005171426
 20
152.5531688191
 40
0.8
100
AcDbArc
 50
270.0
 51
300.0000000032
  0
ARC
  5
2F4
100
AcDbEntity
  8
RUNDUNGEN
100
AcDbCircle
 62
7
  6
CONTINUOUS
 10
162.9731206184
 20
152.5531688191
 40
0.8
100
AcDbArc
 50
239.9999999968
 51
270.0
  0
SPLINE
  5
2F5
100
AcDbEntity
  8
0
100
AcDbSpline
 62
2
  6
CONTINUOUS
 70
0
 71
3
 72
13
 73
9
 74
0
 42
0.0000001
 43
0.0000001
 44
0.0000000001
 40
0.0
 40
0.0
 40
0.0
 40
0.0
 40
0.1666666667
 40
0.3333333333
 40
0.5
 40
0.6666666667
 40
0.8333333333
 40
1.0
 40
1.0
 40
1.0
 40
1.0
 10
169.4891460222
 20
118.4031688191
 30
0.0
 10
169.4891460222
 20
118.4031688191
 30
0.0
 10
169.4178747085
 20
118.4162055897
 30
0.0
 10
169.113545361
 20
118.468101568
 30
0.0
 10
168.6334736541
 20
118.5388045389
 30
0.0
 10
167.9994490578
 20
118.6106299722
 30
0.0
 10
167.2706269716
 20
118.6625400648
 30
0.0
 10
166.7493672373
 20
118.6752536818
 30
0.0
 10
166.4891460222
 20
118.6752536818
 30
0.0
  0
SPLINE
  5
2F6
100
AcDbEntity
  8
0
100
AcDbSpline
 62
2
  6
CONTINUOUS
 70
0
 71
3
 72
13
 73
9
 74
0
 42
0.0000001
 43
0.0000001
 44
0.0000000001
 40
0.0
 40
0.0
 40
0.0
 40
0.0
 40
0.1666666667
 40
0.3333333333
 40
0.5
 40
0.6666666667
 40
0.8333333333
 40
1.0
 40
1.0
 40
1.0
 40
1.0
 10
166.4891460222
 20
118.6752536818
 30
0.0
 10
166.2290155673
 20
118.6752536818
 30
0.0
 10
165.7079092979
 20
118.6625487324
 30
0.0
 10
164.9792087832
 20
118.6106634621
 30
0.0
 10
164.345147945
 20
118.5388467175
 30
0.0
 10
163.8651852352
 20
118.4681712425
 30
0.0
 10
163.5605791324
 20
118.4162355945
 30
0.0
 10
163.4891460222
 20
118.4031688191
 30
0.0
 10
163.4891460222
 20
118.4031688191
 30
0.0
  0
SPLINE
  5
2F7
100
AcDbEntity
  8
0
100
AcDbSpline
 62
2
  6
CONTINUOUS
 70
0
 71
3
 72
13
 73
9
 74
0
 42
0.0000001
 43
0.0000001
 44
0.0000000001
 40
0.0
 40
0.0
 40
0.0
 40
0.0
 40
0.1666666667
 40
0.3333333333
 40
0.5
 40
0.6666666667
 40
0.8333333333
 40
1.0
 40
1.0
 40
1.0
 40
1.0
 10
166.4891460222
 20
151.4810839564
 30
0.0
 10
166.7489637851
 20
151.4810839564
 30
0.0
 10
167.2695583861
 20
151.4937475415
 30
0.0
 10
167.998855446
 20
151.5456505218
 30
0.0
 10
168.631781922
 20
151.6173459311
 30
0.0
 10
169.1097742944
 20
151.6876165423
 30
0.0
 10
169.4209963818
 20
151.7406645259
 30
0.0
 10
169.4891460222
 20
151.7531688191
 30
0.0
 10
169.4891460222
 20
151.7531688191
 30
0.0
  0
SPLINE
  5
2F8
100
AcDbEntity
  8
0
100
AcDbSpline
 62
2
  6
CONTINUOUS
 70
0
 71
3
 72
13
 73
9
 74
0
 42
0.0000001
 43
0.0000001
 44
0.0000000001
 40
0.0
 40
0.0
 40
0.0
 40
0.0
 40
0.1666666667
 40
0.3333333333
 40
0.5
 40
0.6666666667
 40
0.8333333333
 40
1.0
 40
1.0
 40
1.0
 40
1.0
 10
163.4891460222
 20
151.7531688191
 30
0.0
 10
163.4891460222
 20
151.7531688191
 30
0.0
 10
163.5573388692
 20
151.7406597796
 30
0.0
 10
163.8678280142
 20
151.6877268161
 30
0.0
 10
164.3461225142
 20
151.6173941635
 30
0.0
 10
164.9789831076
 20
151.5456921148
 30
0.0
 10
165.7084830557
 20
151.4937553418
 30
0.0
 10
166.229238288
 20
151.4810839564
 30
0.0
 10
166.4891460222
 20
151.4810839564
 30
0.0
  0
LINE
  5
2F9
100
AcDbEntity
  8
FASEN
100
AcDbLine
 62
7
  6
CONTINUOUS
 10
68.3021779459
 20
166.5722219015
 11
68.2666933397
 21
166.5781357596
  0
LINE
  5
2FA
100
AcDbEntity
  8
FASEN
100
AcDbLine
 62
7
  6
CONTINUOUS
 10
78.673884338
 20
166.5718502976
 11
78.7115987048
 21
166.5781357596
  0
LINE
  5
2FB
100
AcDbEntity
  8
ACHSEN
100
AcDbLine
 62
7
  6
CONTINUOUS
 10
29.8391460222
 20
154.6822201177
 11
24.9891460222
 21
154.5751584326
  0
LINE
  5
2FC
100
AcDbEntity
  8
ACHSEN
100
AcDbLine
 62
7
  6
CONTINUOUS
 10
31.6299170537
 20
154.9872082377
 11
31.7527653702
 21
155.004720895
  0
LINE
  5
2FD
100
AcDbEntity
  8
ACHSEN
100
AcDbLine
 62
7
  6
CONTINUOUS
 10
31.7527653702
 20
155.004720895
 11
31.7677163082
 21
155.0068266244
  0
LINE
  5
2FE
100
AcDbEntity
  8
ACHSEN
100
AcDbLine
 62
7
  6
CONTINUOUS
 10
31.7677163078
 20
155.0068266243
 11
31.7527949204
 21
155.0047250668
  0
SPLINE
  5
2FF
100
AcDbEntity
  8
ACHSEN
100
AcDbSpline
 62
7
  6
CONTINUOUS
 70
0
 71
3
 72
11
 73
7
 74
0
 42
0.0000001
 43
0.0000001
 44
0.0000000001
 40
0.0
 40
0.0
 40
0.0
 40
0.0
 40
0.1537099379
 40
0.500508937
 40
0.8472910559
 40
1.0
 40
1.0
 40
1.0
 40
1.0
 10
50.6685073555
 20
155.4816871545
 30
0.0
 10
50.2049220863
 20
155.4104101998
 30
0.0
 10
48.6906897722
 20
155.2063524274
 30
0.0
 10
46.1079153447
 20
155.0208433955
 30
0.0
 10
43.5218693147
 20
155.0737906142
 30
0.0
 10
42.002580132
 20
155.2035571069
 30
0.0
 10
41.5391460222
 20
155.2523258213
 30
0.0
  0
LINE
  5
300
100
AcDbEntity
  8
FASEN
100
AcDbLine
 62
7
  6
CONTINUOUS
 10
68.2666933398
 20
166.5781357595
 11
68.3045468684
 21
166.5718265768
  0
SPLINE
  5
301
100
AcDbEntity
  8
0
100
AcDbSpline
 62
7
  6
CONTINUOUS
 70
0
 71
3
 72
13
 73
9
 74
0
 42
0.0000001
 43
0.0000001
 44
0.0000000001
 40
0.0
 40
0.0
 40
0.0
 40
0.0
 40
0.1753307868
 40
0.3422637982
 40
0.4768046258
 40
0.5947351366
 40
0.8062611466
 40
1.0
 40
1.0
 40
1.0
 40
1.0
 10
61.0941691333
 20
113.550740079
 30
0.0
 10
61.0302563884
 20
113.5776802406
 30
0.0
 10
60.8924793451
 20
113.6064182267
 30
0.0
 10
60.7048323469
 20
113.5576394087
 30
0.0
 10
60.5632476632
 20
113.4687975057
 30
0.0
 10
60.4267824405
 20
113.3451948938
 30
0.0
 10
60.2983637539
 20
113.1813182878
 30
0.0
 10
60.2173237569
 20
113.0426472955
 30
0.0
 10
60.182039241
 20
112.9746121682
 30
0.0
  0
SPLINE
  5
302
100
AcDbEntity
  8
0
100
AcDbSpline
 62
7
  6
CONTINUOUS
 70
0
 71
3
 72
12
 73
8
 74
0
 42
0.0000001
 43
0.0000001
 44
0.0000000001
 40
0.0
 40
0.0
 40
0.0
 40
0.0
 40
0.2873076234
 40
0.4555854673
 40
0.6473090081
 40
0.8177551754
 40
1.0
 40
1.0
 40
1.0
 40
1.0
 10
61.0941691333
 20
113.550740079
 30
0.0
 10
61.1195554173
 20
113.5400393871
 30
0.0
 10
61.1622224803
 20
113.5274634433
 30
0.0
 10
61.2260276731
 20
113.5316219456
 30
0.0
 10
61.2689601705
 20
113.5659744441
 30
0.0
 10
61.285790041
 20
113.6167747449
 30
0.0
 10
61.2887363509
 20
113.6505375806
 30
0.0
 10
61.2890598155
 20
113.6680096939
 30
0.0
  0
SPLINE
  5
303
100
AcDbEntity
  8
0
100
AcDbSpline
 62
7
  6
CONTINUOUS
 70
0
 71
3
 72
15
 73
11
 74
0
 42
0.0000001
 43
0.0000001
 44
0.0000000001
 40
0.0
 40
0.0
 40
0.0
 40
0.0
 40
0.2503260428
 40
0.3755427651
 40
0.500769311
 40
0.625976783
 40
0.7510377775
 40
0.8746309833
 40
0.9372889186
 40
1.0
 40
1.0
 40
1.0
 40
1.0
 10
60.182039241
 20
141.4927085798
 30
0.0
 10
60.216173993
 20
141.3500640501
 30
0.0
 10
60.2735627474
 20
141.1373734139
 30
0.0
 10
60.3690651563
 20
140.8597819699
 30
0.0
 10
60.4530827828
 20
140.6562605542
 30
0.0
 10
60.5564624384
 20
140.460972404
 30
0.0
 10
60.684422708
 20
140.2841458696
 30
0.0
 10
60.8514607556
 20
140.1767011513
 30
0.0
 10
61.0021660713
 20
140.1982650712
 30
0.0
 10
61.0654439476
 20
140.2382068909
 30
0.0
 10
61.0941691333
 20
140.2611192722
 30
0.0
  0
SPLINE
  5
304
100
AcDbEntity
  8
0
100
AcDbSpline
 62
7
  6
CONTINUOUS
 70
0
 71
3
 72
13
 73
9
 74
0
 42
0.0000001
 43
0.0000001
 44
0.0000000001
 40
0.0
 40
0.0
 40
0.0
 40
0.0
 40
0.1670510693
 40
0.3289369806
 40
0.4609641718
 40
0.578209763
 40
0.7939442568
 40
1.0
 40
1.0
 40
1.0
 40
1.0
 10
61.0941691333
 20
151.4226471061
 30
0.0
 10
61.0297356826
 20
151.4468822111
 30
0.0
 10
60.8905346896
 20
151.4688165535
 30
0.0
 10
60.7039267013
 20
151.4123403813
 30
0.0
 10
60.5624656632
 20
151.3167769267
 30
0.0
 10
60.4249370659
 20
151.1824094576
 30
0.0
 10
60.2955173613
 20
151.000037199
 30
0.0
 10
60.2165173947
 20
150.8447849579
 30
0.0
 10
60.182039241
 20
150.7671857093
 30
0.0
  0
SPLINE
  5
305
100
AcDbEntity
  8
0
100
AcDbSpline
 62
7
  6
CONTINUOUS
 70
0
 71
3
 72
15
 73
11
 74
0
 42
0.0000001
 43
0.0000001
 44
0.0000000001
 40
0.0
 40
0.0
 40
0.0
 40
0.0
 40
0.0735479282
 40
0.1546005725
 40
0.2292557381
 40
0.2979289731
 40
0.4260365971
 40
0.5473626904
 40
0.7785364517
 40
1.0
 40
1.0
 40
1.0
 40
1.0
 10
61.0941691333
 20
151.4226471061
 30
0.0
 10
61.1066209521
 20
151.4179636515
 30
0.0
 10
61.1357712058
 20
151.413883139
 30
0.0
 10
61.1752406974
 20
151.4321251663
 30
0.0
 10
61.2028023725
 20
151.4625284599
 30
0.0
 10
61.2286973825
 20
151.5044061426
 30
0.0
 10
61.2497833463
 20
151.5583363652
 30
0.0
 10
61.2714220569
 20
151.6426070248
 30
0.0
 10
61.2852922439
 20
151.7458179101
 30
0.0
 10
61.2887167334
 20
151.8276792602
 30
0.0
 10
61.2890598155
 20
151.8677365065
 30
0.0
  0
SPLINE
  5
306
100
AcDbEntity
  8
0
100
AcDbSpline
 62
7
  6
CONTINUOUS
 70
0
 71
3
 72
15
 73
11
 74
0
 42
0.0000001
 43
0.0000001
 44
0.0000000001
 40
0.0
 40
0.0
 40
0.0
 40
0.0
 40
0.2846444905
 40
0.5382195662
 40
0.6533996007
 40
0.761473341
 40
0.8135077243
 40
0.8652449798
 40
0.9195347039
 40
1.0
 40
1.0
 40
1.0
 40
1.0
 10
59.2892091113
 20
113.3957669399
 30
0.0
 10
59.2892091113
 20
113.2761935025
 30
0.0
 10
59.2892040793
 20
113.0501322755
 30
0.0
 10
59.292406555
 20
112.7755406249
 30
0.0
 10
59.3059612968
 20
112.5756563515
 30
0.0
 10
59.3221629483
 20
112.460874791
 30
0.0
 10
59.3439866464
 20
112.3745402027
 30
0.0
 10
59.367726276
 20
112.3121105881
 30
0.0
 10
59.4065125074
 20
112.2445816385
 30
0.0
 10
59.4603766564
 20
112.2080796445
 30
0.0
 10
59.4941691333
 20
112.2072834276
 30
0.0
  0
SPLINE
  5
307
100
AcDbEntity
  8
0
100
AcDbSpline
 62
7
  6
CONTINUOUS
 70
0
 71
3
 72
9
 73
5
 74
0
 42
0.0000001
 43
0.0000001
 44
0.0000000001
 40
0.0
 40
0.0
 40
0.0
 40
0.0
 40
0.2573720101
 40
1.0
 40
1.0
 40
1.0
 40
1.0
 10
60.182039241
 20
112.9746121682
 30
0.0
 10
60.1468998528
 20
112.906856874
 30
0.0
 10
60.0079117173
 20
112.644885223
 30
0.0
 10
59.8589282268
 20
112.388176073
 30
0.0
 10
59.7421747731
 20
112.2014399438
 30
0.0
  0
SPLINE
  5
308
100
AcDbEntity
  8
0
100
AcDbSpline
 62
7
  6
CONTINUOUS
 70
0
 71
3
 72
8
 73
4
 74
0
 42
0.0000001
 43
0.0000001
 44
0.0000000001
 40
0.0
 40
0.0
 40
0.0
 40
0.0
 40
1.0
 40
1.0
 40
1.0
 40
1.0
 10
61.2890240688
 20
139.7033914791
 30
0.0
 10
61.2885943791
 20
139.7651034678
 30
0.0
 10
61.2867115732
 20
139.8268503073
 30
0.0
 10
61.2824117044
 20
139.8884138137
 30
0.0
  0
SPLINE
  5
309
100
AcDbEntity
  8
0
100
AcDbSpline
 62
7
  6
CONTINUOUS
 70
0
 71
3
 72
15
 73
11
 74
0
 42
0.0000001
 43
0.0000001
 44
0.0000000001
 40
0.0
 40
0.0
 40
0.0
 40
0.0
 40
0.2529176222
 40
0.3785524811
 40
0.5034347146
 40
0.6273379652
 40
0.7499890146
 40
0.8710889694
 40
0.9340922305
 40
1.0
 40
1.0
 40
1.0
 40
1.0
 10
61.2824117044
 20
139.8884138137
 30
0.0
 10
61.2795387865
 20
139.9295469053
 30
0.0
 10
61.273673347
 20
139.9910436967
 30
0.0
 10
61.2607016812
 20
140.0721273911
 30
0.0
 10
61.2476854349
 20
140.1317763655
 30
0.0
 10
61.2291965462
 20
140.1897391498
 30
0.0
 10
61.2042633612
 20
140.2437831788
 30
0.0
 10
61.1639230262
 20
140.2815455285
 30
0.0
 10
61.1207070171
 20
140.2795834824
 30
0.0
 10
61.1025692111
 20
140.2678195173
 30
0.0
 10
61.0941691333
 20
140.2611192722
 30
0.0
  0
SPLINE
  5
30A
100
AcDbEntity
  8
0
100
AcDbSpline
 62
7
  6
CONTINUOUS
 70
0
 71
3
 72
11
 73
7
 74
0
 42
0.0000001
 43
0.0000001
 44
0.0000000001
 40
0.0
 40
0.0
 40
0.0
 40
0.0
 40
0.2536313865
 40
0.5046749499
 40
0.7531440587
 40
1.0
 40
1.0
 40
1.0
 40
1.0
 10
74.9504708876
 20
125.7289475046
 30
0.0
 10
75.0111248546
 20
125.7289475046
 30
0.0
 10
75.1316026957
 20
125.6780712814
 30
0.0
 10
75.2483138678
 20
125.5379587148
 30
0.0
 10
75.3303826579
 20
125.3784500645
 30
0.0
 10
75.3679068708
 20
125.2656977515
 30
0.0
 10
75.3834835895
 20
125.2087562001
 30
0.0
  0
SPLINE
  5
30B
100
AcDbEntity
  8
0
100
AcDbSpline
 62
7
  6
CONTINUOUS
 70
0
 71
3
 72
9
 73
5
 74
0
 42
0.0000001
 43
0.0000001
 44
0.0000000001
 40
0.0
 40
0.0
 40
0.0
 40
0.0
 40
0.1680195226
 40
1.0
 40
1.0
 40
1.0
 40
1.0
 10
75.3834835895
 20
105.1642139726
 30
0.0
 10
75.3666353165
 20
105.1438938567
 30
0.0
 10
75.251182034
 20
105.0354128805
 30
0.0
 10
75.0811777989
 20
104.9975760588
 30
0.0
 10
74.9504708876
 20
104.9975760588
 30
0.0
  0
SPLINE
  5
30C
100
AcDbEntity
  8
0
100
AcDbSpline
 62
7
  6
CONTINUOUS
 70
0
 71
3
 72
11
 73
7
 74
0
 42
0.0000001
 43
0.0000001
 44
0.0000000001
 40
0.0
 40
0.0
 40
0.0
 40
0.0
 40
0.2468743153
 40
0.4953615093
 40
0.7464260843
 40
1.0
 40
1.0
 40
1.0
 40
1.0
 10
71.5948084549
 20
125.2087562001
 30
0.0
 10
71.6103862675
 20
125.2657017499
 30
0.0
 10
71.6479150449
 20
125.3784606032
 30
0.0
 10
71.7299865404
 20
125.5379847721
 30
0.0
 10
71.8467189015
 20
125.6780718782
 30
0.0
 10
71.967181189
 20
125.7289475046
 30
0.0
 10
72.0278211568
 20
125.7289475046
 30
0.0
  0
SPLINE
  5
30D
100
AcDbEntity
  8
0
100
AcDbSpline
 62
7
  6
CONTINUOUS
 70
0
 71
3
 72
9
 73
5
 74
0
 42
0.0000001
 43
0.0000001
 44
0.0000000001
 40
0.0
 40
0.0
 40
0.0
 40
0.0
 40
0.3641598889
 40
1.0
 40
1.0
 40
1.0
 40
1.0
 10
72.0278211568
 20
104.9975760588
 30
0.0
 10
71.970444735
 20
104.9975760588
 30
0.0
 10
71.8142584019
 20
105.0136951528
 30
0.0
 10
71.6587524113
 20
105.0870933917
 30
0.0
 10
71.5948084549
 20
105.1642139726
 30
0.0
  0
SPLINE
  5
30E
100
AcDbEntity
  8
0
100
AcDbSpline
 62
7
  6
CONTINUOUS
 70
0
 71
3
 72
9
 73
5
 74
0
 42
0.0000001
 43
0.0000001
 44
0.0000000001
 40
0.0
 40
0.0
 40
0.0
 40
0.0
 40
0.3642526053
 40
1.0
 40
1.0
 40
1.0
 40
1.0
 10
74.9504708876
 20
165.1587615794
 30
0.0
 10
75.0078622941
 20
165.1587615794
 30
0.0
 10
75.1640517527
 20
165.1426470239
 30
0.0
 10
75.319548538
 20
165.0692335068
 30
0.0
 10
75.3834835895
 20
164.9921236656
 30
0.0
  0
SPLINE
  5
30F
100
AcDbEntity
  8
0
100
AcDbSpline
 62
7
  6
CONTINUOUS
 70
0
 71
3
 72
21
 73
17
 74
0
 42
0.0000001
 43
0.0000001
 44
0.0000000001
 40
0.0
 40
0.0
 40
0.0
 40
0.0
 40
0.0152736556
 40
0.0307400416
 40
0.0615944727
 40
0.0924597446
 40
0.1233512662
 40
0.1852330485
 40
0.2472659363
 40
0.3094463907
 40
0.3717660941
 40
0.4967787028
 40
0.6222117836
 40
0.747963109
 40
0.8739278454
 40
1.0
 40
1.0
 40
1.0
 40
1.0
 10
59.4941691333
 20
143.2641120058
 30
0.0
 10
59.4789068181
 20
143.2640495865
 30
0.0
 10
59.4532186533
 20
143.2380524318
 30
0.0
 10
59.4274775606
 20
143.184299896
 30
0.0
 10
59.4038300308
 20
143.109528003
 30
0.0
 10
59.3840316574
 20
143.0194331786
 30
0.0
 10
59.3630539824
 20
142.8975358144
 30
0.0
 10
59.3441505823
 20
142.743987011
 30
0.0
 10
59.3279229422
 20
142.5587030588
 30
0.0
 10
59.3161537476
 20
142.3726689914
 30
0.0
 10
59.3046991077
 20
142.1235931391
 30
0.0
 10
59.2962853436
 20
141.81114762
 30
0.0
 10
59.2915328955
 20
141.43525214
 30
0.0
 10
59.2897184728
 20
141.0583820839
 30
0.0
 10
59.2892451347
 20
140.6808714509
 30
0.0
 10
59.2892091113
 20
140.429019552
 30
0.0
 10
59.2892091113
 20
140.3030399497
 30
0.0
  0
SPLINE
  5
310
100
AcDbEntity
  8
0
100
AcDbSpline
 62
7
  6
CONTINUOUS
 70
0
 71
3
 72
17
 73
13
 74
0
 42
0.0000001
 43
0.0000001
 44
0.0000000001
 40
0.0
 40
0.0
 40
0.0
 40
0.0
 40
0.2182009024
 40
0.3349220057
 40
0.456586696
 40
0.5831112211
 40
0.7144823146
 40
0.7820564401
 40
0.8510300181
 40
0.92186225
 40
0.958727904
 40
1.0
 40
1.0
 40
1.0
 40
1.0
 10
59.2892091113
 20
151.5356995677
 30
0.0
 10
59.2892091113
 20
151.4034205535
 30
0.0
 10
59.2891914239
 20
151.2003808921
 30
0.0
 10
59.2915985328
 20
150.9235921218
 30
0.0
 10
59.2964237263
 20
150.7024197192
 30
0.0
 10
59.3067094644
 20
150.4725047382
 30
0.0
 10
59.3228344878
 20
150.2758360431
 30
0.0
 10
59.3444085883
 20
150.1146351715
 30
0.0
 10
59.3670130589
 20
149.9914648794
 30
0.0
 10
59.3966088552
 20
149.8863141488
 30
0.0
 10
59.4310405299
 20
149.8068442945
 30
0.0
 10
59.4691536664
 20
149.7626239179
 30
0.0
 10
59.4941691333
 20
149.7631110239
 30
0.0
  0
LINE
  5
311
100
AcDbEntity
  8
0
100
AcDbLine
 62
7
  6
CONTINUOUS
 10
59.499547654
 20
111.6527840132
 11
59.7421747731
 21
112.2014399438
  0
SPLINE
  5
312
100
AcDbEntity
  8
0
100
AcDbSpline
 62
7
  6
CONTINUOUS
 70
0
 71
3
 72
10
 73
6
 74
0
 42
0.0000001
 43
0.0000001
 44
0.0000000001
 40
0.0
 40
0.0
 40
0.0
 40
0.0
 40
0.2163947382
 40
0.4583018846
 40
1.0
 40
1.0
 40
1.0
 40
1.0
 10
59.7421747731
 20
149.7679402518
 30
0.0
 10
59.6564733851
 20
149.3052186961
 30
0.0
 10
59.5341367929
 20
148.3139568048
 30
0.0
 10
59.4589580669
 20
146.1389436201
 30
0.0
 10
59.5894629021
 20
144.4332105023
 30
0.0
 10
59.7421747731
 20
143.2651262617
 30
0.0
  0
SPLINE
  5
313
100
AcDbEntity
  8
0
100
AcDbSpline
 62
7
  6
CONTINUOUS
 70
0
 71
3
 72
11
 73
7
 74
0
 42
0.0000001
 43
0.0000001
 44
0.0000000001
 40
0.0
 40
0.0
 40
0.0
 40
0.0
 40
0.2468553946
 40
0.4953235696
 40
0.7463663429
 40
1.0
 40
1.0
 40
1.0
 40
1.0
 10
75.3834835895
 20
144.9475814381
 30
0.0
 10
75.3679069025
 20
144.8906400028
 30
0.0
 10
75.3303829034
 20
144.7778879368
 30
0.0
 10
75.248314092
 20
144.6183799818
 30
0.0
 10
75.1316039201
 20
144.4782663127
 30
0.0
 10
75.0111254082
 20
144.4273901336
 30
0.0
 10
74.9504708876
 20
144.4273901336
 30
0.0
  0
SPLINE
  5
314
100
AcDbEntity
  8
0
100
AcDbSpline
 62
7
  6
CONTINUOUS
 70
0
 71
3
 72
9
 73
5
 74
0
 42
0.0000001
 43
0.0000001
 44
0.0000000001
 40
0.0
 40
0.0
 40
0.0
 40
0.0
 40
0.1680322176
 40
1.0
 40
1.0
 40
1.0
 40
1.0
 10
71.5948084549
 20
164.9921236656
 30
0.0
 10
71.6116580139
 20
165.0124453324
 30
0.0
 10
71.7271125907
 20
165.1209253644
 30
0.0
 10
71.8971161398
 20
165.1587615794
 30
0.0
 10
72.0278211568
 20
165.1587615794
 30
0.0
  0
SPLINE
  5
315
100
AcDbEntity
  8
0
100
AcDbSpline
 62
7
  6
CONTINUOUS
 70
0
 71
3
 72
11
 73
7
 74
0
 42
0.0000001
 43
0.0000001
 44
0.0000000001
 40
0.0
 40
0.0
 40
0.0
 40
0.0
 40
0.2535749038
 40
0.5046395871
 40
0.753126088
 40
1.0
 40
1.0
 40
1.0
 40
1.0
 10
72.0278211568
 20
144.4273901336
 30
0.0
 10
71.967180951
 20
144.4273901336
 30
0.0
 10
71.8467182786
 20
144.4782658253
 30
0.0
 10
71.7299864196
 20
144.6183535052
 30
0.0
 10
71.6479148737
 20
144.7778773328
 30
0.0
 10
71.6103862425
 20
144.8906359797
 30
0.0
 10
71.5948084549
 20
144.9475814381
 30
0.0
  0
ELLIPSE
  5
316
100
AcDbEntity
  8
0
100
AcDbEllipse
 62
7
  6
CONTINUOUS
 10
59.1419918329
 20
135.0781688191
 30
0.0
 11
14.7536831607
 21
31.0932549156
 31
0.0
 40
0.3419987131
 41
-1.0912395858
 42
-0.1578061866
  0
ELLIPSE
  5
317
100
AcDbEntity
  8
0
100
AcDbEllipse
 62
7
  6
CONTINUOUS
 10
87.8363002116
 20
135.0781688191
 30
0.0
 11
-14.7536831607
 21
31.0932549156
 31
0.0
 40
0.3419987131
 41
0.1578061866
 42
1.0912395858
  0
ELLIPSE
  5
318
100
AcDbEntity
  8
0
100
AcDbEllipse
 62
7
  6
CONTINUOUS
 10
87.8363002116
 20
135.0781688191
 30
0.0
 11
14.7536831607
 21
31.0932549156
 31
0.0
 40
0.3419987131
 41
-4.2328322393
 42
-3.2993988402
  0
ELLIPSE
  5
319
100
AcDbEntity
  8
0
100
AcDbEllipse
 62
7
  6
CONTINUOUS
 10
59.1419918329
 20
135.0781688191
 30
0.0
 11
-14.7536831607
 21
31.0932549156
 31
0.0
 40
0.3419987131
 41
-2.9837864669
 42
-2.0503530678
  0
ENDSEC
  0
SECTION
  2
OBJECTS
  0
DICTIONARY
  5
C
100
AcDbDictionary
280
0
281
1
  3
ACAD_GROUP
350
D
  3
ACAD_MLINESTYLE
350
17
  3
ACAD_LAYOUT
350
1A
  3
ACAD_PLOTSETTINGS
350
19
  3
ACAD_PLOTSTYLENAME
350
E
  0
DICTIONARY
  5
D
102
{ACAD_REACTORS
330
C
102
}
100
AcDbDictionary
280
0
281
1
  0
ACDBDICTIONARYWDFLT
  5
E
102
{ACAD_REACTORS
330
C
102
}
100
AcDbDictionary
281
1
  3
Normal
350
F
100
AcDbDictionaryWithDefault
340
F
  0
DICTIONARY
  5
17
102
{ACAD_REACTORS
330
C
102
}
100
AcDbDictionary
280
0
281
1
  3
Standard
350
18
  0
DICTIONARY
  5
19
102
{ACAD_REACTORS
330
C
102
}
100
AcDbDictionary
281
1
  0
DICTIONARY
  5
1A
102
{ACAD_REACTORS
330
C
102
}
100
AcDbDictionary
281
1
  3
Model
350
31A
  3
Layout1
350
31B
  0
ACDBPLACEHOLDER
  5
F
102
{ACAD_REACTORS
330
E
102
}
  0
MLINESTYLE
  5
18
102
{ACAD_REACTORS
330
17
102
}
100
AcDbMlineStyle
  2
STANDARD
 70
0
  3

 62
256
 51
90.0
 52
90.0
 71
2
 49
0.5
 62
256
  6
BYLAYER
 49
-0.5
 62
256
  6
BYLAYER
  0
LAYOUT
  5
31A
102
{ACAD_REACTORS
330
1A
102
}
100
AcDbPlotSettings
  1

  2
none_device
  4
ISO_A4_(297.00_x_210.00_MM)
  6

 40
0.0
 41
0.0
 42
0.0
 43
0.0
 44
297.0
 45
210.0
 46
0.0
 47
0.0
 48
0.0
 49
0.0
140
0.0
141
0.0
142
1.0
143
1.0
 70
1024
 72
1
 73
0
 74
0
  7

 75
0
147
1.0
148
0.0
149
0.0
100
AcDbLayout
  1
Model
 70
0
 71
0
 10
0.0
 20
0.0
 11
297.0
 21
210.0
 12
0.0
 22
0.0
 32
0.0
 14
0.0
 24
0.0
 34
0.0
 15
0.0
 25
0.0
 35
0.0
146
0.0
 13
0.0
 23
0.0
 33
0.0
 16
1.0
 26
0.0
 36
0.0
 17
0.0
 27
1.0
 37
0.0
 76
0
330
217
345
0
346
0
  0
LAYOUT
  5
31B
102
{ACAD_REACTORS
330
1A
102
}
100
AcDbPlotSettings
  1

  2
none_device
  4
ISO_A4_(297.00_x_210.00_MM)
  6

 40
0.0
 41
0.0
 42
0.0
 43
0.0
 44
297.0
 45
210.0
 46
0.0
 47
0.0
 48
0.0
 49
0.0
140
0.0
141
0.0
142
1.0
143
1.0
 70
0
 72
1
 73
0
 74
0
  7

 75
0
147
1.0
148
0.0
149
0.0
100
AcDbLayout
  1
Layout1
 70
0
 71
1
 10
0.0
 20
0.0
 11
297.0
 21
210.0
 12
0.0
 22
0.0
 32
0.0
 14
0.0
 24
0.0
 34
0.0
 15
0.0
 25
0.0
 35
0.0
146
0.0
 13
0.0
 23
0.0
 33
0.0
 16
1.0
 26
0.0
 36
0.0
 17
0.0
 27
1.0
 37
0.0
 76
0
330
218
345
0
346
0
  0
ENDSEC
  0
EOF
