999
DXF file: cc6-142-12.dxf
999
Pro/ENGINEER 2010430 by Parametric Technology Corporation
  0
SECTION
  2
HEADER
  9
$ACADVER
  1
AC1021
  9
$DWGCODEPAGE
  3
ANSI_1252
  9
$EXTMAX
 10
297.0
 20
210.0
 30
0.0
  9
$EXTMIN
 10
0.0
 20
0.0
 30
0.0
  9
$LIMMIN
 10
0.0
 20
0.0
  9
$LIMMAX
 10
297.0
 20
210.0
  9
$VIEWCTR
 10
148.5
 20
105.0
  9
$VIEWSIZE
 40
210.0
  9
$CLAYER
  8
0
  9
$LTSCALE
 40
16.335
  9
$CELTYPE
  6
BYLAYER
  9
$DIMSCALE
 40
1.0
  9
$DIMASZ
 40
3.5
  9
$DIMEXO
 40
1.85625
  9
$DIMDLI
 40
11.286
  9
$DIMEXE
 40
5.346
  9
$DIMCEN
 40
2.673
  9
$DIMLFAC
 40
1.0
  9
$DIMBLK
  1
_FILLED
  9
$DIMTXT
 40
3.5
  9
$DIMTOL
 70
1
  9
$DIMLIM
 70
0
  9
$DIMTFAC
 40
1.0
  9
$DIMTP
 40
0.005
  9
$DIMTM
 40
0.005
  9
$PDMODE
 70
3
  9
$PDSIZE
 40
0.3125
  9
$HANDSEED
  5
317
  9
$TILEMODE
 70
1
  9
$MEASUREMENT
 70
1
  9
$INSUNITS
 70
4
  0
ENDSEC
  0
SECTION
  2
CLASSES
  0
CLASS
  1
ACDBDICTIONARYWDFLT
  2
AcDbDictionaryWithDefault
  3
AutoCAD 2000
 90
0
 91
1
280
0
281
0
  0
CLASS
  1
ACDBPLACEHOLDER
  2
AcDbPlaceHolder
  3
AutoCAD 2000
 90
0
 91
1
280
0
281
0
  0
CLASS
  1
LAYOUT
  2
AcDbLayout
  3
AutoCAD 2000
 90
0
 91
0
280
0
281
0
  0
ENDSEC
  0
SECTION
  2
TABLES
  0
TABLE
  2
VPORT
  5
8
100
AcDbSymbolTable
 70
2
  0
VPORT
  5
1F4
100
AcDbSymbolTableRecord
100
AcDbViewportTableRecord
  2
*ACTIVE
 70
0
 10
0.0
 20
0.0
 11
1.0
 21
1.0
 12
148.5
 22
105.0
 13
0.0
 23
0.0
 14
1.0
 24
1.0
 15
0.0
 25
0.0
 16
0.0
 26
0.0
 36
1.0
 17
0.0
 27
0.0
 37
0.0
 40
210.0
 41
1.4142857143
 42
50.0
 43
0.0
 44
0.0
 50
0.0
 51
0.0
 71
0
 72
100
 73
1
 74
1
 75
0
 76
0
 77
0
 78
0
  0
ENDTAB
  0
TABLE
  2
LTYPE
  5
5
100
AcDbSymbolTable
 70
6
  0
LTYPE
  5
14
100
AcDbSymbolTableRecord
100
AcDbLinetypeTableRecord
  2
BYBLOCK
 70
0
  3

 72
65
 73
0
 40
0.0
  0
LTYPE
  5
15
100
AcDbSymbolTableRecord
100
AcDbLinetypeTableRecord
  2
BYLAYER
 70
0
  3

 72
65
 73
0
 40
0.0
  0
LTYPE
  5
16
100
AcDbSymbolTableRecord
100
AcDbLinetypeTableRecord
  2
CONTINUOUS
 70
64
  3
Solid line
 72
65
 73
0
 40
0.0
  0
LTYPE
  5
1F5
100
AcDbSymbolTableRecord
100
AcDbLinetypeTableRecord
  2
CENTER
 70
64
  3
____ _ ____ _ ____ _ ____ _ ____ _ ____ _ ____
 72
65
 73
4
 40
0.6
 49
0.375
 74
0
 49
-0.075
 74
0
 49
0.075
 74
0
 49
-0.075
 74
0
  0
LTYPE
  5
1F6
100
AcDbSymbolTableRecord
100
AcDbLinetypeTableRecord
  2
HIDDEN
 70
64
  3
- - - - - - - - - - - - - - - - - - - -
 72
65
 73
2
 40
0.2
 49
0.1
 74
0
 49
-0.1
 74
0
  0
LTYPE
  5
1F7
100
AcDbSymbolTableRecord
100
AcDbLinetypeTableRecord
  2
PHANTOM
 70
64
  3
_____ _ _ _____ _ _ _____ _ _ _____
 72
65
 73
6
 40
0.8
 49
0.45
 74
0
 49
-0.05
 74
0
 49
0.1
 74
0
 49
-0.05
 74
0
 49
0.1
 74
0
 49
-0.05
 74
0
  0
LTYPE
  5
1F8
100
AcDbSymbolTableRecord
100
AcDbLinetypeTableRecord
  2
DOT
 70
64
  3
. . . . . . . . . . . . . . . . . . . .
 72
65
 73
2
 40
0.2
 49
0.1
 74
0
 49
-0.1
 74
0
  0
LTYPE
  5
1F9
100
AcDbSymbolTableRecord
100
AcDbLinetypeTableRecord
  2
DASHED
 70
64
  3
- - - - - - - - - - - - - - - - - - - -
 72
65
 73
2
 40
0.2
 49
0.1
 74
0
 49
-0.1
 74
0
  0
ENDTAB
  0
TABLE
  2
LAYER
  5
2
100
AcDbSymbolTable
 70
36
  0
LAYER
  5
10
100
AcDbSymbolTableRecord
100
AcDbLayerTableRecord
  2
0
 70
0
 62
7
  6
CONTINUOUS
370
-3
390
F
  0
LAYER
  5
1FA
100
AcDbSymbolTableRecord
100
AcDbLayerTableRecord
  2
DEFAULT_1
 70
0
 62
7
  6
CENTER
370
-3
390
F
  0
LAYER
  5
1FB
100
AcDbSymbolTableRecord
100
AcDbLayerTableRecord
  2
DEFAULT_2
 70
0
 62
8
  6
HIDDEN
370
-3
390
F
  0
LAYER
  5
1FC
100
AcDbSymbolTableRecord
100
AcDbLayerTableRecord
  2
DEFAULT_3
 70
0
 62
7
  6
PHANTOM
370
-3
390
F
  0
LAYER
  5
1FD
100
AcDbSymbolTableRecord
100
AcDbLayerTableRecord
  2
ACHSEN
 70
0
 62
7
  6
CONTINUOUS
370
-3
390
F
  0
LAYER
  5
1FE
100
AcDbSymbolTableRecord
100
AcDbLayerTableRecord
  2
BEZUGSACHSEN
 70
0
 62
7
  6
CONTINUOUS
370
-3
390
F
  0
LAYER
  5
1FF
100
AcDbSymbolTableRecord
100
AcDbLayerTableRecord
  2
BEZUGSEBENE_B
 70
0
 62
7
  6
CONTINUOUS
370
-3
390
F
  0
LAYER
  5
200
100
AcDbSymbolTableRecord
100
AcDbLayerTableRecord
  2
BOHRUNGEN
 70
0
 62
7
  6
CONTINUOUS
370
-3
390
F
  0
LAYER
  5
201
100
AcDbSymbolTableRecord
100
AcDbLayerTableRecord
  2
EBENEN
 70
0
 62
7
  6
CONTINUOUS
370
-3
390
F
  0
LAYER
  5
202
100
AcDbSymbolTableRecord
100
AcDbLayerTableRecord
  2
FASEN
 70
0
 62
7
  6
CONTINUOUS
370
-3
390
F
  0
LAYER
  5
203
100
AcDbSymbolTableRecord
100
AcDbLayerTableRecord
  2
FLAECHEN
 70
0
 62
7
  6
CONTINUOUS
370
-3
390
F
  0
LAYER
  5
204
100
AcDbSymbolTableRecord
100
AcDbLayerTableRecord
  2
GEWINDE
 70
0
 62
7
  6
CONTINUOUS
370
-3
390
F
  0
LAYER
  5
205
100
AcDbSymbolTableRecord
100
AcDbLayerTableRecord
  2
KOORDSYS
 70
0
 62
7
  6
CONTINUOUS
370
-3
390
F
  0
LAYER
  5
206
100
AcDbSymbolTableRecord
100
AcDbLayerTableRecord
  2
KURVEN
 70
0
 62
7
  6
CONTINUOUS
370
-3
390
F
  0
LAYER
  5
207
100
AcDbSymbolTableRecord
100
AcDbLayerTableRecord
  2
KURVE_FUER_GTOL_DETAILANSICHT
 70
0
 62
7
  6
CONTINUOUS
370
-3
390
F
  0
LAYER
  5
208
100
AcDbSymbolTableRecord
100
AcDbLayerTableRecord
  2
KURVE_GAUGE2_POLIGON_INNENEINST
 70
0
 62
7
  6
CONTINUOUS
370
-3
390
F
  0
LAYER
  5
209
100
AcDbSymbolTableRecord
100
AcDbLayerTableRecord
  2
KURVE_PHANTOM1_GAUGE_PIN_1
 70
0
 62
7
  6
CONTINUOUS
370
-3
390
F
  0
LAYER
  5
20A
100
AcDbSymbolTableRecord
100
AcDbLayerTableRecord
  2
KURVE_PHANTOM2_GAUGE_PIN1
 70
0
 62
7
  6
CONTINUOUS
370
-3
390
F
  0
LAYER
  5
20B
100
AcDbSymbolTableRecord
100
AcDbLayerTableRecord
  2
KURVE_POLIGON_BEMASUNG
 70
0
 62
7
  6
CONTINUOUS
370
-3
390
F
  0
LAYER
  5
20C
100
AcDbSymbolTableRecord
100
AcDbLayerTableRecord
  2
PUNKTE
 70
0
 62
7
  6
CONTINUOUS
370
-3
390
F
  0
LAYER
  5
20D
100
AcDbSymbolTableRecord
100
AcDbLayerTableRecord
  2
RUNDUNGEN
 70
0
 62
7
  6
CONTINUOUS
370
-3
390
F
  0
LAYER
  5
20E
100
AcDbSymbolTableRecord
100
AcDbLayerTableRecord
  2
S_ACHSEN
 70
0
 62
7
  6
CONTINUOUS
370
-3
390
F
  0
LAYER
  5
20F
100
AcDbSymbolTableRecord
100
AcDbLayerTableRecord
  2
S_EBENEN
 70
0
 62
7
  6
CONTINUOUS
370
-3
390
F
  0
LAYER
  5
210
100
AcDbSymbolTableRecord
100
AcDbLayerTableRecord
  2
S_KOORDSYS
 70
0
 62
7
  6
CONTINUOUS
370
-3
390
F
  0
LAYER
  5
211
100
AcDbSymbolTableRecord
100
AcDbLayerTableRecord
  2
TOL_BEZUEGE
 70
0
 62
7
  6
CONTINUOUS
370
-3
390
F
  0
LAYER
  5
212
100
AcDbSymbolTableRecord
100
AcDbLayerTableRecord
  2
VERBFLAECHE
 70
0
 62
7
  6
CONTINUOUS
370
-3
390
F
  0
LAYER
  5
213
100
AcDbSymbolTableRecord
100
AcDbLayerTableRecord
  2
ZEICHNUNGSBEMASSUNGEN
 70
0
 62
7
  6
CONTINUOUS
370
-3
390
F
  0
ENDTAB
  0
TABLE
  2
STYLE
  5
3
100
AcDbSymbolTable
 70
1
  0
STYLE
  5
11
100
AcDbSymbolTableRecord
100
AcDbTextStyleTableRecord
  2
STANDARD
 70
0
 40
0.0
 41
0.7
 50
0.0
 71
0
 42
0.2
  3
txt
  4

  0
STYLE
  5
214
100
AcDbSymbolTableRecord
100
AcDbTextStyleTableRecord
  2
TEXTSTYLE_1
 70
0
 40
0.0
 41
0.8
 50
0.0
 71
0
 42
0.2
  3
gdt
  4

  0
STYLE
  5
215
100
AcDbSymbolTableRecord
100
AcDbTextStyleTableRecord
  2
TEXTSTYLE_2
 70
0
 40
0.0
 41
0.7
 50
0.0
 71
0
 42
0.2
  3
gdt
  4

  0
ENDTAB
  0
TABLE
  2
VIEW
  5
6
100
AcDbSymbolTable
 70
0
  0
ENDTAB
  0
TABLE
  2
UCS
  5
7
100
AcDbSymbolTable
 70
0
  0
ENDTAB
  0
TABLE
  2
APPID
  5
9
100
AcDbSymbolTable
 70
1
  0
APPID
  5
216
100
AcDbSymbolTableRecord
100
AcDbRegAppTableRecord
  2
ACAD
 70
0
  0
ENDTAB
  0
TABLE
  2
BLOCK_RECORD
  5
1
100
AcDbSymbolTable
 70
0
  0
BLOCK_RECORD
  5
217
100
AcDbSymbolTableRecord
100
AcDbBlockTableRecord
  2
*Model_Space
  0
BLOCK_RECORD
  5
218
100
AcDbSymbolTableRecord
100
AcDbBlockTableRecord
  2
*Paper_Space
  0
BLOCK_RECORD
  5
219
100
AcDbSymbolTableRecord
100
AcDbBlockTableRecord
  2
_FILLED
  0
BLOCK_RECORD
  5
21A
100
AcDbSymbolTableRecord
100
AcDbBlockTableRecord
  2
*D0
  0
BLOCK_RECORD
  5
21B
100
AcDbSymbolTableRecord
100
AcDbBlockTableRecord
  2
*D1
  0
BLOCK_RECORD
  5
21C
100
AcDbSymbolTableRecord
100
AcDbBlockTableRecord
  2
*D2
  0
BLOCK_RECORD
  5
21D
100
AcDbSymbolTableRecord
100
AcDbBlockTableRecord
  2
*D3
  0
BLOCK_RECORD
  5
21E
100
AcDbSymbolTableRecord
100
AcDbBlockTableRecord
  2
*D4
  0
BLOCK_RECORD
  5
21F
100
AcDbSymbolTableRecord
100
AcDbBlockTableRecord
  2
*D5
  0
BLOCK_RECORD
  5
220
100
AcDbSymbolTableRecord
100
AcDbBlockTableRecord
  2
*D6
  0
ENDTAB
  0
TABLE
  2
DIMSTYLE
  5
A
100
AcDbSymbolTable
 70
1
100
AcDbDimStyleTable
 71
0
  0
DIMSTYLE
105
221
100
AcDbSymbolTableRecord
100
AcDbDimStyleTableRecord
  2
STANDARD
 70
0
  3

  4

 40
1.0
 41
3.5
 42
0.0625
 43
0.38
 44
0.18
 45
0.0
 46
0.0
 47
0.005
 48
0.005
140
3.5
141
0.09
142
0.0
143
25.4
144
1.0
145
0.0
146
1.0
147
0.09
 71
1.0
 72
0.0
 73
0
 74
0
 75
0
 76
0
 77
1
 78
8
170
0
171
2
172
0
173
0
174
0
175
0
176
0
177
0
178
5
270
2
271
3
272
3
273
2
274
2
275
0
280
0
281
0
282
0
283
1
284
8
285
0
286
0
287
3
288
0
340
11
341
219
342
219
343
219
344
219
  0
DIMSTYLE
105
222
100
AcDbSymbolTableRecord
100
AcDbDimStyleTableRecord
  2
DIMSTYLE_1
 70
0
  3

  4

 40
1.0
 41
3.5
 42
0.0625
 43
0.38
 44
0.18
 45
0.0
 46
0.0
 47
0.0
 48
0.1
140
3.5
141
0.09
142
0.0
143
25.4
144
1.0
145
0.0
146
1.0
147
0.09
 71
0.0
 72
0.0
 73
0
 74
0
 75
0
 76
0
 77
1
 78
8
170
0
171
2
172
0
173
0
174
0
175
0
176
0
177
0
178
5
270
2
271
2
272
2
273
2
274
2
275
0
280
0
281
0
282
0
283
1
284
8
285
0
286
0
287
3
288
0
340
11
341
219
342
219
343
219
344
219
  0
DIMSTYLE
105
223
100
AcDbSymbolTableRecord
100
AcDbDimStyleTableRecord
  2
DIMSTYLE_2
 70
0
  3

  4

 40
1.0
 41
3.5
 42
0.0625
 43
0.38
 44
0.18
 45
0.0
 46
0.0
 47
0.25
 48
0.25
140
3.5
141
0.09
142
0.0
143
25.4
144
1.0
145
0.0
146
1.0
147
0.09
 71
0.0
 72
0.0
 73
0
 74
0
 75
0
 76
0
 77
1
 78
8
170
0
171
2
172
0
173
0
174
0
175
0
176
0
177
0
178
5
270
2
271
2
272
2
273
2
274
2
275
0
280
0
281
0
282
0
283
1
284
8
285
0
286
0
287
3
288
0
340
11
341
219
342
219
343
219
344
219
  0
DIMSTYLE
105
224
100
AcDbSymbolTableRecord
100
AcDbDimStyleTableRecord
  2
DIMSTYLE_3
 70
0
  3

  4

 40
1.0
 41
3.5
 42
0.0625
 43
0.38
 44
0.18
 45
0.0
 46
0.0
 47
0.5
 48
0.5
140
3.5
141
0.09
142
0.0
143
25.4
144
1.0
145
0.0
146
1.0
147
0.09
 71
0.0
 72
0.0
 73
0
 74
0
 75
0
 76
0
 77
1
 78
8
170
0
171
2
172
0
173
0
174
0
175
0
176
0
177
0
178
5
270
2
271
2
272
2
273
2
274
2
275
0
280
0
281
0
282
0
283
1
284
8
285
0
286
0
287
3
288
0
340
11
341
219
342
219
343
219
344
219
  0
DIMSTYLE
105
225
100
AcDbSymbolTableRecord
100
AcDbDimStyleTableRecord
  2
DIMSTYLE_4
 70
0
  3

  4

 40
1.0
 41
3.5
 42
0.0625
 43
0.38
 44
0.18
 45
0.0
 46
0.0
 47
-0.025
 48
0.03
140
3.5
141
0.09
142
0.0
143
25.4
144
1.0
145
0.0
146
1.0
147
0.09
 71
0.0
 72
0.0
 73
0
 74
0
 75
0
 76
0
 77
1
 78
8
170
0
171
2
172
0
173
0
174
0
175
0
176
0
177
0
178
5
270
2
271
3
272
3
273
2
274
2
275
0
280
0
281
0
282
0
283
1
284
8
285
0
286
0
287
3
288
0
340
11
341
219
342
219
343
219
344
219
  0
ENDTAB
  0
ENDSEC
  0
SECTION
  2
BLOCKS
  0
BLOCK
  5
20
100
AcDbEntity
  8
0
100
AcDbBlockBegin
  2
*Model_Space
 70
0
 10
0.0
 20
0.0
 30
0.0
  3
*Model_Space
  1

  0
ENDBLK
  5
21
100
AcDbEntity
  8
0
100
AcDbBlockEnd
  0
BLOCK
  5
1C
100
AcDbEntity
  8
0
100
AcDbBlockBegin
  2
*Paper_Space
 70
0
 10
0.0
 20
0.0
 30
0.0
  3
*Paper_Space
  1

  0
ENDBLK
  5
1D
100
AcDbEntity
  8
0
100
AcDbBlockEnd
  0
BLOCK
  5
226
100
AcDbEntity
  8
0
100
AcDbBlockBegin
  2
_FILLED
 70
64
 10
0.0
 20
0.0
  3
_FILLED
  1

  0
SOLID
  5
227
100
AcDbEntity
  8
0
  6
BYBLOCK
 62
0
100
AcDbTrace
 10
0.0
 20
0.0
 11
-1.0
 21
0.125
 12
-1.0
 22
-0.125
 13
-1.0
 23
-0.125
  0
ENDBLK
  5
228
100
AcDbEntity
  8
0
  6
BYBLOCK
 62
0
100
AcDbBlockEnd
  0
BLOCK
  5
229
100
AcDbEntity
  8
0
100
AcDbBlockBegin
 62
2
  6
CONTINUOUS
  2
*D0
 70
65
 10
0.0
 20
0.0
  3
*D0
  1

  0
MTEXT
  5
22A
100
AcDbEntity
  8
0
100
AcDbMText
 62
5
  6
CONTINUOUS
  7
TEXTSTYLE_2
 71
2
 72
1
 10
256.9869156313
 20
130.894057031
 30
0.0
 11
0.0
 21
1.0
 31
0.0
 44
0.9
  1
{\Fgdt;n}\Ftxt;24
 40
3.5
 41
10.1666666667
  0
LINE
  5
22B
100
AcDbEntity
  8
0
100
AcDbLine
 62
2
  6
CONTINUOUS
 10
222.8547112346
 20
142.869057031
 11
262.8619156313
 21
142.869057031
  0
LINE
  5
22C
100
AcDbEntity
  8
0
100
AcDbLine
 62
2
  6
CONTINUOUS
 10
222.8547112346
 20
118.919057031
 11
251.4552077209
 21
118.919057031
  0
LINE
  5
22D
100
AcDbEntity
  8
0
100
AcDbLine
 62
2
  6
CONTINUOUS
 10
255.2623107647
 20
118.919057031
 11
262.8619156313
 21
118.919057031
  0
LINE
  5
22E
100
AcDbEntity
  8
0
100
AcDbLine
 62
2
  6
CONTINUOUS
 10
261.3619156313
 20
142.869057031
 11
261.3619156313
 21
130.894057031
  0
LINE
  5
22F
100
AcDbEntity
  8
0
100
AcDbLine
 62
2
  6
CONTINUOUS
 10
261.3619156313
 20
118.919057031
 11
261.3619156313
 21
130.894057031
  0
INSERT
  5
230
100
AcDbEntity
  8
0
100
AcDbBlockReference
 62
2
  6
CONTINUOUS
  2
_FILLED
 10
261.3619156313
 20
142.869057031
 41
3.5
 42
3.5
 43
3.5
 50
90.0
  0
INSERT
  5
231
100
AcDbEntity
  8
0
100
AcDbBlockReference
 62
2
  6
CONTINUOUS
  2
_FILLED
 10
261.3619156313
 20
118.919057031
 41
3.5
 42
3.5
 43
3.5
 50
270.0
  0
ENDBLK
  5
232
100
AcDbEntity
  8
0
  6
BYBLOCK
 62
0
100
AcDbBlockEnd
  0
BLOCK
  5
233
100
AcDbEntity
  8
0
100
AcDbBlockBegin
 62
2
  6
CONTINUOUS
  2
*D1
 70
65
 10
0.0
 20
0.0
  3
*D1
  1

  0
MTEXT
  5
234
100
AcDbEntity
  8
0
100
AcDbMText
 62
5
  6
CONTINUOUS
  7
STANDARD
 71
2
 72
1
 10
244.9702915228
 20
103.5382281873
 30
0.0
 11
0.1511290802
 21
0.9885140369
 31
0.0
 44
0.9
  1
4\Fgdt;{\Fgdt;~}\Ftxt;30'
 40
3.5
 41
12.3333333333
  0
LINE
  5
235
100
AcDbEntity
  8
0
100
AcDbLine
 62
2
  6
CONTINUOUS
 10
200.0305790679
 20
117.2408114329
 11
254.076902101
 21
121.4943493032
  0
LINE
  5
236
100
AcDbEntity
  8
0
100
AcDbLine
 62
2
  6
CONTINUOUS
 10
172.0298922899
 20
114.919057031
 11
218.1135270927
 21
114.919057031
  0
LINE
  5
237
100
AcDbEntity
  8
0
100
AcDbLine
 62
2
  6
CONTINUOUS
 10
228.8965934142
 20
114.919057031
 11
254.3352460379
 21
114.919057031
  0
ARC
  5
238
100
AcDbEntity
  8
0
100
AcDbCircle
 62
2
  6
CONTINUOUS
 10
170.5298922899
 20
114.919057031
 40
82.305353748
100
AcDbArc
 50
4.5
 51
8.6768203577
  0
ARC
  5
239
100
AcDbEntity
  8
0
100
AcDbCircle
 62
2
  6
CONTINUOUS
 10
170.5298922899
 20
114.919057031
 40
82.305353748
100
AcDbArc
 50
351.3076359335
 51
0.0
  0
ARC
  5
23A
100
AcDbEntity
  8
0
100
AcDbCircle
 62
2
  6
CONTINUOUS
 10
170.5298922899
 20
114.919057031
 40
82.305353748
100
AcDbArc
 50
360.0
 51
4.5
  0
SOLID
  5
23B
100
AcDbEntity
  8
0
100
AcDbTrace
 62
2
  6
CONTINUOUS
 10
251.7974753718
 20
124.8156533471
 11
252.5815261004
 21
121.3766606596
 12
252.6681212866
 22
124.9028352899
 13
252.6681212866
 23
124.9028352899
  0
SOLID
  5
23C
100
AcDbEntity
  8
0
100
AcDbTrace
 62
2
  6
CONTINUOUS
 10
253.198234753
 20
111.4105466002
 11
252.8352460379
 21
114.919057031
 12
252.3234325326
 22
111.429149699
 13
252.3234325326
 23
111.429149699
  0
ENDBLK
  5
23D
100
AcDbEntity
  8
0
  6
BYBLOCK
 62
0
100
AcDbBlockEnd
  0
BLOCK
  5
23E
100
AcDbEntity
  8
0
100
AcDbBlockBegin
 62
2
  6
CONTINUOUS
  2
*D2
 70
65
 10
0.0
 20
0.0
  3
*D2
  1

  0
MTEXT
  5
23F
100
AcDbEntity
  8
0
100
AcDbMText
 62
5
  6
CONTINUOUS
  7
STANDARD
 71
2
 72
1
 10
141.3547112346
 20
180.3031457661
 30
0.0
 11
1.0
 21
0.0
 31
0.0
 44
0.9
  1
160
 40
3.5
 41
7.5
  0
LINE
  5
240
100
AcDbEntity
  8
0
100
AcDbLine
 62
2
  6
CONTINUOUS
 10
61.3547112346
 20
156.8602317397
 11
61.3547112346
 21
177.4281457661
  0
LINE
  5
241
100
AcDbEntity
  8
0
100
AcDbLine
 62
2
  6
CONTINUOUS
 10
221.3547112346
 20
140.1946317397
 11
221.3547112346
 21
177.4281457661
  0
LINE
  5
242
100
AcDbEntity
  8
0
100
AcDbLine
 62
2
  6
CONTINUOUS
 10
61.3547112346
 20
175.9281457661
 11
141.3547112346
 21
175.9281457661
  0
LINE
  5
243
100
AcDbEntity
  8
0
100
AcDbLine
 62
2
  6
CONTINUOUS
 10
221.3547112346
 20
175.9281457661
 11
141.3547112346
 21
175.9281457661
  0
INSERT
  5
244
100
AcDbEntity
  8
0
100
AcDbBlockReference
 62
2
  6
CONTINUOUS
  2
_FILLED
 10
61.3547112346
 20
175.9281457661
 41
3.5
 42
3.5
 43
3.5
 50
180.0
  0
INSERT
  5
245
100
AcDbEntity
  8
0
100
AcDbBlockReference
 62
2
  6
CONTINUOUS
  2
_FILLED
 10
221.3547112346
 20
175.9281457661
 41
3.5
 42
3.5
 43
3.5
  0
ENDBLK
  5
246
100
AcDbEntity
  8
0
  6
BYBLOCK
 62
0
100
AcDbBlockEnd
  0
BLOCK
  5
247
100
AcDbEntity
  8
0
100
AcDbBlockBegin
 62
2
  6
CONTINUOUS
  2
*D3
 70
65
 10
0.0
 20
0.0
  3
*D3
  1

  0
MTEXT
  5
248
100
AcDbEntity
  8
0
100
AcDbMText
 62
5
  6
CONTINUOUS
  7
TEXTSTYLE_2
 71
2
 72
1
 10
237.6290051775
 20
130.894057031
 30
0.0
 11
0.0
 21
1.0
 31
0.0
 44
0.9
  1
{\Fgdt;n}\Ftxt;12
 40
3.5
 41
9.4166666667
  0
LINE
  5
249
100
AcDbEntity
  8
0
100
AcDbLine
 62
2
  6
CONTINUOUS
 10
223.5905995322
 20
124.907807031
 11
243.5040051775
 21
124.907807031
  0
LINE
  5
24A
100
AcDbEntity
  8
0
100
AcDbLine
 62
2
  6
CONTINUOUS
 10
222.790366684
 20
136.880307031
 11
243.5040051775
 21
136.880307031
  0
LINE
  5
24B
100
AcDbEntity
  8
0
100
AcDbLine
 62
2
  6
CONTINUOUS
 10
242.0040051775
 20
124.907807031
 11
242.0040051775
 21
130.894057031
  0
LINE
  5
24C
100
AcDbEntity
  8
0
100
AcDbLine
 62
2
  6
CONTINUOUS
 10
242.0040051775
 20
136.880307031
 11
242.0040051775
 21
130.894057031
  0
INSERT
  5
24D
100
AcDbEntity
  8
0
100
AcDbBlockReference
 62
2
  6
CONTINUOUS
  2
_FILLED
 10
242.0040051775
 20
124.907807031
 41
3.5
 42
3.5
 43
3.5
 50
270.0
  0
INSERT
  5
24E
100
AcDbEntity
  8
0
100
AcDbBlockReference
 62
2
  6
CONTINUOUS
  2
_FILLED
 10
242.0040051775
 20
136.880307031
 41
3.5
 42
3.5
 43
3.5
 50
90.0
  0
ENDBLK
  5
24F
100
AcDbEntity
  8
0
  6
BYBLOCK
 62
0
100
AcDbBlockEnd
  0
BLOCK
  5
250
100
AcDbEntity
  8
0
100
AcDbBlockBegin
 62
2
  6
CONTINUOUS
  2
*D4
 70
65
 10
0.0
 20
0.0
  3
*D4
  1

  0
MTEXT
  5
251
100
AcDbEntity
  8
0
100
AcDbMText
 62
5
  6
CONTINUOUS
  7
STANDARD
 71
2
 72
1
 10
152.3547112346
 20
172.1453361889
 30
0.0
 11
1.0
 21
0.0
 31
0.0
 44
0.9
  1
138
 40
3.5
 41
7.25
  0
LINE
  5
252
100
AcDbEntity
  8
0
100
AcDbLine
 62
2
  6
CONTINUOUS
 10
221.3547112346
 20
120.419057031
 11
221.3547112346
 21
169.2703361889
  0
LINE
  5
253
100
AcDbEntity
  8
0
100
AcDbLine
 62
2
  6
CONTINUOUS
 10
83.3547112346
 20
155.2474317397
 11
83.3547112346
 21
169.2703361889
  0
LINE
  5
254
100
AcDbEntity
  8
0
100
AcDbLine
 62
2
  6
CONTINUOUS
 10
221.3547112346
 20
167.7703361889
 11
152.3547112346
 21
167.7703361889
  0
LINE
  5
255
100
AcDbEntity
  8
0
100
AcDbLine
 62
2
  6
CONTINUOUS
 10
83.3547112346
 20
167.7703361889
 11
152.3547112346
 21
167.7703361889
  0
INSERT
  5
256
100
AcDbEntity
  8
0
100
AcDbBlockReference
 62
2
  6
CONTINUOUS
  2
_FILLED
 10
221.3547112346
 20
167.7703361889
 41
3.5
 42
3.5
 43
3.5
  0
INSERT
  5
257
100
AcDbEntity
  8
0
100
AcDbBlockReference
 62
2
  6
CONTINUOUS
  2
_FILLED
 10
83.3547112346
 20
167.7703361889
 41
3.5
 42
3.5
 43
3.5
 50
180.0
  0
ENDBLK
  5
258
100
AcDbEntity
  8
0
  6
BYBLOCK
 62
0
100
AcDbBlockEnd
  0
BLOCK
  5
259
100
AcDbEntity
  8
0
100
AcDbBlockBegin
 62
2
  6
CONTINUOUS
  2
*D5
 70
65
 10
0.0
 20
0.0
  3
*D5
  1

  0
MTEXT
  5
25A
100
AcDbEntity
  8
0
100
AcDbMText
 62
5
  6
CONTINUOUS
  7
STANDARD
 71
2
 72
1
 10
122.3547112346
 20
187.9734067229
 30
0.0
 11
1.0
 21
0.0
 31
0.0
 44
0.9
  1
198
 40
3.5
 41
7.5
  0
LINE
  5
25B
100
AcDbEntity
  8
0
100
AcDbLine
 62
2
  6
CONTINUOUS
 10
221.3547112346
 20
120.419057031
 11
221.3547112346
 21
185.0984067229
  0
LINE
  5
25C
100
AcDbEntity
  8
0
100
AcDbLine
 62
2
  6
CONTINUOUS
 10
23.3547112346
 20
112.2079412616
 11
23.3547112346
 21
185.0984067229
  0
LINE
  5
25D
100
AcDbEntity
  8
0
100
AcDbLine
 62
2
  6
CONTINUOUS
 10
221.3547112346
 20
183.5984067229
 11
122.3547112346
 21
183.5984067229
  0
LINE
  5
25E
100
AcDbEntity
  8
0
100
AcDbLine
 62
2
  6
CONTINUOUS
 10
23.3547112346
 20
183.5984067229
 11
122.3547112346
 21
183.5984067229
  0
INSERT
  5
25F
100
AcDbEntity
  8
0
100
AcDbBlockReference
 62
2
  6
CONTINUOUS
  2
_FILLED
 10
221.3547112346
 20
183.5984067229
 41
3.5
 42
3.5
 43
3.5
  0
INSERT
  5
260
100
AcDbEntity
  8
0
100
AcDbBlockReference
 62
2
  6
CONTINUOUS
  2
_FILLED
 10
23.3547112346
 20
183.5984067229
 41
3.5
 42
3.5
 43
3.5
 50
180.0
  0
ENDBLK
  5
261
100
AcDbEntity
  8
0
  6
BYBLOCK
 62
0
100
AcDbBlockEnd
  0
BLOCK
  5
262
100
AcDbEntity
  8
0
100
AcDbBlockBegin
 62
2
  6
CONTINUOUS
  2
*D6
 70
65
 10
0.0
 20
0.0
  3
*D6
  1

  0
MTEXT
  5
263
100
AcDbEntity
  8
0
100
AcDbMText
 62
5
  6
CONTINUOUS
  7
TEXTSTYLE_2
 71
2
 72
1
 10
268.8636859151
 20
130.894057031
 30
0.0
 11
0.0
 21
1.0
 31
0.0
 44
0.9
  1
{\Fgdt;n}\Ftxt;32
 40
3.5
 41
9.9166666667
  0
LINE
  5
264
100
AcDbEntity
  8
0
100
AcDbLine
 62
2
  6
CONTINUOUS
 10
172.0298922899
 20
146.869057031
 11
219.8201994601
 21
146.869057031
  0
LINE
  5
265
100
AcDbEntity
  8
0
100
AcDbLine
 62
2
  6
CONTINUOUS
 10
223.4572273909
 20
146.869057031
 11
274.7386859151
 21
146.869057031
  0
LINE
  5
266
100
AcDbEntity
  8
0
100
AcDbLine
 62
2
  6
CONTINUOUS
 10
172.0298922899
 20
114.919057031
 11
274.7386859151
 21
114.919057031
  0
LINE
  5
267
100
AcDbEntity
  8
0
100
AcDbLine
 62
2
  6
CONTINUOUS
 10
273.2386859151
 20
146.869057031
 11
273.2386859151
 21
130.894057031
  0
LINE
  5
268
100
AcDbEntity
  8
0
100
AcDbLine
 62
2
  6
CONTINUOUS
 10
273.2386859151
 20
114.919057031
 11
273.2386859151
 21
130.894057031
  0
INSERT
  5
269
100
AcDbEntity
  8
0
100
AcDbBlockReference
 62
2
  6
CONTINUOUS
  2
_FILLED
 10
273.2386859151
 20
146.869057031
 41
3.5
 42
3.5
 43
3.5
 50
90.0
  0
INSERT
  5
26A
100
AcDbEntity
  8
0
100
AcDbBlockReference
 62
2
  6
CONTINUOUS
  2
_FILLED
 10
273.2386859151
 20
114.919057031
 41
3.5
 42
3.5
 43
3.5
 50
270.0
  0
ENDBLK
  5
26B
100
AcDbEntity
  8
0
  6
BYBLOCK
 62
0
100
AcDbBlockEnd
  0
ENDSEC
  0
SECTION
  2
ENTITIES
  0
DIMENSION
  5
26C
100
AcDbEntity
  8
0
100
AcDbDimension
 62
2
  6
CONTINUOUS
  2
*D0
 10
261.3619156313
 20
118.919057031
 11
259.8757694056
 21
128.621815511
 70
160
 71
2
 42
23.95
  1
%%c<>
  3
DIMSTYLE_1
100
AcDbAlignedDimension
 13
222.8547112346
 23
142.869057031
 14
222.8547112346
 24
118.919057031
 50
270.0
100
AcDbRotatedDimension
  0
DIMENSION
  5
26D
100
AcDbEntity
  8
0
100
AcDbDimension
 62
2
  6
CONTINUOUS
  2
*D1
 10
254.3352460379
 20
114.919057031
 11
244.3060517436
 21
104.1865787382
 70
162
 71
2
 42
0.0785398163
  3
DIMSTYLE_2
100
AcDb2LineAngularDimension
 13
254.076902101
 23
121.4943493032
 14
200.0305790679
 24
117.2408114329
 15
172.0298922899
 25
114.919057031
 16
252.771791593
 26
118.1503500551
  0
DIMENSION
  5
26E
100
AcDbEntity
  8
0
100
AcDbDimension
 62
2
  6
CONTINUOUS
  2
*D2
 10
221.3547112346
 20
175.9281457661
 11
137.6047112346
 21
178.5531457661
 70
160
 71
2
 42
160.0
  3
DIMSTYLE_3
100
AcDbAlignedDimension
 13
61.3547112346
 23
156.8602317397
 14
221.3547112346
 24
140.1946317397
100
AcDbRotatedDimension
  0
DIMENSION
  5
26F
100
AcDbEntity
  8
0
100
AcDbDimension
 62
2
  6
CONTINUOUS
  2
*D3
 10
242.0040051775
 20
136.880307031
 11
240.4338451488
 21
128.7894398854
 70
160
 71
2
 42
11.9725
  1
%%c<>
  3
DIMSTYLE_4
100
AcDbAlignedDimension
 13
223.5905995322
 23
124.907807031
 14
222.790366684
 24
136.880307031
 50
90.0
100
AcDbRotatedDimension
  0
DIMENSION
  5
270
100
AcDbEntity
  8
0
100
AcDbDimension
 62
2
  6
CONTINUOUS
  2
*D4
 10
83.3547112346
 20
167.7703361889
 11
148.7297112346
 21
170.3953361889
 70
160
 71
2
 42
138.0
  3
DIMSTYLE_3
100
AcDbAlignedDimension
 13
221.3547112346
 23
120.419057031
 14
83.3547112346
 24
155.2474317397
 50
180.0
100
AcDbRotatedDimension
  0
DIMENSION
  5
271
100
AcDbEntity
  8
0
100
AcDbDimension
 62
2
  6
CONTINUOUS
  2
*D5
 10
23.3547112346
 20
183.5984067229
 11
118.6047112346
 21
186.2234067229
 70
160
 71
2
 42
198.0
  3
DIMSTYLE_3
100
AcDbAlignedDimension
 13
221.3547112346
 23
120.419057031
 14
23.3547112346
 24
112.2079412616
 50
180.0
100
AcDbRotatedDimension
  0
DIMENSION
  5
272
100
AcDbEntity
  8
0
100
AcDbDimension
 62
2
  6
CONTINUOUS
  2
*D6
 10
273.2386859151
 20
114.919057031
 11
271.7245350884
 21
128.6776903024
 70
160
 71
2
 42
31.95
  1
%%c<>
  3
DIMSTYLE_1
100
AcDbAlignedDimension
 13
172.0298922899
 23
146.869057031
 14
172.0298922899
 24
114.919057031
 50
270.0
100
AcDbRotatedDimension
  0
MTEXT
  5
273
100
AcDbEntity
  8
0
100
AcDbMText
 62
5
  6
CONTINUOUS
  7
STANDARD
 71
1
 72
1
 10
13.2887214137
 20
90.2051715177
 30
0.0
 11
1.0
 21
0.0
 31
0.0
 44
0.9
  3
Für diese Unterlage behalten wir das Ur-\Pheberrecht. Sie darf nur für den von uns \Pbestimmten Zweck benutzt und ohne unsere \PZustimmung weder vervielfältigt noch\PDritten zugänglich gemacht werden\P \PWe own the copyright of this document. It \Pde
  1
termined and may neither be copied or \Pmade accessible to outsiders without our\Ppermission.\P \PCe plan reste notre propriété. Il ne peut\Pêtre utilisé, copié ou reproduit sans notre\Paccord.\P 
 40
3.5
 41
104.8333333333
  0
LINE
  5
274
100
AcDbEntity
  8
0
100
AcDbLine
 62
7
  6
CONTINUOUS
 10
0.0
 20
0.0
 11
0.0
 21
210.0
  0
LINE
  5
275
100
AcDbEntity
  8
0
100
AcDbLine
 62
7
  6
CONTINUOUS
 10
0.0
 20
0.0
 11
297.0
 21
0.0
  0
LINE
  5
276
100
AcDbEntity
  8
0
100
AcDbLine
 62
7
  6
CONTINUOUS
 10
0.0
 20
210.0
 11
297.0
 21
210.0
  0
LINE
  5
277
100
AcDbEntity
  8
0
100
AcDbLine
 62
7
  6
CONTINUOUS
 10
297.0
 20
0.0
 11
297.0
 21
210.0
  0
LINE
  5
278
100
AcDbEntity
  8
0
100
AcDbLine
 62
7
  6
CONTINUOUS
 10
23.3547112346
 20
109.2017190381
 11
23.3547112346
 21
145.8553016697
  0
LINE
  5
279
100
AcDbEntity
  8
KURVEN
100
AcDbLine
 62
4
  6
CONTINUOUS
 10
23.3547112346
 20
108.3733788553
 11
23.3547112346
 21
150.1056310179
  0
LINE
  5
27A
100
AcDbEntity
  8
ACHSEN
100
AcDbLine
 62
7
  6
CONTINUOUS
 10
23.3547112346
 20
145.8553016697
 11
23.3547112346
 21
149.6425363449
  0
LINE
  5
27B
100
AcDbEntity
  8
ACHSEN
100
AcDbLine
 62
7
  6
CONTINUOUS
 10
24.8547112346
 20
150.3910466445
 11
24.8547112346
 21
146.6053016697
  0
LINE
  5
27C
100
AcDbEntity
  8
0
100
AcDbLine
 62
7
  6
CONTINUOUS
 10
24.8547112346
 20
146.6053016697
 11
24.8547112346
 21
108.3356936343
  0
LINE
  5
27D
100
AcDbEntity
  8
ACHSEN
100
AcDbLine
 62
7
  6
CENTER
 10
45.8547112346
 20
107.9605715239
 11
45.8547112346
 21
155.0824275955
  0
LINE
  5
27E
100
AcDbEntity
  8
0
100
AcDbLine
 62
7
  6
CONTINUOUS
 10
61.3547130706
 20
162.0940551236
 11
61.6547131605
 21
162.3940551775
  0
LINE
  5
27F
100
AcDbEntity
  8
0
100
AcDbLine
 62
7
  6
CONTINUOUS
 10
59.1547743237
 20
151.5141574005
 11
59.1547743237
 21
147.3515877796
  0
LINE
  5
280
100
AcDbEntity
  8
0
100
AcDbLine
 62
7
  6
CONTINUOUS
 10
59.1547743237
 20
136.1189281616
 11
59.1547743237
 21
109.2116551517
  0
LINE
  5
281
100
AcDbEntity
  8
0
100
AcDbLine
 62
9
  6
CONTINUOUS
 10
59.3597343458
 20
151.3192436007
 11
59.3597343458
 21
145.5789992357
  0
LINE
  5
282
100
AcDbEntity
  8
0
100
AcDbLine
 62
9
  6
CONTINUOUS
 10
59.3597343458
 20
139.0800002177
 11
59.3597343458
 21
108.0231716394
  0
LINE
  5
283
100
AcDbEntity
  8
0
100
AcDbLine
 62
9
  6
CONTINUOUS
 10
60.0476044535
 20
108.1511638121
 11
60.0476044535
 21
108.79050038
  0
LINE
  5
284
100
AcDbEntity
  8
0
100
AcDbLine
 62
9
  6
CONTINUOUS
 10
60.0476044535
 20
137.3085967917
 11
60.0476044535
 21
146.5830739211
  0
LINE
  5
285
100
AcDbEntity
  8
0
100
AcDbLine
 62
9
  6
CONTINUOUS
 10
60.9597343458
 20
151.3594411698
 11
60.9597343458
 21
147.2385353179
  0
LINE
  5
286
100
AcDbEntity
  8
0
100
AcDbLine
 62
9
  6
CONTINUOUS
 10
60.9597343458
 20
136.0770074841
 11
60.9597343458
 21
109.3666282909
  0
LINE
  5
287
100
AcDbEntity
  8
0
100
AcDbLine
 62
7
  6
CONTINUOUS
 10
61.3547112346
 20
99.6943327005
 11
61.3547112346
 21
162.0937813614
  0
LINE
  5
288
100
AcDbEntity
  8
0
100
AcDbLine
 62
7
  6
CONTINUOUS
 10
61.6547113082
 20
99.394057031
 11
61.6547113082
 21
162.394057031
  0
LINE
  5
289
100
AcDbEntity
  8
0
100
AcDbLine
 62
7
  6
CONTINUOUS
 10
61.1546463828
 20
147.6836316167
 11
61.1547112346
 21
153.427541892
  0
LINE
  5
28A
100
AcDbEntity
  8
0
100
AcDbLine
 62
7
  6
CONTINUOUS
 10
61.1546463828
 20
109.4838889395
 11
61.1546152683
 21
135.519282245
  0
LINE
  5
28B
100
AcDbEntity
  8
0
100
AcDbLine
 62
9
  6
CONTINUOUS
 10
24.8547112346
 20
146.6053016697
 11
23.3547112346
 21
145.8553016697
  0
LINE
  5
28C
100
AcDbEntity
  8
0
100
AcDbLine
 62
7
  6
CONTINUOUS
 10
24.8547112346
 20
108.3356936343
 11
23.3547112346
 21
109.2017190381
  0
LINE
  5
28D
100
AcDbEntity
  8
0
100
AcDbLine
 62
7
  6
CONTINUOUS
 10
61.3547130706
 20
99.6940589383
 11
61.6547131605
 21
99.3940588844
  0
LINE
  5
28E
100
AcDbEntity
  8
0
100
AcDbLine
 62
9
  6
CONTINUOUS
 10
71.4603736673
 20
160.8080118774
 11
71.4603736673
 21
140.7634696499
  0
LINE
  5
28F
100
AcDbEntity
  8
0
100
AcDbLine
 62
9
  6
CONTINUOUS
 10
71.4603736673
 20
121.024644412
 11
71.4603736673
 21
100.9801021845
  0
LINE
  5
290
100
AcDbEntity
  8
0
100
AcDbLine
 62
9
  6
CONTINUOUS
 10
24.8547112346
 20
109.9579412616
 11
23.3547112346
 21
110.7079412616
  0
LINE
  5
291
100
AcDbEntity
  8
0
100
AcDbLine
 62
9
  6
CONTINUOUS
 10
71.8933863692
 20
160.9746497913
 11
71.8933863692
 21
140.2432783455
  0
LINE
  5
292
100
AcDbEntity
  8
0
100
AcDbLine
 62
9
  6
CONTINUOUS
 10
71.8933863692
 20
121.5448357164
 11
71.8933863692
 21
100.8134642706
  0
LINE
  5
293
100
AcDbEntity
  8
ACHSEN
100
AcDbLine
 62
7
  6
CENTER
 10
73.3547112346
 20
154.4542764292
 11
73.3547112346
 21
165.394057031
  0
LINE
  5
294
100
AcDbEntity
  8
0
100
AcDbLine
 62
9
  6
CONTINUOUS
 10
74.8160361
 20
160.9746497913
 11
74.8160361
 21
140.2432783455
  0
LINE
  5
295
100
AcDbEntity
  8
0
100
AcDbLine
 62
9
  6
CONTINUOUS
 10
74.8160361
 20
121.5448357164
 11
74.8160361
 21
100.8134642706
  0
LINE
  5
296
100
AcDbEntity
  8
0
100
AcDbLine
 62
9
  6
CONTINUOUS
 10
75.2490488019
 20
160.8080118774
 11
75.2490488019
 21
140.7634696499
  0
LINE
  5
297
100
AcDbEntity
  8
0
100
AcDbLine
 62
9
  6
CONTINUOUS
 10
75.2490488019
 20
121.024644412
 11
75.2490488019
 21
100.9801021845
  0
LINE
  5
298
100
AcDbEntity
  8
0
100
AcDbLine
 62
7
  6
CONTINUOUS
 10
83.3547112346
 20
99.394057031
 11
83.3547112346
 21
162.394057031
  0
LINE
  5
299
100
AcDbEntity
  8
RUNDUNGEN
100
AcDbLine
 62
9
  6
CONTINUOUS
 10
89.3751193979
 20
150.313145837
 11
89.3751193979
 21
111.474968225
  0
LINE
  5
29A
100
AcDbEntity
  8
0
100
AcDbLine
 62
7
  6
CONTINUOUS
 10
60.0476044535
 20
108.1511638121
 11
59.3651140572
 21
107.4686734159
  0
LINE
  5
29B
100
AcDbEntity
  8
0
100
AcDbLine
 62
7
  6
CONTINUOUS
 10
83.3547112346
 20
99.394057031
 11
61.654711307
 21
99.394057031
  0
LINE
  5
29C
100
AcDbEntity
  8
0
100
AcDbLine
 62
7
  6
CONTINUOUS
 10
74.8160361
 20
100.8134642706
 11
71.8933863692
 21
100.8134642706
  0
LINE
  5
29D
100
AcDbEntity
  8
0
100
AcDbLine
 62
7
  6
CONTINUOUS
 10
220.4331703304
 20
118.8465301889
 11
170.5957357588
 21
114.9242390243
  0
LINE
  5
29E
100
AcDbEntity
  8
0
100
AcDbLine
 62
9
  6
CONTINUOUS
 10
59.1547743237
 20
109.2116551517
 11
24.8547112346
 21
109.9579412616
  0
LINE
  5
29F
100
AcDbEntity
  8
0
100
AcDbLine
 62
7
  6
CONTINUOUS
 10
59.6077399855
 20
108.0173281556
 11
59.3597343458
 21
108.0231716394
  0
LINE
  5
2A0
100
AcDbEntity
  8
0
100
AcDbLine
 62
7
  6
CONTINUOUS
 10
24.8547112346
 20
108.3356936343
 11
59.3651140575
 21
107.4686721951
  0
LINE
  5
2A1
100
AcDbEntity
  8
0
100
AcDbLine
 62
7
  6
CONTINUOUS
 10
162.1047112346
 20
114.919057031
 11
138.3547112346
 21
114.919057031
  0
LINE
  5
2A2
100
AcDbEntity
  8
0
100
AcDbLine
 62
7
  6
CONTINUOUS
 10
162.8386858309
 20
115.219057031
 11
163.8547112346
 21
115.219057031
  0
LINE
  5
2A3
100
AcDbEntity
  8
0
100
AcDbLine
 62
7
  6
CONTINUOUS
 10
168.8547112346
 20
115.219057031
 11
169.8707366384
 21
115.219057031
  0
LINE
  5
2A4
100
AcDbEntity
  8
0
100
AcDbLine
 62
7
  6
CONTINUOUS
 10
74.8160361
 20
121.5448357164
 11
71.8933863692
 21
121.5448357164
  0
LINE
  5
2A5
100
AcDbEntity
  8
DEFAULT_2
100
AcDbLine
 62
8
  6
HIDDEN
 10
173.9044761182
 20
124.557807031
 11
183.9695019534
 21
124.557807031
  0
LINE
  5
2A6
100
AcDbEntity
  8
BOHRUNGEN
100
AcDbLine
 62
8
  6
HIDDEN
 10
185.3547112346
 20
124.907807031
 11
219.0547112346
 21
124.907807031
  0
LINE
  5
2A7
100
AcDbEntity
  8
0
100
AcDbLine
 62
7
  6
CONTINUOUS
 10
170.2707366384
 20
146.6762367079
 11
170.5957357588
 21
146.8638750376
  0
LINE
  5
2A8
100
AcDbEntity
  8
RUNDUNGEN
100
AcDbLine
 62
7
  6
CONTINUOUS
 10
170.2707366384
 20
146.6762367079
 11
170.5957357588
 21
146.8638750376
  0
LINE
  5
2A9
100
AcDbEntity
  8
S_ACHSEN
100
AcDbLine
 62
7
  6
CENTER
 10
20.3547112346
 20
130.894057031
 11
225.3547112346
 21
130.894057031
  0
LINE
  5
2AA
100
AcDbEntity
  8
0
100
AcDbLine
 62
9
  6
CONTINUOUS
 10
138.3547112346
 20
114.919057031
 11
138.3547112346
 21
146.869057031
  0
LINE
  5
2AB
100
AcDbEntity
  8
0
100
AcDbLine
 62
7
  6
CONTINUOUS
 10
59.3597343458
 20
139.0800002177
 11
59.6077399855
 21
139.0810144736
  0
LINE
  5
2AC
100
AcDbEntity
  8
0
100
AcDbLine
 62
9
  6
CONTINUOUS
 10
23.3547112346
 20
136.1189281616
 11
59.1547743237
 21
136.1189281616
  0
LINE
  5
2AD
100
AcDbEntity
  8
BOHRUNGEN
100
AcDbLine
 62
8
  6
HIDDEN
 10
185.3547112346
 20
136.880307031
 11
219.0547112346
 21
136.880307031
  0
LINE
  5
2AE
100
AcDbEntity
  8
RUNDUNGEN
100
AcDbLine
 62
8
  6
HIDDEN
 10
183.9695019534
 20
137.230307031
 11
173.9044761182
 21
137.230307031
  0
LINE
  5
2AF
100
AcDbEntity
  8
DEFAULT_2
100
AcDbLine
 62
8
  6
HIDDEN
 10
173.9044761182
 20
137.230307031
 11
183.9695019534
 21
137.230307031
  0
LINE
  5
2B0
100
AcDbEntity
  8
0
100
AcDbLine
 62
7
  6
CONTINUOUS
 10
74.8160361
 20
140.2432783455
 11
71.8933863692
 21
140.2432783455
  0
LINE
  5
2B1
100
AcDbEntity
  8
0
100
AcDbLine
 62
7
  6
CONTINUOUS
 10
170.2707366384
 20
115.111877354
 11
170.5957357588
 21
114.9242390243
  0
LINE
  5
2B2
100
AcDbEntity
  8
RUNDUNGEN
100
AcDbLine
 62
7
  6
CONTINUOUS
 10
170.2707366384
 20
115.111877354
 11
170.5957357588
 21
114.9242390243
  0
LINE
  5
2B3
100
AcDbEntity
  8
0
100
AcDbLine
 62
9
  6
CONTINUOUS
 10
24.8547112346
 20
146.6053016697
 11
59.1547743237
 21
147.3515877796
  0
LINE
  5
2B4
100
AcDbEntity
  8
0
100
AcDbLine
 62
7
  6
CONTINUOUS
 10
59.6077399855
 20
145.5838284636
 11
59.3597343458
 21
145.5789992357
  0
LINE
  5
2B5
100
AcDbEntity
  8
0
100
AcDbLine
 62
7
  6
CONTINUOUS
 10
162.8386858309
 20
146.569057031
 11
163.8547112346
 21
146.569057031
  0
LINE
  5
2B6
100
AcDbEntity
  8
BEZUGSACHSEN
100
AcDbLine
 62
7
  6
CONTINUOUS
 10
162.8386858309
 20
146.569057031
 11
163.8547112346
 21
146.569057031
  0
LINE
  5
2B7
100
AcDbEntity
  8
0
100
AcDbLine
 62
7
  6
CONTINUOUS
 10
168.8547112346
 20
146.569057031
 11
169.8707366384
 21
146.569057031
  0
LINE
  5
2B8
100
AcDbEntity
  8
BEZUGSACHSEN
100
AcDbLine
 62
7
  6
CONTINUOUS
 10
168.8547112346
 20
146.569057031
 11
169.8707366384
 21
146.569057031
  0
LINE
  5
2B9
100
AcDbEntity
  8
0
100
AcDbLine
 62
7
  6
CONTINUOUS
 10
162.1047112346
 20
146.869057031
 11
138.3547112346
 21
146.869057031
  0
LINE
  5
2BA
100
AcDbEntity
  8
0
100
AcDbLine
 62
7
  6
CONTINUOUS
 10
162.1047112346
 20
114.919057031
 11
162.4386858309
 21
115.111877354
  0
LINE
  5
2BB
100
AcDbEntity
  8
RUNDUNGEN
100
AcDbLine
 62
7
  6
CONTINUOUS
 10
162.1047112346
 20
114.919057031
 11
162.4386858309
 21
115.111877354
  0
LINE
  5
2BC
100
AcDbEntity
  8
0
100
AcDbLine
 62
7
  6
CONTINUOUS
 10
59.3597343458
 20
151.3192436007
 11
60.9597343458
 21
151.3594411698
  0
LINE
  5
2BD
100
AcDbEntity
  8
0
100
AcDbLine
 62
7
  6
CONTINUOUS
 10
31.6183159887
 20
150.8223457211
 11
41.4047112346
 21
151.0682140332
  0
LINE
  5
2BE
100
AcDbEntity
  8
0
100
AcDbLine
 62
7
  6
CONTINUOUS
 10
50.5340725679
 20
151.2975753664
 11
59.1547743237
 21
151.5141574005
  0
LINE
  5
2BF
100
AcDbEntity
  8
0
100
AcDbLine
 62
7
  6
CONTINUOUS
 10
170.5957357588
 20
146.8638750376
 11
220.4331703304
 21
142.941583873
  0
LINE
  5
2C0
100
AcDbEntity
  8
0
100
AcDbLine
 62
7
  6
CONTINUOUS
 10
74.8160361
 20
160.9746497913
 11
71.8933863692
 21
160.9746497913
  0
LINE
  5
2C1
100
AcDbEntity
  8
0
100
AcDbLine
 62
7
  6
CONTINUOUS
 10
83.3547112346
 20
162.394057031
 11
78.5769885118
 21
162.394057031
  0
LINE
  5
2C2
100
AcDbEntity
  8
0
100
AcDbLine
 62
7
  6
CONTINUOUS
 10
68.1324339575
 20
162.394057031
 11
61.654711307
 21
162.394057031
  0
LINE
  5
2C3
100
AcDbEntity
  8
0
100
AcDbLine
 62
7
  6
CONTINUOUS
 10
162.1047112346
 20
146.869057031
 11
162.4386858309
 21
146.6762367079
  0
LINE
  5
2C4
100
AcDbEntity
  8
RUNDUNGEN
100
AcDbLine
 62
7
  6
CONTINUOUS
 10
162.1047112346
 20
146.869057031
 11
162.4386858309
 21
146.6762367079
  0
LINE
  5
2C5
100
AcDbEntity
  8
0
100
AcDbLine
 62
7
  6
CONTINUOUS
 10
162.1047112346
 20
146.869057031
 11
162.1047112346
 21
114.919057031
  0
LINE
  5
2C6
100
AcDbEntity
  8
RUNDUNGEN
100
AcDbLine
 62
9
  6
CONTINUOUS
 10
162.4386858309
 20
115.111877354
 11
162.4386858309
 21
146.6762367079
  0
LINE
  5
2C7
100
AcDbEntity
  8
RUNDUNGEN
100
AcDbLine
 62
9
  6
CONTINUOUS
 10
162.8386858309
 20
115.219057031
 11
162.8386858309
 21
146.569057031
  0
LINE
  5
2C8
100
AcDbEntity
  8
BEZUGSACHSEN
100
AcDbLine
 62
7
  6
CENTER
 10
166.3547112346
 20
149.569057031
 11
166.3547112346
 21
135.869057031
  0
LINE
  5
2C9
100
AcDbEntity
  8
BEZUGSACHSEN
100
AcDbLine
 62
7
  6
CENTER
 10
166.3547112346
 20
112.219057031
 11
166.3547112346
 21
125.919057031
  0
LINE
  5
2CA
100
AcDbEntity
  8
RUNDUNGEN
100
AcDbLine
 62
9
  6
CONTINUOUS
 10
169.8707366384
 20
115.219057031
 11
169.8707366384
 21
146.569057031
  0
LINE
  5
2CB
100
AcDbEntity
  8
RUNDUNGEN
100
AcDbLine
 62
9
  6
CONTINUOUS
 10
170.2707366384
 20
115.111877354
 11
170.2707366384
 21
146.6762367079
  0
LINE
  5
2CC
100
AcDbEntity
  8
0
100
AcDbLine
 62
7
  6
CONTINUOUS
 10
170.5957357588
 20
146.8638750376
 11
170.5957357588
 21
114.9242390243
  0
LINE
  5
2CD
100
AcDbEntity
  8
RUNDUNGEN
100
AcDbLine
 62
9
  6
CONTINUOUS
 10
173.9044761182
 20
124.557807031
 11
173.9044761182
 21
137.230307031
  0
LINE
  5
2CE
100
AcDbEntity
  8
RUNDUNGEN
100
AcDbLine
 62
9
  6
CONTINUOUS
 10
220.4331703304
 20
118.8465301889
 11
220.4331703304
 21
142.941583873
  0
LINE
  5
2CF
100
AcDbEntity
  8
RUNDUNGEN
100
AcDbLine
 62
7
  6
CONTINUOUS
 10
221.3547112346
 20
141.9446665393
 11
221.3547112346
 21
119.8434475226
  0
ARC
  5
2D0
100
AcDbEntity
  8
0
100
AcDbCircle
 62
7
  6
CONTINUOUS
 10
-47.3972999611
 20
111.5845682016
 40
110.4813700655
100
AcDbArc
 50
13.4640903998
 51
14.4111621352
  0
ARC
  5
2D1
100
AcDbEntity
  8
ACHSEN
100
AcDbCircle
 62
7
  6
CONTINUOUS
 10
36.6162828543
 20
115.3256538457
 40
35.845102548
100
AcDbArc
 50
98.0149288422
 51
101.1172700805
  0
ARC
  5
2D2
100
AcDbEntity
  8
0
100
AcDbCircle
 62
7
  6
CONTINUOUS
 10
60.7547112346
 20
107.444057031
 40
1.0
100
AcDbArc
 50
53.102347605
 51
135.0
  0
ARC
  5
2D3
100
AcDbEntity
  8
ACHSEN
100
AcDbCircle
 62
7
  6
CONTINUOUS
 10
-40.4035057434
 20
279.2899965836
 40
144.4768984251
100
AcDbArc
 50
296.187103939
 51
296.8519184685
  0
ARC
  5
2D4
100
AcDbEntity
  8
FASEN
100
AcDbCircle
 62
7
  6
CONTINUOUS
 10
72.6832170757
 20
197.6386048162
 40
35.7340046496
100
AcDbArc
 50
278.5204424671
 51
279.4937166383
  0
ARC
  5
2D5
100
AcDbEntity
  8
FASEN
100
AcDbCircle
 62
7
  6
CONTINUOUS
 10
73.6433547587
 20
195.2158424361
 40
33.2812609715
100
AcDbArc
 50
260.5303369408
 51
261.5206938832
  0
ARC
  5
2D6
100
AcDbEntity
  8
FASEN
100
AcDbCircle
 62
7
  6
CONTINUOUS
 10
73.314734861
 20
193.4972657112
 40
31.5448080342
100
AcDbArc
 50
270.0726103042
 51
278.5005399283
  0
ARC
  5
2D7
100
AcDbEntity
  8
FASEN
100
AcDbCircle
 62
7
  6
CONTINUOUS
 10
73.3673986476
 20
193.1325068683
 40
31.1800264418
100
AcDbArc
 50
261.4577517884
 51
269.9766858686
  0
ARC
  5
2D8
100
AcDbEntity
  8
0
100
AcDbCircle
 62
7
  6
CONTINUOUS
 10
60.7547112346
 20
154.344057031
 40
1.0
100
AcDbArc
 50
293.5781784782
 51
306.897652395
  0
ARC
  5
2D9
100
AcDbEntity
  8
0
100
AcDbCircle
 62
7
  6
CONTINUOUS
 10
60.9547112346
 20
151.5593780808
 40
0.2
100
AcDbArc
 50
271.439166666
 51
360.0
  0
ARC
  5
2DA
100
AcDbEntity
  8
0
100
AcDbCircle
 62
7
  6
CONTINUOUS
 10
59.3547112346
 20
151.5191805117
 40
0.2
100
AcDbArc
 50
181.439166666
 51
271.439166666
  0
ARC
  5
2DB
100
AcDbEntity
  8
RUNDUNGEN
100
AcDbCircle
 62
7
  6
CONTINUOUS
 10
138.3547112346
 20
-235.080942969
 40
350.0
100
AcDbArc
 50
90.0
 51
98.0444721698
  0
ARC
  5
2DC
100
AcDbEntity
  8
0
100
AcDbCircle
 62
7
  6
CONTINUOUS
 10
138.3547112346
 20
-235.080942969
 40
350.0
100
AcDbArc
 50
90.0
 51
98.0444721698
  0
ARC
  5
2DD
100
AcDbEntity
  8
0
100
AcDbCircle
 62
7
  6
CONTINUOUS
 10
205.5888840106
 20
81.9198591591
 40
159.2595221596
100
AcDbArc
 50
156.0446773748
 51
156.4374589831
  0
ARC
  5
2DE
100
AcDbEntity
  8
BEZUGSACHSEN
100
AcDbCircle
 62
7
  6
CONTINUOUS
 10
166.3377954055
 20
99.5529235551
 40
15.8670288137
100
AcDbArc
 50
80.8728740219
 51
88.52891128
  0
ARC
  5
2DF
100
AcDbEntity
  8
BEZUGSACHSEN
100
AcDbCircle
 62
7
  6
CONTINUOUS
 10
166.3525678306
 20
99.9460342184
 40
15.4736691781
100
AcDbArc
 50
88.5462233678
 51
91.2064464235
  0
ARC
  5
2E0
100
AcDbEntity
  8
RUNDUNGEN
100
AcDbCircle
 62
7
  6
CONTINUOUS
 10
90.3547112346
 20
104.5438500011
 40
7.0
100
AcDbArc
 50
98.0444721703
 51
179.9999999982
  0
ARC
  5
2E1
100
AcDbEntity
  8
RUNDUNGEN
100
AcDbCircle
 62
7
  6
CONTINUOUS
 10
220.3547112346
 20
119.8434475226
 40
1.0
100
AcDbArc
 50
274.5000000055
 51
360.0
  0
ARC
  5
2E2
100
AcDbEntity
  8
RUNDUNGEN
100
AcDbCircle
 62
7
  6
CONTINUOUS
 10
169.8707366384
 20
114.419057031
 40
0.8
100
AcDbArc
 50
59.9999999302
 51
90.0
  0
ARC
  5
2E3
100
AcDbEntity
  8
RUNDUNGEN
100
AcDbCircle
 62
7
  6
CONTINUOUS
 10
162.8386858309
 20
114.419057031
 40
0.8
100
AcDbArc
 50
90.0
 51
120.0000000681
  0
ARC
  5
2E4
100
AcDbEntity
  8
RUNDUNGEN
100
AcDbCircle
 62
7
  6
CONTINUOUS
 10
138.3547112346
 20
496.869057031
 40
350.0
100
AcDbArc
 50
261.9555278302
 51
270.0
  0
ARC
  5
2E5
100
AcDbEntity
  8
0
100
AcDbCircle
 62
7
  6
CONTINUOUS
 10
138.3547112346
 20
496.869057031
 40
350.0
100
AcDbArc
 50
261.9555278302
 51
270.0
  0
ARC
  5
2E6
100
AcDbEntity
  8
BEZUGSACHSEN
100
AcDbCircle
 62
7
  6
CONTINUOUS
 10
166.3716225707
 20
162.2351399125
 40
15.8669781473
100
AcDbArc
 50
260.8728610607
 51
268.5298047956
  0
ARC
  5
2E7
100
AcDbEntity
  8
BEZUGSACHSEN
100
AcDbCircle
 62
7
  6
CONTINUOUS
 10
166.356850683
 20
161.8420816874
 40
15.4736710214
100
AcDbArc
 50
268.5471425883
 51
271.2056380728
  0
ARC
  5
2E8
100
AcDbEntity
  8
RUNDUNGEN
100
AcDbCircle
 62
7
  6
CONTINUOUS
 10
90.3547112346
 20
157.2442640608
 40
7.0
100
AcDbArc
 50
180.0000000007
 51
261.95552783
  0
ARC
  5
2E9
100
AcDbEntity
  8
0
100
AcDbCircle
 62
2
  6
CONTINUOUS
 10
166.3543399412
 20
130.8945259681
 40
2.9994676211
100
AcDbArc
 50
255.0708950708
 51
195.0098733039
  0
CIRCLE
  5
2EA
100
AcDbEntity
  8
BEZUGSACHSEN
100
AcDbCircle
 62
7
  6
CONTINUOUS
 10
166.3547112346
 20
130.894057031
 40
2.5
  0
ARC
  5
2EB
100
AcDbEntity
  8
RUNDUNGEN
100
AcDbCircle
 62
7
  6
CONTINUOUS
 10
220.3547112346
 20
141.9446665393
 40
1.0
100
AcDbArc
 50
0.0
 51
85.499999993
  0
ARC
  5
2EC
100
AcDbEntity
  8
RUNDUNGEN
100
AcDbCircle
 62
7
  6
CONTINUOUS
 10
169.8707366384
 20
147.369057031
 40
0.8
100
AcDbArc
 50
270.0
 51
300.0000000055
  0
ARC
  5
2ED
100
AcDbEntity
  8
RUNDUNGEN
100
AcDbCircle
 62
7
  6
CONTINUOUS
 10
162.8386858309
 20
147.369057031
 40
0.8
100
AcDbArc
 50
239.9999999944
 51
270.0
  0
SPLINE
  5
2EE
100
AcDbEntity
  8
0
100
AcDbSpline
 62
2
  6
CONTINUOUS
 70
0
 71
3
 72
13
 73
9
 74
0
 42
0.0000001
 43
0.0000001
 44
0.0000000001
 40
0.0
 40
0.0
 40
0.0
 40
0.0
 40
0.1666666667
 40
0.3333333333
 40
0.5
 40
0.6666666667
 40
0.8333333333
 40
1.0
 40
1.0
 40
1.0
 40
1.0
 10
169.3547112346
 20
115.219057031
 30
0.0
 10
169.3547112346
 20
115.219057031
 30
0.0
 10
169.2834819445
 20
115.2329165951
 30
0.0
 10
168.9790550263
 20
115.2881549996
 30
0.0
 10
168.4988355032
 20
115.3634446072
 30
0.0
 10
167.864748272
 20
115.4399591379
 30
0.0
 10
167.1357618592
 20
115.4952820542
 30
0.0
 10
166.6147521094
 20
115.5088165389
 30
0.0
 10
166.3547112346
 20
115.5088165389
 30
0.0
  0
SPLINE
  5
2EF
100
AcDbEntity
  8
0
100
AcDbSpline
 62
2
  6
CONTINUOUS
 70
0
 71
3
 72
13
 73
9
 74
0
 42
0.0000001
 43
0.0000001
 44
0.0000000001
 40
0.0
 40
0.0
 40
0.0
 40
0.0
 40
0.1666666667
 40
0.3333333333
 40
0.5
 40
0.6666666667
 40
0.8333333333
 40
1.0
 40
1.0
 40
1.0
 40
1.0
 10
166.3547112346
 20
115.5088165389
 30
0.0
 10
166.0947558944
 20
115.5088165389
 30
0.0
 10
165.5738929993
 20
115.4952906892
 30
0.0
 10
164.8450349108
 20
115.4399941997
 30
0.0
 10
164.2109167153
 20
115.3634895173
 30
0.0
 10
163.7308082357
 20
115.2882295285
 30
0.0
 10
163.4261038167
 20
115.2329488001
 30
0.0
 10
163.3547112346
 20
115.219057031
 30
0.0
 10
163.3547112346
 20
115.219057031
 30
0.0
  0
SPLINE
  5
2F0
100
AcDbEntity
  8
0
100
AcDbSpline
 62
2
  6
CONTINUOUS
 70
0
 71
3
 72
13
 73
9
 74
0
 42
0.0000001
 43
0.0000001
 44
0.0000000001
 40
0.0
 40
0.0
 40
0.0
 40
0.0
 40
0.1666666667
 40
0.3333333333
 40
0.5
 40
0.6666666667
 40
0.8333333333
 40
1.0
 40
1.0
 40
1.0
 40
1.0
 10
166.3547112346
 20
146.2792975231
 30
0.0
 10
166.6143653256
 20
146.2792975231
 30
0.0
 10
167.1347408758
 20
146.2927804828
 30
0.0
 10
167.8642316143
 20
146.3481012392
 30
0.0
 10
168.4972321481
 20
146.4244823814
 30
0.0
 10
168.9753433415
 20
146.4993100098
 30
0.0
 10
169.2866361161
 20
146.5557702673
 30
0.0
 10
169.3547112346
 20
146.569057031
 30
0.0
 10
169.3547112346
 20
146.569057031
 30
0.0
  0
SPLINE
  5
2F1
100
AcDbEntity
  8
0
100
AcDbSpline
 62
2
  6
CONTINUOUS
 70
0
 71
3
 72
13
 73
9
 74
0
 42
0.0000001
 43
0.0000001
 44
0.0000000001
 40
0.0
 40
0.0
 40
0.0
 40
0.0
 40
0.1666666667
 40
0.3333333333
 40
0.5
 40
0.6666666667
 40
0.8333333333
 40
1.0
 40
1.0
 40
1.0
 40
1.0
 10
163.3547112346
 20
146.569057031
 30
0.0
 10
163.3547112346
 20
146.569057031
 30
0.0
 10
163.4228281413
 20
146.5557654838
 30
0.0
 10
163.7333863036
 20
146.4994278953
 30
0.0
 10
164.2118020988
 20
146.4245337895
 30
0.0
 10
164.8447437546
 20
146.3481447804
 30
0.0
 10
165.5744451019
 20
146.2927880849
 30
0.0
 10
166.0949734121
 20
146.2792975231
 30
0.0
 10
166.3547112346
 20
146.2792975231
 30
0.0
  0
LINE
  5
2F2
100
AcDbEntity
  8
FASEN
100
AcDbLine
 62
7
  6
CONTINUOUS
 10
68.1677431584
 20
162.3881101133
 11
68.1322585521
 21
162.3940239714
  0
LINE
  5
2F3
100
AcDbEntity
  8
FASEN
100
AcDbLine
 62
7
  6
CONTINUOUS
 10
78.5394495505
 20
162.3877385094
 11
78.5771639172
 21
162.3940239714
  0
LINE
  5
2F4
100
AcDbEntity
  8
ACHSEN
100
AcDbLine
 62
7
  6
CONTINUOUS
 10
29.7047112346
 20
150.4981083296
 11
24.8547112346
 21
150.3910466445
  0
LINE
  5
2F5
100
AcDbEntity
  8
ACHSEN
100
AcDbLine
 62
7
  6
CONTINUOUS
 10
31.4954822663
 20
150.8030964496
 11
31.6183305826
 21
150.8206091068
  0
LINE
  5
2F6
100
AcDbEntity
  8
ACHSEN
100
AcDbLine
 62
7
  6
CONTINUOUS
 10
31.6183305826
 20
150.8206091068
 11
31.6332815206
 21
150.8227148362
  0
SPLINE
  5
2F7
100
AcDbEntity
  8
BEZUGSACHSEN
100
AcDbSpline
 62
7
  6
CONTINUOUS
 70
0
 71
3
 72
9
 73
5
 74
0
 42
0.0000001
 43
0.0000001
 44
0.0000000001
 40
0.0
 40
0.0
 40
0.0
 40
0.0
 40
0.0744761969
 40
1.0
 40
1.0
 40
1.0
 40
1.0
 10
163.8547112346
 20
115.219057031
 30
0.0
 10
163.9082603683
 20
115.2276047738
 30
0.0
 10
164.6279654014
 20
115.3388310075
 30
0.0
 10
165.3562868859
 20
115.402135304
 30
0.0
 10
166.0301330184
 20
115.416272975
 30
0.0
  0
SPLINE
  5
2F8
100
AcDbEntity
  8
BEZUGSACHSEN
100
AcDbSpline
 62
7
  6
CONTINUOUS
 70
0
 71
3
 72
9
 73
5
 74
0
 42
0.0000001
 43
0.0000001
 44
0.0000000001
 40
0.0
 40
0.0
 40
0.0
 40
0.0
 40
0.0744786606
 40
1.0
 40
1.0
 40
1.0
 40
1.0
 10
168.8547112346
 20
146.569057031
 30
0.0
 10
168.8011550387
 20
146.5605081886
 30
0.0
 10
168.0813788012
 20
146.4492717525
 30
0.0
 10
167.3529844178
 20
146.3859661135
 30
0.0
 10
166.6790733326
 20
146.3718364898
 30
0.0
  0
LINE
  5
2F9
100
AcDbEntity
  8
ACHSEN
100
AcDbLine
 62
7
  6
CONTINUOUS
 10
31.6332815202
 20
150.8227148362
 11
31.6183601328
 21
150.8206132786
  0
SPLINE
  5
2FA
100
AcDbEntity
  8
ACHSEN
100
AcDbSpline
 62
7
  6
CONTINUOUS
 70
0
 71
3
 72
11
 73
7
 74
0
 42
0.0000001
 43
0.0000001
 44
0.0000000001
 40
0.0
 40
0.0
 40
0.0
 40
0.0
 40
0.1537099379
 40
0.500508937
 40
0.8472910559
 40
1.0
 40
1.0
 40
1.0
 40
1.0
 10
50.5340725679
 20
151.2975753664
 30
0.0
 10
50.0704872988
 20
151.2262984116
 30
0.0
 10
48.5562549846
 20
151.0222406392
 30
0.0
 10
45.9734805571
 20
150.8367316073
 30
0.0
 10
43.3874345271
 20
150.8896788261
 30
0.0
 10
41.8681453444
 20
151.0194453188
 30
0.0
 10
41.4047112346
 20
151.0682140332
 30
0.0
  0
LINE
  5
2FB
100
AcDbEntity
  8
FASEN
100
AcDbLine
 62
7
  6
CONTINUOUS
 10
68.1322585522
 20
162.3940239714
 11
68.1701120808
 21
162.3877147887
  0
SPLINE
  5
2FC
100
AcDbEntity
  8
0
100
AcDbSpline
 62
7
  6
CONTINUOUS
 70
0
 71
3
 72
13
 73
9
 74
0
 42
0.0000001
 43
0.0000001
 44
0.0000000001
 40
0.0
 40
0.0
 40
0.0
 40
0.0
 40
0.1753307868
 40
0.3422637982
 40
0.4768046258
 40
0.5947351366
 40
0.8062611466
 40
1.0
 40
1.0
 40
1.0
 40
1.0
 10
60.9597343458
 20
109.3666282909
 30
0.0
 10
60.8958216008
 20
109.3935684525
 30
0.0
 10
60.7580445575
 20
109.4223064385
 30
0.0
 10
60.5703975593
 20
109.3735276206
 30
0.0
 10
60.4288128756
 20
109.2846857176
 30
0.0
 10
60.2923476529
 20
109.1610831057
 30
0.0
 10
60.1639289663
 20
108.9972064996
 30
0.0
 10
60.0828889693
 20
108.8585355073
 30
0.0
 10
60.0476044535
 20
108.79050038
 30
0.0
  0
SPLINE
  5
2FD
100
AcDbEntity
  8
0
100
AcDbSpline
 62
7
  6
CONTINUOUS
 70
0
 71
3
 72
12
 73
8
 74
0
 42
0.0000001
 43
0.0000001
 44
0.0000000001
 40
0.0
 40
0.0
 40
0.0
 40
0.0
 40
0.2873076234
 40
0.4555854673
 40
0.6473090081
 40
0.8177551754
 40
1.0
 40
1.0
 40
1.0
 40
1.0
 10
60.9597343458
 20
109.3666282909
 30
0.0
 10
60.9851206297
 20
109.3559275989
 30
0.0
 10
61.0277876927
 20
109.3433516551
 30
0.0
 10
61.0915928855
 20
109.3475101574
 30
0.0
 10
61.1345253829
 20
109.381862656
 30
0.0
 10
61.1513552534
 20
109.4326629568
 30
0.0
 10
61.1543015633
 20
109.4664257925
 30
0.0
 10
61.1546250279
 20
109.4838979058
 30
0.0
  0
SPLINE
  5
2FE
100
AcDbEntity
  8
0
100
AcDbSpline
 62
7
  6
CONTINUOUS
 70
0
 71
3
 72
15
 73
11
 74
0
 42
0.0000001
 43
0.0000001
 44
0.0000000001
 40
0.0
 40
0.0
 40
0.0
 40
0.0
 40
0.2503260428
 40
0.3755427651
 40
0.500769311
 40
0.625976783
 40
0.7510377775
 40
0.8746309833
 40
0.9372889186
 40
1.0
 40
1.0
 40
1.0
 40
1.0
 10
60.0476044535
 20
137.3085967917
 30
0.0
 10
60.0817392054
 20
137.165952262
 30
0.0
 10
60.1391279598
 20
136.9532616257
 30
0.0
 10
60.2346303687
 20
136.6756701818
 30
0.0
 10
60.3186479952
 20
136.472148766
 30
0.0
 10
60.4220276508
 20
136.2768606158
 30
0.0
 10
60.5499879204
 20
136.1000340815
 30
0.0
 10
60.717025968
 20
135.9925893631
 30
0.0
 10
60.8677312837
 20
136.0141532831
 30
0.0
 10
60.93100916
 20
136.0540951028
 30
0.0
 10
60.9597343458
 20
136.0770074841
 30
0.0
  0
SPLINE
  5
2FF
100
AcDbEntity
  8
0
100
AcDbSpline
 62
7
  6
CONTINUOUS
 70
0
 71
3
 72
13
 73
9
 74
0
 42
0.0000001
 43
0.0000001
 44
0.0000000001
 40
0.0
 40
0.0
 40
0.0
 40
0.0
 40
0.1670510693
 40
0.3289369806
 40
0.4609641718
 40
0.578209763
 40
0.7939442568
 40
1.0
 40
1.0
 40
1.0
 40
1.0
 10
60.9597343458
 20
147.2385353179
 30
0.0
 10
60.895300895
 20
147.2627704229
 30
0.0
 10
60.7560999021
 20
147.2847047654
 30
0.0
 10
60.5694919138
 20
147.2282285932
 30
0.0
 10
60.4280308756
 20
147.1326651385
 30
0.0
 10
60.2905022783
 20
146.9982976695
 30
0.0
 10
60.1610825738
 20
146.8159254109
 30
0.0
 10
60.0820826071
 20
146.6606731697
 30
0.0
 10
60.0476044535
 20
146.5830739211
 30
0.0
  0
SPLINE
  5
300
100
AcDbEntity
  8
0
100
AcDbSpline
 62
7
  6
CONTINUOUS
 70
0
 71
3
 72
15
 73
11
 74
0
 42
0.0000001
 43
0.0000001
 44
0.0000000001
 40
0.0
 40
0.0
 40
0.0
 40
0.0
 40
0.0735479282
 40
0.1546005725
 40
0.2292557381
 40
0.2979289731
 40
0.4260365971
 40
0.5473626904
 40
0.7785364517
 40
1.0
 40
1.0
 40
1.0
 40
1.0
 10
60.9597343458
 20
147.2385353179
 30
0.0
 10
60.9721861645
 20
147.2338518634
 30
0.0
 10
61.0013364182
 20
147.2297713509
 30
0.0
 10
61.0408059098
 20
147.2480133781
 30
0.0
 10
61.0683675849
 20
147.2784166717
 30
0.0
 10
61.0942625949
 20
147.3202943545
 30
0.0
 10
61.1153485587
 20
147.374224577
 30
0.0
 10
61.1369872693
 20
147.4584952367
 30
0.0
 10
61.1508574563
 20
147.5617061219
 30
0.0
 10
61.1542819458
 20
147.6435674721
 30
0.0
 10
61.1546250279
 20
147.6836247184
 30
0.0
  0
SPLINE
  5
301
100
AcDbEntity
  8
0
100
AcDbSpline
 62
7
  6
CONTINUOUS
 70
0
 71
3
 72
15
 73
11
 74
0
 42
0.0000001
 43
0.0000001
 44
0.0000000001
 40
0.0
 40
0.0
 40
0.0
 40
0.0
 40
0.2846444905
 40
0.5382195662
 40
0.6533996007
 40
0.761473341
 40
0.8135077243
 40
0.8652449798
 40
0.9195347039
 40
1.0
 40
1.0
 40
1.0
 40
1.0
 10
59.1547743237
 20
109.2116551517
 30
0.0
 10
59.1547743237
 20
109.0920817144
 30
0.0
 10
59.1547692917
 20
108.8660204873
 30
0.0
 10
59.1579717674
 20
108.5914288368
 30
0.0
 10
59.1715265092
 20
108.3915445633
 30
0.0
 10
59.1877281607
 20
108.2767630029
 30
0.0
 10
59.2095518588
 20
108.1904284146
 30
0.0
 10
59.2332914884
 20
108.1279988
 30
0.0
 10
59.2720777198
 20
108.0604698503
 30
0.0
 10
59.3259418688
 20
108.0239678564
 30
0.0
 10
59.3597343458
 20
108.0231716394
 30
0.0
  0
SPLINE
  5
302
100
AcDbEntity
  8
0
100
AcDbSpline
 62
7
  6
CONTINUOUS
 70
0
 71
3
 72
9
 73
5
 74
0
 42
0.0000001
 43
0.0000001
 44
0.0000000001
 40
0.0
 40
0.0
 40
0.0
 40
0.0
 40
0.2573720101
 40
1.0
 40
1.0
 40
1.0
 40
1.0
 10
60.0476044535
 20
108.79050038
 30
0.0
 10
60.0124650652
 20
108.7227450859
 30
0.0
 10
59.8734769297
 20
108.4607734349
 30
0.0
 10
59.7244934392
 20
108.2040642848
 30
0.0
 10
59.6077399855
 20
108.0173281556
 30
0.0
  0
SPLINE
  5
303
100
AcDbEntity
  8
0
100
AcDbSpline
 62
7
  6
CONTINUOUS
 70
0
 71
3
 72
8
 73
4
 74
0
 42
0.0000001
 43
0.0000001
 44
0.0000000001
 40
0.0
 40
0.0
 40
0.0
 40
0.0
 40
1.0
 40
1.0
 40
1.0
 40
1.0
 10
61.1545892812
 20
135.5192796909
 30
0.0
 10
61.1541595915
 20
135.5809916796
 30
0.0
 10
61.1522767856
 20
135.6427385192
 30
0.0
 10
61.1479769168
 20
135.7043020255
 30
0.0
  0
SPLINE
  5
304
100
AcDbEntity
  8
0
100
AcDbSpline
 62
7
  6
CONTINUOUS
 70
0
 71
3
 72
15
 73
11
 74
0
 42
0.0000001
 43
0.0000001
 44
0.0000000001
 40
0.0
 40
0.0
 40
0.0
 40
0.0
 40
0.2529176222
 40
0.3785524811
 40
0.5034347146
 40
0.6273379652
 40
0.7499890146
 40
0.8710889694
 40
0.9340922305
 40
1.0
 40
1.0
 40
1.0
 40
1.0
 10
61.1479769168
 20
135.7043020255
 30
0.0
 10
61.1451039989
 20
135.7454351172
 30
0.0
 10
61.1392385594
 20
135.8069319086
 30
0.0
 10
61.1262668936
 20
135.888015603
 30
0.0
 10
61.1132506473
 20
135.9476645773
 30
0.0
 10
61.0947617586
 20
136.0056273617
 30
0.0
 10
61.0698285736
 20
136.0596713906
 30
0.0
 10
61.0294882386
 20
136.0974337404
 30
0.0
 10
60.9862722296
 20
136.0954716943
 30
0.0
 10
60.9681344235
 20
136.0837077291
 30
0.0
 10
60.9597343458
 20
136.0770074841
 30
0.0
  0
SPLINE
  5
305
100
AcDbEntity
  8
0
100
AcDbSpline
 62
7
  6
CONTINUOUS
 70
0
 71
3
 72
11
 73
7
 74
0
 42
0.0000001
 43
0.0000001
 44
0.0000000001
 40
0.0
 40
0.0
 40
0.0
 40
0.0
 40
0.2536313865
 40
0.5046749499
 40
0.7531440587
 40
1.0
 40
1.0
 40
1.0
 40
1.0
 10
74.8160361
 20
121.5448357164
 30
0.0
 10
74.876690067
 20
121.5448357164
 30
0.0
 10
74.9971679081
 20
121.4939594932
 30
0.0
 10
75.1138790802
 20
121.3538469267
 30
0.0
 10
75.1959478703
 20
121.1943382764
 30
0.0
 10
75.2334720832
 20
121.0815859634
 30
0.0
 10
75.2490488019
 20
121.024644412
 30
0.0
  0
SPLINE
  5
306
100
AcDbEntity
  8
0
100
AcDbSpline
 62
7
  6
CONTINUOUS
 70
0
 71
3
 72
9
 73
5
 74
0
 42
0.0000001
 43
0.0000001
 44
0.0000000001
 40
0.0
 40
0.0
 40
0.0
 40
0.0
 40
0.1680195226
 40
1.0
 40
1.0
 40
1.0
 40
1.0
 10
75.2490488019
 20
100.9801021845
 30
0.0
 10
75.2322005289
 20
100.9597820686
 30
0.0
 10
75.1167472464
 20
100.8513010923
 30
0.0
 10
74.9467430113
 20
100.8134642706
 30
0.0
 10
74.8160361
 20
100.8134642706
 30
0.0
  0
SPLINE
  5
307
100
AcDbEntity
  8
0
100
AcDbSpline
 62
7
  6
CONTINUOUS
 70
0
 71
3
 72
11
 73
7
 74
0
 42
0.0000001
 43
0.0000001
 44
0.0000000001
 40
0.0
 40
0.0
 40
0.0
 40
0.0
 40
0.2468743153
 40
0.4953615093
 40
0.7464260843
 40
1.0
 40
1.0
 40
1.0
 40
1.0
 10
71.4603736673
 20
121.024644412
 30
0.0
 10
71.4759514799
 20
121.0815899618
 30
0.0
 10
71.5134802573
 20
121.1943488151
 30
0.0
 10
71.5955517528
 20
121.353872984
 30
0.0
 10
71.7122841139
 20
121.4939600901
 30
0.0
 10
71.8327464014
 20
121.5448357164
 30
0.0
 10
71.8933863692
 20
121.5448357164
 30
0.0
  0
SPLINE
  5
308
100
AcDbEntity
  8
0
100
AcDbSpline
 62
7
  6
CONTINUOUS
 70
0
 71
3
 72
9
 73
5
 74
0
 42
0.0000001
 43
0.0000001
 44
0.0000000001
 40
0.0
 40
0.0
 40
0.0
 40
0.0
 40
0.3641598889
 40
1.0
 40
1.0
 40
1.0
 40
1.0
 10
71.8933863692
 20
100.8134642706
 30
0.0
 10
71.8360099474
 20
100.8134642706
 30
0.0
 10
71.6798236143
 20
100.8295833646
 30
0.0
 10
71.5243176237
 20
100.9029816035
 30
0.0
 10
71.4603736673
 20
100.9801021845
 30
0.0
  0
SPLINE
  5
309
100
AcDbEntity
  8
0
100
AcDbSpline
 62
7
  6
CONTINUOUS
 70
0
 71
3
 72
9
 73
5
 74
0
 42
0.0000001
 43
0.0000001
 44
0.0000000001
 40
0.0
 40
0.0
 40
0.0
 40
0.0
 40
0.3642526053
 40
1.0
 40
1.0
 40
1.0
 40
1.0
 10
74.8160361
 20
160.9746497913
 30
0.0
 10
74.8734275066
 20
160.9746497913
 30
0.0
 10
75.0296169651
 20
160.9585352358
 30
0.0
 10
75.1851137504
 20
160.8851217186
 30
0.0
 10
75.2490488019
 20
160.8080118774
 30
0.0
  0
SPLINE
  5
30A
100
AcDbEntity
  8
0
100
AcDbSpline
 62
7
  6
CONTINUOUS
 70
0
 71
3
 72
21
 73
17
 74
0
 42
0.0000001
 43
0.0000001
 44
0.0000000001
 40
0.0
 40
0.0
 40
0.0
 40
0.0
 40
0.0152736556
 40
0.0307400416
 40
0.0615944727
 40
0.0924597446
 40
0.1233512662
 40
0.1852330485
 40
0.2472659363
 40
0.3094463907
 40
0.3717660941
 40
0.4967787028
 40
0.6222117836
 40
0.747963109
 40
0.8739278454
 40
1.0
 40
1.0
 40
1.0
 40
1.0
 10
59.3597343458
 20
139.0800002177
 30
0.0
 10
59.3444720305
 20
139.0799377984
 30
0.0
 10
59.3187838657
 20
139.0539406437
 30
0.0
 10
59.293042773
 20
139.0001881079
 30
0.0
 10
59.2693952432
 20
138.9254162148
 30
0.0
 10
59.2495968698
 20
138.8353213905
 30
0.0
 10
59.2286191948
 20
138.7134240263
 30
0.0
 10
59.2097157947
 20
138.5598752228
 30
0.0
 10
59.1934881546
 20
138.3745912706
 30
0.0
 10
59.1817189601
 20
138.1885572033
 30
0.0
 10
59.1702643201
 20
137.939481351
 30
0.0
 10
59.161850556
 20
137.6270358319
 30
0.0
 10
59.1570981079
 20
137.2511403519
 30
0.0
 10
59.1552836852
 20
136.8742702957
 30
0.0
 10
59.1548103471
 20
136.4967596627
 30
0.0
 10
59.1547743237
 20
136.2449077638
 30
0.0
 10
59.1547743237
 20
136.1189281616
 30
0.0
  0
LINE
  5
30B
100
AcDbEntity
  8
0
100
AcDbLine
 62
7
  6
CONTINUOUS
 10
59.3651128664
 20
107.4686722251
 11
59.6077399855
 21
108.0173281556
  0
SPLINE
  5
30C
100
AcDbEntity
  8
0
100
AcDbSpline
 62
7
  6
CONTINUOUS
 70
0
 71
3
 72
17
 73
13
 74
0
 42
0.0000001
 43
0.0000001
 44
0.0000000001
 40
0.0
 40
0.0
 40
0.0
 40
0.0
 40
0.2182009024
 40
0.3349220057
 40
0.456586696
 40
0.5831112211
 40
0.7144823146
 40
0.7820564401
 40
0.8510300181
 40
0.92186225
 40
0.958727904
 40
1.0
 40
1.0
 40
1.0
 40
1.0
 10
59.1547743237
 20
147.3515877796
 30
0.0
 10
59.1547743237
 20
147.2193087654
 30
0.0
 10
59.1547566363
 20
147.016269104
 30
0.0
 10
59.1571637452
 20
146.7394803337
 30
0.0
 10
59.1619889387
 20
146.518307931
 30
0.0
 10
59.1722746768
 20
146.2883929501
 30
0.0
 10
59.1883997002
 20
146.091724255
 30
0.0
 10
59.2099738007
 20
145.9305233834
 30
0.0
 10
59.2325782713
 20
145.8073530913
 30
0.0
 10
59.2621740676
 20
145.7022023606
 30
0.0
 10
59.2966057423
 20
145.6227325064
 30
0.0
 10
59.3347188789
 20
145.5785121298
 30
0.0
 10
59.3597343458
 20
145.5789992357
 30
0.0
  0
SPLINE
  5
30D
100
AcDbEntity
  8
0
100
AcDbSpline
 62
7
  6
CONTINUOUS
 70
0
 71
3
 72
10
 73
6
 74
0
 42
0.0000001
 43
0.0000001
 44
0.0000000001
 40
0.0
 40
0.0
 40
0.0
 40
0.0
 40
0.2163947382
 40
0.4583018846
 40
1.0
 40
1.0
 40
1.0
 40
1.0
 10
59.6077399855
 20
145.5838284636
 30
0.0
 10
59.5220385975
 20
145.121106908
 30
0.0
 10
59.3997020053
 20
144.1298450167
 30
0.0
 10
59.3245232793
 20
141.954831832
 30
0.0
 10
59.4550281145
 20
140.2490987141
 30
0.0
 10
59.6077399855
 20
139.0810144736
 30
0.0
  0
SPLINE
  5
30E
100
AcDbEntity
  8
0
100
AcDbSpline
 62
7
  6
CONTINUOUS
 70
0
 71
3
 72
11
 73
7
 74
0
 42
0.0000001
 43
0.0000001
 44
0.0000000001
 40
0.0
 40
0.0
 40
0.0
 40
0.0
 40
0.2468553946
 40
0.4953235696
 40
0.7463663429
 40
1.0
 40
1.0
 40
1.0
 40
1.0
 10
75.2490488019
 20
140.7634696499
 30
0.0
 10
75.2334721149
 20
140.7065282146
 30
0.0
 10
75.1959481158
 20
140.5937761486
 30
0.0
 10
75.1138793044
 20
140.4342681937
 30
0.0
 10
74.9971691325
 20
140.2941545245
 30
0.0
 10
74.8766906207
 20
140.2432783455
 30
0.0
 10
74.8160361
 20
140.2432783455
 30
0.0
  0
SPLINE
  5
30F
100
AcDbEntity
  8
0
100
AcDbSpline
 62
7
  6
CONTINUOUS
 70
0
 71
3
 72
9
 73
5
 74
0
 42
0.0000001
 43
0.0000001
 44
0.0000000001
 40
0.0
 40
0.0
 40
0.0
 40
0.0
 40
0.1680322176
 40
1.0
 40
1.0
 40
1.0
 40
1.0
 10
71.4603736673
 20
160.8080118774
 30
0.0
 10
71.4772232263
 20
160.8283335442
 30
0.0
 10
71.5926778031
 20
160.9368135763
 30
0.0
 10
71.7626813522
 20
160.9746497913
 30
0.0
 10
71.8933863692
 20
160.9746497913
 30
0.0
  0
SPLINE
  5
310
100
AcDbEntity
  8
0
100
AcDbSpline
 62
7
  6
CONTINUOUS
 70
0
 71
3
 72
11
 73
7
 74
0
 42
0.0000001
 43
0.0000001
 44
0.0000000001
 40
0.0
 40
0.0
 40
0.0
 40
0.0
 40
0.2535749038
 40
0.5046395871
 40
0.753126088
 40
1.0
 40
1.0
 40
1.0
 40
1.0
 10
71.8933863692
 20
140.2432783455
 30
0.0
 10
71.8327461634
 20
140.2432783455
 30
0.0
 10
71.712283491
 20
140.2941540372
 30
0.0
 10
71.595551632
 20
140.4342417171
 30
0.0
 10
71.5134800861
 20
140.5937655446
 30
0.0
 10
71.4759514549
 20
140.7065241916
 30
0.0
 10
71.4603736673
 20
140.7634696499
 30
0.0
  0
ELLIPSE
  5
311
100
AcDbEntity
  8
0
100
AcDbEllipse
 62
7
  6
CONTINUOUS
 10
59.0075570453
 20
130.894057031
 30
0.0
 11
14.7536831607
 21
31.0932549156
 31
0.0
 40
0.3419987131
 41
-1.0912395858
 42
-0.1578061866
  0
ELLIPSE
  5
312
100
AcDbEntity
  8
0
100
AcDbEllipse
 62
7
  6
CONTINUOUS
 10
59.0075570453
 20
130.894057031
 30
0.0
 11
-14.7536831607
 21
31.0932549156
 31
0.0
 40
0.3419987131
 41
-2.9837864669
 42
-2.0503530678
  0
ELLIPSE
  5
313
100
AcDbEntity
  8
0
100
AcDbEllipse
 62
7
  6
CONTINUOUS
 10
87.701865424
 20
130.894057031
 30
0.0
 11
-14.7536831607
 21
31.0932549156
 31
0.0
 40
0.3419987131
 41
0.1578061866
 42
1.0912395858
  0
ELLIPSE
  5
314
100
AcDbEntity
  8
0
100
AcDbEllipse
 62
7
  6
CONTINUOUS
 10
87.701865424
 20
130.894057031
 30
0.0
 11
14.7536831607
 21
31.0932549156
 31
0.0
 40
0.3419987131
 41
-4.2328322393
 42
-3.2993988402
  0
ENDSEC
  0
SECTION
  2
OBJECTS
  0
DICTIONARY
  5
C
100
AcDbDictionary
280
0
281
1
  3
ACAD_GROUP
350
D
  3
ACAD_MLINESTYLE
350
17
  3
ACAD_LAYOUT
350
1A
  3
ACAD_PLOTSETTINGS
350
19
  3
ACAD_PLOTSTYLENAME
350
E
  0
DICTIONARY
  5
D
102
{ACAD_REACTORS
330
C
102
}
100
AcDbDictionary
280
0
281
1
  0
ACDBDICTIONARYWDFLT
  5
E
102
{ACAD_REACTORS
330
C
102
}
100
AcDbDictionary
281
1
  3
Normal
350
F
100
AcDbDictionaryWithDefault
340
F
  0
DICTIONARY
  5
17
102
{ACAD_REACTORS
330
C
102
}
100
AcDbDictionary
280
0
281
1
  3
Standard
350
18
  0
DICTIONARY
  5
19
102
{ACAD_REACTORS
330
C
102
}
100
AcDbDictionary
281
1
  0
DICTIONARY
  5
1A
102
{ACAD_REACTORS
330
C
102
}
100
AcDbDictionary
281
1
  3
Model
350
315
  3
Layout1
350
316
  0
ACDBPLACEHOLDER
  5
F
102
{ACAD_REACTORS
330
E
102
}
  0
MLINESTYLE
  5
18
102
{ACAD_REACTORS
330
17
102
}
100
AcDbMlineStyle
  2
STANDARD
 70
0
  3

 62
256
 51
90.0
 52
90.0
 71
2
 49
0.5
 62
256
  6
BYLAYER
 49
-0.5
 62
256
  6
BYLAYER
  0
LAYOUT
  5
315
102
{ACAD_REACTORS
330
1A
102
}
100
AcDbPlotSettings
  1

  2
none_device
  4
ISO_A4_(297.00_x_210.00_MM)
  6

 40
0.0
 41
0.0
 42
0.0
 43
0.0
 44
297.0
 45
210.0
 46
0.0
 47
0.0
 48
0.0
 49
0.0
140
0.0
141
0.0
142
1.0
143
1.0
 70
1024
 72
1
 73
0
 74
0
  7

 75
0
147
1.0
148
0.0
149
0.0
100
AcDbLayout
  1
Model
 70
0
 71
0
 10
0.0
 20
0.0
 11
297.0
 21
210.0
 12
0.0
 22
0.0
 32
0.0
 14
0.0
 24
0.0
 34
0.0
 15
0.0
 25
0.0
 35
0.0
146
0.0
 13
0.0
 23
0.0
 33
0.0
 16
1.0
 26
0.0
 36
0.0
 17
0.0
 27
1.0
 37
0.0
 76
0
330
217
345
0
346
0
  0
LAYOUT
  5
316
102
{ACAD_REACTORS
330
1A
102
}
100
AcDbPlotSettings
  1

  2
none_device
  4
ISO_A4_(297.00_x_210.00_MM)
  6

 40
0.0
 41
0.0
 42
0.0
 43
0.0
 44
297.0
 45
210.0
 46
0.0
 47
0.0
 48
0.0
 49
0.0
140
0.0
141
0.0
142
1.0
143
1.0
 70
0
 72
1
 73
0
 74
0
  7

 75
0
147
1.0
148
0.0
149
0.0
100
AcDbLayout
  1
Layout1
 70
0
 71
1
 10
0.0
 20
0.0
 11
297.0
 21
210.0
 12
0.0
 22
0.0
 32
0.0
 14
0.0
 24
0.0
 34
0.0
 15
0.0
 25
0.0
 35
0.0
146
0.0
 13
0.0
 23
0.0
 33
0.0
 16
1.0
 26
0.0
 36
0.0
 17
0.0
 27
1.0
 37
0.0
 76
0
330
218
345
0
346
0
  0
ENDSEC
  0
EOF
