999
DXF file: cc6-142-08.dxf
999
Pro/ENGINEER 2010430 by Parametric Technology Corporation
  0
SECTION
  2
HEADER
  9
$ACADVER
  1
AC1021
  9
$DWGCODEPAGE
  3
ANSI_1252
  9
$EXTMAX
 10
297.0
 20
210.0
 30
0.0
  9
$EXTMIN
 10
0.0
 20
0.0
 30
0.0
  9
$LIMMIN
 10
0.0
 20
0.0
  9
$LIMMAX
 10
297.0
 20
210.0
  9
$VIEWCTR
 10
148.5
 20
105.0
  9
$VIEWSIZE
 40
210.0
  9
$CLAYER
  8
0
  9
$LTSCALE
 40
16.335
  9
$CELTYPE
  6
BYLAYER
  9
$DIMSCALE
 40
1.0
  9
$DIMASZ
 40
3.5
  9
$DIMEXO
 40
1.85625
  9
$DIMDLI
 40
11.286
  9
$DIMEXE
 40
5.346
  9
$DIMCEN
 40
2.673
  9
$DIMLFAC
 40
1.0
  9
$DIMBLK
  1
_FILLED
  9
$DIMTXT
 40
3.5
  9
$DIMTOL
 70
1
  9
$DIMLIM
 70
0
  9
$DIMTFAC
 40
1.0
  9
$DIMTP
 40
0.005
  9
$DIMTM
 40
0.005
  9
$PDMODE
 70
3
  9
$PDSIZE
 40
0.3125
  9
$HANDSEED
  5
31F
  9
$TILEMODE
 70
1
  9
$MEASUREMENT
 70
1
  9
$INSUNITS
 70
4
  0
ENDSEC
  0
SECTION
  2
CLASSES
  0
CLASS
  1
ACDBDICTIONARYWDFLT
  2
AcDbDictionaryWithDefault
  3
AutoCAD 2000
 90
0
 91
1
280
0
281
0
  0
CLASS
  1
ACDBPLACEHOLDER
  2
AcDbPlaceHolder
  3
AutoCAD 2000
 90
0
 91
1
280
0
281
0
  0
CLASS
  1
LAYOUT
  2
AcDbLayout
  3
AutoCAD 2000
 90
0
 91
0
280
0
281
0
  0
ENDSEC
  0
SECTION
  2
TABLES
  0
TABLE
  2
VPORT
  5
8
100
AcDbSymbolTable
 70
2
  0
VPORT
  5
1F4
100
AcDbSymbolTableRecord
100
AcDbViewportTableRecord
  2
*ACTIVE
 70
0
 10
0.0
 20
0.0
 11
1.0
 21
1.0
 12
148.5
 22
105.0
 13
0.0
 23
0.0
 14
1.0
 24
1.0
 15
0.0
 25
0.0
 16
0.0
 26
0.0
 36
1.0
 17
0.0
 27
0.0
 37
0.0
 40
210.0
 41
1.4142857143
 42
50.0
 43
0.0
 44
0.0
 50
0.0
 51
0.0
 71
0
 72
100
 73
1
 74
1
 75
0
 76
0
 77
0
 78
0
  0
ENDTAB
  0
TABLE
  2
LTYPE
  5
5
100
AcDbSymbolTable
 70
6
  0
LTYPE
  5
14
100
AcDbSymbolTableRecord
100
AcDbLinetypeTableRecord
  2
BYBLOCK
 70
0
  3

 72
65
 73
0
 40
0.0
  0
LTYPE
  5
15
100
AcDbSymbolTableRecord
100
AcDbLinetypeTableRecord
  2
BYLAYER
 70
0
  3

 72
65
 73
0
 40
0.0
  0
LTYPE
  5
16
100
AcDbSymbolTableRecord
100
AcDbLinetypeTableRecord
  2
CONTINUOUS
 70
64
  3
Solid line
 72
65
 73
0
 40
0.0
  0
LTYPE
  5
1F5
100
AcDbSymbolTableRecord
100
AcDbLinetypeTableRecord
  2
CENTER
 70
64
  3
____ _ ____ _ ____ _ ____ _ ____ _ ____ _ ____
 72
65
 73
4
 40
0.6
 49
0.375
 74
0
 49
-0.075
 74
0
 49
0.075
 74
0
 49
-0.075
 74
0
  0
LTYPE
  5
1F6
100
AcDbSymbolTableRecord
100
AcDbLinetypeTableRecord
  2
HIDDEN
 70
64
  3
- - - - - - - - - - - - - - - - - - - -
 72
65
 73
2
 40
0.2
 49
0.1
 74
0
 49
-0.1
 74
0
  0
LTYPE
  5
1F7
100
AcDbSymbolTableRecord
100
AcDbLinetypeTableRecord
  2
PHANTOM
 70
64
  3
_____ _ _ _____ _ _ _____ _ _ _____
 72
65
 73
6
 40
0.8
 49
0.45
 74
0
 49
-0.05
 74
0
 49
0.1
 74
0
 49
-0.05
 74
0
 49
0.1
 74
0
 49
-0.05
 74
0
  0
LTYPE
  5
1F8
100
AcDbSymbolTableRecord
100
AcDbLinetypeTableRecord
  2
DOT
 70
64
  3
. . . . . . . . . . . . . . . . . . . .
 72
65
 73
2
 40
0.2
 49
0.1
 74
0
 49
-0.1
 74
0
  0
LTYPE
  5
1F9
100
AcDbSymbolTableRecord
100
AcDbLinetypeTableRecord
  2
DASHED
 70
64
  3
- - - - - - - - - - - - - - - - - - - -
 72
65
 73
2
 40
0.2
 49
0.1
 74
0
 49
-0.1
 74
0
  0
ENDTAB
  0
TABLE
  2
LAYER
  5
2
100
AcDbSymbolTable
 70
36
  0
LAYER
  5
10
100
AcDbSymbolTableRecord
100
AcDbLayerTableRecord
  2
0
 70
0
 62
7
  6
CONTINUOUS
370
-3
390
F
  0
LAYER
  5
1FA
100
AcDbSymbolTableRecord
100
AcDbLayerTableRecord
  2
DEFAULT_1
 70
0
 62
7
  6
CENTER
370
-3
390
F
  0
LAYER
  5
1FB
100
AcDbSymbolTableRecord
100
AcDbLayerTableRecord
  2
DEFAULT_2
 70
0
 62
8
  6
HIDDEN
370
-3
390
F
  0
LAYER
  5
1FC
100
AcDbSymbolTableRecord
100
AcDbLayerTableRecord
  2
DEFAULT_3
 70
0
 62
7
  6
PHANTOM
370
-3
390
F
  0
LAYER
  5
1FD
100
AcDbSymbolTableRecord
100
AcDbLayerTableRecord
  2
ACHSEN
 70
0
 62
7
  6
CONTINUOUS
370
-3
390
F
  0
LAYER
  5
1FE
100
AcDbSymbolTableRecord
100
AcDbLayerTableRecord
  2
BEZUGSACHSEN
 70
0
 62
7
  6
CONTINUOUS
370
-3
390
F
  0
LAYER
  5
1FF
100
AcDbSymbolTableRecord
100
AcDbLayerTableRecord
  2
BEZUGSEBENE_B
 70
0
 62
7
  6
CONTINUOUS
370
-3
390
F
  0
LAYER
  5
200
100
AcDbSymbolTableRecord
100
AcDbLayerTableRecord
  2
BOHRUNGEN
 70
0
 62
7
  6
CONTINUOUS
370
-3
390
F
  0
LAYER
  5
201
100
AcDbSymbolTableRecord
100
AcDbLayerTableRecord
  2
EBENEN
 70
0
 62
7
  6
CONTINUOUS
370
-3
390
F
  0
LAYER
  5
202
100
AcDbSymbolTableRecord
100
AcDbLayerTableRecord
  2
FASEN
 70
0
 62
7
  6
CONTINUOUS
370
-3
390
F
  0
LAYER
  5
203
100
AcDbSymbolTableRecord
100
AcDbLayerTableRecord
  2
FLAECHEN
 70
0
 62
7
  6
CONTINUOUS
370
-3
390
F
  0
LAYER
  5
204
100
AcDbSymbolTableRecord
100
AcDbLayerTableRecord
  2
GEWINDE
 70
0
 62
7
  6
CONTINUOUS
370
-3
390
F
  0
LAYER
  5
205
100
AcDbSymbolTableRecord
100
AcDbLayerTableRecord
  2
KOORDSYS
 70
0
 62
7
  6
CONTINUOUS
370
-3
390
F
  0
LAYER
  5
206
100
AcDbSymbolTableRecord
100
AcDbLayerTableRecord
  2
KURVEN
 70
0
 62
7
  6
CONTINUOUS
370
-3
390
F
  0
LAYER
  5
207
100
AcDbSymbolTableRecord
100
AcDbLayerTableRecord
  2
KURVE_FUER_GTOL_DETAILANSICHT
 70
0
 62
7
  6
CONTINUOUS
370
-3
390
F
  0
LAYER
  5
208
100
AcDbSymbolTableRecord
100
AcDbLayerTableRecord
  2
KURVE_GAUGE2_POLIGON_INNENEINST
 70
0
 62
7
  6
CONTINUOUS
370
-3
390
F
  0
LAYER
  5
209
100
AcDbSymbolTableRecord
100
AcDbLayerTableRecord
  2
KURVE_PHANTOM1_GAUGE_PIN_1
 70
0
 62
7
  6
CONTINUOUS
370
-3
390
F
  0
LAYER
  5
20A
100
AcDbSymbolTableRecord
100
AcDbLayerTableRecord
  2
KURVE_PHANTOM2_GAUGE_PIN1
 70
0
 62
7
  6
CONTINUOUS
370
-3
390
F
  0
LAYER
  5
20B
100
AcDbSymbolTableRecord
100
AcDbLayerTableRecord
  2
KURVE_POLIGON_BEMASUNG
 70
0
 62
7
  6
CONTINUOUS
370
-3
390
F
  0
LAYER
  5
20C
100
AcDbSymbolTableRecord
100
AcDbLayerTableRecord
  2
PUNKTE
 70
0
 62
7
  6
CONTINUOUS
370
-3
390
F
  0
LAYER
  5
20D
100
AcDbSymbolTableRecord
100
AcDbLayerTableRecord
  2
RUNDUNGEN
 70
0
 62
7
  6
CONTINUOUS
370
-3
390
F
  0
LAYER
  5
20E
100
AcDbSymbolTableRecord
100
AcDbLayerTableRecord
  2
S_ACHSEN
 70
0
 62
7
  6
CONTINUOUS
370
-3
390
F
  0
LAYER
  5
20F
100
AcDbSymbolTableRecord
100
AcDbLayerTableRecord
  2
S_EBENEN
 70
0
 62
7
  6
CONTINUOUS
370
-3
390
F
  0
LAYER
  5
210
100
AcDbSymbolTableRecord
100
AcDbLayerTableRecord
  2
S_KOORDSYS
 70
0
 62
7
  6
CONTINUOUS
370
-3
390
F
  0
LAYER
  5
211
100
AcDbSymbolTableRecord
100
AcDbLayerTableRecord
  2
TOL_BEZUEGE
 70
0
 62
7
  6
CONTINUOUS
370
-3
390
F
  0
LAYER
  5
212
100
AcDbSymbolTableRecord
100
AcDbLayerTableRecord
  2
VERBFLAECHE
 70
0
 62
7
  6
CONTINUOUS
370
-3
390
F
  0
LAYER
  5
213
100
AcDbSymbolTableRecord
100
AcDbLayerTableRecord
  2
ZEICHNUNGSBEMASSUNGEN
 70
0
 62
7
  6
CONTINUOUS
370
-3
390
F
  0
ENDTAB
  0
TABLE
  2
STYLE
  5
3
100
AcDbSymbolTable
 70
1
  0
STYLE
  5
11
100
AcDbSymbolTableRecord
100
AcDbTextStyleTableRecord
  2
STANDARD
 70
0
 40
0.0
 41
0.7
 50
0.0
 71
0
 42
0.2
  3
txt
  4

  0
STYLE
  5
214
100
AcDbSymbolTableRecord
100
AcDbTextStyleTableRecord
  2
TEXTSTYLE_1
 70
0
 40
0.0
 41
0.8
 50
0.0
 71
0
 42
0.2
  3
gdt
  4

  0
STYLE
  5
215
100
AcDbSymbolTableRecord
100
AcDbTextStyleTableRecord
  2
TEXTSTYLE_2
 70
0
 40
0.0
 41
0.7
 50
0.0
 71
0
 42
0.2
  3
gdt
  4

  0
ENDTAB
  0
TABLE
  2
VIEW
  5
6
100
AcDbSymbolTable
 70
0
  0
ENDTAB
  0
TABLE
  2
UCS
  5
7
100
AcDbSymbolTable
 70
0
  0
ENDTAB
  0
TABLE
  2
APPID
  5
9
100
AcDbSymbolTable
 70
1
  0
APPID
  5
216
100
AcDbSymbolTableRecord
100
AcDbRegAppTableRecord
  2
ACAD
 70
0
  0
ENDTAB
  0
TABLE
  2
BLOCK_RECORD
  5
1
100
AcDbSymbolTable
 70
0
  0
BLOCK_RECORD
  5
217
100
AcDbSymbolTableRecord
100
AcDbBlockTableRecord
  2
*Model_Space
  0
BLOCK_RECORD
  5
218
100
AcDbSymbolTableRecord
100
AcDbBlockTableRecord
  2
*Paper_Space
  0
BLOCK_RECORD
  5
219
100
AcDbSymbolTableRecord
100
AcDbBlockTableRecord
  2
_FILLED
  0
BLOCK_RECORD
  5
21A
100
AcDbSymbolTableRecord
100
AcDbBlockTableRecord
  2
*D0
  0
BLOCK_RECORD
  5
21B
100
AcDbSymbolTableRecord
100
AcDbBlockTableRecord
  2
*D1
  0
BLOCK_RECORD
  5
21C
100
AcDbSymbolTableRecord
100
AcDbBlockTableRecord
  2
*D2
  0
BLOCK_RECORD
  5
21D
100
AcDbSymbolTableRecord
100
AcDbBlockTableRecord
  2
*D3
  0
BLOCK_RECORD
  5
21E
100
AcDbSymbolTableRecord
100
AcDbBlockTableRecord
  2
*D4
  0
BLOCK_RECORD
  5
21F
100
AcDbSymbolTableRecord
100
AcDbBlockTableRecord
  2
*D5
  0
BLOCK_RECORD
  5
220
100
AcDbSymbolTableRecord
100
AcDbBlockTableRecord
  2
*D6
  0
ENDTAB
  0
TABLE
  2
DIMSTYLE
  5
A
100
AcDbSymbolTable
 70
1
100
AcDbDimStyleTable
 71
0
  0
DIMSTYLE
105
221
100
AcDbSymbolTableRecord
100
AcDbDimStyleTableRecord
  2
STANDARD
 70
0
  3

  4

 40
1.0
 41
3.5
 42
0.0625
 43
0.38
 44
0.18
 45
0.0
 46
0.0
 47
0.005
 48
0.005
140
3.5
141
0.09
142
0.0
143
25.4
144
1.0
145
0.0
146
1.0
147
0.09
 71
1.0
 72
0.0
 73
0
 74
0
 75
0
 76
0
 77
1
 78
8
170
0
171
2
172
0
173
0
174
0
175
0
176
0
177
0
178
5
270
2
271
3
272
3
273
2
274
2
275
0
280
0
281
0
282
0
283
1
284
8
285
0
286
0
287
3
288
0
340
11
341
219
342
219
343
219
344
219
  0
DIMSTYLE
105
222
100
AcDbSymbolTableRecord
100
AcDbDimStyleTableRecord
  2
DIMSTYLE_1
 70
0
  3

  4

 40
1.0
 41
3.5
 42
0.0625
 43
0.38
 44
0.18
 45
0.0
 46
0.0
 47
0.0
 48
0.1
140
3.5
141
0.09
142
0.0
143
25.4
144
1.0
145
0.0
146
1.0
147
0.09
 71
0.0
 72
0.0
 73
0
 74
0
 75
0
 76
0
 77
1
 78
8
170
0
171
2
172
0
173
0
174
0
175
0
176
0
177
0
178
5
270
2
271
2
272
2
273
2
274
2
275
0
280
0
281
0
282
0
283
1
284
8
285
0
286
0
287
3
288
0
340
11
341
219
342
219
343
219
344
219
  0
DIMSTYLE
105
223
100
AcDbSymbolTableRecord
100
AcDbDimStyleTableRecord
  2
DIMSTYLE_2
 70
0
  3

  4

 40
1.0
 41
3.5
 42
0.0625
 43
0.38
 44
0.18
 45
0.0
 46
0.0
 47
0.25
 48
0.25
140
3.5
141
0.09
142
0.0
143
25.4
144
1.0
145
0.0
146
1.0
147
0.09
 71
0.0
 72
0.0
 73
0
 74
0
 75
0
 76
0
 77
1
 78
8
170
0
171
2
172
0
173
0
174
0
175
0
176
0
177
0
178
5
270
2
271
2
272
2
273
2
274
2
275
0
280
0
281
0
282
0
283
1
284
8
285
0
286
0
287
3
288
0
340
11
341
219
342
219
343
219
344
219
  0
DIMSTYLE
105
224
100
AcDbSymbolTableRecord
100
AcDbDimStyleTableRecord
  2
DIMSTYLE_3
 70
0
  3

  4

 40
1.0
 41
3.5
 42
0.0625
 43
0.38
 44
0.18
 45
0.0
 46
0.0
 47
0.5
 48
0.5
140
3.5
141
0.09
142
0.0
143
25.4
144
1.0
145
0.0
146
1.0
147
0.09
 71
0.0
 72
0.0
 73
0
 74
0
 75
0
 76
0
 77
1
 78
8
170
0
171
2
172
0
173
0
174
0
175
0
176
0
177
0
178
5
270
2
271
2
272
2
273
2
274
2
275
0
280
0
281
0
282
0
283
1
284
8
285
0
286
0
287
3
288
0
340
11
341
219
342
219
343
219
344
219
  0
DIMSTYLE
105
225
100
AcDbSymbolTableRecord
100
AcDbDimStyleTableRecord
  2
DIMSTYLE_4
 70
0
  3

  4

 40
1.0
 41
3.5
 42
0.0625
 43
0.38
 44
0.18
 45
0.0
 46
0.0
 47
-0.015
 48
0.019
140
3.5
141
0.09
142
0.0
143
25.4
144
1.0
145
0.0
146
1.0
147
0.09
 71
0.0
 72
0.0
 73
0
 74
0
 75
0
 76
0
 77
1
 78
8
170
0
171
2
172
0
173
0
174
0
175
0
176
0
177
0
178
0
270
2
271
3
272
3
273
2
274
2
275
0
280
0
281
0
282
0
283
1
284
8
285
0
286
0
287
3
288
0
340
11
341
219
342
219
343
219
344
219
  0
ENDTAB
  0
ENDSEC
  0
SECTION
  2
BLOCKS
  0
BLOCK
  5
20
100
AcDbEntity
  8
0
100
AcDbBlockBegin
  2
*Model_Space
 70
0
 10
0.0
 20
0.0
 30
0.0
  3
*Model_Space
  1

  0
ENDBLK
  5
21
100
AcDbEntity
  8
0
100
AcDbBlockEnd
  0
BLOCK
  5
1C
100
AcDbEntity
  8
0
100
AcDbBlockBegin
  2
*Paper_Space
 70
0
 10
0.0
 20
0.0
 30
0.0
  3
*Paper_Space
  1

  0
ENDBLK
  5
1D
100
AcDbEntity
  8
0
100
AcDbBlockEnd
  0
BLOCK
  5
226
100
AcDbEntity
  8
0
100
AcDbBlockBegin
  2
_FILLED
 70
64
 10
0.0
 20
0.0
  3
_FILLED
  1

  0
SOLID
  5
227
100
AcDbEntity
  8
0
  6
BYBLOCK
 62
0
100
AcDbTrace
 10
0.0
 20
0.0
 11
-1.0
 21
0.125
 12
-1.0
 22
-0.125
 13
-1.0
 23
-0.125
  0
ENDBLK
  5
228
100
AcDbEntity
  8
0
  6
BYBLOCK
 62
0
100
AcDbBlockEnd
  0
BLOCK
  5
229
100
AcDbEntity
  8
0
100
AcDbBlockBegin
 62
2
  6
CONTINUOUS
  2
*D0
 70
65
 10
0.0
 20
0.0
  3
*D0
  1

  0
MTEXT
  5
22A
100
AcDbEntity
  8
0
100
AcDbMText
 62
5
  6
CONTINUOUS
  7
TEXTSTYLE_2
 71
2
 72
1
 10
262.1399708691
 20
140.7444855267
 30
0.0
 11
0.0
 21
1.0
 31
0.0
 44
0.9
  1
{\Fgdt;n}\Ftxt;21
 40
3.5
 41
9.4166666667
  0
LINE
  5
22B
100
AcDbEntity
  8
0
100
AcDbLine
 62
2
  6
CONTINUOUS
 10
238.030527224
 20
151.2194855267
 11
243.2807917086
 21
151.2194855267
  0
LINE
  5
22C
100
AcDbEntity
  8
0
100
AcDbLine
 62
2
  6
CONTINUOUS
 10
247.4432243697
 20
151.2194855267
 11
268.0149708691
 21
151.2194855267
  0
LINE
  5
22D
100
AcDbEntity
  8
0
100
AcDbLine
 62
2
  6
CONTINUOUS
 10
238.030527224
 20
130.2694855267
 11
242.1640414824
 21
130.2694855267
  0
LINE
  5
22E
100
AcDbEntity
  8
0
100
AcDbLine
 62
2
  6
CONTINUOUS
 10
245.7173376566
 20
130.2694855267
 11
266.6310237103
 21
130.2694855267
  0
LINE
  5
22F
100
AcDbEntity
  8
0
100
AcDbLine
 62
2
  6
CONTINUOUS
 10
266.5149708691
 20
151.2194855267
 11
266.5149708691
 21
140.7444855267
  0
LINE
  5
230
100
AcDbEntity
  8
0
100
AcDbLine
 62
2
  6
CONTINUOUS
 10
266.5149708691
 20
130.2694855267
 11
266.5149708691
 21
140.7444855267
  0
INSERT
  5
231
100
AcDbEntity
  8
0
100
AcDbBlockReference
 62
2
  6
CONTINUOUS
  2
_FILLED
 10
266.5149708691
 20
151.2194855267
 41
3.5
 42
3.5
 43
3.5
 50
90.0
  0
INSERT
  5
232
100
AcDbEntity
  8
0
100
AcDbBlockReference
 62
2
  6
CONTINUOUS
  2
_FILLED
 10
266.5149708691
 20
130.2694855267
 41
3.5
 42
3.5
 43
3.5
 50
270.0
  0
ENDBLK
  5
233
100
AcDbEntity
  8
0
  6
BYBLOCK
 62
0
100
AcDbBlockEnd
  0
BLOCK
  5
234
100
AcDbEntity
  8
0
100
AcDbBlockBegin
 62
2
  6
CONTINUOUS
  2
*D1
 70
65
 10
0.0
 20
0.0
  3
*D1
  1

  0
MTEXT
  5
235
100
AcDbEntity
  8
0
100
AcDbMText
 62
5
  6
CONTINUOUS
  7
STANDARD
 71
2
 72
1
 10
248.0111731552
 20
119.1175657801
 30
0.0
 11
0.1621798042
 21
0.9867612229
 31
0.0
 44
0.9
  1
4\Fgdt;{\Fgdt;~}\Ftxt;30'
 40
3.5
 41
12.3333333333
  0
LINE
  5
236
100
AcDbEntity
  8
0
100
AcDbLine
 62
2
  6
CONTINUOUS
 10
227.9125997934
 20
129.5912399287
 11
256.9954643879
 21
131.8801110116
  0
LINE
  5
237
100
AcDbEntity
  8
0
100
AcDbLine
 62
2
  6
CONTINUOUS
 10
199.9119130154
 20
127.2694855267
 11
234.0496581217
 21
127.2694855267
  0
LINE
  5
238
100
AcDbEntity
  8
0
100
AcDbLine
 62
2
  6
CONTINUOUS
 10
244.3527228398
 20
127.2694855267
 11
257.1766163565
 21
127.2694855267
  0
ARC
  5
239
100
AcDbEntity
  8
0
100
AcDbCircle
 62
2
  6
CONTINUOUS
 10
198.4119130154
 20
127.2694855267
 40
57.2647033411
100
AcDbArc
 50
4.5
 51
10.5032560551
  0
ARC
  5
23A
100
AcDbEntity
  8
0
100
AcDbCircle
 62
2
  6
CONTINUOUS
 10
198.4119130154
 20
127.2694855267
 40
57.2647033411
100
AcDbArc
 50
350.6665574412
 51
0.0
  0
ARC
  5
23B
100
AcDbEntity
  8
0
100
AcDbCircle
 62
2
  6
CONTINUOUS
 10
198.4119130154
 20
127.2694855267
 40
57.2647033411
100
AcDbArc
 50
360.0
 51
4.5
  0
SOLID
  5
23C
100
AcDbEntity
  8
0
100
AcDbTrace
 62
2
  6
CONTINUOUS
 10
254.6840977989
 20
135.1939767694
 11
255.5000883873
 21
131.762422368
 12
255.5538955158
 22
135.2892497019
 13
255.5538955158
 23
135.2892497019
  0
SOLID
  5
23D
100
AcDbEntity
  8
0
100
AcDbTrace
 62
2
  6
CONTINUOUS
 10
256.006969299
 20
123.7577518832
 11
255.6766163565
 21
127.2694855267
 12
255.1323778501
 22
123.7844875787
 13
255.1323778501
 23
123.7844875787
  0
ENDBLK
  5
23E
100
AcDbEntity
  8
0
  6
BYBLOCK
 62
0
100
AcDbBlockEnd
  0
BLOCK
  5
23F
100
AcDbEntity
  8
0
100
AcDbBlockBegin
 62
2
  6
CONTINUOUS
  2
*D2
 70
65
 10
0.0
 20
0.0
  3
*D2
  1

  0
MTEXT
  5
240
100
AcDbEntity
  8
0
100
AcDbMText
 62
5
  6
CONTINUOUS
  7
STANDARD
 71
2
 72
1
 10
156.530527224
 20
191.3562405387
 30
0.0
 11
1.0
 21
0.0
 31
0.0
 44
0.9
  1
160
 40
3.5
 41
7.5
  0
LINE
  5
241
100
AcDbEntity
  8
0
100
AcDbLine
 62
2
  6
CONTINUOUS
 10
76.530527224
 20
168.2106602355
 11
76.530527224
 21
188.4812405387
  0
LINE
  5
242
100
AcDbEntity
  8
0
100
AcDbLine
 62
2
  6
CONTINUOUS
 10
236.530527224
 20
151.5450602355
 11
236.530527224
 21
188.4812405387
  0
LINE
  5
243
100
AcDbEntity
  8
0
100
AcDbLine
 62
2
  6
CONTINUOUS
 10
76.530527224
 20
186.9812405387
 11
156.530527224
 21
186.9812405387
  0
LINE
  5
244
100
AcDbEntity
  8
0
100
AcDbLine
 62
2
  6
CONTINUOUS
 10
236.530527224
 20
186.9812405387
 11
156.530527224
 21
186.9812405387
  0
INSERT
  5
245
100
AcDbEntity
  8
0
100
AcDbBlockReference
 62
2
  6
CONTINUOUS
  2
_FILLED
 10
76.530527224
 20
186.9812405387
 41
3.5
 42
3.5
 43
3.5
 50
180.0
  0
INSERT
  5
246
100
AcDbEntity
  8
0
100
AcDbBlockReference
 62
2
  6
CONTINUOUS
  2
_FILLED
 10
236.530527224
 20
186.9812405387
 41
3.5
 42
3.5
 43
3.5
  0
ENDBLK
  5
247
100
AcDbEntity
  8
0
  6
BYBLOCK
 62
0
100
AcDbBlockEnd
  0
BLOCK
  5
248
100
AcDbEntity
  8
0
100
AcDbBlockBegin
 62
1
  6
CONTINUOUS
  2
*D3
 70
65
 10
0.0
 20
0.0
  3
*D3
  1

  0
MTEXT
  5
249
100
AcDbEntity
  8
0
100
AcDbMText
 62
1
  6
CONTINUOUS
  7
TEXTSTYLE_2
 71
2
 72
1
 10
248.5573899818
 20
140.7444855267
 30
0.0
 11
0.0
 21
1.0
 31
0.0
 44
0.9
  1
{\Fgdt;n}\Ftxt;8
 40
3.5
 41
7.4166666667
  0
LINE
  5
24A
100
AcDbEntity
  8
0
100
AcDbLine
 62
1
  6
CONTINUOUS
 10
230.7942313254
 20
136.7529855267
 11
254.4323899818
 21
136.7529855267
  0
LINE
  5
24B
100
AcDbEntity
  8
0
100
AcDbLine
 62
1
  6
CONTINUOUS
 10
230.6508713254
 20
144.7359855267
 11
254.4323899818
 21
144.7359855267
  0
LINE
  5
24C
100
AcDbEntity
  8
0
100
AcDbLine
 62
1
  6
CONTINUOUS
 10
252.9323899818
 20
136.7529855267
 11
252.9323899818
 21
140.7444855267
  0
LINE
  5
24D
100
AcDbEntity
  8
0
100
AcDbLine
 62
1
  6
CONTINUOUS
 10
252.9323899818
 20
144.7359855267
 11
252.9323899818
 21
140.7444855267
  0
INSERT
  5
24E
100
AcDbEntity
  8
0
100
AcDbBlockReference
 62
1
  6
CONTINUOUS
  2
_FILLED
 10
252.9323899818
 20
136.7529855267
 41
3.5
 42
3.5
 43
3.5
 50
270.0
  0
INSERT
  5
24F
100
AcDbEntity
  8
0
100
AcDbBlockReference
 62
1
  6
CONTINUOUS
  2
_FILLED
 10
252.9323899818
 20
144.7359855267
 41
3.5
 42
3.5
 43
3.5
 50
90.0
  0
ENDBLK
  5
250
100
AcDbEntity
  8
0
  6
BYBLOCK
 62
0
100
AcDbBlockEnd
  0
BLOCK
  5
251
100
AcDbEntity
  8
0
100
AcDbBlockBegin
 62
2
  6
CONTINUOUS
  2
*D4
 70
65
 10
0.0
 20
0.0
  3
*D4
  1

  0
MTEXT
  5
252
100
AcDbEntity
  8
0
100
AcDbMText
 62
5
  6
CONTINUOUS
  7
STANDARD
 71
2
 72
1
 10
167.530527224
 20
182.5623046005
 30
0.0
 11
1.0
 21
0.0
 31
0.0
 44
0.9
  1
138
 40
3.5
 41
7.25
  0
LINE
  5
253
100
AcDbEntity
  8
0
100
AcDbLine
 62
2
  6
CONTINUOUS
 10
236.530527224
 20
131.7694855267
 11
236.530527224
 21
179.6873046005
  0
LINE
  5
254
100
AcDbEntity
  8
0
100
AcDbLine
 62
2
  6
CONTINUOUS
 10
98.530527224
 20
166.5978602355
 11
98.530527224
 21
179.6873046005
  0
LINE
  5
255
100
AcDbEntity
  8
0
100
AcDbLine
 62
2
  6
CONTINUOUS
 10
236.530527224
 20
178.1873046005
 11
167.530527224
 21
178.1873046005
  0
LINE
  5
256
100
AcDbEntity
  8
0
100
AcDbLine
 62
2
  6
CONTINUOUS
 10
98.530527224
 20
178.1873046005
 11
167.530527224
 21
178.1873046005
  0
INSERT
  5
257
100
AcDbEntity
  8
0
100
AcDbBlockReference
 62
2
  6
CONTINUOUS
  2
_FILLED
 10
236.530527224
 20
178.1873046005
 41
3.5
 42
3.5
 43
3.5
  0
INSERT
  5
258
100
AcDbEntity
  8
0
100
AcDbBlockReference
 62
2
  6
CONTINUOUS
  2
_FILLED
 10
98.530527224
 20
178.1873046005
 41
3.5
 42
3.5
 43
3.5
 50
180.0
  0
ENDBLK
  5
259
100
AcDbEntity
  8
0
  6
BYBLOCK
 62
0
100
AcDbBlockEnd
  0
BLOCK
  5
25A
100
AcDbEntity
  8
0
100
AcDbBlockBegin
 62
2
  6
CONTINUOUS
  2
*D5
 70
65
 10
0.0
 20
0.0
  3
*D5
  1

  0
MTEXT
  5
25B
100
AcDbEntity
  8
0
100
AcDbMText
 62
5
  6
CONTINUOUS
  7
STANDARD
 71
2
 72
1
 10
137.530527224
 20
199.0691652807
 30
0.0
 11
1.0
 21
0.0
 31
0.0
 44
0.9
  1
198
 40
3.5
 41
7.5
  0
LINE
  5
25C
100
AcDbEntity
  8
0
100
AcDbLine
 62
2
  6
CONTINUOUS
 10
236.530527224
 20
131.7694855267
 11
236.530527224
 21
196.1941652807
  0
LINE
  5
25D
100
AcDbEntity
  8
0
100
AcDbLine
 62
2
  6
CONTINUOUS
 10
38.530527224
 20
122.0583697574
 11
38.530527224
 21
196.1941652807
  0
LINE
  5
25E
100
AcDbEntity
  8
0
100
AcDbLine
 62
2
  6
CONTINUOUS
 10
236.530527224
 20
194.6941652807
 11
137.530527224
 21
194.6941652807
  0
LINE
  5
25F
100
AcDbEntity
  8
0
100
AcDbLine
 62
2
  6
CONTINUOUS
 10
38.530527224
 20
194.6941652807
 11
137.530527224
 21
194.6941652807
  0
INSERT
  5
260
100
AcDbEntity
  8
0
100
AcDbBlockReference
 62
2
  6
CONTINUOUS
  2
_FILLED
 10
236.530527224
 20
194.6941652807
 41
3.5
 42
3.5
 43
3.5
  0
INSERT
  5
261
100
AcDbEntity
  8
0
100
AcDbBlockReference
 62
2
  6
CONTINUOUS
  2
_FILLED
 10
38.530527224
 20
194.6941652807
 41
3.5
 42
3.5
 43
3.5
 50
180.0
  0
ENDBLK
  5
262
100
AcDbEntity
  8
0
  6
BYBLOCK
 62
0
100
AcDbBlockEnd
  0
BLOCK
  5
263
100
AcDbEntity
  8
0
100
AcDbBlockBegin
 62
2
  6
CONTINUOUS
  2
*D6
 70
65
 10
0.0
 20
0.0
  3
*D6
  1

  0
MTEXT
  5
264
100
AcDbEntity
  8
0
100
AcDbMText
 62
5
  6
CONTINUOUS
  7
TEXTSTYLE_2
 71
2
 72
1
 10
270.646363907
 20
140.7444855267
 30
0.0
 11
0.0
 21
1.0
 31
0.0
 44
0.9
  1
{\Fgdt;n}\Ftxt;27
 40
3.5
 41
10.1666666667
  0
LINE
  5
265
100
AcDbEntity
  8
0
100
AcDbLine
 62
2
  6
CONTINUOUS
 10
199.9119130154
 20
154.2194855267
 11
232.2314702302
 21
154.2194855267
  0
LINE
  5
266
100
AcDbEntity
  8
0
100
AcDbLine
 62
2
  6
CONTINUOUS
 10
249.8072865142
 20
154.2194855267
 11
276.521363907
 21
154.2194855267
  0
LINE
  5
267
100
AcDbEntity
  8
0
100
AcDbLine
 62
2
  6
CONTINUOUS
 10
199.9119130154
 20
127.2694855267
 11
233.9284455956
 21
127.2694855267
  0
LINE
  5
268
100
AcDbEntity
  8
0
100
AcDbLine
 62
2
  6
CONTINUOUS
 10
243.9890852615
 20
127.2694855267
 11
276.521363907
 21
127.2694855267
  0
LINE
  5
269
100
AcDbEntity
  8
0
100
AcDbLine
 62
2
  6
CONTINUOUS
 10
275.021363907
 20
154.2194855267
 11
275.021363907
 21
140.7444855267
  0
LINE
  5
26A
100
AcDbEntity
  8
0
100
AcDbLine
 62
2
  6
CONTINUOUS
 10
275.021363907
 20
127.2694855267
 11
275.021363907
 21
140.7444855267
  0
INSERT
  5
26B
100
AcDbEntity
  8
0
100
AcDbBlockReference
 62
2
  6
CONTINUOUS
  2
_FILLED
 10
275.021363907
 20
154.2194855267
 41
3.5
 42
3.5
 43
3.5
 50
90.0
  0
INSERT
  5
26C
100
AcDbEntity
  8
0
100
AcDbBlockReference
 62
2
  6
CONTINUOUS
  2
_FILLED
 10
275.021363907
 20
127.2694855267
 41
3.5
 42
3.5
 43
3.5
 50
270.0
  0
ENDBLK
  5
26D
100
AcDbEntity
  8
0
  6
BYBLOCK
 62
0
100
AcDbBlockEnd
  0
ENDSEC
  0
SECTION
  2
ENTITIES
  0
DIMENSION
  5
26E
100
AcDbEntity
  8
0
100
AcDbDimension
 62
2
  6
CONTINUOUS
  2
*D0
 10
266.5149708691
 20
130.2694855267
 11
264.9448108404
 21
138.6398683812
 70
160
 71
2
 42
20.95
  1
%%c<>
  3
DIMSTYLE_1
100
AcDbAlignedDimension
 13
238.030527224
 23
151.2194855267
 14
238.030527224
 24
130.2694855267
 50
270.0
100
AcDbRotatedDimension
  0
DIMENSION
  5
26F
100
AcDbEntity
  8
0
100
AcDbDimension
 62
2
  6
CONTINUOUS
  2
*D1
 10
257.1766163565
 20
127.2694855267
 11
248.297918979
 21
120.9572566686
 70
162
 71
2
 42
0.0785398163
  3
DIMSTYLE_2
100
AcDb2LineAngularDimension
 13
256.9954643879
 23
131.8801110116
 14
227.9125997934
 24
129.5912399287
 15
199.9119130154
 25
127.2694855267
 16
255.6324673456
 26
129.5176872294
  0
DIMENSION
  5
270
100
AcDbEntity
  8
0
100
AcDbDimension
 62
2
  6
CONTINUOUS
  2
*D2
 10
236.530527224
 20
186.9812405387
 11
152.780527224
 21
189.6062405387
 70
160
 71
2
 42
160.0
  3
DIMSTYLE_3
100
AcDbAlignedDimension
 13
76.530527224
 23
168.2106602355
 14
236.530527224
 24
151.5450602355
100
AcDbRotatedDimension
  0
DIMENSION
  5
271
100
AcDbEntity
  8
0
100
AcDbDimension
 62
1
  6
CONTINUOUS
  2
*D3
 10
252.9323899818
 20
144.7359855267
 11
251.1381931451
 21
139.086866713
 70
160
 71
2
 42
7.983
  1
%%c<>
  3
DIMSTYLE_4
100
AcDbAlignedDimension
 13
230.7942313254
 23
136.7529855267
 14
230.6508713254
 24
144.7359855267
 50
90.0
100
AcDbRotatedDimension
  0
DIMENSION
  5
272
100
AcDbEntity
  8
0
100
AcDbDimension
 62
2
  6
CONTINUOUS
  2
*D4
 10
98.530527224
 20
178.1873046005
 11
163.905527224
 21
180.8123046005
 70
160
 71
2
 42
138.0
  3
DIMSTYLE_3
100
AcDbAlignedDimension
 13
236.530527224
 23
131.7694855267
 14
98.530527224
 24
166.5978602355
 50
180.0
100
AcDbRotatedDimension
  0
DIMENSION
  5
273
100
AcDbEntity
  8
0
100
AcDbDimension
 62
2
  6
CONTINUOUS
  2
*D5
 10
38.530527224
 20
194.6941652807
 11
133.780527224
 21
197.3191652807
 70
160
 71
2
 42
198.0
  3
DIMSTYLE_3
100
AcDbAlignedDimension
 13
236.530527224
 23
131.7694855267
 14
38.530527224
 24
122.0583697574
 50
180.0
100
AcDbRotatedDimension
  0
DIMENSION
  5
274
100
AcDbEntity
  8
0
100
AcDbDimension
 62
2
  6
CONTINUOUS
  2
*D6
 10
275.021363907
 20
127.2694855267
 11
273.5352176813
 21
138.4722440068
 70
160
 71
2
 42
26.95
  1
%%c<>
  3
DIMSTYLE_1
100
AcDbAlignedDimension
 13
199.9119130154
 23
154.2194855267
 14
199.9119130154
 24
127.2694855267
 50
270.0
100
AcDbRotatedDimension
  0
MTEXT
  5
275
100
AcDbEntity
  8
0
100
AcDbMText
 62
5
  6
CONTINUOUS
  7
STANDARD
 71
1
 72
1
 10
32.5808536902
 20
84.0871556653
 30
0.0
 11
1.0
 21
0.0
 31
0.0
 44
0.9
  3
Für diese Unterlage behalten wir das Ur-\Pheberrecht. Sie darf nur für den von uns \Pbestimmten Zweck benutzt und ohne unsere \PZustimmung weder vervielfältigt noch\PDritten zugänglich gemacht werden\P \PWe own the copyright of this document. It \Pde
  1
termined and may neither be copied or \Pmade accessible to outsiders without our\Ppermission.\P \PCe plan reste notre propriété. Il ne peut\Pêtre utilisé, copié ou reproduit sans notre\Paccord.\P 
 40
3.5
 41
104.8333333333
  0
LINE
  5
276
100
AcDbEntity
  8
0
100
AcDbLine
 62
7
  6
CONTINUOUS
 10
0.0
 20
0.0
 11
0.0
 21
210.0
  0
LINE
  5
277
100
AcDbEntity
  8
0
100
AcDbLine
 62
7
  6
CONTINUOUS
 10
0.0
 20
0.0
 11
297.0
 21
0.0
  0
LINE
  5
278
100
AcDbEntity
  8
0
100
AcDbLine
 62
7
  6
CONTINUOUS
 10
0.0
 20
210.0
 11
297.0
 21
210.0
  0
LINE
  5
279
100
AcDbEntity
  8
0
100
AcDbLine
 62
7
  6
CONTINUOUS
 10
297.0
 20
0.0
 11
297.0
 21
210.0
  0
LINE
  5
27A
100
AcDbEntity
  8
0
100
AcDbLine
 62
7
  6
CONTINUOUS
 10
38.530527224
 20
119.0521475339
 11
38.530527224
 21
155.7057301655
  0
LINE
  5
27B
100
AcDbEntity
  8
KURVEN
100
AcDbLine
 62
4
  6
CONTINUOUS
 10
38.530527224
 20
118.2238073511
 11
38.530527224
 21
159.9560595137
  0
LINE
  5
27C
100
AcDbEntity
  8
ACHSEN
100
AcDbLine
 62
7
  6
CONTINUOUS
 10
38.530527224
 20
155.7057301655
 11
38.530527224
 21
159.4929648407
  0
LINE
  5
27D
100
AcDbEntity
  8
ACHSEN
100
AcDbLine
 62
7
  6
CONTINUOUS
 10
40.030527224
 20
160.2414751403
 11
40.030527224
 21
156.4557301655
  0
LINE
  5
27E
100
AcDbEntity
  8
0
100
AcDbLine
 62
7
  6
CONTINUOUS
 10
40.030527224
 20
156.4557301655
 11
40.030527224
 21
118.1861221301
  0
LINE
  5
27F
100
AcDbEntity
  8
ACHSEN
100
AcDbLine
 62
7
  6
CENTER
 10
61.030527224
 20
117.8110000197
 11
61.030527224
 21
164.9328560913
  0
LINE
  5
280
100
AcDbEntity
  8
0
100
AcDbLine
 62
7
  6
CONTINUOUS
 10
76.5305290599
 20
171.9444836194
 11
76.8305291498
 21
172.2444836733
  0
LINE
  5
281
100
AcDbEntity
  8
0
100
AcDbLine
 62
7
  6
CONTINUOUS
 10
74.330590313
 20
161.3645858963
 11
74.330590313
 21
157.2020162754
  0
LINE
  5
282
100
AcDbEntity
  8
0
100
AcDbLine
 62
7
  6
CONTINUOUS
 10
74.330590313
 20
145.9693566573
 11
74.330590313
 21
119.0620836475
  0
LINE
  5
283
100
AcDbEntity
  8
0
100
AcDbLine
 62
9
  6
CONTINUOUS
 10
74.5355503351
 20
161.1696720965
 11
74.5355503351
 21
155.4294277315
  0
LINE
  5
284
100
AcDbEntity
  8
0
100
AcDbLine
 62
9
  6
CONTINUOUS
 10
74.5355503351
 20
148.9304287135
 11
74.5355503351
 21
117.8736001352
  0
LINE
  5
285
100
AcDbEntity
  8
0
100
AcDbLine
 62
9
  6
CONTINUOUS
 10
75.2234204428
 20
118.0015923079
 11
75.2234204428
 21
118.6409288758
  0
LINE
  5
286
100
AcDbEntity
  8
0
100
AcDbLine
 62
9
  6
CONTINUOUS
 10
75.2234204428
 20
147.1590252875
 11
75.2234204428
 21
156.4335024169
  0
LINE
  5
287
100
AcDbEntity
  8
0
100
AcDbLine
 62
9
  6
CONTINUOUS
 10
76.1355503351
 20
161.2098696656
 11
76.1355503351
 21
157.0889638137
  0
LINE
  5
288
100
AcDbEntity
  8
0
100
AcDbLine
 62
9
  6
CONTINUOUS
 10
76.1355503351
 20
145.9274359799
 11
76.1355503351
 21
119.2170567866
  0
LINE
  5
289
100
AcDbEntity
  8
0
100
AcDbLine
 62
7
  6
CONTINUOUS
 10
76.530527224
 20
109.5447611963
 11
76.530527224
 21
171.9442098572
  0
LINE
  5
28A
100
AcDbEntity
  8
0
100
AcDbLine
 62
7
  6
CONTINUOUS
 10
76.8305272975
 20
109.2444855267
 11
76.8305272975
 21
172.2444855267
  0
LINE
  5
28B
100
AcDbEntity
  8
0
100
AcDbLine
 62
7
  6
CONTINUOUS
 10
76.3304623722
 20
157.5340601125
 11
76.330527224
 21
163.2779703878
  0
LINE
  5
28C
100
AcDbEntity
  8
0
100
AcDbLine
 62
7
  6
CONTINUOUS
 10
76.3304623722
 20
119.3343174353
 11
76.3304312576
 21
145.3697107408
  0
LINE
  5
28D
100
AcDbEntity
  8
0
100
AcDbLine
 62
9
  6
CONTINUOUS
 10
40.030527224
 20
156.4557301655
 11
38.530527224
 21
155.7057301655
  0
LINE
  5
28E
100
AcDbEntity
  8
0
100
AcDbLine
 62
7
  6
CONTINUOUS
 10
40.030527224
 20
118.1861221301
 11
38.530527224
 21
119.0521475339
  0
LINE
  5
28F
100
AcDbEntity
  8
0
100
AcDbLine
 62
7
  6
CONTINUOUS
 10
76.5305290599
 20
109.5444874341
 11
76.8305291498
 21
109.2444873802
  0
LINE
  5
290
100
AcDbEntity
  8
0
100
AcDbLine
 62
9
  6
CONTINUOUS
 10
86.6361896567
 20
170.6584403732
 11
86.6361896567
 21
150.6138981457
  0
LINE
  5
291
100
AcDbEntity
  8
0
100
AcDbLine
 62
9
  6
CONTINUOUS
 10
86.6361896567
 20
130.8750729078
 11
86.6361896567
 21
110.8305306803
  0
LINE
  5
292
100
AcDbEntity
  8
0
100
AcDbLine
 62
9
  6
CONTINUOUS
 10
40.030527224
 20
119.8083697574
 11
38.530527224
 21
120.5583697574
  0
LINE
  5
293
100
AcDbEntity
  8
0
100
AcDbLine
 62
9
  6
CONTINUOUS
 10
87.0692023586
 20
170.8250782871
 11
87.0692023586
 21
150.0937068413
  0
LINE
  5
294
100
AcDbEntity
  8
0
100
AcDbLine
 62
9
  6
CONTINUOUS
 10
87.0692023586
 20
131.3952642122
 11
87.0692023586
 21
110.6638927664
  0
LINE
  5
295
100
AcDbEntity
  8
ACHSEN
100
AcDbLine
 62
7
  6
CENTER
 10
88.530527224
 20
164.4490756723
 11
88.530527224
 21
175.2444855267
  0
LINE
  5
296
100
AcDbEntity
  8
0
100
AcDbLine
 62
9
  6
CONTINUOUS
 10
89.9918520894
 20
170.8250782871
 11
89.9918520894
 21
150.0937068413
  0
LINE
  5
297
100
AcDbEntity
  8
0
100
AcDbLine
 62
9
  6
CONTINUOUS
 10
89.9918520894
 20
131.3952642122
 11
89.9918520894
 21
110.6638927664
  0
LINE
  5
298
100
AcDbEntity
  8
0
100
AcDbLine
 62
9
  6
CONTINUOUS
 10
90.4248647913
 20
170.6584403732
 11
90.4248647913
 21
150.6138981457
  0
LINE
  5
299
100
AcDbEntity
  8
0
100
AcDbLine
 62
9
  6
CONTINUOUS
 10
90.4248647913
 20
130.8750729078
 11
90.4248647913
 21
110.8305306803
  0
LINE
  5
29A
100
AcDbEntity
  8
0
100
AcDbLine
 62
7
  6
CONTINUOUS
 10
98.530527224
 20
109.2444855267
 11
98.530527224
 21
172.2444855267
  0
LINE
  5
29B
100
AcDbEntity
  8
RUNDUNGEN
100
AcDbLine
 62
9
  6
CONTINUOUS
 10
103.0150633064
 20
160.7041427107
 11
103.0150633064
 21
120.7848283428
  0
LINE
  5
29C
100
AcDbEntity
  8
0
100
AcDbLine
 62
7
  6
CONTINUOUS
 10
75.2234204428
 20
118.0015923079
 11
74.5409300465
 21
117.3191019117
  0
LINE
  5
29D
100
AcDbEntity
  8
0
100
AcDbLine
 62
7
  6
CONTINUOUS
 10
98.530527224
 20
109.2444855267
 11
76.8305272964
 21
109.2444855267
  0
LINE
  5
29E
100
AcDbEntity
  8
0
100
AcDbLine
 62
7
  6
CONTINUOUS
 10
89.9918520894
 20
110.6638927664
 11
87.0692023586
 21
110.6638927664
  0
LINE
  5
29F
100
AcDbEntity
  8
0
100
AcDbLine
 62
9
  6
CONTINUOUS
 10
74.330590313
 20
119.0620836475
 11
40.030527224
 21
119.8083697574
  0
LINE
  5
2A0
100
AcDbEntity
  8
0
100
AcDbLine
 62
7
  6
CONTINUOUS
 10
74.7835559748
 20
117.8677566514
 11
74.5355503351
 21
117.8736001352
  0
LINE
  5
2A1
100
AcDbEntity
  8
0
100
AcDbLine
 62
7
  6
CONTINUOUS
 10
40.030527224
 20
118.1861221301
 11
74.5409300468
 21
117.3191006909
  0
LINE
  5
2A2
100
AcDbEntity
  8
RUNDUNGEN
100
AcDbLine
 62
7
  6
CONTINUOUS
 10
235.6089863197
 20
130.1969586847
 11
198.4119130154
 21
127.2694855267
  0
LINE
  5
2A3
100
AcDbEntity
  8
0
100
AcDbLine
 62
7
  6
CONTINUOUS
 10
198.4119130154
 20
127.2694855267
 11
235.6089863197
 21
130.1969586847
  0
LINE
  5
2A4
100
AcDbEntity
  8
0
100
AcDbLine
 62
7
  6
CONTINUOUS
 10
198.4119130154
 20
127.2694855267
 11
195.780527224
 21
127.2694855267
  0
LINE
  5
2A5
100
AcDbEntity
  8
0
100
AcDbLine
 62
7
  6
CONTINUOUS
 10
187.280527224
 20
127.2694855267
 11
153.530527224
 21
127.2694855267
  0
LINE
  5
2A6
100
AcDbEntity
  8
0
100
AcDbLine
 62
7
  6
CONTINUOUS
 10
188.0145018202
 20
127.5694855267
 11
189.030527224
 21
127.5694855267
  0
LINE
  5
2A7
100
AcDbEntity
  8
0
100
AcDbLine
 62
7
  6
CONTINUOUS
 10
194.030527224
 20
127.5694855267
 11
195.0465526278
 21
127.5694855267
  0
LINE
  5
2A8
100
AcDbEntity
  8
BEZUGSACHSEN
100
AcDbLine
 62
7
  6
CONTINUOUS
 10
194.030527224
 20
127.5694855267
 11
195.0465526278
 21
127.5694855267
  0
LINE
  5
2A9
100
AcDbEntity
  8
0
100
AcDbLine
 62
7
  6
CONTINUOUS
 10
89.9918520894
 20
131.3952642122
 11
87.0692023586
 21
131.3952642122
  0
LINE
  5
2AA
100
AcDbEntity
  8
DEFAULT_2
100
AcDbLine
 62
8
  6
HIDDEN
 10
199.0802921075
 20
136.4029855267
 11
209.1453179428
 21
136.4029855267
  0
LINE
  5
2AB
100
AcDbEntity
  8
BOHRUNGEN
100
AcDbLine
 62
8
  6
HIDDEN
 10
210.530527224
 20
136.7529855267
 11
234.230527224
 21
136.7529855267
  0
LINE
  5
2AC
100
AcDbEntity
  8
S_ACHSEN
100
AcDbLine
 62
7
  6
CENTER
 10
35.530527224
 20
140.7444855267
 11
240.530527224
 21
140.7444855267
  0
LINE
  5
2AD
100
AcDbEntity
  8
0
100
AcDbLine
 62
9
  6
CONTINUOUS
 10
153.530527224
 20
127.2694855267
 11
153.530527224
 21
154.2194855267
  0
LINE
  5
2AE
100
AcDbEntity
  8
0
100
AcDbLine
 62
7
  6
CONTINUOUS
 10
195.4465526278
 20
154.0266652037
 11
195.780527224
 21
154.2194855267
  0
LINE
  5
2AF
100
AcDbEntity
  8
RUNDUNGEN
100
AcDbLine
 62
7
  6
CONTINUOUS
 10
195.4465526278
 20
154.0266652037
 11
195.780527224
 21
154.2194855267
  0
LINE
  5
2B0
100
AcDbEntity
  8
0
100
AcDbLine
 62
7
  6
CONTINUOUS
 10
74.5355503351
 20
148.9304287135
 11
74.7835559748
 21
148.9314429694
  0
LINE
  5
2B1
100
AcDbEntity
  8
BOHRUNGEN
100
AcDbLine
 62
8
  6
HIDDEN
 10
210.530527224
 20
144.7359855267
 11
234.230527224
 21
144.7359855267
  0
LINE
  5
2B2
100
AcDbEntity
  8
RUNDUNGEN
100
AcDbLine
 62
8
  6
HIDDEN
 10
209.1453179428
 20
145.0859855267
 11
199.0802921075
 21
145.0859855267
  0
LINE
  5
2B3
100
AcDbEntity
  8
DEFAULT_2
100
AcDbLine
 62
8
  6
HIDDEN
 10
199.0802921075
 20
145.0859855267
 11
209.1453179428
 21
145.0859855267
  0
LINE
  5
2B4
100
AcDbEntity
  8
0
100
AcDbLine
 62
9
  6
CONTINUOUS
 10
38.530527224
 20
145.9693566573
 11
74.330590313
 21
145.9693566573
  0
LINE
  5
2B5
100
AcDbEntity
  8
0
100
AcDbLine
 62
7
  6
CONTINUOUS
 10
89.9918520894
 20
150.0937068413
 11
87.0692023586
 21
150.0937068413
  0
LINE
  5
2B6
100
AcDbEntity
  8
0
100
AcDbLine
 62
9
  6
CONTINUOUS
 10
40.030527224
 20
156.4557301655
 11
74.330590313
 21
157.2020162754
  0
LINE
  5
2B7
100
AcDbEntity
  8
0
100
AcDbLine
 62
7
  6
CONTINUOUS
 10
74.7835559748
 20
155.4342569594
 11
74.5355503351
 21
155.4294277315
  0
LINE
  5
2B8
100
AcDbEntity
  8
0
100
AcDbLine
 62
7
  6
CONTINUOUS
 10
188.0145018202
 20
153.9194855267
 11
189.030527224
 21
153.9194855267
  0
LINE
  5
2B9
100
AcDbEntity
  8
BEZUGSACHSEN
100
AcDbLine
 62
7
  6
CONTINUOUS
 10
188.0145018202
 20
153.9194855267
 11
189.030527224
 21
153.9194855267
  0
LINE
  5
2BA
100
AcDbEntity
  8
0
100
AcDbLine
 62
7
  6
CONTINUOUS
 10
194.030527224
 20
153.9194855267
 11
195.0465526278
 21
153.9194855267
  0
LINE
  5
2BB
100
AcDbEntity
  8
BEZUGSACHSEN
100
AcDbLine
 62
7
  6
CONTINUOUS
 10
194.030527224
 20
153.9194855267
 11
195.0465526278
 21
153.9194855267
  0
LINE
  5
2BC
100
AcDbEntity
  8
0
100
AcDbLine
 62
7
  6
CONTINUOUS
 10
198.4119130154
 20
154.2194855267
 11
195.780527224
 21
154.2194855267
  0
LINE
  5
2BD
100
AcDbEntity
  8
0
100
AcDbLine
 62
7
  6
CONTINUOUS
 10
187.280527224
 20
154.2194855267
 11
153.530527224
 21
154.2194855267
  0
LINE
  5
2BE
100
AcDbEntity
  8
RUNDUNGEN
100
AcDbLine
 62
7
  6
CONTINUOUS
 10
235.6089863197
 20
151.2920123688
 11
198.4119130154
 21
154.2194855267
  0
LINE
  5
2BF
100
AcDbEntity
  8
0
100
AcDbLine
 62
7
  6
CONTINUOUS
 10
198.4119130154
 20
154.2194855267
 11
235.6089863197
 21
151.2920123688
  0
LINE
  5
2C0
100
AcDbEntity
  8
0
100
AcDbLine
 62
7
  6
CONTINUOUS
 10
195.4465526278
 20
127.4623058498
 11
195.780527224
 21
127.2694855267
  0
LINE
  5
2C1
100
AcDbEntity
  8
RUNDUNGEN
100
AcDbLine
 62
7
  6
CONTINUOUS
 10
195.4465526278
 20
127.4623058498
 11
195.780527224
 21
127.2694855267
  0
LINE
  5
2C2
100
AcDbEntity
  8
0
100
AcDbLine
 62
7
  6
CONTINUOUS
 10
74.5355503351
 20
161.1696720965
 11
76.1355503351
 21
161.2098696656
  0
LINE
  5
2C3
100
AcDbEntity
  8
0
100
AcDbLine
 62
7
  6
CONTINUOUS
 10
46.7941319781
 20
160.6727742169
 11
56.580527224
 21
160.9186425289
  0
LINE
  5
2C4
100
AcDbEntity
  8
0
100
AcDbLine
 62
7
  6
CONTINUOUS
 10
65.7098885572
 20
161.1480038622
 11
74.330590313
 21
161.3645858963
  0
LINE
  5
2C5
100
AcDbEntity
  8
0
100
AcDbLine
 62
7
  6
CONTINUOUS
 10
187.280527224
 20
127.2694855267
 11
187.6145018202
 21
127.4623058498
  0
LINE
  5
2C6
100
AcDbEntity
  8
RUNDUNGEN
100
AcDbLine
 62
7
  6
CONTINUOUS
 10
187.280527224
 20
127.2694855267
 11
187.6145018202
 21
127.4623058498
  0
LINE
  5
2C7
100
AcDbEntity
  8
0
100
AcDbLine
 62
7
  6
CONTINUOUS
 10
89.9918520894
 20
170.8250782871
 11
87.0692023586
 21
170.8250782871
  0
LINE
  5
2C8
100
AcDbEntity
  8
0
100
AcDbLine
 62
7
  6
CONTINUOUS
 10
98.530527224
 20
172.2444855267
 11
93.7528045011
 21
172.2444855267
  0
LINE
  5
2C9
100
AcDbEntity
  8
0
100
AcDbLine
 62
7
  6
CONTINUOUS
 10
83.3082499468
 20
172.2444855267
 11
76.8305272964
 21
172.2444855267
  0
LINE
  5
2CA
100
AcDbEntity
  8
0
100
AcDbLine
 62
7
  6
CONTINUOUS
 10
187.280527224
 20
154.2194855267
 11
187.6145018202
 21
154.0266652037
  0
LINE
  5
2CB
100
AcDbEntity
  8
RUNDUNGEN
100
AcDbLine
 62
7
  6
CONTINUOUS
 10
187.280527224
 20
154.2194855267
 11
187.6145018202
 21
154.0266652037
  0
LINE
  5
2CC
100
AcDbEntity
  8
0
100
AcDbLine
 62
7
  6
CONTINUOUS
 10
187.280527224
 20
154.2194855267
 11
187.280527224
 21
127.2694855267
  0
LINE
  5
2CD
100
AcDbEntity
  8
RUNDUNGEN
100
AcDbLine
 62
9
  6
CONTINUOUS
 10
187.6145018202
 20
127.4623058498
 11
187.6145018202
 21
154.0266652037
  0
LINE
  5
2CE
100
AcDbEntity
  8
RUNDUNGEN
100
AcDbLine
 62
9
  6
CONTINUOUS
 10
188.0145018202
 20
127.5694855267
 11
188.0145018202
 21
153.9194855267
  0
LINE
  5
2CF
100
AcDbEntity
  8
BEZUGSACHSEN
100
AcDbLine
 62
7
  6
CENTER
 10
191.530527224
 20
156.9194855267
 11
191.530527224
 21
143.2194855267
  0
LINE
  5
2D0
100
AcDbEntity
  8
BEZUGSACHSEN
100
AcDbLine
 62
7
  6
CENTER
 10
191.530527224
 20
124.5694855267
 11
191.530527224
 21
138.2694855267
  0
LINE
  5
2D1
100
AcDbEntity
  8
RUNDUNGEN
100
AcDbLine
 62
9
  6
CONTINUOUS
 10
195.0465526278
 20
127.5694855267
 11
195.0465526278
 21
153.9194855267
  0
LINE
  5
2D2
100
AcDbEntity
  8
RUNDUNGEN
100
AcDbLine
 62
9
  6
CONTINUOUS
 10
195.4465526278
 20
127.4623058498
 11
195.4465526278
 21
154.0266652037
  0
LINE
  5
2D3
100
AcDbEntity
  8
0
100
AcDbLine
 62
7
  6
CONTINUOUS
 10
195.780527224
 20
154.2194855267
 11
195.780527224
 21
127.2694855267
  0
LINE
  5
2D4
100
AcDbEntity
  8
0
100
AcDbLine
 62
7
  6
CONTINUOUS
 10
198.4119130154
 20
127.2694855267
 11
198.4119130154
 21
154.2194855267
  0
LINE
  5
2D5
100
AcDbEntity
  8
RUNDUNGEN
100
AcDbLine
 62
9
  6
CONTINUOUS
 10
199.0802921075
 20
136.4029855267
 11
199.0802921075
 21
145.0859855267
  0
LINE
  5
2D6
100
AcDbEntity
  8
RUNDUNGEN
100
AcDbLine
 62
9
  6
CONTINUOUS
 10
235.6089863197
 20
130.1969586847
 11
235.6089863197
 21
151.2920123688
  0
LINE
  5
2D7
100
AcDbEntity
  8
RUNDUNGEN
100
AcDbLine
 62
7
  6
CONTINUOUS
 10
236.530527224
 20
150.2950950351
 11
236.530527224
 21
131.1938760184
  0
ARC
  5
2D8
100
AcDbEntity
  8
0
100
AcDbCircle
 62
7
  6
CONTINUOUS
 10
-32.221483972
 20
121.4349966973
 40
110.4813700658
100
AcDbArc
 50
13.4640903998
 51
14.4111621352
  0
ARC
  5
2D9
100
AcDbEntity
  8
ACHSEN
100
AcDbCircle
 62
7
  6
CONTINUOUS
 10
51.7920988436
 20
125.1760823415
 40
35.845102548
100
AcDbArc
 50
98.0149288422
 51
101.1172700805
  0
ARC
  5
2DA
100
AcDbEntity
  8
0
100
AcDbCircle
 62
7
  6
CONTINUOUS
 10
75.930527224
 20
117.2944855267
 40
1.0
100
AcDbArc
 50
53.102347605
 51
135.0
  0
ARC
  5
2DB
100
AcDbEntity
  8
ACHSEN
100
AcDbCircle
 62
7
  6
CONTINUOUS
 10
-25.2276897539
 20
289.1404250792
 40
144.4768984249
100
AcDbArc
 50
296.187103939
 51
296.8519184685
  0
ARC
  5
2DC
100
AcDbEntity
  8
FASEN
100
AcDbCircle
 62
7
  6
CONTINUOUS
 10
87.8590330649
 20
207.4890333123
 40
35.7340046499
100
AcDbArc
 50
278.5204424671
 51
279.4937166383
  0
ARC
  5
2DD
100
AcDbEntity
  8
FASEN
100
AcDbCircle
 62
7
  6
CONTINUOUS
 10
88.8191707481
 20
205.0662709323
 40
33.2812609719
100
AcDbArc
 50
260.5303369409
 51
261.5206938832
  0
ARC
  5
2DE
100
AcDbEntity
  8
FASEN
100
AcDbCircle
 62
7
  6
CONTINUOUS
 10
88.4905508503
 20
203.347694207
 40
31.5448080341
100
AcDbArc
 50
270.0726103041
 51
278.5005399283
  0
ARC
  5
2DF
100
AcDbEntity
  8
FASEN
100
AcDbCircle
 62
7
  6
CONTINUOUS
 10
88.5432146369
 20
202.9829353641
 40
31.1800264418
100
AcDbArc
 50
261.4577517884
 51
269.9766858686
  0
ARC
  5
2E0
100
AcDbEntity
  8
0
100
AcDbCircle
 62
7
  6
CONTINUOUS
 10
75.930527224
 20
164.1944855267
 40
1.0
100
AcDbArc
 50
293.5781784782
 51
306.897652395
  0
ARC
  5
2E1
100
AcDbEntity
  8
0
100
AcDbCircle
 62
7
  6
CONTINUOUS
 10
76.130527224
 20
161.4098065766
 40
0.2
100
AcDbArc
 50
271.439166666
 51
360.0
  0
ARC
  5
2E2
100
AcDbEntity
  8
0
100
AcDbCircle
 62
7
  6
CONTINUOUS
 10
74.530527224
 20
161.3696090074
 40
0.2
100
AcDbArc
 50
181.439166666
 51
271.439166666
  0
ARC
  5
2E3
100
AcDbEntity
  8
RUNDUNGEN
100
AcDbCircle
 62
7
  6
CONTINUOUS
 10
153.530527224
 20
-72.7305144733
 40
200.0
100
AcDbArc
 50
90.0
 51
104.6300772519
  0
ARC
  5
2E4
100
AcDbEntity
  8
0
100
AcDbCircle
 62
7
  6
CONTINUOUS
 10
153.530527224
 20
-72.7305144733
 40
200.0
100
AcDbArc
 50
90.0
 51
104.6300772519
  0
ARC
  5
2E5
100
AcDbEntity
  8
0
100
AcDbCircle
 62
7
  6
CONTINUOUS
 10
220.7646999983
 20
91.7702876556
 40
159.2595221578
100
AcDbArc
 50
156.0446773748
 51
156.4374589831
  0
ARC
  5
2E6
100
AcDbEntity
  8
BEZUGSACHSEN
100
AcDbCircle
 62
7
  6
CONTINUOUS
 10
191.5059665153
 20
114.4021201477
 40
13.4071964928
100
AcDbArc
 50
79.1464718798
 51
88.2273136788
  0
ARC
  5
2E7
100
AcDbEntity
  8
BEZUGSACHSEN
100
AcDbCircle
 62
7
  6
CONTINUOUS
 10
191.5317930679
 20
114.8710682775
 40
12.9377833877
100
AcDbArc
 50
88.2620642303
 51
91.4415836423
  0
ARC
  5
2E8
100
AcDbEntity
  8
RUNDUNGEN
100
AcDbCircle
 62
7
  6
CONTINUOUS
 10
104.530527224
 20
114.9793680583
 40
6.0
100
AcDbArc
 50
104.6300772533
 51
179.9999999972
  0
ARC
  5
2E9
100
AcDbEntity
  8
RUNDUNGEN
100
AcDbCircle
 62
7
  6
CONTINUOUS
 10
235.530527224
 20
131.1938760184
 40
1.0
100
AcDbArc
 50
274.5000000094
 51
360.0
  0
ARC
  5
2EA
100
AcDbEntity
  8
RUNDUNGEN
100
AcDbCircle
 62
7
  6
CONTINUOUS
 10
195.0465526278
 20
126.7694855267
 40
0.8
100
AcDbArc
 50
59.9999998987
 51
90.0
  0
ARC
  5
2EB
100
AcDbEntity
  8
RUNDUNGEN
100
AcDbCircle
 62
7
  6
CONTINUOUS
 10
188.0145018202
 20
126.7694855267
 40
0.8
100
AcDbArc
 50
90.0
 51
120.0000000985
  0
ARC
  5
2EC
100
AcDbEntity
  8
0
100
AcDbCircle
 62
7
  6
CONTINUOUS
 10
153.530527224
 20
354.2194855267
 40
200.0
100
AcDbArc
 50
255.3699227481
 51
270.0
  0
ARC
  5
2ED
100
AcDbEntity
  8
RUNDUNGEN
100
AcDbCircle
 62
7
  6
CONTINUOUS
 10
153.530527224
 20
354.2194855267
 40
200.0
100
AcDbArc
 50
255.3699227481
 51
270.0
  0
ARC
  5
2EE
100
AcDbEntity
  8
BEZUGSACHSEN
100
AcDbCircle
 62
7
  6
CONTINUOUS
 10
191.5550805382
 20
167.0867856429
 40
13.407131005
100
AcDbArc
 50
259.1464503974
 51
268.2284441254
  0
ARC
  5
2EF
100
AcDbEntity
  8
BEZUGSACHSEN
100
AcDbCircle
 62
7
  6
CONTINUOUS
 10
191.5292639311
 20
166.6178918192
 40
12.9377724308
100
AcDbArc
 50
268.2632308093
 51
271.4405706219
  0
ARC
  5
2F0
100
AcDbEntity
  8
RUNDUNGEN
100
AcDbCircle
 62
7
  6
CONTINUOUS
 10
104.530527224
 20
166.5096029952
 40
6.0
100
AcDbArc
 50
180.000000001
 51
255.3699227475
  0
ARC
  5
2F1
100
AcDbEntity
  8
0
100
AcDbCircle
 62
2
  6
CONTINUOUS
 10
191.5301601588
 20
140.7449491291
 40
2.9994737027
100
AcDbArc
 50
255.08747049
 51
195.0015320275
  0
CIRCLE
  5
2F2
100
AcDbEntity
  8
BEZUGSACHSEN
100
AcDbCircle
 62
7
  6
CONTINUOUS
 10
191.530527224
 20
140.7444855267
 40
2.5
  0
ARC
  5
2F3
100
AcDbEntity
  8
RUNDUNGEN
100
AcDbCircle
 62
7
  6
CONTINUOUS
 10
235.530527224
 20
150.2950950351
 40
1.0
100
AcDbArc
 50
0.0
 51
85.4999999906
  0
ARC
  5
2F4
100
AcDbEntity
  8
RUNDUNGEN
100
AcDbCircle
 62
7
  6
CONTINUOUS
 10
195.0465526278
 20
154.7194855267
 40
0.8
100
AcDbArc
 50
270.0
 51
300.0000000147
  0
ARC
  5
2F5
100
AcDbEntity
  8
RUNDUNGEN
100
AcDbCircle
 62
7
  6
CONTINUOUS
 10
188.0145018202
 20
154.7194855267
 40
0.8
100
AcDbArc
 50
239.999999985
 51
270.0
  0
SPLINE
  5
2F6
100
AcDbEntity
  8
0
100
AcDbSpline
 62
2
  6
CONTINUOUS
 70
0
 71
3
 72
13
 73
9
 74
0
 42
0.0000001
 43
0.0000001
 44
0.0000000001
 40
0.0
 40
0.0
 40
0.0
 40
0.0
 40
0.1666666667
 40
0.3333333333
 40
0.5
 40
0.6666666667
 40
0.8333333333
 40
1.0
 40
1.0
 40
1.0
 40
1.0
 10
194.530527224
 20
127.5694855267
 30
0.0
 10
194.530527224
 20
127.5694855267
 30
0.0
 10
194.459446665
 20
127.5859374766
 30
0.0
 10
194.1546626808
 20
127.6517940249
 30
0.0
 10
193.6739069272
 20
127.7416958993
 30
0.0
 10
193.0396011833
 20
127.8331867384
 30
0.0
 10
192.3100285468
 20
127.8994425562
 30
0.0
 10
191.789919401
 20
127.9155874837
 30
0.0
 10
191.530527224
 20
127.9155874837
 30
0.0
  0
SPLINE
  5
2F7
100
AcDbEntity
  8
0
100
AcDbSpline
 62
2
  6
CONTINUOUS
 70
0
 71
3
 72
13
 73
9
 74
0
 42
0.0000001
 43
0.0000001
 44
0.0000000001
 40
0.0
 40
0.0
 40
0.0
 40
0.0
 40
0.1666666667
 40
0.3333333333
 40
0.5
 40
0.6666666667
 40
0.8333333333
 40
1.0
 40
1.0
 40
1.0
 40
1.0
 10
191.530527224
 20
127.9155874837
 30
0.0
 10
191.2712011299
 20
127.9155874837
 30
0.0
 10
190.7512141427
 20
127.8994502175
 30
0.0
 10
190.0217944011
 20
127.8332258579
 30
0.0
 10
189.3874772469
 20
127.7417493801
 30
0.0
 10
188.9068404461
 20
127.6518844127
 30
0.0
 10
188.6017764991
 20
127.5859770269
 30
0.0
 10
188.530527224
 20
127.5694855267
 30
0.0
 10
188.530527224
 20
127.5694855267
 30
0.0
  0
SPLINE
  5
2F8
100
AcDbEntity
  8
0
100
AcDbSpline
 62
2
  6
CONTINUOUS
 70
0
 71
3
 72
13
 73
9
 74
0
 42
0.0000001
 43
0.0000001
 44
0.0000000001
 40
0.0
 40
0.0
 40
0.0
 40
0.0
 40
0.1666666667
 40
0.3333333333
 40
0.5
 40
0.6666666667
 40
0.8333333333
 40
1.0
 40
1.0
 40
1.0
 40
1.0
 10
191.530527224
 20
153.5733835698
 30
0.0
 10
191.7895929939
 20
153.5733835698
 30
0.0
 10
192.3091793486
 20
153.5894745828
 30
0.0
 10
193.0393594022
 20
153.6557509046
 30
0.0
 10
193.6726178739
 20
153.7471037511
 30
0.0
 10
194.1511621112
 20
153.8364471908
 30
0.0
 10
194.4627166223
 20
153.9037420006
 30
0.0
 10
194.530527224
 20
153.9194855267
 30
0.0
 10
194.530527224
 20
153.9194855267
 30
0.0
  0
SPLINE
  5
2F9
100
AcDbEntity
  8
0
100
AcDbSpline
 62
2
  6
CONTINUOUS
 70
0
 71
3
 72
13
 73
9
 74
0
 42
0.0000001
 43
0.0000001
 44
0.0000000001
 40
0.0
 40
0.0
 40
0.0
 40
0.0
 40
0.1666666667
 40
0.3333333333
 40
0.5
 40
0.6666666667
 40
0.8333333333
 40
1.0
 40
1.0
 40
1.0
 40
1.0
 10
188.530527224
 20
153.9194855267
 30
0.0
 10
188.530527224
 20
153.9194855267
 30
0.0
 10
188.5983744541
 20
153.9037374592
 30
0.0
 10
188.9091884943
 20
153.8365898949
 30
0.0
 10
189.3880467826
 20
153.7471652272
 30
0.0
 10
190.021272038
 20
153.6557995281
 30
0.0
 10
190.751690861
 20
153.5894805413
 30
0.0
 10
191.2714007932
 20
153.5733835698
 30
0.0
 10
191.530527224
 20
153.5733835698
 30
0.0
  0
LINE
  5
2FA
100
AcDbEntity
  8
FASEN
100
AcDbLine
 62
7
  6
CONTINUOUS
 10
83.3435591477
 20
172.2385386091
 11
83.3080745414
 21
172.2444524672
  0
LINE
  5
2FB
100
AcDbEntity
  8
FASEN
100
AcDbLine
 62
7
  6
CONTINUOUS
 10
93.7152655398
 20
172.2381670052
 11
93.7529799065
 21
172.2444524672
  0
LINE
  5
2FC
100
AcDbEntity
  8
ACHSEN
100
AcDbLine
 62
7
  6
CONTINUOUS
 10
44.880527224
 20
160.3485368254
 11
40.030527224
 21
160.2414751403
  0
LINE
  5
2FD
100
AcDbEntity
  8
ACHSEN
100
AcDbLine
 62
7
  6
CONTINUOUS
 10
46.6712982555
 20
160.6535249453
 11
46.7941465719
 21
160.6710376026
  0
LINE
  5
2FE
100
AcDbEntity
  8
ACHSEN
100
AcDbLine
 62
7
  6
CONTINUOUS
 10
46.7941465719
 20
160.6710376026
 11
46.80909751
 21
160.673143332
  0
SPLINE
  5
2FF
100
AcDbEntity
  8
BEZUGSACHSEN
100
AcDbSpline
 62
7
  6
CONTINUOUS
 70
0
 71
3
 72
9
 73
5
 74
0
 42
0.0000001
 43
0.0000001
 44
0.0000000001
 40
0.0
 40
0.0
 40
0.0
 40
0.0
 40
0.0747857674
 40
1.0
 40
1.0
 40
1.0
 40
1.0
 10
189.030527224
 20
127.5694855267
 30
0.0
 10
189.0841235638
 20
127.5796658041
 30
0.0
 10
189.801762977
 20
127.7116585476
 30
0.0
 10
190.5314372524
 20
127.7878386049
 30
0.0
 10
191.2063078522
 20
127.8047567832
 30
0.0
  0
SPLINE
  5
300
100
AcDbEntity
  8
BEZUGSACHSEN
100
AcDbSpline
 62
7
  6
CONTINUOUS
 70
0
 71
3
 72
9
 73
5
 74
0
 42
0.0000001
 43
0.0000001
 44
0.0000000001
 40
0.0
 40
0.0
 40
0.0
 40
0.0
 40
0.0747883805
 40
1.0
 40
1.0
 40
1.0
 40
1.0
 10
194.030527224
 20
153.9194855267
 30
0.0
 10
193.9769234781
 20
153.9093038762
 30
0.0
 10
193.2592098321
 20
153.7772984638
 30
0.0
 10
192.529458823
 20
153.7011165889
 30
0.0
 10
191.8545201967
 20
153.6842085143
 30
0.0
  0
LINE
  5
301
100
AcDbEntity
  8
ACHSEN
100
AcDbLine
 62
7
  6
CONTINUOUS
 10
46.8090975096
 20
160.673143332
 11
46.7941761221
 21
160.6710417744
  0
SPLINE
  5
302
100
AcDbEntity
  8
ACHSEN
100
AcDbSpline
 62
7
  6
CONTINUOUS
 70
0
 71
3
 72
11
 73
7
 74
0
 42
0.0000001
 43
0.0000001
 44
0.0000000001
 40
0.0
 40
0.0
 40
0.0
 40
0.0
 40
0.1537099379
 40
0.500508937
 40
0.8472910559
 40
1.0
 40
1.0
 40
1.0
 40
1.0
 10
65.7098885572
 20
161.1480038622
 30
0.0
 10
65.2463032881
 20
161.0767269074
 30
0.0
 10
63.7320709739
 20
160.872669135
 30
0.0
 10
61.1492965464
 20
160.6871601031
 30
0.0
 10
58.5632505165
 20
160.7401073218
 30
0.0
 10
57.0439613337
 20
160.8698738146
 30
0.0
 10
56.580527224
 20
160.9186425289
 30
0.0
  0
LINE
  5
303
100
AcDbEntity
  8
FASEN
100
AcDbLine
 62
7
  6
CONTINUOUS
 10
83.3080745416
 20
172.2444524672
 11
83.3459280701
 21
172.2381432845
  0
SPLINE
  5
304
100
AcDbEntity
  8
0
100
AcDbSpline
 62
7
  6
CONTINUOUS
 70
0
 71
3
 72
13
 73
9
 74
0
 42
0.0000001
 43
0.0000001
 44
0.0000000001
 40
0.0
 40
0.0
 40
0.0
 40
0.0
 40
0.1753307868
 40
0.3422637982
 40
0.4768046258
 40
0.5947351366
 40
0.8062611466
 40
1.0
 40
1.0
 40
1.0
 40
1.0
 10
76.1355503351
 20
119.2170567866
 30
0.0
 10
76.0716375902
 20
119.2439969483
 30
0.0
 10
75.9338605469
 20
119.2727349343
 30
0.0
 10
75.7462135486
 20
119.2239561164
 30
0.0
 10
75.6046288649
 20
119.1351142134
 30
0.0
 10
75.4681636422
 20
119.0115116015
 30
0.0
 10
75.3397449556
 20
118.8476349954
 30
0.0
 10
75.2587049586
 20
118.7089640031
 30
0.0
 10
75.2234204428
 20
118.6409288758
 30
0.0
  0
SPLINE
  5
305
100
AcDbEntity
  8
0
100
AcDbSpline
 62
7
  6
CONTINUOUS
 70
0
 71
3
 72
12
 73
8
 74
0
 42
0.0000001
 43
0.0000001
 44
0.0000000001
 40
0.0
 40
0.0
 40
0.0
 40
0.0
 40
0.2873076234
 40
0.4555854673
 40
0.6473090081
 40
0.8177551754
 40
1.0
 40
1.0
 40
1.0
 40
1.0
 10
76.1355503351
 20
119.2170567866
 30
0.0
 10
76.160936619
 20
119.2063560947
 30
0.0
 10
76.203603682
 20
119.1937801509
 30
0.0
 10
76.2674088748
 20
119.1979386532
 30
0.0
 10
76.3103413722
 20
119.2322911518
 30
0.0
 10
76.3271712427
 20
119.2830914526
 30
0.0
 10
76.3301175526
 20
119.3168542882
 30
0.0
 10
76.3304410173
 20
119.3343264016
 30
0.0
  0
SPLINE
  5
306
100
AcDbEntity
  8
0
100
AcDbSpline
 62
7
  6
CONTINUOUS
 70
0
 71
3
 72
15
 73
11
 74
0
 42
0.0000001
 43
0.0000001
 44
0.0000000001
 40
0.0
 40
0.0
 40
0.0
 40
0.0
 40
0.2503260428
 40
0.3755427651
 40
0.500769311
 40
0.625976783
 40
0.7510377775
 40
0.8746309833
 40
0.9372889186
 40
1.0
 40
1.0
 40
1.0
 40
1.0
 10
75.2234204428
 20
147.1590252875
 30
0.0
 10
75.2575551948
 20
147.0163807577
 30
0.0
 10
75.3149439491
 20
146.8036901215
 30
0.0
 10
75.4104463581
 20
146.5260986776
 30
0.0
 10
75.4944639845
 20
146.3225772618
 30
0.0
 10
75.5978436402
 20
146.1272891116
 30
0.0
 10
75.7258039097
 20
145.9504625773
 30
0.0
 10
75.8928419573
 20
145.8430178589
 30
0.0
 10
76.043547273
 20
145.8645817789
 30
0.0
 10
76.1068251493
 20
145.9045235986
 30
0.0
 10
76.1355503351
 20
145.9274359799
 30
0.0
  0
SPLINE
  5
307
100
AcDbEntity
  8
0
100
AcDbSpline
 62
7
  6
CONTINUOUS
 70
0
 71
3
 72
13
 73
9
 74
0
 42
0.0000001
 43
0.0000001
 44
0.0000000001
 40
0.0
 40
0.0
 40
0.0
 40
0.0
 40
0.1670510693
 40
0.3289369806
 40
0.4609641718
 40
0.578209763
 40
0.7939442568
 40
1.0
 40
1.0
 40
1.0
 40
1.0
 10
76.1355503351
 20
157.0889638137
 30
0.0
 10
76.0711168843
 20
157.1131989187
 30
0.0
 10
75.9319158914
 20
157.1351332612
 30
0.0
 10
75.7453079031
 20
157.0786570889
 30
0.0
 10
75.6038468649
 20
156.9830936343
 30
0.0
 10
75.4663182676
 20
156.8487261653
 30
0.0
 10
75.3368985631
 20
156.6663539066
 30
0.0
 10
75.2578985965
 20
156.5111016655
 30
0.0
 10
75.2234204428
 20
156.4335024169
 30
0.0
  0
SPLINE
  5
308
100
AcDbEntity
  8
0
100
AcDbSpline
 62
7
  6
CONTINUOUS
 70
0
 71
3
 72
15
 73
11
 74
0
 42
0.0000001
 43
0.0000001
 44
0.0000000001
 40
0.0
 40
0.0
 40
0.0
 40
0.0
 40
0.0735479282
 40
0.1546005725
 40
0.2292557381
 40
0.2979289731
 40
0.4260365971
 40
0.5473626904
 40
0.7785364517
 40
1.0
 40
1.0
 40
1.0
 40
1.0
 10
76.1355503351
 20
157.0889638137
 30
0.0
 10
76.1480021539
 20
157.0842803592
 30
0.0
 10
76.1771524076
 20
157.0801998467
 30
0.0
 10
76.2166218992
 20
157.0984418739
 30
0.0
 10
76.2441835742
 20
157.1288451675
 30
0.0
 10
76.2700785842
 20
157.1707228503
 30
0.0
 10
76.2911645481
 20
157.2246530728
 30
0.0
 10
76.3128032586
 20
157.3089237325
 30
0.0
 10
76.3266734456
 20
157.4121346177
 30
0.0
 10
76.3300979352
 20
157.4939959679
 30
0.0
 10
76.3304410173
 20
157.5340532142
 30
0.0
  0
SPLINE
  5
309
100
AcDbEntity
  8
0
100
AcDbSpline
 62
7
  6
CONTINUOUS
 70
0
 71
3
 72
15
 73
11
 74
0
 42
0.0000001
 43
0.0000001
 44
0.0000000001
 40
0.0
 40
0.0
 40
0.0
 40
0.0
 40
0.2846444905
 40
0.5382195662
 40
0.6533996007
 40
0.761473341
 40
0.8135077243
 40
0.8652449798
 40
0.9195347039
 40
1.0
 40
1.0
 40
1.0
 40
1.0
 10
74.330590313
 20
119.0620836475
 30
0.0
 10
74.330590313
 20
118.9425102102
 30
0.0
 10
74.3305852811
 20
118.7164489831
 30
0.0
 10
74.3337877567
 20
118.4418573325
 30
0.0
 10
74.3473424985
 20
118.2419730591
 30
0.0
 10
74.36354415
 20
118.1271914986
 30
0.0
 10
74.3853678481
 20
118.0408569104
 30
0.0
 10
74.4091074777
 20
117.9784272957
 30
0.0
 10
74.4478937092
 20
117.9108983461
 30
0.0
 10
74.5017578581
 20
117.8743963522
 30
0.0
 10
74.5355503351
 20
117.8736001352
 30
0.0
  0
SPLINE
  5
30A
100
AcDbEntity
  8
0
100
AcDbSpline
 62
7
  6
CONTINUOUS
 70
0
 71
3
 72
9
 73
5
 74
0
 42
0.0000001
 43
0.0000001
 44
0.0000000001
 40
0.0
 40
0.0
 40
0.0
 40
0.0
 40
0.2573720101
 40
1.0
 40
1.0
 40
1.0
 40
1.0
 10
75.2234204428
 20
118.6409288758
 30
0.0
 10
75.1882810546
 20
118.5731735817
 30
0.0
 10
75.0492929191
 20
118.3112019307
 30
0.0
 10
74.9003094285
 20
118.0544927806
 30
0.0
 10
74.7835559748
 20
117.8677566514
 30
0.0
  0
SPLINE
  5
30B
100
AcDbEntity
  8
0
100
AcDbSpline
 62
7
  6
CONTINUOUS
 70
0
 71
3
 72
8
 73
4
 74
0
 42
0.0000001
 43
0.0000001
 44
0.0000000001
 40
0.0
 40
0.0
 40
0.0
 40
0.0
 40
1.0
 40
1.0
 40
1.0
 40
1.0
 10
76.3304052706
 20
145.3697081867
 30
0.0
 10
76.3299755808
 20
145.4314201754
 30
0.0
 10
76.3280927749
 20
145.493167015
 30
0.0
 10
76.3237929061
 20
145.5547305213
 30
0.0
  0
SPLINE
  5
30C
100
AcDbEntity
  8
0
100
AcDbSpline
 62
7
  6
CONTINUOUS
 70
0
 71
3
 72
15
 73
11
 74
0
 42
0.0000001
 43
0.0000001
 44
0.0000000001
 40
0.0
 40
0.0
 40
0.0
 40
0.0
 40
0.2529176222
 40
0.3785524811
 40
0.5034347146
 40
0.6273379652
 40
0.7499890146
 40
0.8710889694
 40
0.9340922305
 40
1.0
 40
1.0
 40
1.0
 40
1.0
 10
76.3237929061
 20
145.5547305213
 30
0.0
 10
76.3209199882
 20
145.595863613
 30
0.0
 10
76.3150545488
 20
145.6573604043
 30
0.0
 10
76.3020828829
 20
145.7384440988
 30
0.0
 10
76.2890666367
 20
145.7980930731
 30
0.0
 10
76.2705777479
 20
145.8560558574
 30
0.0
 10
76.245644563
 20
145.9100998864
 30
0.0
 10
76.2053042279
 20
145.9478622362
 30
0.0
 10
76.1620882189
 20
145.9459001901
 30
0.0
 10
76.1439504128
 20
145.9341362249
 30
0.0
 10
76.1355503351
 20
145.9274359799
 30
0.0
  0
SPLINE
  5
30D
100
AcDbEntity
  8
0
100
AcDbSpline
 62
7
  6
CONTINUOUS
 70
0
 71
3
 72
11
 73
7
 74
0
 42
0.0000001
 43
0.0000001
 44
0.0000000001
 40
0.0
 40
0.0
 40
0.0
 40
0.0
 40
0.2536313865
 40
0.5046749499
 40
0.7531440587
 40
1.0
 40
1.0
 40
1.0
 40
1.0
 10
89.9918520894
 20
131.3952642122
 30
0.0
 10
90.0525060564
 20
131.3952642122
 30
0.0
 10
90.1729838975
 20
131.344387989
 30
0.0
 10
90.2896950696
 20
131.2042754225
 30
0.0
 10
90.3717638596
 20
131.0447667722
 30
0.0
 10
90.4092880725
 20
130.9320144592
 30
0.0
 10
90.4248647913
 20
130.8750729078
 30
0.0
  0
SPLINE
  5
30E
100
AcDbEntity
  8
0
100
AcDbSpline
 62
7
  6
CONTINUOUS
 70
0
 71
3
 72
9
 73
5
 74
0
 42
0.0000001
 43
0.0000001
 44
0.0000000001
 40
0.0
 40
0.0
 40
0.0
 40
0.0
 40
0.1680195226
 40
1.0
 40
1.0
 40
1.0
 40
1.0
 10
90.4248647913
 20
110.8305306803
 30
0.0
 10
90.4080165182
 20
110.8102105644
 30
0.0
 10
90.2925632357
 20
110.7017295881
 30
0.0
 10
90.1225590007
 20
110.6638927664
 30
0.0
 10
89.9918520894
 20
110.6638927664
 30
0.0
  0
SPLINE
  5
30F
100
AcDbEntity
  8
0
100
AcDbSpline
 62
7
  6
CONTINUOUS
 70
0
 71
3
 72
11
 73
7
 74
0
 42
0.0000001
 43
0.0000001
 44
0.0000000001
 40
0.0
 40
0.0
 40
0.0
 40
0.0
 40
0.2468743153
 40
0.4953615093
 40
0.7464260843
 40
1.0
 40
1.0
 40
1.0
 40
1.0
 10
86.6361896567
 20
130.8750729078
 30
0.0
 10
86.6517674692
 20
130.9320184576
 30
0.0
 10
86.6892962467
 20
131.0447773108
 30
0.0
 10
86.7713677422
 20
131.2043014798
 30
0.0
 10
86.8881001032
 20
131.3443885859
 30
0.0
 10
87.0085623908
 20
131.3952642122
 30
0.0
 10
87.0692023586
 20
131.3952642122
 30
0.0
  0
SPLINE
  5
310
100
AcDbEntity
  8
0
100
AcDbSpline
 62
7
  6
CONTINUOUS
 70
0
 71
3
 72
9
 73
5
 74
0
 42
0.0000001
 43
0.0000001
 44
0.0000000001
 40
0.0
 40
0.0
 40
0.0
 40
0.0
 40
0.3641598889
 40
1.0
 40
1.0
 40
1.0
 40
1.0
 10
87.0692023586
 20
110.6638927664
 30
0.0
 10
87.0118259367
 20
110.6638927664
 30
0.0
 10
86.8556396037
 20
110.6800118604
 30
0.0
 10
86.700133613
 20
110.7534100993
 30
0.0
 10
86.6361896567
 20
110.8305306803
 30
0.0
  0
SPLINE
  5
311
100
AcDbEntity
  8
0
100
AcDbSpline
 62
7
  6
CONTINUOUS
 70
0
 71
3
 72
9
 73
5
 74
0
 42
0.0000001
 43
0.0000001
 44
0.0000000001
 40
0.0
 40
0.0
 40
0.0
 40
0.0
 40
0.3642526053
 40
1.0
 40
1.0
 40
1.0
 40
1.0
 10
89.9918520894
 20
170.8250782871
 30
0.0
 10
90.0492434959
 20
170.8250782871
 30
0.0
 10
90.2054329544
 20
170.8089637315
 30
0.0
 10
90.3609297397
 20
170.7355502144
 30
0.0
 10
90.4248647913
 20
170.6584403732
 30
0.0
  0
SPLINE
  5
312
100
AcDbEntity
  8
0
100
AcDbSpline
 62
7
  6
CONTINUOUS
 70
0
 71
3
 72
21
 73
17
 74
0
 42
0.0000001
 43
0.0000001
 44
0.0000000001
 40
0.0
 40
0.0
 40
0.0
 40
0.0
 40
0.0152736556
 40
0.0307400416
 40
0.0615944727
 40
0.0924597446
 40
0.1233512662
 40
0.1852330485
 40
0.2472659363
 40
0.3094463907
 40
0.3717660941
 40
0.4967787028
 40
0.6222117836
 40
0.747963109
 40
0.8739278454
 40
1.0
 40
1.0
 40
1.0
 40
1.0
 10
74.5355503351
 20
148.9304287135
 30
0.0
 10
74.5202880199
 20
148.9303662942
 30
0.0
 10
74.494599855
 20
148.9043691395
 30
0.0
 10
74.4688587624
 20
148.8506166036
 30
0.0
 10
74.4452112325
 20
148.7758447106
 30
0.0
 10
74.4254128591
 20
148.6857498862
 30
0.0
 10
74.4044351841
 20
148.5638525221
 30
0.0
 10
74.385531784
 20
148.4103037186
 30
0.0
 10
74.3693041439
 20
148.2250197664
 30
0.0
 10
74.3575349494
 20
148.0389856991
 30
0.0
 10
74.3460803094
 20
147.7899098468
 30
0.0
 10
74.3376665454
 20
147.4774643277
 30
0.0
 10
74.3329140972
 20
147.1015688477
 30
0.0
 10
74.3310996745
 20
146.7246987915
 30
0.0
 10
74.3306263364
 20
146.3471881585
 30
0.0
 10
74.330590313
 20
146.0953362596
 30
0.0
 10
74.330590313
 20
145.9693566573
 30
0.0
  0
LINE
  5
313
100
AcDbEntity
  8
0
100
AcDbLine
 62
7
  6
CONTINUOUS
 10
74.5409288557
 20
117.3191007209
 11
74.7835559748
 21
117.8677566514
  0
SPLINE
  5
314
100
AcDbEntity
  8
0
100
AcDbSpline
 62
7
  6
CONTINUOUS
 70
0
 71
3
 72
17
 73
13
 74
0
 42
0.0000001
 43
0.0000001
 44
0.0000000001
 40
0.0
 40
0.0
 40
0.0
 40
0.0
 40
0.2182009024
 40
0.3349220057
 40
0.456586696
 40
0.5831112211
 40
0.7144823146
 40
0.7820564401
 40
0.8510300181
 40
0.92186225
 40
0.958727904
 40
1.0
 40
1.0
 40
1.0
 40
1.0
 10
74.330590313
 20
157.2020162754
 30
0.0
 10
74.330590313
 20
157.0697372611
 30
0.0
 10
74.3305726256
 20
156.8666975998
 30
0.0
 10
74.3329797345
 20
156.5899088295
 30
0.0
 10
74.337804928
 20
156.3687364268
 30
0.0
 10
74.3480906661
 20
156.1388214459
 30
0.0
 10
74.3642156895
 20
155.9421527508
 30
0.0
 10
74.38578979
 20
155.7809518791
 30
0.0
 10
74.4083942606
 20
155.6577815871
 30
0.0
 10
74.4379900569
 20
155.5526308564
 30
0.0
 10
74.4724217316
 20
155.4731610022
 30
0.0
 10
74.5105348682
 20
155.4289406256
 30
0.0
 10
74.5355503351
 20
155.4294277315
 30
0.0
  0
SPLINE
  5
315
100
AcDbEntity
  8
0
100
AcDbSpline
 62
7
  6
CONTINUOUS
 70
0
 71
3
 72
10
 73
6
 74
0
 42
0.0000001
 43
0.0000001
 44
0.0000000001
 40
0.0
 40
0.0
 40
0.0
 40
0.0
 40
0.2163947382
 40
0.4583018846
 40
1.0
 40
1.0
 40
1.0
 40
1.0
 10
74.7835559748
 20
155.4342569594
 30
0.0
 10
74.6978545869
 20
154.9715354037
 30
0.0
 10
74.5755179946
 20
153.9802735125
 30
0.0
 10
74.5003392687
 20
151.8052603278
 30
0.0
 10
74.6308441038
 20
150.0995272099
 30
0.0
 10
74.7835559748
 20
148.9314429694
 30
0.0
  0
SPLINE
  5
316
100
AcDbEntity
  8
0
100
AcDbSpline
 62
7
  6
CONTINUOUS
 70
0
 71
3
 72
11
 73
7
 74
0
 42
0.0000001
 43
0.0000001
 44
0.0000000001
 40
0.0
 40
0.0
 40
0.0
 40
0.0
 40
0.2468553946
 40
0.4953235696
 40
0.7463663429
 40
1.0
 40
1.0
 40
1.0
 40
1.0
 10
90.4248647913
 20
150.6138981457
 30
0.0
 10
90.4092881043
 20
150.5569567104
 30
0.0
 10
90.3717641051
 20
150.4442046444
 30
0.0
 10
90.2896952938
 20
150.2846966895
 30
0.0
 10
90.1729851218
 20
150.1445830203
 30
0.0
 10
90.05250661
 20
150.0937068413
 30
0.0
 10
89.9918520894
 20
150.0937068413
 30
0.0
  0
SPLINE
  5
317
100
AcDbEntity
  8
0
100
AcDbSpline
 62
7
  6
CONTINUOUS
 70
0
 71
3
 72
9
 73
5
 74
0
 42
0.0000001
 43
0.0000001
 44
0.0000000001
 40
0.0
 40
0.0
 40
0.0
 40
0.0
 40
0.1680322176
 40
1.0
 40
1.0
 40
1.0
 40
1.0
 10
86.6361896567
 20
170.6584403732
 30
0.0
 10
86.6530392156
 20
170.67876204
 30
0.0
 10
86.7684937924
 20
170.787242072
 30
0.0
 10
86.9384973415
 20
170.8250782871
 30
0.0
 10
87.0692023586
 20
170.8250782871
 30
0.0
  0
SPLINE
  5
318
100
AcDbEntity
  8
0
100
AcDbSpline
 62
7
  6
CONTINUOUS
 70
0
 71
3
 72
11
 73
7
 74
0
 42
0.0000001
 43
0.0000001
 44
0.0000000001
 40
0.0
 40
0.0
 40
0.0
 40
0.0
 40
0.2535749038
 40
0.5046395871
 40
0.753126088
 40
1.0
 40
1.0
 40
1.0
 40
1.0
 10
87.0692023586
 20
150.0937068413
 30
0.0
 10
87.0085621527
 20
150.0937068413
 30
0.0
 10
86.8880994804
 20
150.1445825329
 30
0.0
 10
86.7713676214
 20
150.2846702129
 30
0.0
 10
86.6892960754
 20
150.4441940404
 30
0.0
 10
86.6517674442
 20
150.5569526873
 30
0.0
 10
86.6361896567
 20
150.6138981457
 30
0.0
  0
ELLIPSE
  5
319
100
AcDbEntity
  8
0
100
AcDbEllipse
 62
7
  6
CONTINUOUS
 10
74.1833730346
 20
140.7444855267
 30
0.0
 11
14.7536831607
 21
31.0932549156
 31
0.0
 40
0.3419987131
 41
-1.0912395858
 42
-0.1578061866
  0
ELLIPSE
  5
31A
100
AcDbEntity
  8
0
100
AcDbEllipse
 62
7
  6
CONTINUOUS
 10
102.8776814133
 20
140.7444855267
 30
0.0
 11
-14.7536831607
 21
31.0932549156
 31
0.0
 40
0.3419987131
 41
0.1578061866
 42
1.0912395858
  0
ELLIPSE
  5
31B
100
AcDbEntity
  8
0
100
AcDbEllipse
 62
7
  6
CONTINUOUS
 10
102.8776814133
 20
140.7444855267
 30
0.0
 11
14.7536831607
 21
31.0932549156
 31
0.0
 40
0.3419987131
 41
-4.2328322393
 42
-3.2993988402
  0
ELLIPSE
  5
31C
100
AcDbEntity
  8
0
100
AcDbEllipse
 62
7
  6
CONTINUOUS
 10
74.1833730346
 20
140.7444855267
 30
0.0
 11
-14.7536831607
 21
31.0932549156
 31
0.0
 40
0.3419987131
 41
-2.9837864669
 42
-2.0503530678
  0
ENDSEC
  0
SECTION
  2
OBJECTS
  0
DICTIONARY
  5
C
100
AcDbDictionary
280
0
281
1
  3
ACAD_GROUP
350
D
  3
ACAD_MLINESTYLE
350
17
  3
ACAD_LAYOUT
350
1A
  3
ACAD_PLOTSETTINGS
350
19
  3
ACAD_PLOTSTYLENAME
350
E
  0
DICTIONARY
  5
D
102
{ACAD_REACTORS
330
C
102
}
100
AcDbDictionary
280
0
281
1
  0
ACDBDICTIONARYWDFLT
  5
E
102
{ACAD_REACTORS
330
C
102
}
100
AcDbDictionary
281
1
  3
Normal
350
F
100
AcDbDictionaryWithDefault
340
F
  0
DICTIONARY
  5
17
102
{ACAD_REACTORS
330
C
102
}
100
AcDbDictionary
280
0
281
1
  3
Standard
350
18
  0
DICTIONARY
  5
19
102
{ACAD_REACTORS
330
C
102
}
100
AcDbDictionary
281
1
  0
DICTIONARY
  5
1A
102
{ACAD_REACTORS
330
C
102
}
100
AcDbDictionary
281
1
  3
Model
350
31D
  3
Layout1
350
31E
  0
ACDBPLACEHOLDER
  5
F
102
{ACAD_REACTORS
330
E
102
}
  0
MLINESTYLE
  5
18
102
{ACAD_REACTORS
330
17
102
}
100
AcDbMlineStyle
  2
STANDARD
 70
0
  3

 62
256
 51
90.0
 52
90.0
 71
2
 49
0.5
 62
256
  6
BYLAYER
 49
-0.5
 62
256
  6
BYLAYER
  0
LAYOUT
  5
31D
102
{ACAD_REACTORS
330
1A
102
}
100
AcDbPlotSettings
  1

  2
none_device
  4
ISO_A4_(297.00_x_210.00_MM)
  6

 40
0.0
 41
0.0
 42
0.0
 43
0.0
 44
297.0
 45
210.0
 46
0.0
 47
0.0
 48
0.0
 49
0.0
140
0.0
141
0.0
142
1.0
143
1.0
 70
1024
 72
1
 73
0
 74
0
  7

 75
0
147
1.0
148
0.0
149
0.0
100
AcDbLayout
  1
Model
 70
0
 71
0
 10
0.0
 20
0.0
 11
297.0
 21
210.0
 12
0.0
 22
0.0
 32
0.0
 14
0.0
 24
0.0
 34
0.0
 15
0.0
 25
0.0
 35
0.0
146
0.0
 13
0.0
 23
0.0
 33
0.0
 16
1.0
 26
0.0
 36
0.0
 17
0.0
 27
1.0
 37
0.0
 76
0
330
217
345
0
346
0
  0
LAYOUT
  5
31E
102
{ACAD_REACTORS
330
1A
102
}
100
AcDbPlotSettings
  1

  2
none_device
  4
ISO_A4_(297.00_x_210.00_MM)
  6

 40
0.0
 41
0.0
 42
0.0
 43
0.0
 44
297.0
 45
210.0
 46
0.0
 47
0.0
 48
0.0
 49
0.0
140
0.0
141
0.0
142
1.0
143
1.0
 70
0
 72
1
 73
0
 74
0
  7

 75
0
147
1.0
148
0.0
149
0.0
100
AcDbLayout
  1
Layout1
 70
0
 71
1
 10
0.0
 20
0.0
 11
297.0
 21
210.0
 12
0.0
 22
0.0
 32
0.0
 14
0.0
 24
0.0
 34
0.0
 15
0.0
 25
0.0
 35
0.0
146
0.0
 13
0.0
 23
0.0
 33
0.0
 16
1.0
 26
0.0
 36
0.0
 17
0.0
 27
1.0
 37
0.0
 76
0
330
218
345
0
346
0
  0
ENDSEC
  0
EOF
