999
DXF file: cc6-144-32.dxf
999
Pro/ENGINEER 2010430 by Parametric Technology Corporation
  0
SECTION
  2
HEADER
  9
$ACADVER
  1
AC1021
  9
$DWGCODEPAGE
  3
ANSI_1252
  9
$EXTMAX
 10
297.0
 20
210.0
 30
0.0
  9
$EXTMIN
 10
0.0
 20
0.0
 30
0.0
  9
$LIMMIN
 10
0.0
 20
0.0
  9
$LIMMAX
 10
297.0
 20
210.0
  9
$VIEWCTR
 10
148.5
 20
105.0
  9
$VIEWSIZE
 40
210.0
  9
$CLAYER
  8
0
  9
$LTSCALE
 40
16.335
  9
$CELTYPE
  6
BYLAYER
  9
$DIMSCALE
 40
1.0
  9
$DIMASZ
 40
3.5
  9
$DIMEXO
 40
1.85625
  9
$DIMDLI
 40
11.286
  9
$DIMEXE
 40
5.346
  9
$DIMCEN
 40
2.673
  9
$DIMLFAC
 40
1.0
  9
$DIMBLK
  1
_FILLED
  9
$DIMTXT
 40
3.5
  9
$DIMTOL
 70
1
  9
$DIMLIM
 70
0
  9
$DIMTFAC
 40
1.0
  9
$DIMTP
 40
0.005
  9
$DIMTM
 40
0.005
  9
$PDMODE
 70
3
  9
$PDSIZE
 40
0.3125
  9
$HANDSEED
  5
333
  9
$TILEMODE
 70
1
  9
$MEASUREMENT
 70
1
  9
$INSUNITS
 70
4
  0
ENDSEC
  0
SECTION
  2
CLASSES
  0
CLASS
  1
ACDBDICTIONARYWDFLT
  2
AcDbDictionaryWithDefault
  3
AutoCAD 2000
 90
0
 91
1
280
0
281
0
  0
CLASS
  1
ACDBPLACEHOLDER
  2
AcDbPlaceHolder
  3
AutoCAD 2000
 90
0
 91
1
280
0
281
0
  0
CLASS
  1
LAYOUT
  2
AcDbLayout
  3
AutoCAD 2000
 90
0
 91
0
280
0
281
0
  0
ENDSEC
  0
SECTION
  2
TABLES
  0
TABLE
  2
VPORT
  5
8
100
AcDbSymbolTable
 70
2
  0
VPORT
  5
1F4
100
AcDbSymbolTableRecord
100
AcDbViewportTableRecord
  2
*ACTIVE
 70
0
 10
0.0
 20
0.0
 11
1.0
 21
1.0
 12
148.5
 22
105.0
 13
0.0
 23
0.0
 14
1.0
 24
1.0
 15
0.0
 25
0.0
 16
0.0
 26
0.0
 36
1.0
 17
0.0
 27
0.0
 37
0.0
 40
210.0
 41
1.4142857143
 42
50.0
 43
0.0
 44
0.0
 50
0.0
 51
0.0
 71
0
 72
100
 73
1
 74
1
 75
0
 76
0
 77
0
 78
0
  0
ENDTAB
  0
TABLE
  2
LTYPE
  5
5
100
AcDbSymbolTable
 70
6
  0
LTYPE
  5
14
100
AcDbSymbolTableRecord
100
AcDbLinetypeTableRecord
  2
BYBLOCK
 70
0
  3

 72
65
 73
0
 40
0.0
  0
LTYPE
  5
15
100
AcDbSymbolTableRecord
100
AcDbLinetypeTableRecord
  2
BYLAYER
 70
0
  3

 72
65
 73
0
 40
0.0
  0
LTYPE
  5
16
100
AcDbSymbolTableRecord
100
AcDbLinetypeTableRecord
  2
CONTINUOUS
 70
64
  3
Solid line
 72
65
 73
0
 40
0.0
  0
LTYPE
  5
1F5
100
AcDbSymbolTableRecord
100
AcDbLinetypeTableRecord
  2
CENTER
 70
64
  3
____ _ ____ _ ____ _ ____ _ ____ _ ____ _ ____
 72
65
 73
4
 40
0.6
 49
0.375
 74
0
 49
-0.075
 74
0
 49
0.075
 74
0
 49
-0.075
 74
0
  0
LTYPE
  5
1F6
100
AcDbSymbolTableRecord
100
AcDbLinetypeTableRecord
  2
HIDDEN
 70
64
  3
- - - - - - - - - - - - - - - - - - - -
 72
65
 73
2
 40
0.2
 49
0.1
 74
0
 49
-0.1
 74
0
  0
LTYPE
  5
1F7
100
AcDbSymbolTableRecord
100
AcDbLinetypeTableRecord
  2
PHANTOM
 70
64
  3
_____ _ _ _____ _ _ _____ _ _ _____
 72
65
 73
6
 40
0.8
 49
0.45
 74
0
 49
-0.05
 74
0
 49
0.1
 74
0
 49
-0.05
 74
0
 49
0.1
 74
0
 49
-0.05
 74
0
  0
LTYPE
  5
1F8
100
AcDbSymbolTableRecord
100
AcDbLinetypeTableRecord
  2
DOT
 70
64
  3
. . . . . . . . . . . . . . . . . . . .
 72
65
 73
2
 40
0.2
 49
0.1
 74
0
 49
-0.1
 74
0
  0
LTYPE
  5
1F9
100
AcDbSymbolTableRecord
100
AcDbLinetypeTableRecord
  2
DASHED
 70
64
  3
- - - - - - - - - - - - - - - - - - - -
 72
65
 73
2
 40
0.2
 49
0.1
 74
0
 49
-0.1
 74
0
  0
ENDTAB
  0
TABLE
  2
LAYER
  5
2
100
AcDbSymbolTable
 70
36
  0
LAYER
  5
10
100
AcDbSymbolTableRecord
100
AcDbLayerTableRecord
  2
0
 70
0
 62
7
  6
CONTINUOUS
370
-3
390
F
  0
LAYER
  5
1FA
100
AcDbSymbolTableRecord
100
AcDbLayerTableRecord
  2
DEFAULT_1
 70
0
 62
7
  6
CENTER
370
-3
390
F
  0
LAYER
  5
1FB
100
AcDbSymbolTableRecord
100
AcDbLayerTableRecord
  2
DEFAULT_2
 70
0
 62
8
  6
HIDDEN
370
-3
390
F
  0
LAYER
  5
1FC
100
AcDbSymbolTableRecord
100
AcDbLayerTableRecord
  2
DEFAULT_3
 70
0
 62
7
  6
PHANTOM
370
-3
390
F
  0
LAYER
  5
1FD
100
AcDbSymbolTableRecord
100
AcDbLayerTableRecord
  2
ACHSEN
 70
0
 62
7
  6
CONTINUOUS
370
-3
390
F
  0
LAYER
  5
1FE
100
AcDbSymbolTableRecord
100
AcDbLayerTableRecord
  2
BEZUGSACHSEN
 70
0
 62
7
  6
CONTINUOUS
370
-3
390
F
  0
LAYER
  5
1FF
100
AcDbSymbolTableRecord
100
AcDbLayerTableRecord
  2
BEZUGSEBENE_B
 70
0
 62
7
  6
CONTINUOUS
370
-3
390
F
  0
LAYER
  5
200
100
AcDbSymbolTableRecord
100
AcDbLayerTableRecord
  2
BOHRUNGEN
 70
0
 62
7
  6
CONTINUOUS
370
-3
390
F
  0
LAYER
  5
201
100
AcDbSymbolTableRecord
100
AcDbLayerTableRecord
  2
EBENEN
 70
0
 62
7
  6
CONTINUOUS
370
-3
390
F
  0
LAYER
  5
202
100
AcDbSymbolTableRecord
100
AcDbLayerTableRecord
  2
FASEN
 70
0
 62
7
  6
CONTINUOUS
370
-3
390
F
  0
LAYER
  5
203
100
AcDbSymbolTableRecord
100
AcDbLayerTableRecord
  2
FLAECHEN
 70
0
 62
7
  6
CONTINUOUS
370
-3
390
F
  0
LAYER
  5
204
100
AcDbSymbolTableRecord
100
AcDbLayerTableRecord
  2
GEWINDE
 70
0
 62
7
  6
CONTINUOUS
370
-3
390
F
  0
LAYER
  5
205
100
AcDbSymbolTableRecord
100
AcDbLayerTableRecord
  2
KOORDSYS
 70
0
 62
7
  6
CONTINUOUS
370
-3
390
F
  0
LAYER
  5
206
100
AcDbSymbolTableRecord
100
AcDbLayerTableRecord
  2
KURVEN
 70
0
 62
7
  6
CONTINUOUS
370
-3
390
F
  0
LAYER
  5
207
100
AcDbSymbolTableRecord
100
AcDbLayerTableRecord
  2
KURVE_FUER_GTOL_DETAILANSICHT
 70
0
 62
7
  6
CONTINUOUS
370
-3
390
F
  0
LAYER
  5
208
100
AcDbSymbolTableRecord
100
AcDbLayerTableRecord
  2
KURVE_GAUGE2_POLIGON_INNENEINST
 70
0
 62
7
  6
CONTINUOUS
370
-3
390
F
  0
LAYER
  5
209
100
AcDbSymbolTableRecord
100
AcDbLayerTableRecord
  2
KURVE_PHANTOM1_GAUGE_PIN_1
 70
0
 62
7
  6
CONTINUOUS
370
-3
390
F
  0
LAYER
  5
20A
100
AcDbSymbolTableRecord
100
AcDbLayerTableRecord
  2
KURVE_PHANTOM2_GAUGE_PIN1
 70
0
 62
7
  6
CONTINUOUS
370
-3
390
F
  0
LAYER
  5
20B
100
AcDbSymbolTableRecord
100
AcDbLayerTableRecord
  2
KURVE_POLIGON_BEMASUNG
 70
0
 62
7
  6
CONTINUOUS
370
-3
390
F
  0
LAYER
  5
20C
100
AcDbSymbolTableRecord
100
AcDbLayerTableRecord
  2
PUNKTE
 70
0
 62
7
  6
CONTINUOUS
370
-3
390
F
  0
LAYER
  5
20D
100
AcDbSymbolTableRecord
100
AcDbLayerTableRecord
  2
RUNDUNGEN
 70
0
 62
7
  6
CONTINUOUS
370
-3
390
F
  0
LAYER
  5
20E
100
AcDbSymbolTableRecord
100
AcDbLayerTableRecord
  2
S_ACHSEN
 70
0
 62
7
  6
CONTINUOUS
370
-3
390
F
  0
LAYER
  5
20F
100
AcDbSymbolTableRecord
100
AcDbLayerTableRecord
  2
S_EBENEN
 70
0
 62
7
  6
CONTINUOUS
370
-3
390
F
  0
LAYER
  5
210
100
AcDbSymbolTableRecord
100
AcDbLayerTableRecord
  2
S_KOORDSYS
 70
0
 62
7
  6
CONTINUOUS
370
-3
390
F
  0
LAYER
  5
211
100
AcDbSymbolTableRecord
100
AcDbLayerTableRecord
  2
TOL_BEZUEGE
 70
0
 62
7
  6
CONTINUOUS
370
-3
390
F
  0
LAYER
  5
212
100
AcDbSymbolTableRecord
100
AcDbLayerTableRecord
  2
VERBFLAECHE
 70
0
 62
7
  6
CONTINUOUS
370
-3
390
F
  0
LAYER
  5
213
100
AcDbSymbolTableRecord
100
AcDbLayerTableRecord
  2
ZEICHNUNGSBEMASSUNGEN
 70
0
 62
7
  6
CONTINUOUS
370
-3
390
F
  0
ENDTAB
  0
TABLE
  2
STYLE
  5
3
100
AcDbSymbolTable
 70
1
  0
STYLE
  5
11
100
AcDbSymbolTableRecord
100
AcDbTextStyleTableRecord
  2
STANDARD
 70
0
 40
0.0
 41
0.7
 50
0.0
 71
0
 42
0.2
  3
txt
  4

  0
STYLE
  5
214
100
AcDbSymbolTableRecord
100
AcDbTextStyleTableRecord
  2
TEXTSTYLE_1
 70
0
 40
0.0
 41
0.8
 50
0.0
 71
0
 42
0.2
  3
gdt
  4

  0
STYLE
  5
215
100
AcDbSymbolTableRecord
100
AcDbTextStyleTableRecord
  2
TEXTSTYLE_2
 70
0
 40
0.0
 41
0.7
 50
0.0
 71
0
 42
0.2
  3
gdt
  4

  0
ENDTAB
  0
TABLE
  2
VIEW
  5
6
100
AcDbSymbolTable
 70
0
  0
ENDTAB
  0
TABLE
  2
UCS
  5
7
100
AcDbSymbolTable
 70
0
  0
ENDTAB
  0
TABLE
  2
APPID
  5
9
100
AcDbSymbolTable
 70
1
  0
APPID
  5
216
100
AcDbSymbolTableRecord
100
AcDbRegAppTableRecord
  2
ACAD
 70
0
  0
ENDTAB
  0
TABLE
  2
BLOCK_RECORD
  5
1
100
AcDbSymbolTable
 70
0
  0
BLOCK_RECORD
  5
217
100
AcDbSymbolTableRecord
100
AcDbBlockTableRecord
  2
*Model_Space
  0
BLOCK_RECORD
  5
218
100
AcDbSymbolTableRecord
100
AcDbBlockTableRecord
  2
*Paper_Space
  0
BLOCK_RECORD
  5
219
100
AcDbSymbolTableRecord
100
AcDbBlockTableRecord
  2
_FILLED
  0
BLOCK_RECORD
  5
21A
100
AcDbSymbolTableRecord
100
AcDbBlockTableRecord
  2
*D0
  0
BLOCK_RECORD
  5
21B
100
AcDbSymbolTableRecord
100
AcDbBlockTableRecord
  2
*D1
  0
BLOCK_RECORD
  5
21C
100
AcDbSymbolTableRecord
100
AcDbBlockTableRecord
  2
*D2
  0
BLOCK_RECORD
  5
21D
100
AcDbSymbolTableRecord
100
AcDbBlockTableRecord
  2
*D3
  0
BLOCK_RECORD
  5
21E
100
AcDbSymbolTableRecord
100
AcDbBlockTableRecord
  2
*D4
  0
BLOCK_RECORD
  5
21F
100
AcDbSymbolTableRecord
100
AcDbBlockTableRecord
  2
*D5
  0
BLOCK_RECORD
  5
220
100
AcDbSymbolTableRecord
100
AcDbBlockTableRecord
  2
*D6
  0
ENDTAB
  0
TABLE
  2
DIMSTYLE
  5
A
100
AcDbSymbolTable
 70
1
100
AcDbDimStyleTable
 71
0
  0
DIMSTYLE
105
221
100
AcDbSymbolTableRecord
100
AcDbDimStyleTableRecord
  2
STANDARD
 70
0
  3

  4

 40
1.0
 41
3.5
 42
0.0625
 43
0.38
 44
0.18
 45
0.0
 46
0.0
 47
0.005
 48
0.005
140
3.5
141
0.09
142
0.0
143
25.4
144
1.0
145
0.0
146
1.0
147
0.09
 71
1.0
 72
0.0
 73
0
 74
0
 75
0
 76
0
 77
1
 78
8
170
0
171
2
172
0
173
0
174
0
175
0
176
0
177
0
178
5
270
2
271
3
272
3
273
2
274
2
275
0
280
0
281
0
282
0
283
1
284
8
285
0
286
0
287
3
288
0
340
11
341
219
342
219
343
219
344
219
  0
DIMSTYLE
105
222
100
AcDbSymbolTableRecord
100
AcDbDimStyleTableRecord
  2
DIMSTYLE_1
 70
0
  3

  4

 40
1.0
 41
3.5
 42
0.0625
 43
0.38
 44
0.18
 45
0.0
 46
0.0
 47
0.0
 48
0.1
140
3.5
141
0.09
142
0.0
143
25.4
144
1.0
145
0.0
146
1.0
147
0.09
 71
0.0
 72
0.0
 73
0
 74
0
 75
0
 76
0
 77
1
 78
8
170
0
171
2
172
0
173
0
174
0
175
0
176
0
177
0
178
5
270
2
271
2
272
2
273
2
274
2
275
0
280
0
281
0
282
0
283
1
284
8
285
0
286
0
287
3
288
0
340
11
341
219
342
219
343
219
344
219
  0
DIMSTYLE
105
223
100
AcDbSymbolTableRecord
100
AcDbDimStyleTableRecord
  2
DIMSTYLE_2
 70
0
  3

  4

 40
1.0
 41
3.5
 42
0.0625
 43
0.38
 44
0.18
 45
0.0
 46
0.0
 47
0.25
 48
0.25
140
3.5
141
0.09
142
0.0
143
25.4
144
1.0
145
0.0
146
1.0
147
0.09
 71
0.0
 72
0.0
 73
0
 74
0
 75
0
 76
0
 77
1
 78
8
170
0
171
2
172
0
173
0
174
0
175
0
176
0
177
0
178
5
270
2
271
2
272
2
273
2
274
2
275
0
280
0
281
0
282
0
283
1
284
8
285
0
286
0
287
3
288
0
340
11
341
219
342
219
343
219
344
219
  0
DIMSTYLE
105
224
100
AcDbSymbolTableRecord
100
AcDbDimStyleTableRecord
  2
DIMSTYLE_3
 70
0
  3

  4

 40
1.0
 41
3.5
 42
0.0625
 43
0.38
 44
0.18
 45
0.0
 46
0.0
 47
0.5
 48
0.5
140
3.5
141
0.09
142
0.0
143
25.4
144
1.0
145
0.0
146
1.0
147
0.09
 71
0.0
 72
0.0
 73
0
 74
0
 75
0
 76
0
 77
1
 78
8
170
0
171
2
172
0
173
0
174
0
175
0
176
0
177
0
178
5
270
2
271
2
272
2
273
2
274
2
275
0
280
0
281
0
282
0
283
1
284
8
285
0
286
0
287
3
288
0
340
11
341
219
342
219
343
219
344
219
  0
DIMSTYLE
105
225
100
AcDbSymbolTableRecord
100
AcDbDimStyleTableRecord
  2
DIMSTYLE_4
 70
0
  3

  4

 40
1.0
 41
3.5
 42
0.0625
 43
0.38
 44
0.18
 45
0.0
 46
0.0
 47
0.3
 48
0.3
140
3.5
141
0.09
142
0.0
143
25.4
144
1.0
145
0.0
146
1.0
147
0.09
 71
0.0
 72
0.0
 73
0
 74
0
 75
0
 76
0
 77
1
 78
8
170
0
171
2
172
0
173
0
174
0
175
0
176
0
177
0
178
5
270
2
271
2
272
2
273
2
274
2
275
0
280
0
281
0
282
0
283
1
284
8
285
0
286
0
287
3
288
0
340
11
341
219
342
219
343
219
344
219
  0
DIMSTYLE
105
226
100
AcDbSymbolTableRecord
100
AcDbDimStyleTableRecord
  2
DIMSTYLE_5
 70
0
  3

  4

 40
1.0
 41
3.5
 42
0.0625
 43
0.38
 44
0.18
 45
0.0
 46
0.0
 47
-0.042
 48
0.047
140
3.5
141
0.09
142
0.0
143
25.4
144
1.0
145
0.0
146
1.0
147
0.09
 71
0.0
 72
0.0
 73
0
 74
0
 75
0
 76
0
 77
1
 78
8
170
0
171
2
172
0
173
0
174
0
175
0
176
0
177
0
178
5
270
2
271
3
272
3
273
2
274
2
275
0
280
0
281
0
282
0
283
1
284
8
285
0
286
0
287
3
288
0
340
11
341
219
342
219
343
219
344
219
  0
ENDTAB
  0
ENDSEC
  0
SECTION
  2
BLOCKS
  0
BLOCK
  5
20
100
AcDbEntity
  8
0
100
AcDbBlockBegin
  2
*Model_Space
 70
0
 10
0.0
 20
0.0
 30
0.0
  3
*Model_Space
  1

  0
ENDBLK
  5
21
100
AcDbEntity
  8
0
100
AcDbBlockEnd
  0
BLOCK
  5
1C
100
AcDbEntity
  8
0
100
AcDbBlockBegin
  2
*Paper_Space
 70
0
 10
0.0
 20
0.0
 30
0.0
  3
*Paper_Space
  1

  0
ENDBLK
  5
1D
100
AcDbEntity
  8
0
100
AcDbBlockEnd
  0
BLOCK
  5
227
100
AcDbEntity
  8
0
100
AcDbBlockBegin
  2
_FILLED
 70
64
 10
0.0
 20
0.0
  3
_FILLED
  1

  0
SOLID
  5
228
100
AcDbEntity
  8
0
  6
BYBLOCK
 62
0
100
AcDbTrace
 10
0.0
 20
0.0
 11
-1.0
 21
0.125
 12
-1.0
 22
-0.125
 13
-1.0
 23
-0.125
  0
ENDBLK
  5
229
100
AcDbEntity
  8
0
  6
BYBLOCK
 62
0
100
AcDbBlockEnd
  0
BLOCK
  5
22A
100
AcDbEntity
  8
0
100
AcDbBlockBegin
 62
2
  6
CONTINUOUS
  2
*D0
 70
65
 10
0.0
 20
0.0
  3
*D0
  1

  0
MTEXT
  5
22B
100
AcDbEntity
  8
0
100
AcDbMText
 62
5
  6
CONTINUOUS
  7
TEXTSTYLE_2
 71
2
 72
1
 10
242.021316604
 20
130.3104552548
 30
0.0
 11
0.0
 21
1.0
 31
0.0
 44
0.9
  1
{\Fgdt;n}\Ftxt;44
 40
3.5
 41
10.1666666667
  0
LINE
  5
22C
100
AcDbEntity
  8
0
100
AcDbLine
 62
2
  6
CONTINUOUS
 10
212.9048856549
 20
152.2854552548
 11
219.6410113053
 21
152.2854552548
  0
LINE
  5
22D
100
AcDbEntity
  8
0
100
AcDbLine
 62
2
  6
CONTINUOUS
 10
225.9246686581
 20
152.2854552548
 11
247.896316604
 21
152.2854552548
  0
LINE
  5
22E
100
AcDbEntity
  8
0
100
AcDbLine
 62
2
  6
CONTINUOUS
 10
212.9048856549
 20
108.3354552548
 11
239.6838618709
 21
108.3354552548
  0
LINE
  5
22F
100
AcDbEntity
  8
0
100
AcDbLine
 62
2
  6
CONTINUOUS
 10
243.4909649147
 20
108.3354552548
 11
247.896316604
 21
108.3354552548
  0
LINE
  5
230
100
AcDbEntity
  8
0
100
AcDbLine
 62
2
  6
CONTINUOUS
 10
246.396316604
 20
152.2854552548
 11
246.396316604
 21
130.3104552548
  0
LINE
  5
231
100
AcDbEntity
  8
0
100
AcDbLine
 62
2
  6
CONTINUOUS
 10
246.396316604
 20
108.3354552548
 11
246.396316604
 21
130.3104552548
  0
INSERT
  5
232
100
AcDbEntity
  8
0
100
AcDbBlockReference
 62
2
  6
CONTINUOUS
  2
_FILLED
 10
246.396316604
 20
152.2854552548
 41
3.5
 42
3.5
 43
3.5
 50
90.0
  0
INSERT
  5
233
100
AcDbEntity
  8
0
100
AcDbBlockReference
 62
2
  6
CONTINUOUS
  2
_FILLED
 10
246.396316604
 20
108.3354552548
 41
3.5
 42
3.5
 43
3.5
 50
270.0
  0
ENDBLK
  5
234
100
AcDbEntity
  8
0
  6
BYBLOCK
 62
0
100
AcDbBlockEnd
  0
BLOCK
  5
235
100
AcDbEntity
  8
0
100
AcDbBlockBegin
 62
2
  6
CONTINUOUS
  2
*D1
 70
65
 10
0.0
 20
0.0
  3
*D1
  1

  0
MTEXT
  5
236
100
AcDbEntity
  8
0
100
AcDbMText
 62
5
  6
CONTINUOUS
  7
STANDARD
 71
2
 72
1
 10
232.8180784715
 20
91.2544982941
 30
0.0
 11
0.1545745654
 21
0.9879811252
 31
0.0
 44
0.9
  1
4\Fgdt;{\Fgdt;~}\Ftxt;30'
 40
3.5
 41
12.3333333333
  0
LINE
  5
237
100
AcDbEntity
  8
0
100
AcDbLine
 62
2
  6
CONTINUOUS
 10
181.9061308498
 20
106.1572096567
 11
242.0192015152
 21
110.8882109206
  0
LINE
  5
238
100
AcDbEntity
  8
0
100
AcDbLine
 62
2
  6
CONTINUOUS
 10
153.9054440718
 20
103.8354552548
 11
188.0431891781
 21
103.8354552548
  0
LINE
  5
239
100
AcDbEntity
  8
0
100
AcDbLine
 62
2
  6
CONTINUOUS
 10
217.8428340694
 20
103.8354552548
 11
242.29630504
 21
103.8354552548
  0
ARC
  5
23A
100
AcDbEntity
  8
0
100
AcDbCircle
 62
2
  6
CONTINUOUS
 10
152.4054440718
 20
103.8354552548
 40
88.3908609682
100
AcDbArc
 50
4.5
 51
8.3892558949
  0
ARC
  5
23B
100
AcDbEntity
  8
0
100
AcDbCircle
 62
2
  6
CONTINUOUS
 10
152.4054440718
 20
103.8354552548
 40
88.3908609682
100
AcDbArc
 50
351.107876718
 51
0.0
  0
ARC
  5
23C
100
AcDbEntity
  8
0
100
AcDbCircle
 62
2
  6
CONTINUOUS
 10
152.4054440718
 20
103.8354552548
 40
88.3908609682
100
AcDbArc
 50
360.0
 51
4.5
  0
SOLID
  5
23D
100
AcDbEntity
  8
0
100
AcDbTrace
 62
2
  6
CONTINUOUS
 10
239.7448098263
 20
114.2106590195
 11
240.5238255146
 21
110.770522277
 12
240.6155824302
 22
114.2965663661
 13
240.6155824302
 23
114.2965663661
  0
SOLID
  5
23E
100
AcDbEntity
  8
0
100
AcDbTrace
 62
2
  6
CONTINUOUS
 10
241.1644293304
 20
100.3274799475
 11
240.79630504
 21
103.8354552548
 12
240.2896008151
 22
100.3448024393
 13
240.2896008151
 23
100.3448024393
  0
ENDBLK
  5
23F
100
AcDbEntity
  8
0
  6
BYBLOCK
 62
0
100
AcDbBlockEnd
  0
BLOCK
  5
240
100
AcDbEntity
  8
0
100
AcDbBlockBegin
 62
2
  6
CONTINUOUS
  2
*D2
 70
65
 10
0.0
 20
0.0
  3
*D2
  1

  0
MTEXT
  5
241
100
AcDbEntity
  8
0
100
AcDbMText
 62
5
  6
CONTINUOUS
  7
STANDARD
 71
2
 72
1
 10
144.5833653846
 20
180.2907838739
 30
0.0
 11
1.0
 21
0.0
 31
0.0
 44
0.9
  1
130
 40
3.5
 41
7.25
  0
LINE
  5
242
100
AcDbEntity
  8
0
100
AcDbLine
 62
2
  6
CONTINUOUS
 10
79.5833653846
 20
157.8935725603
 11
79.5833653846
 21
177.4157838739
  0
LINE
  5
243
100
AcDbEntity
  8
0
100
AcDbLine
 62
2
  6
CONTINUOUS
 10
209.5833653846
 20
129.6110299636
 11
209.5833653846
 21
177.4157838739
  0
LINE
  5
244
100
AcDbEntity
  8
0
100
AcDbLine
 62
2
  6
CONTINUOUS
 10
79.5833653846
 20
175.9157838739
 11
144.5833653846
 21
175.9157838739
  0
LINE
  5
245
100
AcDbEntity
  8
0
100
AcDbLine
 62
2
  6
CONTINUOUS
 10
209.5833653846
 20
175.9157838739
 11
144.5833653846
 21
175.9157838739
  0
INSERT
  5
246
100
AcDbEntity
  8
0
100
AcDbBlockReference
 62
2
  6
CONTINUOUS
  2
_FILLED
 10
79.5833653846
 20
175.9157838739
 41
3.5
 42
3.5
 43
3.5
 50
180.0
  0
INSERT
  5
247
100
AcDbEntity
  8
0
100
AcDbBlockReference
 62
2
  6
CONTINUOUS
  2
_FILLED
 10
209.5833653846
 20
175.9157838739
 41
3.5
 42
3.5
 43
3.5
  0
ENDBLK
  5
248
100
AcDbEntity
  8
0
  6
BYBLOCK
 62
0
100
AcDbBlockEnd
  0
BLOCK
  5
249
100
AcDbEntity
  8
0
100
AcDbBlockBegin
 62
2
  6
CONTINUOUS
  2
*D3
 70
65
 10
0.0
 20
0.0
  3
*D3
  1

  0
MTEXT
  5
24A
100
AcDbEntity
  8
0
100
AcDbMText
 62
5
  6
CONTINUOUS
  7
STANDARD
 71
2
 72
1
 10
155.5833653846
 20
173.4602514574
 30
0.0
 11
1.0
 21
0.0
 31
0.0
 44
0.9
  1
108
 40
3.5
 41
7.5
  0
LINE
  5
24B
100
AcDbEntity
  8
0
100
AcDbLine
 62
2
  6
CONTINUOUS
 10
209.5833653846
 20
109.8354552548
 11
209.5833653846
 21
170.5852514574
  0
LINE
  5
24C
100
AcDbEntity
  8
0
100
AcDbLine
 62
2
  6
CONTINUOUS
 10
101.5833653846
 20
159.5420629152
 11
101.5833653846
 21
170.5852514574
  0
LINE
  5
24D
100
AcDbEntity
  8
0
100
AcDbLine
 62
2
  6
CONTINUOUS
 10
209.5833653846
 20
169.0852514574
 11
155.5833653846
 21
169.0852514574
  0
LINE
  5
24E
100
AcDbEntity
  8
0
100
AcDbLine
 62
2
  6
CONTINUOUS
 10
101.5833653846
 20
169.0852514574
 11
155.5833653846
 21
169.0852514574
  0
INSERT
  5
24F
100
AcDbEntity
  8
0
100
AcDbBlockReference
 62
2
  6
CONTINUOUS
  2
_FILLED
 10
209.5833653846
 20
169.0852514574
 41
3.5
 42
3.5
 43
3.5
  0
INSERT
  5
250
100
AcDbEntity
  8
0
100
AcDbBlockReference
 62
2
  6
CONTINUOUS
  2
_FILLED
 10
101.5833653846
 20
169.0852514574
 41
3.5
 42
3.5
 43
3.5
 50
180.0
  0
ENDBLK
  5
251
100
AcDbEntity
  8
0
  6
BYBLOCK
 62
0
100
AcDbBlockEnd
  0
BLOCK
  5
252
100
AcDbEntity
  8
0
100
AcDbBlockBegin
 62
2
  6
CONTINUOUS
  2
*D4
 70
65
 10
0.0
 20
0.0
  3
*D4
  1

  0
MTEXT
  5
253
100
AcDbEntity
  8
0
100
AcDbMText
 62
5
  6
CONTINUOUS
  7
STANDARD
 71
2
 72
1
 10
125.5833653846
 20
188.4519555613
 30
0.0
 11
1.0
 21
0.0
 31
0.0
 44
0.9
  1
168
 40
3.5
 41
7.5
  0
LINE
  5
254
100
AcDbEntity
  8
0
100
AcDbLine
 62
2
  6
CONTINUOUS
 10
209.5833653846
 20
109.8354552548
 11
209.5833653846
 21
185.5769555613
  0
LINE
  5
255
100
AcDbEntity
  8
0
100
AcDbLine
 62
2
  6
CONTINUOUS
 10
41.5833653846
 20
111.6243394855
 11
41.5833653846
 21
185.5769555613
  0
LINE
  5
256
100
AcDbEntity
  8
0
100
AcDbLine
 62
2
  6
CONTINUOUS
 10
209.5833653846
 20
184.0769555613
 11
125.5833653846
 21
184.0769555613
  0
LINE
  5
257
100
AcDbEntity
  8
0
100
AcDbLine
 62
2
  6
CONTINUOUS
 10
41.5833653846
 20
184.0769555613
 11
125.5833653846
 21
184.0769555613
  0
INSERT
  5
258
100
AcDbEntity
  8
0
100
AcDbBlockReference
 62
2
  6
CONTINUOUS
  2
_FILLED
 10
209.5833653846
 20
184.0769555613
 41
3.5
 42
3.5
 43
3.5
  0
INSERT
  5
259
100
AcDbEntity
  8
0
100
AcDbBlockReference
 62
2
  6
CONTINUOUS
  2
_FILLED
 10
41.5833653846
 20
184.0769555613
 41
3.5
 42
3.5
 43
3.5
 50
180.0
  0
ENDBLK
  5
25A
100
AcDbEntity
  8
0
  6
BYBLOCK
 62
0
100
AcDbBlockEnd
  0
BLOCK
  5
25B
100
AcDbEntity
  8
0
100
AcDbBlockBegin
 62
2
  6
CONTINUOUS
  2
*D5
 70
65
 10
0.0
 20
0.0
  3
*D5
  1

  0
MTEXT
  5
25C
100
AcDbEntity
  8
0
100
AcDbMText
 62
5
  6
CONTINUOUS
  7
TEXTSTYLE_2
 71
2
 72
1
 10
255.7390021278
 20
130.3104552548
 30
0.0
 11
0.0
 21
1.0
 31
0.0
 44
0.9
  1
{\Fgdt;n}\Ftxt;53
 40
3.5
 41
9.6666666667
  0
LINE
  5
25D
100
AcDbEntity
  8
0
100
AcDbLine
 62
2
  6
CONTINUOUS
 10
153.9054440718
 20
156.7854552548
 11
207.5391526999
 21
156.7854552548
  0
LINE
  5
25E
100
AcDbEntity
  8
0
100
AcDbLine
 62
2
  6
CONTINUOUS
 10
227.3986129754
 20
156.7854552548
 11
261.6140021278
 21
156.7854552548
  0
LINE
  5
25F
100
AcDbEntity
  8
0
100
AcDbLine
 62
2
  6
CONTINUOUS
 10
153.9054440718
 20
103.8354552548
 11
205.3337013763
 21
103.8354552548
  0
LINE
  5
260
100
AcDbEntity
  8
0
100
AcDbLine
 62
2
  6
CONTINUOUS
 10
216.8731338606
 20
103.8354552548
 11
261.6140021278
 21
103.8354552548
  0
LINE
  5
261
100
AcDbEntity
  8
0
100
AcDbLine
 62
2
  6
CONTINUOUS
 10
260.1140021278
 20
156.7854552548
 11
260.1140021278
 21
130.3104552548
  0
LINE
  5
262
100
AcDbEntity
  8
0
100
AcDbLine
 62
2
  6
CONTINUOUS
 10
260.1140021278
 20
103.8354552548
 11
260.1140021278
 21
130.3104552548
  0
INSERT
  5
263
100
AcDbEntity
  8
0
100
AcDbBlockReference
 62
2
  6
CONTINUOUS
  2
_FILLED
 10
260.1140021278
 20
156.7854552548
 41
3.5
 42
3.5
 43
3.5
 50
90.0
  0
INSERT
  5
264
100
AcDbEntity
  8
0
100
AcDbBlockReference
 62
2
  6
CONTINUOUS
  2
_FILLED
 10
260.1140021278
 20
103.8354552548
 41
3.5
 42
3.5
 43
3.5
 50
270.0
  0
ENDBLK
  5
265
100
AcDbEntity
  8
0
  6
BYBLOCK
 62
0
100
AcDbBlockEnd
  0
BLOCK
  5
266
100
AcDbEntity
  8
0
100
AcDbBlockBegin
 62
2
  6
CONTINUOUS
  2
*D6
 70
65
 10
0.0
 20
0.0
  3
*D6
  1

  0
MTEXT
  5
267
100
AcDbEntity
  8
0
100
AcDbMText
 62
5
  6
CONTINUOUS
  7
TEXTSTYLE_2
 71
2
 72
1
 10
226.1461512474
 20
130.3104552548
 30
0.0
 11
0.0
 21
1.0
 31
0.0
 44
0.9
  1
{\Fgdt;n}\Ftxt;32
 40
3.5
 41
9.9166666667
  0
LINE
  5
268
100
AcDbEntity
  8
0
100
AcDbLine
 62
2
  6
CONTINUOUS
 10
212.9048856549
 20
114.3327052548
 11
232.0211512474
 21
114.3327052548
  0
LINE
  5
269
100
AcDbEntity
  8
0
100
AcDbLine
 62
2
  6
CONTINUOUS
 10
212.9048856549
 20
146.2882052548
 11
232.0211512474
 21
146.2882052548
  0
LINE
  5
26A
100
AcDbEntity
  8
0
100
AcDbLine
 62
2
  6
CONTINUOUS
 10
230.5211512474
 20
114.3327052548
 11
230.5211512474
 21
130.3104552548
  0
LINE
  5
26B
100
AcDbEntity
  8
0
100
AcDbLine
 62
2
  6
CONTINUOUS
 10
230.5211512474
 20
146.2882052548
 11
230.5211512474
 21
130.3104552548
  0
INSERT
  5
26C
100
AcDbEntity
  8
0
100
AcDbBlockReference
 62
2
  6
CONTINUOUS
  2
_FILLED
 10
230.5211512474
 20
114.3327052548
 41
3.5
 42
3.5
 43
3.5
 50
270.0
  0
INSERT
  5
26D
100
AcDbEntity
  8
0
100
AcDbBlockReference
 62
2
  6
CONTINUOUS
  2
_FILLED
 10
230.5211512474
 20
146.2882052548
 41
3.5
 42
3.5
 43
3.5
 50
90.0
  0
ENDBLK
  5
26E
100
AcDbEntity
  8
0
  6
BYBLOCK
 62
0
100
AcDbBlockEnd
  0
ENDSEC
  0
SECTION
  2
ENTITIES
  0
DIMENSION
  5
26F
100
AcDbEntity
  8
0
100
AcDbDimension
 62
2
  6
CONTINUOUS
  2
*D0
 10
246.396316604
 20
108.3354552548
 11
244.9101703783
 21
128.0382137348
 70
160
 71
2
 42
43.95
  1
%%c<>
  3
DIMSTYLE_1
100
AcDbAlignedDimension
 13
212.9048856549
 23
152.2854552548
 14
212.9048856549
 24
108.3354552548
 50
270.0
100
AcDbRotatedDimension
  0
DIMENSION
  5
270
100
AcDbEntity
  8
0
100
AcDbDimension
 62
2
  6
CONTINUOUS
  2
*D1
 10
242.29630504
 20
103.8354552548
 11
232.3671145829
 21
92.3404990599
 70
162
 71
2
 42
0.0785398163
  3
DIMSTYLE_2
100
AcDb2LineAngularDimension
 13
242.0192015152
 23
110.8882109206
 14
181.9061308498
 24
106.1572096567
 15
153.9054440718
 25
103.8354552548
 16
240.7281588896
 26
107.3056641712
  0
DIMENSION
  5
271
100
AcDbEntity
  8
0
100
AcDbDimension
 62
2
  6
CONTINUOUS
  2
*D2
 10
209.5833653846
 20
175.9157838739
 11
140.9583653846
 21
178.5407838739
 70
160
 71
2
 42
130.0
  3
DIMSTYLE_3
100
AcDbAlignedDimension
 13
79.5833653846
 23
157.8935725603
 14
209.5833653846
 24
129.6110299636
100
AcDbRotatedDimension
  0
DIMENSION
  5
272
100
AcDbEntity
  8
0
100
AcDbDimension
 62
2
  6
CONTINUOUS
  2
*D3
 10
101.5833653846
 20
169.0852514574
 11
151.8333653846
 21
171.7102514574
 70
160
 71
2
 42
108.0
  3
DIMSTYLE_4
100
AcDbAlignedDimension
 13
209.5833653846
 23
109.8354552548
 14
101.5833653846
 24
159.5420629152
 50
180.0
100
AcDbRotatedDimension
  0
DIMENSION
  5
273
100
AcDbEntity
  8
0
100
AcDbDimension
 62
2
  6
CONTINUOUS
  2
*D4
 10
41.5833653846
 20
184.0769555613
 11
121.8333653846
 21
186.7019555613
 70
160
 71
2
 42
168.0
  3
DIMSTYLE_3
100
AcDbAlignedDimension
 13
209.5833653846
 23
109.8354552548
 14
41.5833653846
 24
111.6243394855
 50
180.0
100
AcDbRotatedDimension
  0
DIMENSION
  5
274
100
AcDbEntity
  8
0
100
AcDbDimension
 62
2
  6
CONTINUOUS
  2
*D5
 10
260.1140021278
 20
103.8354552548
 11
258.5718467001
 21
128.1499633178
 70
160
 71
2
 42
52.95
  1
%%c<>
  3
DIMSTYLE_1
100
AcDbAlignedDimension
 13
153.9054440718
 23
156.7854552548
 14
153.9054440718
 24
103.8354552548
 50
270.0
100
AcDbRotatedDimension
  0
DIMENSION
  5
275
100
AcDbEntity
  8
0
100
AcDbDimension
 62
2
  6
CONTINUOUS
  2
*D6
 10
230.5211512474
 20
146.2882052548
 11
229.0070004207
 21
128.0940885263
 70
160
 71
2
 42
31.9555
  1
%%c<>
  3
DIMSTYLE_5
100
AcDbAlignedDimension
 13
212.9048856549
 23
114.3327052548
 14
212.9048856549
 24
146.2882052548
 50
90.0
100
AcDbRotatedDimension
  0
MTEXT
  5
276
100
AcDbEntity
  8
0
100
AcDbMText
 62
5
  6
CONTINUOUS
  7
STANDARD
 71
1
 72
1
 10
15.9093360187
 20
87.4735576923
 30
0.0
 11
1.0
 21
0.0
 31
0.0
 44
0.9
  3
Für diese Unterlage behalten wir das Ur-\Pheberrecht. Sie darf nur für den von uns \Pbestimmten Zweck benutzt und ohne unsere \PZustimmung weder vervielfältigt noch\PDritten zugänglich gemacht werden\P \PWe own the copyright of this document. It \Pde
  1
termined and may neither be copied or \Pmade accessible to outsiders without our\Ppermission.\P \PCe plan reste notre propriété. Il ne peut\Pêtre utilisé, copié ou reproduit sans notre\Paccord.\P 
 40
3.5
 41
104.8333333333
  0
LINE
  5
277
100
AcDbEntity
  8
0
100
AcDbLine
 62
7
  6
CONTINUOUS
 10
0.0
 20
0.0
 11
0.0
 21
210.0
  0
LINE
  5
278
100
AcDbEntity
  8
0
100
AcDbLine
 62
7
  6
CONTINUOUS
 10
0.0
 20
0.0
 11
297.0
 21
0.0
  0
LINE
  5
279
100
AcDbEntity
  8
0
100
AcDbLine
 62
7
  6
CONTINUOUS
 10
0.0
 20
210.0
 11
297.0
 21
210.0
  0
LINE
  5
27A
100
AcDbEntity
  8
0
100
AcDbLine
 62
7
  6
CONTINUOUS
 10
297.0
 20
0.0
 11
297.0
 21
210.0
  0
LINE
  5
27B
100
AcDbEntity
  8
0
100
AcDbLine
 62
7
  6
CONTINUOUS
 10
41.5833653846
 20
108.6181172619
 11
41.5833653846
 21
145.2716998935
  0
LINE
  5
27C
100
AcDbEntity
  8
KURVEN
100
AcDbLine
 62
4
  6
CONTINUOUS
 10
41.5833653846
 20
107.7897770792
 11
41.5833653846
 21
149.5220292418
  0
LINE
  5
27D
100
AcDbEntity
  8
ACHSEN
100
AcDbLine
 62
7
  6
CONTINUOUS
 10
41.5833653846
 20
145.2716998935
 11
41.5833653846
 21
149.0589345688
  0
LINE
  5
27E
100
AcDbEntity
  8
ACHSEN
100
AcDbLine
 62
7
  6
CONTINUOUS
 10
43.0833653846
 20
149.8074448683
 11
43.0833653846
 21
146.0216998935
  0
LINE
  5
27F
100
AcDbEntity
  8
0
100
AcDbLine
 62
7
  6
CONTINUOUS
 10
43.0833653846
 20
146.0216998935
 11
43.0833653846
 21
107.7520918581
  0
LINE
  5
280
100
AcDbEntity
  8
ACHSEN
100
AcDbLine
 62
7
  6
CENTER
 10
64.0833653846
 20
107.3769697477
 11
64.0833653846
 21
154.4988258194
  0
LINE
  5
281
100
AcDbEntity
  8
0
100
AcDbLine
 62
7
  6
CONTINUOUS
 10
79.5833672206
 20
161.5104533475
 11
79.8833673105
 21
161.8104534013
  0
LINE
  5
282
100
AcDbEntity
  8
0
100
AcDbLine
 62
9
  6
CONTINUOUS
 10
43.0833653846
 20
146.0216998935
 11
41.5833653846
 21
145.2716998935
  0
LINE
  5
283
100
AcDbEntity
  8
0
100
AcDbLine
 62
7
  6
CONTINUOUS
 10
43.0833653846
 20
107.7520918581
 11
41.5833653846
 21
108.6181172619
  0
LINE
  5
284
100
AcDbEntity
  8
0
100
AcDbLine
 62
7
  6
CONTINUOUS
 10
77.3834284737
 20
150.9305556244
 11
77.3834284737
 21
146.7679860034
  0
LINE
  5
285
100
AcDbEntity
  8
0
100
AcDbLine
 62
7
  6
CONTINUOUS
 10
77.3834284737
 20
135.5353263854
 11
77.3834284737
 21
108.6280533756
  0
LINE
  5
286
100
AcDbEntity
  8
0
100
AcDbLine
 62
9
  6
CONTINUOUS
 10
77.5883884957
 20
150.7356418246
 11
77.5883884957
 21
144.9953974596
  0
LINE
  5
287
100
AcDbEntity
  8
0
100
AcDbLine
 62
9
  6
CONTINUOUS
 10
77.5883884957
 20
138.4963984415
 11
77.5883884957
 21
107.4395698633
  0
LINE
  5
288
100
AcDbEntity
  8
0
100
AcDbLine
 62
9
  6
CONTINUOUS
 10
78.2762586034
 20
107.567562036
 11
78.2762586034
 21
108.2068986039
  0
LINE
  5
289
100
AcDbEntity
  8
0
100
AcDbLine
 62
9
  6
CONTINUOUS
 10
78.2762586034
 20
136.7249950155
 11
78.2762586034
 21
145.999472145
  0
LINE
  5
28A
100
AcDbEntity
  8
0
100
AcDbLine
 62
9
  6
CONTINUOUS
 10
79.1883884957
 20
150.7758393937
 11
79.1883884957
 21
146.6549335418
  0
LINE
  5
28B
100
AcDbEntity
  8
0
100
AcDbLine
 62
9
  6
CONTINUOUS
 10
79.1883884957
 20
135.4934057079
 11
79.1883884957
 21
108.7830265147
  0
LINE
  5
28C
100
AcDbEntity
  8
0
100
AcDbLine
 62
7
  6
CONTINUOUS
 10
79.5833653846
 20
99.1107309243
 11
79.5833653846
 21
161.5101795853
  0
LINE
  5
28D
100
AcDbEntity
  8
0
100
AcDbLine
 62
7
  6
CONTINUOUS
 10
79.8833654582
 20
98.8104552548
 11
79.8833654582
 21
161.8104552548
  0
LINE
  5
28E
100
AcDbEntity
  8
0
100
AcDbLine
 62
7
  6
CONTINUOUS
 10
79.3833005328
 20
147.1000298405
 11
79.3833653846
 21
152.8439401158
  0
LINE
  5
28F
100
AcDbEntity
  8
0
100
AcDbLine
 62
7
  6
CONTINUOUS
 10
79.3833005328
 20
108.9002871634
 11
79.3832694183
 21
134.9356804689
  0
LINE
  5
290
100
AcDbEntity
  8
0
100
AcDbLine
 62
9
  6
CONTINUOUS
 10
43.0833653846
 20
109.3743394855
 11
41.5833653846
 21
110.1243394855
  0
LINE
  5
291
100
AcDbEntity
  8
0
100
AcDbLine
 62
7
  6
CONTINUOUS
 10
79.5833672206
 20
99.1104571622
 11
79.8833673105
 21
98.8104571083
  0
LINE
  5
292
100
AcDbEntity
  8
0
100
AcDbLine
 62
9
  6
CONTINUOUS
 10
89.6890278173
 20
160.2244101013
 11
89.6890278173
 21
140.1798678738
  0
LINE
  5
293
100
AcDbEntity
  8
0
100
AcDbLine
 62
9
  6
CONTINUOUS
 10
89.6890278173
 20
120.4410426358
 11
89.6890278173
 21
100.3965004083
  0
LINE
  5
294
100
AcDbEntity
  8
0
100
AcDbLine
 62
9
  6
CONTINUOUS
 10
90.1220405192
 20
160.3910480151
 11
90.1220405192
 21
139.6596765693
  0
LINE
  5
295
100
AcDbEntity
  8
0
100
AcDbLine
 62
9
  6
CONTINUOUS
 10
90.1220405192
 20
120.9612339403
 11
90.1220405192
 21
100.2298624945
  0
LINE
  5
296
100
AcDbEntity
  8
ACHSEN
100
AcDbLine
 62
7
  6
CENTER
 10
91.5833653846
 20
154.223540415
 11
91.5833653846
 21
164.8104552548
  0
LINE
  5
297
100
AcDbEntity
  8
0
100
AcDbLine
 62
9
  6
CONTINUOUS
 10
93.04469025
 20
160.3910480151
 11
93.04469025
 21
139.6596765693
  0
LINE
  5
298
100
AcDbEntity
  8
0
100
AcDbLine
 62
9
  6
CONTINUOUS
 10
93.04469025
 20
120.9612339403
 11
93.04469025
 21
100.2298624945
  0
LINE
  5
299
100
AcDbEntity
  8
0
100
AcDbLine
 62
9
  6
CONTINUOUS
 10
93.4777029519
 20
160.2244101013
 11
93.4777029519
 21
140.1798678738
  0
LINE
  5
29A
100
AcDbEntity
  8
0
100
AcDbLine
 62
9
  6
CONTINUOUS
 10
93.4777029519
 20
120.4410426358
 11
93.4777029519
 21
100.3965004083
  0
LINE
  5
29B
100
AcDbEntity
  8
0
100
AcDbLine
 62
7
  6
CONTINUOUS
 10
101.5833653846
 20
98.8104552548
 11
79.883365457
 21
98.8104552548
  0
LINE
  5
29C
100
AcDbEntity
  8
0
100
AcDbLine
 62
7
  6
CONTINUOUS
 10
101.5833653846
 20
98.8104552548
 11
101.5833653846
 21
161.8104552548
  0
LINE
  5
29D
100
AcDbEntity
  8
RUNDUNGEN
100
AcDbLine
 62
9
  6
CONTINUOUS
 10
102.5833653846
 20
156.7854552548
 11
102.5833653846
 21
103.8354552548
  0
LINE
  5
29E
100
AcDbEntity
  8
0
100
AcDbLine
 62
7
  6
CONTINUOUS
 10
78.2762586034
 20
107.567562036
 11
77.5937682072
 21
106.8850716397
  0
LINE
  5
29F
100
AcDbEntity
  8
RUNDUNGEN
100
AcDbLine
 62
7
  6
CONTINUOUS
 10
208.6618244803
 20
108.2629284127
 11
152.4054440718
 21
103.8354552548
  0
LINE
  5
2A0
100
AcDbEntity
  8
0
100
AcDbLine
 62
7
  6
CONTINUOUS
 10
152.4054440718
 20
103.8354552548
 11
208.6618244803
 21
108.2629284127
  0
LINE
  5
2A1
100
AcDbEntity
  8
0
100
AcDbLine
 62
7
  6
CONTINUOUS
 10
93.04469025
 20
100.2298624945
 11
90.1220405192
 21
100.2298624945
  0
LINE
  5
2A2
100
AcDbEntity
  8
0
100
AcDbLine
 62
7
  6
CONTINUOUS
 10
152.4054440718
 20
103.8354552548
 11
143.8333653846
 21
103.8354552548
  0
LINE
  5
2A3
100
AcDbEntity
  8
0
100
AcDbLine
 62
7
  6
CONTINUOUS
 10
135.3333653846
 20
103.8354552548
 11
102.5833653846
 21
103.8354552548
  0
LINE
  5
2A4
100
AcDbEntity
  8
0
100
AcDbLine
 62
7
  6
CONTINUOUS
 10
136.0673399808
 20
104.1354552548
 11
137.0833653846
 21
104.1354552548
  0
LINE
  5
2A5
100
AcDbEntity
  8
0
100
AcDbLine
 62
7
  6
CONTINUOUS
 10
142.0833653846
 20
104.1354552548
 11
143.0993907884
 21
104.1354552548
  0
LINE
  5
2A6
100
AcDbEntity
  8
0
100
AcDbLine
 62
7
  6
CONTINUOUS
 10
77.8363941354
 20
107.4337263795
 11
77.5883884957
 21
107.4395698633
  0
LINE
  5
2A7
100
AcDbEntity
  8
0
100
AcDbLine
 62
7
  6
CONTINUOUS
 10
43.0833653846
 20
107.7520918581
 11
77.5937682074
 21
106.885070419
  0
LINE
  5
2A8
100
AcDbEntity
  8
0
100
AcDbLine
 62
7
  6
CONTINUOUS
 10
143.4993907884
 20
156.5926349318
 11
143.8333653846
 21
156.7854552548
  0
LINE
  5
2A9
100
AcDbEntity
  8
RUNDUNGEN
100
AcDbLine
 62
7
  6
CONTINUOUS
 10
143.4993907884
 20
156.5926349318
 11
143.8333653846
 21
156.7854552548
  0
LINE
  5
2AA
100
AcDbEntity
  8
0
100
AcDbLine
 62
9
  6
CONTINUOUS
 10
77.3834284737
 20
108.6280533756
 11
43.0833653846
 21
109.3743394855
  0
LINE
  5
2AB
100
AcDbEntity
  8
DEFAULT_2
100
AcDbLine
 62
8
  6
HIDDEN
 10
145.1331302682
 20
113.9827052548
 11
157.1981561034
 21
113.9827052548
  0
LINE
  5
2AC
100
AcDbEntity
  8
BOHRUNGEN
100
AcDbLine
 62
8
  6
HIDDEN
 10
206.9833653846
 20
114.3327052548
 11
158.5833653846
 21
114.3327052548
  0
LINE
  5
2AD
100
AcDbEntity
  8
0
100
AcDbLine
 62
7
  6
CONTINUOUS
 10
143.4993907884
 20
104.0282755778
 11
143.8333653846
 21
103.8354552548
  0
LINE
  5
2AE
100
AcDbEntity
  8
RUNDUNGEN
100
AcDbLine
 62
7
  6
CONTINUOUS
 10
143.4993907884
 20
104.0282755778
 11
143.8333653846
 21
103.8354552548
  0
LINE
  5
2AF
100
AcDbEntity
  8
0
100
AcDbLine
 62
7
  6
CONTINUOUS
 10
93.04469025
 20
120.9612339403
 11
90.1220405192
 21
120.9612339403
  0
LINE
  5
2B0
100
AcDbEntity
  8
S_ACHSEN
100
AcDbLine
 62
7
  6
CENTER
 10
38.5833653846
 20
130.3104552548
 11
213.5833653846
 21
130.3104552548
  0
LINE
  5
2B1
100
AcDbEntity
  8
0
100
AcDbLine
 62
7
  6
CONTINUOUS
 10
135.3333653846
 20
156.7854552548
 11
135.3333653846
 21
103.8354552548
  0
LINE
  5
2B2
100
AcDbEntity
  8
RUNDUNGEN
100
AcDbLine
 62
9
  6
CONTINUOUS
 10
135.6673399808
 20
104.0282755778
 11
135.6673399808
 21
156.5926349318
  0
LINE
  5
2B3
100
AcDbEntity
  8
RUNDUNGEN
100
AcDbLine
 62
9
  6
CONTINUOUS
 10
136.0673399808
 20
104.1354552548
 11
136.0673399808
 21
156.4854552548
  0
LINE
  5
2B4
100
AcDbEntity
  8
BEZUGSACHSEN
100
AcDbLine
 62
7
  6
CENTER
 10
139.5833653846
 20
159.4854552548
 11
139.5833653846
 21
145.7854552548
  0
LINE
  5
2B5
100
AcDbEntity
  8
BEZUGSACHSEN
100
AcDbLine
 62
7
  6
CENTER
 10
139.5833653846
 20
101.1354552548
 11
139.5833653846
 21
124.0729552548
  0
LINE
  5
2B6
100
AcDbEntity
  8
0
100
AcDbLine
 62
7
  6
CONTINUOUS
 10
77.5883884957
 20
138.4963984415
 11
77.8363941354
 21
138.4974126975
  0
LINE
  5
2B7
100
AcDbEntity
  8
0
100
AcDbLine
 62
9
  6
CONTINUOUS
 10
41.5833653846
 20
135.5353263854
 11
77.3834284737
 21
135.5353263854
  0
LINE
  5
2B8
100
AcDbEntity
  8
RUNDUNGEN
100
AcDbLine
 62
9
  6
CONTINUOUS
 10
143.0993907884
 20
104.1354552548
 11
143.0993907884
 21
156.4854552548
  0
LINE
  5
2B9
100
AcDbEntity
  8
RUNDUNGEN
100
AcDbLine
 62
9
  6
CONTINUOUS
 10
143.4993907884
 20
104.0282755778
 11
143.4993907884
 21
156.5926349318
  0
LINE
  5
2BA
100
AcDbEntity
  8
0
100
AcDbLine
 62
7
  6
CONTINUOUS
 10
143.8333653846
 20
156.7854552548
 11
143.8333653846
 21
103.8354552548
  0
LINE
  5
2BB
100
AcDbEntity
  8
RUNDUNGEN
100
AcDbLine
 62
9
  6
CONTINUOUS
 10
145.1331302682
 20
113.9827052548
 11
145.1331302682
 21
146.6382052548
  0
LINE
  5
2BC
100
AcDbEntity
  8
0
100
AcDbLine
 62
7
  6
CONTINUOUS
 10
93.04469025
 20
139.6596765693
 11
90.1220405192
 21
139.6596765693
  0
LINE
  5
2BD
100
AcDbEntity
  8
0
100
AcDbLine
 62
7
  6
CONTINUOUS
 10
152.4054440718
 20
103.8354552548
 11
152.4054440718
 21
156.7854552548
  0
LINE
  5
2BE
100
AcDbEntity
  8
0
100
AcDbLine
 62
7
  6
CONTINUOUS
 10
135.3333653846
 20
103.8354552548
 11
135.6673399808
 21
104.0282755778
  0
LINE
  5
2BF
100
AcDbEntity
  8
RUNDUNGEN
100
AcDbLine
 62
7
  6
CONTINUOUS
 10
135.3333653846
 20
103.8354552548
 11
135.6673399808
 21
104.0282755778
  0
LINE
  5
2C0
100
AcDbEntity
  8
0
100
AcDbLine
 62
7
  6
CONTINUOUS
 10
77.5883884957
 20
150.7356418246
 11
79.1883884957
 21
150.7758393937
  0
LINE
  5
2C1
100
AcDbEntity
  8
0
100
AcDbLine
 62
7
  6
CONTINUOUS
 10
49.8469701387
 20
150.238743945
 11
59.6333653846
 21
150.484612257
  0
LINE
  5
2C2
100
AcDbEntity
  8
0
100
AcDbLine
 62
7
  6
CONTINUOUS
 10
68.7627267178
 20
150.7139735902
 11
77.3834284737
 21
150.9305556244
  0
LINE
  5
2C3
100
AcDbEntity
  8
0
100
AcDbLine
 62
9
  6
CONTINUOUS
 10
43.0833653846
 20
146.0216998935
 11
77.3834284737
 21
146.7679860034
  0
LINE
  5
2C4
100
AcDbEntity
  8
0
100
AcDbLine
 62
7
  6
CONTINUOUS
 10
77.8363941354
 20
145.0002266875
 11
77.5883884957
 21
144.9953974596
  0
LINE
  5
2C5
100
AcDbEntity
  8
BOHRUNGEN
100
AcDbLine
 62
8
  6
HIDDEN
 10
206.9833653846
 20
146.2882052548
 11
158.5833653846
 21
146.2882052548
  0
LINE
  5
2C6
100
AcDbEntity
  8
RUNDUNGEN
100
AcDbLine
 62
8
  6
HIDDEN
 10
157.1981561034
 20
146.6382052548
 11
145.1331302682
 21
146.6382052548
  0
LINE
  5
2C7
100
AcDbEntity
  8
DEFAULT_2
100
AcDbLine
 62
8
  6
HIDDEN
 10
145.1331302682
 20
146.6382052548
 11
157.1981561034
 21
146.6382052548
  0
LINE
  5
2C8
100
AcDbEntity
  8
0
100
AcDbLine
 62
7
  6
CONTINUOUS
 10
136.0673399808
 20
156.4854552548
 11
137.0833653846
 21
156.4854552548
  0
LINE
  5
2C9
100
AcDbEntity
  8
BEZUGSACHSEN
100
AcDbLine
 62
7
  6
CONTINUOUS
 10
136.0673399808
 20
156.4854552548
 11
137.0833653846
 21
156.4854552548
  0
LINE
  5
2CA
100
AcDbEntity
  8
0
100
AcDbLine
 62
7
  6
CONTINUOUS
 10
142.0833653846
 20
156.4854552548
 11
143.0993907884
 21
156.4854552548
  0
LINE
  5
2CB
100
AcDbEntity
  8
BEZUGSACHSEN
100
AcDbLine
 62
7
  6
CONTINUOUS
 10
142.0833653846
 20
156.4854552548
 11
143.0993907884
 21
156.4854552548
  0
LINE
  5
2CC
100
AcDbEntity
  8
0
100
AcDbLine
 62
7
  6
CONTINUOUS
 10
152.4054440718
 20
156.7854552548
 11
143.8333653846
 21
156.7854552548
  0
LINE
  5
2CD
100
AcDbEntity
  8
0
100
AcDbLine
 62
7
  6
CONTINUOUS
 10
102.5833653846
 20
156.7854552548
 11
135.3333653846
 21
156.7854552548
  0
LINE
  5
2CE
100
AcDbEntity
  8
RUNDUNGEN
100
AcDbLine
 62
7
  6
CONTINUOUS
 10
208.6618244803
 20
152.3579820969
 11
152.4054440718
 21
156.7854552548
  0
LINE
  5
2CF
100
AcDbEntity
  8
0
100
AcDbLine
 62
7
  6
CONTINUOUS
 10
152.4054440718
 20
156.7854552548
 11
208.6618244803
 21
152.3579820969
  0
LINE
  5
2D0
100
AcDbEntity
  8
0
100
AcDbLine
 62
7
  6
CONTINUOUS
 10
135.3333653846
 20
156.7854552548
 11
135.6673399808
 21
156.5926349318
  0
LINE
  5
2D1
100
AcDbEntity
  8
RUNDUNGEN
100
AcDbLine
 62
7
  6
CONTINUOUS
 10
135.3333653846
 20
156.7854552548
 11
135.6673399808
 21
156.5926349318
  0
LINE
  5
2D2
100
AcDbEntity
  8
0
100
AcDbLine
 62
7
  6
CONTINUOUS
 10
93.04469025
 20
160.3910480151
 11
90.1220405192
 21
160.3910480151
  0
LINE
  5
2D3
100
AcDbEntity
  8
0
100
AcDbLine
 62
7
  6
CONTINUOUS
 10
101.5833653846
 20
161.8104552548
 11
96.8052762898
 21
161.8104552548
  0
LINE
  5
2D4
100
AcDbEntity
  8
0
100
AcDbLine
 62
7
  6
CONTINUOUS
 10
86.3614544795
 20
161.8104552548
 11
79.883365457
 21
161.8104552548
  0
LINE
  5
2D5
100
AcDbEntity
  8
RUNDUNGEN
100
AcDbLine
 62
9
  6
CONTINUOUS
 10
208.6618244803
 20
108.2629284127
 11
208.6618244803
 21
152.3579820969
  0
LINE
  5
2D6
100
AcDbEntity
  8
RUNDUNGEN
100
AcDbLine
 62
7
  6
CONTINUOUS
 10
209.5833653846
 20
151.3610647631
 11
209.5833653846
 21
109.2598457465
  0
ARC
  5
2D7
100
AcDbEntity
  8
0
100
AcDbCircle
 62
7
  6
CONTINUOUS
 10
-29.1686458104
 20
111.0009664256
 40
110.4813700648
100
AcDbArc
 50
13.4640903998
 51
14.4111621352
  0
ARC
  5
2D8
100
AcDbEntity
  8
ACHSEN
100
AcDbCircle
 62
7
  6
CONTINUOUS
 10
54.8449370043
 20
114.7420520696
 40
35.845102548
100
AcDbArc
 50
98.0149288422
 51
101.1172700805
  0
ARC
  5
2D9
100
AcDbEntity
  8
0
100
AcDbCircle
 62
7
  6
CONTINUOUS
 10
78.9833653846
 20
106.8604552548
 40
1.0
100
AcDbArc
 50
53.0400606802
 51
135.0
  0
ARC
  5
2DA
100
AcDbEntity
  8
0
100
AcDbCircle
 62
7
  6
CONTINUOUS
 10
78.9833653846
 20
153.7604552548
 40
1.0
100
AcDbArc
 50
293.5781784782
 51
306.9599393198
  0
ARC
  5
2DB
100
AcDbEntity
  8
0
100
AcDbCircle
 62
7
  6
CONTINUOUS
 10
79.1833653846
 20
150.9757763046
 40
0.2
100
AcDbArc
 50
271.439166666
 51
360.0
  0
ARC
  5
2DC
100
AcDbEntity
  8
0
100
AcDbCircle
 62
7
  6
CONTINUOUS
 10
77.5833653846
 20
150.9355787355
 40
0.2
100
AcDbArc
 50
181.439166666
 51
271.439166666
  0
ARC
  5
2DD
100
AcDbEntity
  8
ACHSEN
100
AcDbCircle
 62
7
  6
CONTINUOUS
 10
-22.1748515933
 20
278.7063948073
 40
144.4768984249
100
AcDbArc
 50
296.187103939
 51
296.8519184685
  0
ARC
  5
2DE
100
AcDbEntity
  8
FASEN
100
AcDbCircle
 62
7
  6
CONTINUOUS
 10
91.8728764297
 20
194.6385363324
 40
33.2876143255
100
AcDbArc
 50
260.536348598
 51
261.5195221874
  0
ARC
  5
2DF
100
AcDbEntity
  8
FASEN
100
AcDbCircle
 62
7
  6
CONTINUOUS
 10
91.2947665662
 20
194.6272686437
 40
33.2763391195
100
AcDbArc
 50
278.4862446768
 51
278.9386216515
  0
ARC
  5
2E0
100
AcDbEntity
  8
FASEN
100
AcDbCircle
 62
7
  6
CONTINUOUS
 10
91.5438181296
 20
192.9078608204
 40
31.5390043832
100
AcDbArc
 50
270.0718441004
 51
278.4997090997
  0
ARC
  5
2E1
100
AcDbEntity
  8
FASEN
100
AcDbCircle
 62
7
  6
CONTINUOUS
 10
91.5964392771
 20
192.5540116245
 40
31.1851331333
100
AcDbArc
 50
261.4570633999
 51
269.9759796157
  0
ARC
  5
2E2
100
AcDbEntity
  8
0
100
AcDbCircle
 62
7
  6
CONTINUOUS
 10
223.8175381581
 20
81.336257384
 40
159.2595221569
100
AcDbArc
 50
156.0446773748
 51
156.4374589831
  0
ARC
  5
2E3
100
AcDbEntity
  8
BEZUGSACHSEN
100
AcDbCircle
 62
7
  6
CONTINUOUS
 10
139.5950948562
 20
77.8577754577
 40
26.3974476126
100
AcDbArc
 50
90.7315365906
 51
95.459980175
  0
ARC
  5
2E4
100
AcDbEntity
  8
BEZUGSACHSEN
100
AcDbCircle
 62
7
  6
CONTINUOUS
 10
139.5779928457
 20
77.9728392457
 40
26.2823014212
100
AcDbArc
 50
84.5299475453
 51
89.1356900224
  0
ARC
  5
2E5
100
AcDbEntity
  8
BEZUGSACHSEN
100
AcDbCircle
 62
7
  6
CONTINUOUS
 10
139.5813138071
 20
78.2102981402
 40
26.0448194505
100
AcDbArc
 50
89.1351150565
 51
90.7181334562
  0
ARC
  5
2E6
100
AcDbEntity
  8
BEZUGSACHSEN
100
AcDbCircle
 62
7
  6
CONTINUOUS
 10
139.5820122962
 20
121.7890636334
 40
2.8811864948
100
AcDbArc
 50
270.8369239118
 51
278.6924516294
  0
ARC
  5
2E7
100
AcDbEntity
  8
BEZUGSACHSEN
100
AcDbCircle
 62
7
  6
CONTINUOUS
 10
139.5847184731
 20
138.8318468762
 40
2.8811864948
100
AcDbArc
 50
90.8369239118
 51
98.6924516294
  0
ARC
  5
2E8
100
AcDbEntity
  8
BEZUGSACHSEN
100
AcDbCircle
 62
7
  6
CONTINUOUS
 10
139.5820122962
 20
138.8318468762
 40
2.8811864948
100
AcDbArc
 50
81.3075483706
 51
89.1630760882
  0
ARC
  5
2E9
100
AcDbEntity
  8
BEZUGSACHSEN
100
AcDbCircle
 62
7
  6
CONTINUOUS
 10
139.5847184731
 20
121.7890636334
 40
2.8811864948
100
AcDbArc
 50
261.3075483706
 51
269.1630760882
  0
ARC
  5
2EA
100
AcDbEntity
  8
BEZUGSACHSEN
100
AcDbCircle
 62
7
  6
CONTINUOUS
 10
139.583348306
 20
138.8770986582
 40
2.8359201061
100
AcDbArc
 50
89.176711383
 51
90.823288617
  0
ARC
  5
2EB
100
AcDbEntity
  8
BEZUGSACHSEN
100
AcDbCircle
 62
7
  6
CONTINUOUS
 10
139.5833824632
 20
121.7438118511
 40
2.8359201058
100
AcDbArc
 50
269.176711383
 51
270.823288617
  0
ARC
  5
2EC
100
AcDbEntity
  8
RUNDUNGEN
100
AcDbCircle
 62
7
  6
CONTINUOUS
 10
208.5833653846
 20
151.3610647631
 40
1.0
100
AcDbArc
 50
0.0
 51
85.499999998
  0
ARC
  5
2ED
100
AcDbEntity
  8
RUNDUNGEN
100
AcDbCircle
 62
7
  6
CONTINUOUS
 10
208.5833653846
 20
109.2598457465
 40
1.0
100
AcDbArc
 50
274.5000000016
 51
360.0
  0
ARC
  5
2EE
100
AcDbEntity
  8
RUNDUNGEN
100
AcDbCircle
 62
7
  6
CONTINUOUS
 10
102.5833653846
 20
157.7854552548
 40
1.0
100
AcDbArc
 50
180.0000000001
 51
270.0
  0
ARC
  5
2EF
100
AcDbEntity
  8
RUNDUNGEN
100
AcDbCircle
 62
7
  6
CONTINUOUS
 10
102.5833653846
 20
102.8354552548
 40
1.0
100
AcDbArc
 50
90.0
 51
179.9999999996
  0
ARC
  5
2F0
100
AcDbEntity
  8
RUNDUNGEN
100
AcDbCircle
 62
7
  6
CONTINUOUS
 10
143.0993907884
 20
157.2854552548
 40
0.8
100
AcDbArc
 50
270.0
 51
300.0000000016
  0
ARC
  5
2F1
100
AcDbEntity
  8
RUNDUNGEN
100
AcDbCircle
 62
7
  6
CONTINUOUS
 10
143.0993907884
 20
103.3354552548
 40
0.8
100
AcDbArc
 50
59.9999999982
 51
90.0
  0
ARC
  5
2F2
100
AcDbEntity
  8
RUNDUNGEN
100
AcDbCircle
 62
7
  6
CONTINUOUS
 10
136.0673399808
 20
157.2854552548
 40
0.8
100
AcDbArc
 50
239.9999999984
 51
270.0
  0
ARC
  5
2F3
100
AcDbEntity
  8
RUNDUNGEN
100
AcDbCircle
 62
7
  6
CONTINUOUS
 10
136.0673399808
 20
103.3354552548
 40
0.8
100
AcDbArc
 50
90.0
 51
120.0000000018
  0
ARC
  5
2F4
100
AcDbEntity
  8
BEZUGSACHSEN
100
AcDbCircle
 62
7
  6
CONTINUOUS
 10
139.5716298591
 20
182.7632510147
 40
26.3975636252
100
AcDbArc
 50
270.7311903874
 51
275.4599693065
  0
ARC
  5
2F5
100
AcDbEntity
  8
BEZUGSACHSEN
100
AcDbCircle
 62
7
  6
CONTINUOUS
 10
139.5887370627
 20
182.6480458457
 40
26.2822760367
100
AcDbArc
 50
264.5299441311
 51
269.1360783112
  0
ARC
  5
2F6
100
AcDbEntity
  8
BEZUGSACHSEN
100
AcDbCircle
 62
7
  6
CONTINUOUS
 10
139.5854142359
 20
182.4106219621
 40
26.044829043
100
AcDbArc
 50
269.1355121504
 51
270.7177690588
  0
SPLINE
  5
2F7
100
AcDbEntity
  8
0
100
AcDbSpline
 62
2
  6
CONTINUOUS
 70
0
 71
3
 72
18
 73
14
 74
0
 42
0.0000001
 43
0.0000001
 44
0.0000000001
 40
0.0
 40
0.0
 40
0.0
 40
0.0
 40
0.0909090909
 40
0.1818181818
 40
0.2727272727
 40
0.3636363636
 40
0.4545454545
 40
0.5454545455
 40
0.6363636364
 40
0.7272727273
 40
0.8181818182
 40
0.9090909091
 40
1.0
 40
1.0
 40
1.0
 40
1.0
 10
139.5833653846
 20
140.7136349924
 30
0.0
 10
139.8674270926
 20
140.7136349924
 30
0.0
 10
140.4361611324
 20
140.7889452715
 30
0.0
 10
141.2210010206
 20
141.1165703616
 30
0.0
 10
141.8786331085
 20
141.6334947076
 30
0.0
 10
142.3428657527
 20
142.2811078423
 30
0.0
 10
142.5893561881
 20
142.9989844448
 30
0.0
 10
142.5975142791
 20
143.768113172
 30
0.0
 10
142.3430953537
 20
144.4910597047
 30
0.0
 10
141.8785131818
 20
145.0881914201
 30
0.0
 10
141.2206022938
 20
145.5554199213
 30
0.0
 10
140.4363458599
 20
145.8439059312
 30
0.0
 10
139.8675228716
 20
145.9097874151
 30
0.0
 10
139.5833653846
 20
145.9097874151
 30
0.0
  0
SPLINE
  5
2F8
100
AcDbEntity
  8
0
100
AcDbSpline
 62
7
  6
CONTINUOUS
 70
0
 71
3
 72
21
 73
17
 74
0
 42
0.0000001
 43
0.0000001
 44
0.0000000001
 40
0.0
 40
0.0
 40
0.0
 40
0.0
 40
0.125
 40
0.1875
 40
0.25
 40
0.3125
 40
0.375
 40
0.4375
 40
0.5
 40
0.5625
 40
0.625
 40
0.6875
 40
0.75
 40
0.8125
 40
0.875
 40
1.0
 40
1.0
 40
1.0
 40
1.0
 10
141.4730013819
 20
141.9655083749
 30
0.0
 10
141.41145258
 20
142.0189977403
 30
0.0
 10
141.3205035865
 20
142.100153752
 30
0.0
 10
141.1937414243
 20
142.2046739132
 30
0.0
 10
141.0829320394
 20
142.2715541331
 30
0.0
 10
140.9788624116
 20
142.3448588102
 30
0.0
 10
140.8635715184
 20
142.4039755594
 30
0.0
 10
140.7447761621
 20
142.4576643813
 30
0.0
 10
140.63039504
 20
142.51937525
 30
0.0
 10
140.501861444
 20
142.5544258587
 30
0.0
 10
140.3774613757
 20
142.5976008441
 30
0.0
 10
140.2506796706
 20
142.6349385828
 30
0.0
 10
140.1184020305
 20
142.6556655753
 30
0.0
 10
139.988711858
 20
142.6850020869
 30
0.0
 10
139.8093197142
 20
142.7003476623
 30
0.0
 10
139.6735888725
 20
142.7073493203
 30
0.0
 10
139.5833653633
 20
142.7130187643
 30
0.0
  0
SPLINE
  5
2F9
100
AcDbEntity
  8
0
100
AcDbSpline
 62
7
  6
CONTINUOUS
 70
0
 71
3
 72
21
 73
17
 74
0
 42
0.0000001
 43
0.0000001
 44
0.0000000001
 40
0.0
 40
0.0
 40
0.0
 40
0.0
 40
0.125
 40
0.1875
 40
0.25
 40
0.3125
 40
0.375
 40
0.4375
 40
0.5
 40
0.5625
 40
0.625
 40
0.6875
 40
0.75
 40
0.8125
 40
0.875
 40
1.0
 40
1.0
 40
1.0
 40
1.0
 10
139.5833653846
 20
142.7130187643
 30
0.0
 10
139.4963821965
 20
142.707751202
 30
0.0
 10
139.3660024874
 20
142.7013530472
 30
0.0
 10
139.1917825831
 20
142.6868094193
 30
0.0
 10
139.0608591902
 20
142.6580639403
 30
0.0
 10
138.9287414114
 20
142.6379365805
 30
0.0
 10
138.801659641
 20
142.6011745019
 30
0.0
 10
138.6770207776
 20
142.5585645621
 30
0.0
 10
138.5482705552
 20
142.5240964773
 30
0.0
 10
138.4335228618
 20
142.4629088337
 30
0.0
 10
138.3143906099
 20
142.4097461992
 30
0.0
 10
138.198794063
 20
142.3512030869
 30
0.0
 10
138.09409526
 20
142.2781852129
 30
0.0
 10
137.9835817871
 20
142.2125035356
 30
0.0
 10
137.8527117376
 20
142.1051012655
 30
0.0
 10
137.7577104007
 20
142.0208155873
 30
0.0
 10
137.6936759094
 20
141.9654549076
 30
0.0
  0
SPLINE
  5
2FA
100
AcDbEntity
  8
0
100
AcDbSpline
 62
2
  6
CONTINUOUS
 70
0
 71
3
 72
18
 73
14
 74
0
 42
0.0000001
 43
0.0000001
 44
0.0000000001
 40
0.0
 40
0.0
 40
0.0
 40
0.0
 40
0.0909090909
 40
0.1818181818
 40
0.2727272727
 40
0.3636363636
 40
0.4545454545
 40
0.5454545455
 40
0.6363636364
 40
0.7272727273
 40
0.8181818182
 40
0.9090909091
 40
1.0
 40
1.0
 40
1.0
 40
1.0
 10
139.5833653846
 20
145.9097874151
 30
0.0
 10
139.2997874693
 20
145.9097874151
 30
0.0
 10
138.7320445956
 20
145.8442854249
 30
0.0
 10
137.9484108499
 20
145.556212437
 30
0.0
 10
137.2913122174
 20
145.0918923874
 30
0.0
 10
136.8267522587
 20
144.4923555484
 30
0.0
 10
136.5776580967
 20
143.8029090112
 30
0.0
 10
136.5691069068
 20
143.0253140679
 30
0.0
 10
136.826370801
 20
142.2726592274
 30
0.0
 10
137.2914288484
 20
141.6311718666
 30
0.0
 10
137.9488151864
 20
141.1146973694
 30
0.0
 10
138.7318537686
 20
140.7888534423
 30
0.0
 10
139.2996890133
 20
140.7136349924
 30
0.0
 10
139.5833653846
 20
140.7136349924
 30
0.0
  0
SPLINE
  5
2FB
100
AcDbEntity
  8
0
100
AcDbSpline
 62
2
  6
CONTINUOUS
 70
0
 71
3
 72
18
 73
14
 74
0
 42
0.0000001
 43
0.0000001
 44
0.0000000001
 40
0.0
 40
0.0
 40
0.0
 40
0.0
 40
0.0909090909
 40
0.1818181818
 40
0.2727272727
 40
0.3636363636
 40
0.4545454545
 40
0.5454545455
 40
0.6363636364
 40
0.7272727273
 40
0.8181818182
 40
0.9090909091
 40
1.0
 40
1.0
 40
1.0
 40
1.0
 10
139.5833653846
 20
114.7111230945
 30
0.0
 10
139.8674270926
 20
114.7111230945
 30
0.0
 10
140.4361611324
 20
114.7768507692
 30
0.0
 10
141.2210010206
 20
115.0659361797
 30
0.0
 10
141.8786331085
 20
115.5318905089
 30
0.0
 10
142.3428657527
 20
116.1333370457
 30
0.0
 10
142.5893561881
 20
116.8233387689
 30
0.0
 10
142.5975142791
 20
117.5915342377
 30
0.0
 10
142.3430953537
 20
118.3432867994
 30
0.0
 10
141.8785131818
 20
118.9865957538
 30
0.0
 10
141.2206022938
 20
119.5048099736
 30
0.0
 10
140.4363458599
 20
119.8318008872
 30
0.0
 10
139.8675228716
 20
119.9072755172
 30
0.0
 10
139.5833653846
 20
119.9072755172
 30
0.0
  0
SPLINE
  5
2FC
100
AcDbEntity
  8
0
100
AcDbSpline
 62
7
  6
CONTINUOUS
 70
0
 71
3
 72
21
 73
17
 74
0
 42
0.0000001
 43
0.0000001
 44
0.0000000001
 40
0.0
 40
0.0
 40
0.0
 40
0.0
 40
0.125
 40
0.1875
 40
0.25
 40
0.3125
 40
0.375
 40
0.4375
 40
0.5
 40
0.5625
 40
0.625
 40
0.6875
 40
0.75
 40
0.8125
 40
0.875
 40
1.0
 40
1.0
 40
1.0
 40
1.0
 10
139.5833653846
 20
117.9078917453
 30
0.0
 10
139.6703485727
 20
117.9131593077
 30
0.0
 10
139.8007282818
 20
117.9195574624
 30
0.0
 10
139.9749481862
 20
117.9341010903
 30
0.0
 10
140.105871579
 20
117.9628465693
 30
0.0
 10
140.2379893579
 20
117.9829739291
 30
0.0
 10
140.3650711282
 20
118.0197360077
 30
0.0
 10
140.4897099916
 20
118.0623459475
 30
0.0
 10
140.618460214
 20
118.0968140323
 30
0.0
 10
140.7332079074
 20
118.158001676
 30
0.0
 10
140.8523401593
 20
118.2111643104
 30
0.0
 10
140.9679367062
 20
118.2697074227
 30
0.0
 10
141.0726355092
 20
118.3427252967
 30
0.0
 10
141.1831489821
 20
118.408406974
 30
0.0
 10
141.3140190316
 20
118.5158092441
 30
0.0
 10
141.4090203685
 20
118.6000949223
 30
0.0
 10
141.4730548598
 20
118.655455602
 30
0.0
  0
SPLINE
  5
2FD
100
AcDbEntity
  8
0
100
AcDbSpline
 62
7
  6
CONTINUOUS
 70
0
 71
3
 72
21
 73
17
 74
0
 42
0.0000001
 43
0.0000001
 44
0.0000000001
 40
0.0
 40
0.0
 40
0.0
 40
0.0
 40
0.125
 40
0.1875
 40
0.25
 40
0.3125
 40
0.375
 40
0.4375
 40
0.5
 40
0.5625
 40
0.625
 40
0.6875
 40
0.75
 40
0.8125
 40
0.875
 40
1.0
 40
1.0
 40
1.0
 40
1.0
 10
137.6937293874
 20
118.6554021347
 30
0.0
 10
137.7552781893
 20
118.6019127693
 30
0.0
 10
137.8462271827
 20
118.5207567576
 30
0.0
 10
137.9729893449
 20
118.4162365964
 30
0.0
 10
138.0837987299
 20
118.3493563765
 30
0.0
 10
138.1878683577
 20
118.2760516995
 30
0.0
 10
138.3031592508
 20
118.2169349502
 30
0.0
 10
138.4219546072
 20
118.1632461283
 30
0.0
 10
138.5363357292
 20
118.1015352596
 30
0.0
 10
138.6648693252
 20
118.0664846509
 30
0.0
 10
138.7892693935
 20
118.0233096655
 30
0.0
 10
138.9160510986
 20
117.9859719268
 30
0.0
 10
139.0483287387
 20
117.9652449343
 30
0.0
 10
139.1780189113
 20
117.9359084227
 30
0.0
 10
139.3574110551
 20
117.9205628473
 30
0.0
 10
139.4931418968
 20
117.9135611893
 30
0.0
 10
139.5833654059
 20
117.9078917453
 30
0.0
  0
SPLINE
  5
2FE
100
AcDbEntity
  8
0
100
AcDbSpline
 62
2
  6
CONTINUOUS
 70
0
 71
3
 72
18
 73
14
 74
0
 42
0.0000001
 43
0.0000001
 44
0.0000000001
 40
0.0
 40
0.0
 40
0.0
 40
0.0
 40
0.0909090909
 40
0.1818181818
 40
0.2727272727
 40
0.3636363636
 40
0.4545454545
 40
0.5454545455
 40
0.6363636364
 40
0.7272727273
 40
0.8181818182
 40
0.9090909091
 40
1.0
 40
1.0
 40
1.0
 40
1.0
 10
139.5833653846
 20
119.9072755172
 30
0.0
 10
139.2997874693
 20
119.9072755172
 30
0.0
 10
138.7320445956
 20
119.8322242262
 30
0.0
 10
137.9484108499
 20
119.5057386027
 30
0.0
 10
137.2913122174
 20
118.9905690906
 30
0.0
 10
136.8267522587
 20
118.3448973712
 30
0.0
 10
136.5776580967
 20
117.6272985275
 30
0.0
 10
136.5691069068
 20
116.8487250558
 30
0.0
 10
136.826370801
 20
116.1251843055
 30
0.0
 10
137.2914288484
 20
115.5298572447
 30
0.0
 10
137.9488151864
 20
115.0642479554
 30
0.0
 10
138.7318537686
 20
114.7767814725
 30
0.0
 10
139.2996890133
 20
114.7111230945
 30
0.0
 10
139.5833653846
 20
114.7111230945
 30
0.0
  0
SPLINE
  5
2FF
100
AcDbEntity
  8
0
100
AcDbSpline
 62
2
  6
CONTINUOUS
 70
0
 71
3
 72
13
 73
9
 74
0
 42
0.0000001
 43
0.0000001
 44
0.0000000001
 40
0.0
 40
0.0
 40
0.0
 40
0.0
 40
0.1666666667
 40
0.3333333333
 40
0.5
 40
0.6666666667
 40
0.8333333333
 40
1.0
 40
1.0
 40
1.0
 40
1.0
 10
142.5833653846
 20
104.1354552548
 30
0.0
 10
142.5833653846
 20
104.1354552548
 30
0.0
 10
142.5117611518
 20
104.1437984514
 30
0.0
 10
142.2087461197
 20
104.1766853617
 30
0.0
 10
141.7290283466
 20
104.2215629426
 30
0.0
 10
141.0955719086
 20
104.2670279133
 30
0.0
 10
140.3670520505
 20
104.2998662082
 30
0.0
 10
139.8444911869
 20
104.3079433569
 30
0.0
 10
139.5833653846
 20
104.3079433569
 30
0.0
  0
SPLINE
  5
300
100
AcDbEntity
  8
0
100
AcDbSpline
 62
2
  6
CONTINUOUS
 70
0
 71
3
 72
13
 73
9
 74
0
 42
0.0000001
 43
0.0000001
 44
0.0000000001
 40
0.0
 40
0.0
 40
0.0
 40
0.0
 40
0.1666666667
 40
0.3333333333
 40
0.5
 40
0.6666666667
 40
0.8333333333
 40
1.0
 40
1.0
 40
1.0
 40
1.0
 10
139.5833653846
 20
104.3079433569
 30
0.0
 10
139.322332715
 20
104.3079433569
 30
0.0
 10
138.7999224479
 20
104.2998717262
 30
0.0
 10
138.0715105924
 20
104.2670486213
 30
0.0
 10
137.4379706582
 20
104.2215848247
 30
0.0
 10
136.9583743473
 20
104.1767245553
 30
0.0
 10
136.6551198118
 20
104.1438161998
 30
0.0
 10
136.5833653846
 20
104.1354552548
 30
0.0
 10
136.5833653846
 20
104.1354552548
 30
0.0
  0
SPLINE
  5
301
100
AcDbEntity
  8
0
100
AcDbSpline
 62
2
  6
CONTINUOUS
 70
0
 71
3
 72
13
 73
9
 74
0
 42
0.0000001
 43
0.0000001
 44
0.0000000001
 40
0.0
 40
0.0
 40
0.0
 40
0.0
 40
0.1666666667
 40
0.3333333333
 40
0.5
 40
0.6666666667
 40
0.8333333333
 40
1.0
 40
1.0
 40
1.0
 40
1.0
 10
139.5833653846
 20
156.3129671527
 30
0.0
 10
139.8440256313
 20
156.3129671527
 30
0.0
 10
140.3657906456
 20
156.3210094725
 30
0.0
 10
141.0945193276
 20
156.3538210554
 30
0.0
 10
141.7268995704
 20
156.399192081
 30
0.0
 10
142.2047486895
 20
156.4438068819
 30
0.0
 10
142.5149549372
 20
156.4774586906
 30
0.0
 10
142.5833653846
 20
156.4854552548
 30
0.0
 10
142.5833653846
 20
156.4854552548
 30
0.0
  0
SPLINE
  5
302
100
AcDbEntity
  8
0
100
AcDbSpline
 62
2
  6
CONTINUOUS
 70
0
 71
3
 72
13
 73
9
 74
0
 42
0.0000001
 43
0.0000001
 44
0.0000000001
 40
0.0
 40
0.0
 40
0.0
 40
0.0
 40
0.1666666667
 40
0.3333333333
 40
0.5
 40
0.6666666667
 40
0.8333333333
 40
1.0
 40
1.0
 40
1.0
 40
1.0
 10
136.5833653846
 20
156.4854552548
 30
0.0
 10
136.5833653846
 20
156.4854552548
 30
0.0
 10
136.6518228915
 20
156.4774550787
 30
0.0
 10
136.9613786672
 20
156.4438681005
 30
0.0
 10
137.4395140093
 20
156.399217195
 30
0.0
 10
138.0717766168
 20
156.3538466712
 30
0.0
 10
138.8006832381
 20
156.3210147079
 30
0.0
 10
139.3226093321
 20
156.3129671527
 30
0.0
 10
139.5833653846
 20
156.3129671527
 30
0.0
  0
LINE
  5
303
100
AcDbEntity
  8
FASEN
100
AcDbLine
 62
7
  6
CONTINUOUS
 10
86.3996646202
 20
161.803962786
 11
86.3609218057
 21
161.8104207433
  0
LINE
  5
304
100
AcDbEntity
  8
FASEN
100
AcDbLine
 62
7
  6
CONTINUOUS
 10
96.767066149
 20
161.803962786
 11
96.8058089636
 21
161.8104207433
  0
LINE
  5
305
100
AcDbEntity
  8
ACHSEN
100
AcDbLine
 62
7
  6
CONTINUOUS
 10
47.9333653846
 20
149.9145065534
 11
43.0833653846
 21
149.8074448683
  0
LINE
  5
306
100
AcDbEntity
  8
ACHSEN
100
AcDbLine
 62
7
  6
CONTINUOUS
 10
49.7241364161
 20
150.2194946734
 11
49.8469847326
 21
150.2370073307
  0
LINE
  5
307
100
AcDbEntity
  8
ACHSEN
100
AcDbLine
 62
7
  6
CONTINUOUS
 10
49.8469847326
 20
150.2370073307
 11
49.8619356706
 21
150.2391130601
  0
SPLINE
  5
308
100
AcDbEntity
  8
BEZUGSACHSEN
100
AcDbSpline
 62
7
  6
CONTINUOUS
 70
0
 71
3
 72
13
 73
9
 74
0
 42
0.0000001
 43
0.0000001
 44
0.0000000001
 40
0.0
 40
0.0
 40
0.0
 40
0.0
 40
0.1158066677
 40
0.234031129
 40
0.3553743123
 40
0.4799952716
 40
0.7365565381
 40
1.0
 40
1.0
 40
1.0
 40
1.0
 10
142.083365362
 20
143.3979832598
 30
0.0
 10
142.0833649405
 20
143.2554446402
 30
0.0
 10
142.05005281
 20
142.9664376737
 30
0.0
 10
141.9053272955
 20
142.550301209
 30
0.0
 10
141.6715177521
 20
142.1640384727
 30
0.0
 10
141.2503871165
 20
141.7063003916
 30
0.0
 10
140.5533706584
 20
141.2883014099
 30
0.0
 10
139.9076201806
 20
141.1730606178
 30
0.0
 10
139.5833653846
 20
141.1730606178
 30
0.0
  0
SPLINE
  5
309
100
AcDbEntity
  8
BEZUGSACHSEN
100
AcDbSpline
 62
7
  6
CONTINUOUS
 70
0
 71
3
 72
13
 73
9
 74
0
 42
0.0000001
 43
0.0000001
 44
0.0000000001
 40
0.0
 40
0.0
 40
0.0
 40
0.0
 40
0.1158066677
 40
0.234031129
 40
0.3553743123
 40
0.4799952716
 40
0.7365565381
 40
1.0
 40
1.0
 40
1.0
 40
1.0
 10
137.0833654072
 20
117.2229272498
 30
0.0
 10
137.0833658287
 20
117.3654658694
 30
0.0
 10
137.1166779592
 20
117.6544728359
 30
0.0
 10
137.2614034737
 20
118.0706093006
 30
0.0
 10
137.4952130171
 20
118.4568720369
 30
0.0
 10
137.9163436527
 20
118.914610118
 30
0.0
 10
138.6133601109
 20
119.3326090997
 30
0.0
 10
139.2591105887
 20
119.4478498918
 30
0.0
 10
139.5833653846
 20
119.4478498918
 30
0.0
  0
SPLINE
  5
30A
100
AcDbEntity
  8
BEZUGSACHSEN
100
AcDbSpline
 62
7
  6
CONTINUOUS
 70
0
 71
3
 72
13
 73
9
 74
0
 42
0.0000001
 43
0.0000001
 44
0.0000000001
 40
0.0
 40
0.0
 40
0.0
 40
0.0
 40
0.2634428366
 40
0.5200018067
 40
0.6446229804
 40
0.765970387
 40
0.8841952704
 40
1.0
 40
1.0
 40
1.0
 40
1.0
 10
139.5833653846
 20
119.4478498918
 30
0.0
 10
139.9076146142
 20
119.4478498918
 30
0.0
 10
140.5533502204
 20
119.3326109905
 30
0.0
 10
141.2503622305
 20
118.9146350629
 30
0.0
 10
141.6714909972
 20
118.4569035911
 30
0.0
 10
141.9053053584
 20
118.0706454186
 30
0.0
 10
142.0500473972
 20
117.6545185143
 30
0.0
 10
142.0833657835
 20
117.3655173904
 30
0.0
 10
142.083365362
 20
117.2229832649
 30
0.0
  0
SPLINE
  5
30B
100
AcDbEntity
  8
BEZUGSACHSEN
100
AcDbSpline
 62
7
  6
CONTINUOUS
 70
0
 71
3
 72
13
 73
9
 74
0
 42
0.0000001
 43
0.0000001
 44
0.0000000001
 40
0.0
 40
0.0
 40
0.0
 40
0.0
 40
0.2634428366
 40
0.5200018067
 40
0.6446229804
 40
0.765970387
 40
0.8841952704
 40
1.0
 40
1.0
 40
1.0
 40
1.0
 10
139.5833653846
 20
141.1730606178
 30
0.0
 10
139.259116155
 20
141.1730606178
 30
0.0
 10
138.6133805488
 20
141.2882995192
 30
0.0
 10
137.9163685387
 20
141.7062754467
 30
0.0
 10
137.4952397721
 20
142.1640069185
 30
0.0
 10
137.2614254108
 20
142.550265091
 30
0.0
 10
137.116683372
 20
142.9663919953
 30
0.0
 10
137.0833649857
 20
143.2553931192
 30
0.0
 10
137.0833654072
 20
143.3979272447
 30
0.0
  0
SPLINE
  5
30C
100
AcDbEntity
  8
FASEN
100
AcDbSpline
 62
7
  6
CONTINUOUS
 70
0
 71
3
 72
13
 73
9
 74
0
 42
0.0000001
 43
0.0000001
 44
0.0000000001
 40
0.0
 40
0.0
 40
0.0
 40
0.0
 40
0.0157914555
 40
0.0631395717
 40
0.1420412357
 40
0.2523478212
 40
0.5656689994
 40
1.0
 40
1.0
 40
1.0
 40
1.0
 10
96.8058089626
 20
161.8104207435
 30
0.0
 10
96.8039946198
 20
161.8105161219
 30
0.0
 10
96.7968827393
 20
161.8083651771
 30
0.0
 10
96.7807107267
 20
161.8066042064
 30
0.0
 10
96.753894181
 20
161.8016056104
 30
0.0
 10
96.6968412095
 20
161.792444828
 30
0.0
 10
96.5994387992
 20
161.7762696619
 30
0.0
 10
96.5144857973
 20
161.762820535
 30
0.0
 10
96.4651213531
 20
161.7550588523
 30
0.0
  0
LINE
  5
30D
100
AcDbEntity
  8
FASEN
100
AcDbLine
 62
7
  6
CONTINUOUS
 10
86.3609218066
 20
161.8104207435
 11
86.6519050707
 21
161.762909798
  0
LINE
  5
30E
100
AcDbEntity
  8
ACHSEN
100
AcDbLine
 62
7
  6
CONTINUOUS
 10
49.8619356702
 20
150.23911306
 11
49.8470142828
 21
150.2370115025
  0
SPLINE
  5
30F
100
AcDbEntity
  8
ACHSEN
100
AcDbSpline
 62
7
  6
CONTINUOUS
 70
0
 71
3
 72
11
 73
7
 74
0
 42
0.0000001
 43
0.0000001
 44
0.0000000001
 40
0.0
 40
0.0
 40
0.0
 40
0.0
 40
0.1537099379
 40
0.500508937
 40
0.8472910559
 40
1.0
 40
1.0
 40
1.0
 40
1.0
 10
68.7627267178
 20
150.7139735902
 30
0.0
 10
68.2991414487
 20
150.6426966355
 30
0.0
 10
66.7849091346
 20
150.4386388631
 30
0.0
 10
64.2021347071
 20
150.2531298312
 30
0.0
 10
61.6160886771
 20
150.3060770499
 30
0.0
 10
60.0967994944
 20
150.4358435426
 30
0.0
 10
59.6333653846
 20
150.484612257
 30
0.0
  0
SPLINE
  5
310
100
AcDbEntity
  8
0
100
AcDbSpline
 62
7
  6
CONTINUOUS
 70
0
 71
3
 72
12
 73
8
 74
0
 42
0.0000001
 43
0.0000001
 44
0.0000000001
 40
0.0
 40
0.0
 40
0.0
 40
0.0
 40
0.128679218
 40
0.2561331636
 40
0.5063352459
 40
0.7539715031
 40
1.0
 40
1.0
 40
1.0
 40
1.0
 10
93.04469025
 20
120.9612339403
 30
0.0
 10
93.0755663756
 20
120.9612339403
 30
0.0
 10
93.1374810021
 20
120.9489107138
 30
0.0
 10
93.2437019292
 20
120.8869959227
 30
0.0
 10
93.3430732026
 20
120.7702343576
 30
0.0
 10
93.4244494931
 20
120.6107395489
 30
0.0
 10
93.4621262331
 20
120.4979841872
 30
0.0
 10
93.4777029519
 20
120.4410426358
 30
0.0
  0
SPLINE
  5
311
100
AcDbEntity
  8
0
100
AcDbSpline
 62
7
  6
CONTINUOUS
 70
0
 71
3
 72
9
 73
5
 74
0
 42
0.0000001
 43
0.0000001
 44
0.0000000001
 40
0.0
 40
0.0
 40
0.0
 40
0.0
 40
0.1680195226
 40
1.0
 40
1.0
 40
1.0
 40
1.0
 10
93.4777029519
 20
100.3965004083
 30
0.0
 10
93.4608546789
 20
100.3761802924
 30
0.0
 10
93.3454013963
 20
100.2676993162
 30
0.0
 10
93.1753971613
 20
100.2298624945
 30
0.0
 10
93.04469025
 20
100.2298624945
 30
0.0
  0
SPLINE
  5
312
100
AcDbEntity
  8
0
100
AcDbSpline
 62
7
  6
CONTINUOUS
 70
0
 71
3
 72
12
 73
8
 74
0
 42
0.0000001
 43
0.0000001
 44
0.0000000001
 40
0.0
 40
0.0
 40
0.0
 40
0.0
 40
0.2460454262
 40
0.4936983158
 40
0.7439199328
 40
0.8713555617
 40
1.0
 40
1.0
 40
1.0
 40
1.0
 10
89.6890278173
 20
120.4410426358
 30
0.0
 10
89.7046056299
 20
120.4979881856
 30
0.0
 10
89.7422876495
 20
120.610748691
 30
0.0
 10
89.8236633975
 20
120.7702653591
 30
0.0
 10
89.9230680093
 20
120.8869928918
 30
0.0
 10
90.0292638257
 20
120.9489407302
 30
0.0
 10
90.0911726954
 20
120.9612339403
 30
0.0
 10
90.1220405192
 20
120.9612339403
 30
0.0
  0
SPLINE
  5
313
100
AcDbEntity
  8
0
100
AcDbSpline
 62
7
  6
CONTINUOUS
 70
0
 71
3
 72
9
 73
5
 74
0
 42
0.0000001
 43
0.0000001
 44
0.0000000001
 40
0.0
 40
0.0
 40
0.0
 40
0.0
 40
0.3641598889
 40
1.0
 40
1.0
 40
1.0
 40
1.0
 10
90.1220405192
 20
100.2298624945
 30
0.0
 10
90.0646640974
 20
100.2298624945
 30
0.0
 10
89.9084777643
 20
100.2459815885
 30
0.0
 10
89.7529717737
 20
100.3193798274
 30
0.0
 10
89.6890278173
 20
100.3965004083
 30
0.0
  0
SPLINE
  5
314
100
AcDbEntity
  8
0
100
AcDbSpline
 62
7
  6
CONTINUOUS
 70
0
 71
3
 72
9
 73
5
 74
0
 42
0.0000001
 43
0.0000001
 44
0.0000000001
 40
0.0
 40
0.0
 40
0.0
 40
0.0
 40
0.3642526053
 40
1.0
 40
1.0
 40
1.0
 40
1.0
 10
93.04469025
 20
160.3910480151
 30
0.0
 10
93.1020816565
 20
160.3910480151
 30
0.0
 10
93.2582711151
 20
160.3749334596
 30
0.0
 10
93.4137679004
 20
160.3015199425
 30
0.0
 10
93.4777029519
 20
160.2244101013
 30
0.0
  0
SPLINE
  5
315
100
AcDbEntity
  8
0
100
AcDbSpline
 62
7
  6
CONTINUOUS
 70
0
 71
3
 72
21
 73
17
 74
0
 42
0.0000001
 43
0.0000001
 44
0.0000000001
 40
0.0
 40
0.0
 40
0.0
 40
0.0
 40
0.0152736556
 40
0.0307400416
 40
0.0615944727
 40
0.0924597446
 40
0.1233512662
 40
0.1852330485
 40
0.2472659363
 40
0.3094463907
 40
0.3717660941
 40
0.4967787028
 40
0.6222117836
 40
0.747963109
 40
0.8739278454
 40
1.0
 40
1.0
 40
1.0
 40
1.0
 10
77.5883884957
 20
138.4963984415
 30
0.0
 10
77.5731261805
 20
138.4963360222
 30
0.0
 10
77.5474380156
 20
138.4703388675
 30
0.0
 10
77.521696923
 20
138.4165863317
 30
0.0
 10
77.4980493932
 20
138.3418144387
 30
0.0
 10
77.4782510198
 20
138.2517196143
 30
0.0
 10
77.4572733448
 20
138.1298222501
 30
0.0
 10
77.4383699447
 20
137.9762734467
 30
0.0
 10
77.4221423046
 20
137.7909894945
 30
0.0
 10
77.41037311
 20
137.6049554271
 30
0.0
 10
77.3989184701
 20
137.3558795748
 30
0.0
 10
77.390504706
 20
137.0434340557
 30
0.0
 10
77.3857522578
 20
136.6675385758
 30
0.0
 10
77.3839378352
 20
136.2906685196
 30
0.0
 10
77.383464497
 20
135.9131578866
 30
0.0
 10
77.3834284737
 20
135.6613059877
 30
0.0
 10
77.3834284737
 20
135.5353263854
 30
0.0
  0
SPLINE
  5
316
100
AcDbEntity
  8
0
100
AcDbSpline
 62
7
  6
CONTINUOUS
 70
0
 71
3
 72
17
 73
13
 74
0
 42
0.0000001
 43
0.0000001
 44
0.0000000001
 40
0.0
 40
0.0
 40
0.0
 40
0.0
 40
0.2182009024
 40
0.3349220057
 40
0.456586696
 40
0.5831112211
 40
0.7144823146
 40
0.7820564401
 40
0.8510300181
 40
0.92186225
 40
0.958727904
 40
1.0
 40
1.0
 40
1.0
 40
1.0
 10
77.3834284737
 20
146.7679860034
 30
0.0
 10
77.3834284737
 20
146.6357069892
 30
0.0
 10
77.3834107863
 20
146.4326673278
 30
0.0
 10
77.3858178952
 20
146.1558785575
 30
0.0
 10
77.3906430887
 20
145.9347061549
 30
0.0
 10
77.4009288268
 20
145.704791174
 30
0.0
 10
77.4170538501
 20
145.5081224788
 30
0.0
 10
77.4386279507
 20
145.3469216072
 30
0.0
 10
77.4612324213
 20
145.2237513152
 30
0.0
 10
77.4908282175
 20
145.1186005845
 30
0.0
 10
77.5252598923
 20
145.0391307303
 30
0.0
 10
77.5633730288
 20
144.9949103536
 30
0.0
 10
77.5883884957
 20
144.9953974596
 30
0.0
  0
SPLINE
  5
317
100
AcDbEntity
  8
0
100
AcDbSpline
 62
7
  6
CONTINUOUS
 70
0
 71
3
 72
10
 73
6
 74
0
 42
0.0000001
 43
0.0000001
 44
0.0000000001
 40
0.0
 40
0.0
 40
0.0
 40
0.0
 40
0.2163947382
 40
0.4583018846
 40
1.0
 40
1.0
 40
1.0
 40
1.0
 10
77.8363941354
 20
145.0002266875
 30
0.0
 10
77.7506927475
 20
144.5375051318
 30
0.0
 10
77.6283561553
 20
143.5462432405
 30
0.0
 10
77.5531774293
 20
141.3712300558
 30
0.0
 10
77.6836822645
 20
139.665496938
 30
0.0
 10
77.8363941354
 20
138.4974126975
 30
0.0
  0
SPLINE
  5
318
100
AcDbEntity
  8
0
100
AcDbSpline
 62
7
  6
CONTINUOUS
 70
0
 71
3
 72
9
 73
5
 74
0
 42
0.0000001
 43
0.0000001
 44
0.0000000001
 40
0.0
 40
0.0
 40
0.0
 40
0.0
 40
0.2573720101
 40
1.0
 40
1.0
 40
1.0
 40
1.0
 10
78.2762586034
 20
108.2068986039
 30
0.0
 10
78.2411192152
 20
108.1391433097
 30
0.0
 10
78.1021310797
 20
107.8771716587
 30
0.0
 10
77.9531475891
 20
107.6204625087
 30
0.0
 10
77.8363941354
 20
107.4337263795
 30
0.0
  0
SPLINE
  5
319
100
AcDbEntity
  8
0
100
AcDbSpline
 62
7
  6
CONTINUOUS
 70
0
 71
3
 72
12
 73
8
 74
0
 42
0.0000001
 43
0.0000001
 44
0.0000000001
 40
0.0
 40
0.0
 40
0.0
 40
0.0
 40
0.2460280129
 40
0.4936634005
 40
0.7438647573
 40
0.8713194616
 40
1.0
 40
1.0
 40
1.0
 40
1.0
 10
93.4777029519
 20
140.1798678738
 30
0.0
 10
93.4621262649
 20
140.1229264385
 30
0.0
 10
93.4244497697
 20
140.0101712637
 30
0.0
 10
93.3430733158
 20
139.850677423
 30
0.0
 10
93.2437035366
 20
139.7339143637
 30
0.0
 10
93.1374815125
 20
139.6720010556
 30
0.0
 10
93.0755666902
 20
139.6596765693
 30
0.0
 10
93.04469025
 20
139.6596765693
 30
0.0
  0
SPLINE
  5
31A
100
AcDbEntity
  8
BEZUGSACHSEN
100
AcDbSpline
 62
7
  6
CONTINUOUS
 70
0
 71
3
 72
13
 73
9
 74
0
 42
0.0000001
 43
0.0000001
 44
0.0000000001
 40
0.0
 40
0.0
 40
0.0
 40
0.0
 40
0.2680073107
 40
0.5239564958
 40
0.6465411753
 40
0.7658127057
 40
0.8830817758
 40
1.0
 40
1.0
 40
1.0
 40
1.0
 10
139.5833653846
 20
115.1177228729
 30
0.0
 10
139.2601110982
 20
115.1177228729
 30
0.0
 10
138.6234015716
 20
115.2174502712
 30
0.0
 10
137.9202999866
 20
115.5957881861
 30
0.0
 10
137.495281067
 20
116.0253930876
 30
0.0
 10
137.2604551849
 20
116.3936143863
 30
0.0
 10
137.1157384202
 20
116.7983589332
 30
0.0
 10
137.0833649902
 20
117.0819075252
 30
0.0
 10
137.0833654072
 20
117.2229272498
 30
0.0
  0
SPLINE
  5
31B
100
AcDbEntity
  8
0
100
AcDbSpline
 62
7
  6
CONTINUOUS
 70
0
 71
3
 72
9
 73
5
 74
0
 42
0.0000001
 43
0.0000001
 44
0.0000000001
 40
0.0
 40
0.0
 40
0.0
 40
0.0
 40
0.1680322176
 40
1.0
 40
1.0
 40
1.0
 40
1.0
 10
89.6890278173
 20
160.2244101013
 30
0.0
 10
89.7058773763
 20
160.2447317681
 30
0.0
 10
89.8213319531
 20
160.3532118001
 30
0.0
 10
89.9913355022
 20
160.3910480151
 30
0.0
 10
90.1220405192
 20
160.3910480151
 30
0.0
  0
SPLINE
  5
31C
100
AcDbEntity
  8
BEZUGSACHSEN
100
AcDbSpline
 62
7
  6
CONTINUOUS
 70
0
 71
3
 72
13
 73
9
 74
0
 42
0.0000001
 43
0.0000001
 44
0.0000000001
 40
0.0
 40
0.0
 40
0.0
 40
0.0
 40
0.2680073107
 40
0.5239564958
 40
0.6465411753
 40
0.7658127057
 40
0.8830817758
 40
1.0
 40
1.0
 40
1.0
 40
1.0
 10
139.5833653846
 20
145.5031876367
 30
0.0
 10
139.9066196711
 20
145.5031876367
 30
0.0
 10
140.5433291976
 20
145.4034602384
 30
0.0
 10
141.2464307827
 20
145.0251223235
 30
0.0
 10
141.6714497022
 20
144.595517422
 30
0.0
 10
141.9062755843
 20
144.2272961233
 30
0.0
 10
142.050992349
 20
143.8225515764
 30
0.0
 10
142.0833657791
 20
143.5390029844
 30
0.0
 10
142.083365362
 20
143.3979832598
 30
0.0
  0
SPLINE
  5
31D
100
AcDbEntity
  8
0
100
AcDbSpline
 62
7
  6
CONTINUOUS
 70
0
 71
3
 72
12
 73
8
 74
0
 42
0.0000001
 43
0.0000001
 44
0.0000000001
 40
0.0
 40
0.0
 40
0.0
 40
0.0
 40
0.1286448926
 40
0.256081
 40
0.5063027424
 40
0.7539549585
 40
1.0
 40
1.0
 40
1.0
 40
1.0
 10
90.1220405192
 20
139.6596765693
 30
0.0
 10
90.0911725877
 20
139.6596765693
 30
0.0
 10
90.0292635934
 20
139.6719701931
 30
0.0
 10
89.9230672962
 20
139.7339176568
 30
0.0
 10
89.8236633141
 20
139.8506458588
 30
0.0
 10
89.7422874677
 20
140.0101620968
 30
0.0
 10
89.7046056049
 20
140.1229224154
 30
0.0
 10
89.6890278173
 20
140.1798678738
 30
0.0
  0
SPLINE
  5
31E
100
AcDbEntity
  8
BEZUGSACHSEN
100
AcDbSpline
 62
7
  6
CONTINUOUS
 70
0
 71
3
 72
13
 73
9
 74
0
 42
0.0000001
 43
0.0000001
 44
0.0000000001
 40
0.0
 40
0.0
 40
0.0
 40
0.0
 40
0.1169202397
 40
0.2341892271
 40
0.3534566409
 40
0.4760409319
 40
0.7319921608
 40
1.0
 40
1.0
 40
1.0
 40
1.0
 10
137.0833654072
 20
143.3979272447
 30
0.0
 10
137.0833658243
 20
143.5389515298
 30
0.0
 10
137.1157333331
 20
143.8225063282
 30
0.0
 10
137.260433024
 20
144.2272614772
 30
0.0
 10
137.4952540425
 20
144.5954881255
 30
0.0
 10
137.9202753411
 20
145.0250987342
 30
0.0
 10
138.6233815497
 20
145.4034593375
 30
0.0
 10
139.2601055793
 20
145.5031876367
 30
0.0
 10
139.5833653846
 20
145.5031876367
 30
0.0
  0
SPLINE
  5
31F
100
AcDbEntity
  8
BEZUGSACHSEN
100
AcDbSpline
 62
7
  6
CONTINUOUS
 70
0
 71
3
 72
13
 73
9
 74
0
 42
0.0000001
 43
0.0000001
 44
0.0000000001
 40
0.0
 40
0.0
 40
0.0
 40
0.0
 40
0.1169202397
 40
0.2341892271
 40
0.3534566409
 40
0.4760409319
 40
0.7319921608
 40
1.0
 40
1.0
 40
1.0
 40
1.0
 10
142.083365362
 20
117.2229832649
 30
0.0
 10
142.083364945
 20
117.0819589798
 30
0.0
 10
142.0509974361
 20
116.7984041814
 30
0.0
 10
141.9062977452
 20
116.3936490324
 30
0.0
 10
141.6714767267
 20
116.0254223841
 30
0.0
 10
141.2464554281
 20
115.5958117754
 30
0.0
 10
140.5433492195
 20
115.2174511721
 30
0.0
 10
139.9066251899
 20
115.1177228729
 30
0.0
 10
139.5833653846
 20
115.1177228729
 30
0.0
  0
SPLINE
  5
320
100
AcDbEntity
  8
BEZUGSACHSEN
100
AcDbSpline
 62
7
  6
CONTINUOUS
 70
0
 71
3
 72
9
 73
5
 74
0
 42
0.0000001
 43
0.0000001
 44
0.0000000001
 40
0.0
 40
0.0
 40
0.0
 40
0.0
 40
0.2475579876
 40
1.0
 40
1.0
 40
1.0
 40
1.0
 10
140.7698222365
 20
119.1672433825
 30
0.0
 10
140.7109678383
 20
119.1397544181
 30
0.0
 10
140.4692268108
 20
119.0374205621
 30
0.0
 10
140.212618107
 20
118.9707935095
 30
0.0
 10
140.0174477136
 20
118.9409710059
 30
0.0
  0
SPLINE
  5
321
100
AcDbEntity
  8
BEZUGSACHSEN
100
AcDbSpline
 62
7
  6
CONTINUOUS
 70
0
 71
3
 72
9
 73
5
 74
0
 42
0.0000001
 43
0.0000001
 44
0.0000000001
 40
0.0
 40
0.0
 40
0.0
 40
0.0
 40
0.2526342036
 40
1.0
 40
1.0
 40
1.0
 40
1.0
 10
139.1492830557
 20
141.6799395037
 30
0.0
 10
139.083756431
 20
141.6699268785
 30
0.0
 10
138.8258318569
 20
141.6214435646
 30
0.0
 10
138.5745809234
 20
141.5366520896
 30
0.0
 10
138.3969085328
 20
141.4536671271
 30
0.0
  0
SPLINE
  5
322
100
AcDbEntity
  8
BEZUGSACHSEN
100
AcDbSpline
 62
7
  6
CONTINUOUS
 70
0
 71
3
 72
9
 73
5
 74
0
 42
0.0000001
 43
0.0000001
 44
0.0000000001
 40
0.0
 40
0.0
 40
0.0
 40
0.0
 40
0.2526345464
 40
1.0
 40
1.0
 40
1.0
 40
1.0
 10
140.0174477136
 20
141.6799395037
 30
0.0
 10
140.0829798147
 20
141.6699260417
 30
0.0
 10
140.3409254679
 20
141.6214380168
 30
0.0
 10
140.5921962662
 20
141.5366357167
 30
0.0
 10
140.7698811475
 20
141.4536396108
 30
0.0
  0
SPLINE
  5
323
100
AcDbEntity
  8
0
100
AcDbSpline
 62
7
  6
CONTINUOUS
 70
0
 71
3
 72
8
 73
4
 74
0
 42
0.0000001
 43
0.0000001
 44
0.0000000001
 40
0.0
 40
0.0
 40
0.0
 40
0.0
 40
1.0
 40
1.0
 40
1.0
 40
1.0
 10
79.3832434312
 20
134.9356779148
 30
0.0
 10
79.3829124971
 20
134.9832066225
 30
0.0
 10
79.3817299819
 20
135.0307470313
 30
0.0
 10
79.3792260101
 20
135.0782108881
 30
0.0
  0
SPLINE
  5
324
100
AcDbEntity
  8
0
100
AcDbSpline
 62
7
  6
CONTINUOUS
 70
0
 71
3
 72
15
 73
11
 74
0
 42
0.0000001
 43
0.0000001
 44
0.0000000001
 40
0.0
 40
0.0
 40
0.0
 40
0.0
 40
0.2532162989
 40
0.3790219793
 40
0.5040739368
 40
0.6282014989
 40
0.7508575768
 40
0.8716570132
 40
0.9343432508
 40
1.0
 40
1.0
 40
1.0
 40
1.0
 10
79.3792260101
 20
135.0782108881
 30
0.0
 10
79.3768625918
 20
135.1230104935
 30
0.0
 10
79.371705147
 20
135.1900164835
 30
0.0
 10
79.3595328234
 20
135.2785407442
 30
0.0
 10
79.3469550256
 20
135.3437484873
 30
0.0
 10
79.3290282142
 20
135.4075395832
 30
0.0
 10
79.3039395024
 20
135.4668147823
 30
0.0
 10
79.2646602133
 20
135.5116959954
 30
0.0
 10
79.2173998755
 20
135.5133900604
 30
0.0
 10
79.197482248
 20
135.5006592562
 30
0.0
 10
79.1883884957
 20
135.4934057079
 30
0.0
  0
SPLINE
  5
325
100
AcDbEntity
  8
BEZUGSACHSEN
100
AcDbSpline
 62
7
  6
CONTINUOUS
 70
0
 71
3
 72
9
 73
5
 74
0
 42
0.0000001
 43
0.0000001
 44
0.0000000001
 40
0.0
 40
0.0
 40
0.0
 40
0.0
 40
0.2475577202
 40
1.0
 40
1.0
 40
1.0
 40
1.0
 10
138.3968496218
 20
119.1672708988
 30
0.0
 10
138.4557081212
 20
119.13977826
 30
0.0
 10
138.6974668634
 20
119.0374308263
 30
0.0
 10
138.9540965452
 20
118.9707959722
 30
0.0
 10
139.1492830557
 20
118.9409710059
 30
0.0
  0
SPLINE
  5
326
100
AcDbEntity
  8
0
100
AcDbSpline
 62
7
  6
CONTINUOUS
 70
0
 71
3
 72
13
 73
9
 74
0
 42
0.0000001
 43
0.0000001
 44
0.0000000001
 40
0.0
 40
0.0
 40
0.0
 40
0.0
 40
0.1753307868
 40
0.3422637982
 40
0.4768046258
 40
0.5947351366
 40
0.8062611466
 40
1.0
 40
1.0
 40
1.0
 40
1.0
 10
79.1883884957
 20
108.7830265147
 30
0.0
 10
79.1244757508
 20
108.8099666763
 30
0.0
 10
78.9866987075
 20
108.8387046624
 30
0.0
 10
78.7990517093
 20
108.7899258444
 30
0.0
 10
78.6574670256
 20
108.7010839414
 30
0.0
 10
78.5210018028
 20
108.5774813295
 30
0.0
 10
78.3925831163
 20
108.4136047235
 30
0.0
 10
78.3115431193
 20
108.2749337312
 30
0.0
 10
78.2762586034
 20
108.2068986039
 30
0.0
  0
SPLINE
  5
327
100
AcDbEntity
  8
0
100
AcDbSpline
 62
7
  6
CONTINUOUS
 70
0
 71
3
 72
12
 73
8
 74
0
 42
0.0000001
 43
0.0000001
 44
0.0000000001
 40
0.0
 40
0.0
 40
0.0
 40
0.0
 40
0.2873076234
 40
0.4555854673
 40
0.6473090081
 40
0.8177551754
 40
1.0
 40
1.0
 40
1.0
 40
1.0
 10
79.1883884957
 20
108.7830265147
 30
0.0
 10
79.2137747796
 20
108.7723258228
 30
0.0
 10
79.2564418427
 20
108.759749879
 30
0.0
 10
79.3202470355
 20
108.7639083813
 30
0.0
 10
79.3631795328
 20
108.7982608798
 30
0.0
 10
79.3800094034
 20
108.8490611806
 30
0.0
 10
79.3829557133
 20
108.8828240163
 30
0.0
 10
79.3832791779
 20
108.9002961296
 30
0.0
  0
LINE
  5
328
100
AcDbEntity
  8
0
100
AcDbLine
 62
7
  6
CONTINUOUS
 10
77.5937670164
 20
106.8850704489
 11
77.8363941354
 21
107.4337263795
  0
SPLINE
  5
329
100
AcDbEntity
  8
0
100
AcDbSpline
 62
7
  6
CONTINUOUS
 70
0
 71
3
 72
16
 73
12
 74
0
 42
0.0000001
 43
0.0000001
 44
0.0000000001
 40
0.0
 40
0.0
 40
0.0
 40
0.0
 40
0.1251648965
 40
0.2503573139
 40
0.375568813
 40
0.5007901353
 40
0.6259923846
 40
0.7510481625
 40
0.8746362128
 40
0.9372915345
 40
1.0
 40
1.0
 40
1.0
 40
1.0
 10
78.2762586034
 20
136.7249950155
 30
0.0
 10
78.2933269471
 20
136.6536687069
 30
0.0
 10
78.3295988835
 20
136.5114953141
 30
0.0
 10
78.3916211659
 20
136.3003005049
 30
0.0
 10
78.4632910457
 20
136.0920675799
 30
0.0
 10
78.5473003962
 20
135.8885472111
 30
0.0
 10
78.6506822697
 20
135.6932587804
 30
0.0
 10
78.7786419437
 20
135.5164323214
 30
0.0
 10
78.945680134
 20
135.408987585
 30
0.0
 10
79.0963854304
 20
135.4305515074
 30
0.0
 10
79.15966331
 20
135.4704933266
 30
0.0
 10
79.1883884957
 20
135.4934057079
 30
0.0
  0
SPLINE
  5
32A
100
AcDbEntity
  8
0
100
AcDbSpline
 62
7
  6
CONTINUOUS
 70
0
 71
3
 72
13
 73
9
 74
0
 42
0.0000001
 43
0.0000001
 44
0.0000000001
 40
0.0
 40
0.0
 40
0.0
 40
0.0
 40
0.1670510693
 40
0.3289369806
 40
0.4609641718
 40
0.578209763
 40
0.7939442568
 40
1.0
 40
1.0
 40
1.0
 40
1.0
 10
79.1883884957
 20
146.6549335418
 30
0.0
 10
79.123955045
 20
146.6791686468
 30
0.0
 10
78.984754052
 20
146.7011029892
 30
0.0
 10
78.7981460637
 20
146.644626817
 30
0.0
 10
78.6566850256
 20
146.5490633624
 30
0.0
 10
78.5191564282
 20
146.4146958933
 30
0.0
 10
78.3897367237
 20
146.2323236347
 30
0.0
 10
78.3107367571
 20
146.0770713936
 30
0.0
 10
78.2762586034
 20
145.999472145
 30
0.0
  0
SPLINE
  5
32B
100
AcDbEntity
  8
0
100
AcDbSpline
 62
7
  6
CONTINUOUS
 70
0
 71
3
 72
15
 73
11
 74
0
 42
0.0000001
 43
0.0000001
 44
0.0000000001
 40
0.0
 40
0.0
 40
0.0
 40
0.0
 40
0.0735479282
 40
0.1546005725
 40
0.2292557381
 40
0.2979289731
 40
0.4260365971
 40
0.5473626904
 40
0.7785364517
 40
1.0
 40
1.0
 40
1.0
 40
1.0
 10
79.1883884957
 20
146.6549335418
 30
0.0
 10
79.2008403145
 20
146.6502500873
 30
0.0
 10
79.2299905682
 20
146.6461695747
 30
0.0
 10
79.2694600598
 20
146.664411602
 30
0.0
 10
79.2970217349
 20
146.6948148956
 30
0.0
 10
79.3229167449
 20
146.7366925784
 30
0.0
 10
79.3440027087
 20
146.7906228009
 30
0.0
 10
79.3656414193
 20
146.8748934605
 30
0.0
 10
79.3795116063
 20
146.9781043458
 30
0.0
 10
79.3829360958
 20
147.0599656959
 30
0.0
 10
79.3832791779
 20
147.1000229422
 30
0.0
  0
SPLINE
  5
32C
100
AcDbEntity
  8
0
100
AcDbSpline
 62
7
  6
CONTINUOUS
 70
0
 71
3
 72
16
 73
12
 74
0
 42
0.0000001
 43
0.0000001
 44
0.0000000001
 40
0.0
 40
0.0
 40
0.0
 40
0.0
 40
0.2846406373
 40
0.4153418401
 40
0.5382258172
 40
0.6534042926
 40
0.7614765699
 40
0.8135102488
 40
0.8652468039
 40
0.9195357931
 40
1.0
 40
1.0
 40
1.0
 40
1.0
 10
77.3834284737
 20
108.6280533756
 30
0.0
 10
77.3834284737
 20
108.5084799382
 30
0.0
 10
77.3832867901
 20
108.333996941
 30
0.0
 10
77.3856639768
 20
108.1079076962
 30
0.0
 10
77.3902910334
 20
107.953035956
 30
0.0
 10
77.4001930811
 20
107.807944464
 30
0.0
 10
77.4163808746
 20
107.6931610328
 30
0.0
 10
77.438206271
 20
107.6068266738
 30
0.0
 10
77.461945565
 20
107.5443970139
 30
0.0
 10
77.5007319024
 20
107.4768680786
 30
0.0
 10
77.5545960188
 20
107.4403660802
 30
0.0
 10
77.5883884957
 20
107.4395698633
 30
0.0
  0
ELLIPSE
  5
32D
100
AcDbEntity
  8
0
100
AcDbEllipse
 62
7
  6
CONTINUOUS
 10
77.2362111953
 20
130.3104552548
 30
0.0
 11
14.7536831607
 21
31.0932549156
 31
0.0
 40
0.3419987131
 41
-1.0912395858
 42
-0.1578061866
  0
ELLIPSE
  5
32E
100
AcDbEntity
  8
0
100
AcDbEllipse
 62
7
  6
CONTINUOUS
 10
105.930519574
 20
130.3104552548
 30
0.0
 11
-14.7536831607
 21
31.0932549156
 31
0.0
 40
0.3419987131
 41
0.1578061866
 42
1.0912395858
  0
ELLIPSE
  5
32F
100
AcDbEntity
  8
0
100
AcDbEllipse
 62
7
  6
CONTINUOUS
 10
105.930519574
 20
130.3104552548
 30
0.0
 11
14.7536831607
 21
31.0932549156
 31
0.0
 40
0.3419987131
 41
-4.2328322393
 42
-3.2993988402
  0
ELLIPSE
  5
330
100
AcDbEntity
  8
0
100
AcDbEllipse
 62
7
  6
CONTINUOUS
 10
77.2362111953
 20
130.3104552548
 30
0.0
 11
-14.7536831607
 21
31.0932549156
 31
0.0
 40
0.3419987131
 41
-2.9837864669
 42
-2.0503530678
  0
ENDSEC
  0
SECTION
  2
OBJECTS
  0
DICTIONARY
  5
C
100
AcDbDictionary
280
0
281
1
  3
ACAD_GROUP
350
D
  3
ACAD_MLINESTYLE
350
17
  3
ACAD_LAYOUT
350
1A
  3
ACAD_PLOTSETTINGS
350
19
  3
ACAD_PLOTSTYLENAME
350
E
  0
DICTIONARY
  5
D
102
{ACAD_REACTORS
330
C
102
}
100
AcDbDictionary
280
0
281
1
  0
ACDBDICTIONARYWDFLT
  5
E
102
{ACAD_REACTORS
330
C
102
}
100
AcDbDictionary
281
1
  3
Normal
350
F
100
AcDbDictionaryWithDefault
340
F
  0
DICTIONARY
  5
17
102
{ACAD_REACTORS
330
C
102
}
100
AcDbDictionary
280
0
281
1
  3
Standard
350
18
  0
DICTIONARY
  5
19
102
{ACAD_REACTORS
330
C
102
}
100
AcDbDictionary
281
1
  0
DICTIONARY
  5
1A
102
{ACAD_REACTORS
330
C
102
}
100
AcDbDictionary
281
1
  3
Model
350
331
  3
Layout1
350
332
  0
ACDBPLACEHOLDER
  5
F
102
{ACAD_REACTORS
330
E
102
}
  0
MLINESTYLE
  5
18
102
{ACAD_REACTORS
330
17
102
}
100
AcDbMlineStyle
  2
STANDARD
 70
0
  3

 62
256
 51
90.0
 52
90.0
 71
2
 49
0.5
 62
256
  6
BYLAYER
 49
-0.5
 62
256
  6
BYLAYER
  0
LAYOUT
  5
331
102
{ACAD_REACTORS
330
1A
102
}
100
AcDbPlotSettings
  1

  2
none_device
  4
ISO_A4_(297.00_x_210.00_MM)
  6

 40
0.0
 41
0.0
 42
0.0
 43
0.0
 44
297.0
 45
210.0
 46
0.0
 47
0.0
 48
0.0
 49
0.0
140
0.0
141
0.0
142
1.0
143
1.0
 70
1024
 72
1
 73
0
 74
0
  7

 75
0
147
1.0
148
0.0
149
0.0
100
AcDbLayout
  1
Model
 70
0
 71
0
 10
0.0
 20
0.0
 11
297.0
 21
210.0
 12
0.0
 22
0.0
 32
0.0
 14
0.0
 24
0.0
 34
0.0
 15
0.0
 25
0.0
 35
0.0
146
0.0
 13
0.0
 23
0.0
 33
0.0
 16
1.0
 26
0.0
 36
0.0
 17
0.0
 27
1.0
 37
0.0
 76
0
330
217
345
0
346
0
  0
LAYOUT
  5
332
102
{ACAD_REACTORS
330
1A
102
}
100
AcDbPlotSettings
  1

  2
none_device
  4
ISO_A4_(297.00_x_210.00_MM)
  6

 40
0.0
 41
0.0
 42
0.0
 43
0.0
 44
297.0
 45
210.0
 46
0.0
 47
0.0
 48
0.0
 49
0.0
140
0.0
141
0.0
142
1.0
143
1.0
 70
0
 72
1
 73
0
 74
0
  7

 75
0
147
1.0
148
0.0
149
0.0
100
AcDbLayout
  1
Layout1
 70
0
 71
1
 10
0.0
 20
0.0
 11
297.0
 21
210.0
 12
0.0
 22
0.0
 32
0.0
 14
0.0
 24
0.0
 34
0.0
 15
0.0
 25
0.0
 35
0.0
146
0.0
 13
0.0
 23
0.0
 33
0.0
 16
1.0
 26
0.0
 36
0.0
 17
0.0
 27
1.0
 37
0.0
 76
0
330
218
345
0
346
0
  0
ENDSEC
  0
EOF
