999
DXF file: cc6-144-25.dxf
999
Pro/ENGINEER 2010430 by Parametric Technology Corporation
  0
SECTION
  2
HEADER
  9
$ACADVER
  1
AC1021
  9
$DWGCODEPAGE
  3
ANSI_1252
  9
$EXTMAX
 10
297.0
 20
210.0
 30
0.0
  9
$EXTMIN
 10
0.0
 20
0.0
 30
0.0
  9
$LIMMIN
 10
0.0
 20
0.0
  9
$LIMMAX
 10
297.0
 20
210.0
  9
$VIEWCTR
 10
148.5
 20
105.0
  9
$VIEWSIZE
 40
210.0
  9
$CLAYER
  8
0
  9
$LTSCALE
 40
16.335
  9
$CELTYPE
  6
BYLAYER
  9
$DIMSCALE
 40
1.0
  9
$DIMASZ
 40
3.5
  9
$DIMEXO
 40
1.85625
  9
$DIMDLI
 40
11.286
  9
$DIMEXE
 40
5.346
  9
$DIMCEN
 40
2.673
  9
$DIMLFAC
 40
1.0
  9
$DIMBLK
  1
_FILLED
  9
$DIMTXT
 40
3.5
  9
$DIMTOL
 70
1
  9
$DIMLIM
 70
0
  9
$DIMTFAC
 40
1.0
  9
$DIMTP
 40
0.005
  9
$DIMTM
 40
0.005
  9
$PDMODE
 70
3
  9
$PDSIZE
 40
0.3125
  9
$HANDSEED
  5
333
  9
$TILEMODE
 70
1
  9
$MEASUREMENT
 70
1
  9
$INSUNITS
 70
4
  0
ENDSEC
  0
SECTION
  2
CLASSES
  0
CLASS
  1
ACDBDICTIONARYWDFLT
  2
AcDbDictionaryWithDefault
  3
AutoCAD 2000
 90
0
 91
1
280
0
281
0
  0
CLASS
  1
ACDBPLACEHOLDER
  2
AcDbPlaceHolder
  3
AutoCAD 2000
 90
0
 91
1
280
0
281
0
  0
CLASS
  1
LAYOUT
  2
AcDbLayout
  3
AutoCAD 2000
 90
0
 91
0
280
0
281
0
  0
ENDSEC
  0
SECTION
  2
TABLES
  0
TABLE
  2
VPORT
  5
8
100
AcDbSymbolTable
 70
2
  0
VPORT
  5
1F4
100
AcDbSymbolTableRecord
100
AcDbViewportTableRecord
  2
*ACTIVE
 70
0
 10
0.0
 20
0.0
 11
1.0
 21
1.0
 12
148.5
 22
105.0
 13
0.0
 23
0.0
 14
1.0
 24
1.0
 15
0.0
 25
0.0
 16
0.0
 26
0.0
 36
1.0
 17
0.0
 27
0.0
 37
0.0
 40
210.0
 41
1.4142857143
 42
50.0
 43
0.0
 44
0.0
 50
0.0
 51
0.0
 71
0
 72
100
 73
1
 74
1
 75
0
 76
0
 77
0
 78
0
  0
ENDTAB
  0
TABLE
  2
LTYPE
  5
5
100
AcDbSymbolTable
 70
6
  0
LTYPE
  5
14
100
AcDbSymbolTableRecord
100
AcDbLinetypeTableRecord
  2
BYBLOCK
 70
0
  3

 72
65
 73
0
 40
0.0
  0
LTYPE
  5
15
100
AcDbSymbolTableRecord
100
AcDbLinetypeTableRecord
  2
BYLAYER
 70
0
  3

 72
65
 73
0
 40
0.0
  0
LTYPE
  5
16
100
AcDbSymbolTableRecord
100
AcDbLinetypeTableRecord
  2
CONTINUOUS
 70
64
  3
Solid line
 72
65
 73
0
 40
0.0
  0
LTYPE
  5
1F5
100
AcDbSymbolTableRecord
100
AcDbLinetypeTableRecord
  2
CENTER
 70
64
  3
____ _ ____ _ ____ _ ____ _ ____ _ ____ _ ____
 72
65
 73
4
 40
0.6
 49
0.375
 74
0
 49
-0.075
 74
0
 49
0.075
 74
0
 49
-0.075
 74
0
  0
LTYPE
  5
1F6
100
AcDbSymbolTableRecord
100
AcDbLinetypeTableRecord
  2
HIDDEN
 70
64
  3
- - - - - - - - - - - - - - - - - - - -
 72
65
 73
2
 40
0.2
 49
0.1
 74
0
 49
-0.1
 74
0
  0
LTYPE
  5
1F7
100
AcDbSymbolTableRecord
100
AcDbLinetypeTableRecord
  2
PHANTOM
 70
64
  3
_____ _ _ _____ _ _ _____ _ _ _____
 72
65
 73
6
 40
0.8
 49
0.45
 74
0
 49
-0.05
 74
0
 49
0.1
 74
0
 49
-0.05
 74
0
 49
0.1
 74
0
 49
-0.05
 74
0
  0
LTYPE
  5
1F8
100
AcDbSymbolTableRecord
100
AcDbLinetypeTableRecord
  2
DOT
 70
64
  3
. . . . . . . . . . . . . . . . . . . .
 72
65
 73
2
 40
0.2
 49
0.1
 74
0
 49
-0.1
 74
0
  0
LTYPE
  5
1F9
100
AcDbSymbolTableRecord
100
AcDbLinetypeTableRecord
  2
DASHED
 70
64
  3
- - - - - - - - - - - - - - - - - - - -
 72
65
 73
2
 40
0.2
 49
0.1
 74
0
 49
-0.1
 74
0
  0
ENDTAB
  0
TABLE
  2
LAYER
  5
2
100
AcDbSymbolTable
 70
36
  0
LAYER
  5
10
100
AcDbSymbolTableRecord
100
AcDbLayerTableRecord
  2
0
 70
0
 62
7
  6
CONTINUOUS
370
-3
390
F
  0
LAYER
  5
1FA
100
AcDbSymbolTableRecord
100
AcDbLayerTableRecord
  2
DEFAULT_1
 70
0
 62
7
  6
CENTER
370
-3
390
F
  0
LAYER
  5
1FB
100
AcDbSymbolTableRecord
100
AcDbLayerTableRecord
  2
DEFAULT_2
 70
0
 62
8
  6
HIDDEN
370
-3
390
F
  0
LAYER
  5
1FC
100
AcDbSymbolTableRecord
100
AcDbLayerTableRecord
  2
DEFAULT_3
 70
0
 62
7
  6
PHANTOM
370
-3
390
F
  0
LAYER
  5
1FD
100
AcDbSymbolTableRecord
100
AcDbLayerTableRecord
  2
ACHSEN
 70
0
 62
7
  6
CONTINUOUS
370
-3
390
F
  0
LAYER
  5
1FE
100
AcDbSymbolTableRecord
100
AcDbLayerTableRecord
  2
BEZUGSACHSEN
 70
0
 62
7
  6
CONTINUOUS
370
-3
390
F
  0
LAYER
  5
1FF
100
AcDbSymbolTableRecord
100
AcDbLayerTableRecord
  2
BEZUGSEBENE_B
 70
0
 62
7
  6
CONTINUOUS
370
-3
390
F
  0
LAYER
  5
200
100
AcDbSymbolTableRecord
100
AcDbLayerTableRecord
  2
BOHRUNGEN
 70
0
 62
7
  6
CONTINUOUS
370
-3
390
F
  0
LAYER
  5
201
100
AcDbSymbolTableRecord
100
AcDbLayerTableRecord
  2
EBENEN
 70
0
 62
7
  6
CONTINUOUS
370
-3
390
F
  0
LAYER
  5
202
100
AcDbSymbolTableRecord
100
AcDbLayerTableRecord
  2
FASEN
 70
0
 62
7
  6
CONTINUOUS
370
-3
390
F
  0
LAYER
  5
203
100
AcDbSymbolTableRecord
100
AcDbLayerTableRecord
  2
FLAECHEN
 70
0
 62
7
  6
CONTINUOUS
370
-3
390
F
  0
LAYER
  5
204
100
AcDbSymbolTableRecord
100
AcDbLayerTableRecord
  2
GEWINDE
 70
0
 62
7
  6
CONTINUOUS
370
-3
390
F
  0
LAYER
  5
205
100
AcDbSymbolTableRecord
100
AcDbLayerTableRecord
  2
KOORDSYS
 70
0
 62
7
  6
CONTINUOUS
370
-3
390
F
  0
LAYER
  5
206
100
AcDbSymbolTableRecord
100
AcDbLayerTableRecord
  2
KURVEN
 70
0
 62
7
  6
CONTINUOUS
370
-3
390
F
  0
LAYER
  5
207
100
AcDbSymbolTableRecord
100
AcDbLayerTableRecord
  2
KURVE_FUER_GTOL_DETAILANSICHT
 70
0
 62
7
  6
CONTINUOUS
370
-3
390
F
  0
LAYER
  5
208
100
AcDbSymbolTableRecord
100
AcDbLayerTableRecord
  2
KURVE_GAUGE2_POLIGON_INNENEINST
 70
0
 62
7
  6
CONTINUOUS
370
-3
390
F
  0
LAYER
  5
209
100
AcDbSymbolTableRecord
100
AcDbLayerTableRecord
  2
KURVE_PHANTOM1_GAUGE_PIN_1
 70
0
 62
7
  6
CONTINUOUS
370
-3
390
F
  0
LAYER
  5
20A
100
AcDbSymbolTableRecord
100
AcDbLayerTableRecord
  2
KURVE_PHANTOM2_GAUGE_PIN1
 70
0
 62
7
  6
CONTINUOUS
370
-3
390
F
  0
LAYER
  5
20B
100
AcDbSymbolTableRecord
100
AcDbLayerTableRecord
  2
KURVE_POLIGON_BEMASUNG
 70
0
 62
7
  6
CONTINUOUS
370
-3
390
F
  0
LAYER
  5
20C
100
AcDbSymbolTableRecord
100
AcDbLayerTableRecord
  2
PUNKTE
 70
0
 62
7
  6
CONTINUOUS
370
-3
390
F
  0
LAYER
  5
20D
100
AcDbSymbolTableRecord
100
AcDbLayerTableRecord
  2
RUNDUNGEN
 70
0
 62
7
  6
CONTINUOUS
370
-3
390
F
  0
LAYER
  5
20E
100
AcDbSymbolTableRecord
100
AcDbLayerTableRecord
  2
S_ACHSEN
 70
0
 62
7
  6
CONTINUOUS
370
-3
390
F
  0
LAYER
  5
20F
100
AcDbSymbolTableRecord
100
AcDbLayerTableRecord
  2
S_EBENEN
 70
0
 62
7
  6
CONTINUOUS
370
-3
390
F
  0
LAYER
  5
210
100
AcDbSymbolTableRecord
100
AcDbLayerTableRecord
  2
S_KOORDSYS
 70
0
 62
7
  6
CONTINUOUS
370
-3
390
F
  0
LAYER
  5
211
100
AcDbSymbolTableRecord
100
AcDbLayerTableRecord
  2
TOL_BEZUEGE
 70
0
 62
7
  6
CONTINUOUS
370
-3
390
F
  0
LAYER
  5
212
100
AcDbSymbolTableRecord
100
AcDbLayerTableRecord
  2
VERBFLAECHE
 70
0
 62
7
  6
CONTINUOUS
370
-3
390
F
  0
LAYER
  5
213
100
AcDbSymbolTableRecord
100
AcDbLayerTableRecord
  2
ZEICHNUNGSBEMASSUNGEN
 70
0
 62
7
  6
CONTINUOUS
370
-3
390
F
  0
ENDTAB
  0
TABLE
  2
STYLE
  5
3
100
AcDbSymbolTable
 70
1
  0
STYLE
  5
11
100
AcDbSymbolTableRecord
100
AcDbTextStyleTableRecord
  2
STANDARD
 70
0
 40
0.0
 41
0.7
 50
0.0
 71
0
 42
0.2
  3
txt
  4

  0
STYLE
  5
214
100
AcDbSymbolTableRecord
100
AcDbTextStyleTableRecord
  2
TEXTSTYLE_1
 70
0
 40
0.0
 41
0.8
 50
0.0
 71
0
 42
0.2
  3
gdt
  4

  0
STYLE
  5
215
100
AcDbSymbolTableRecord
100
AcDbTextStyleTableRecord
  2
TEXTSTYLE_2
 70
0
 40
0.0
 41
0.7
 50
0.0
 71
0
 42
0.2
  3
gdt
  4

  0
ENDTAB
  0
TABLE
  2
VIEW
  5
6
100
AcDbSymbolTable
 70
0
  0
ENDTAB
  0
TABLE
  2
UCS
  5
7
100
AcDbSymbolTable
 70
0
  0
ENDTAB
  0
TABLE
  2
APPID
  5
9
100
AcDbSymbolTable
 70
1
  0
APPID
  5
216
100
AcDbSymbolTableRecord
100
AcDbRegAppTableRecord
  2
ACAD
 70
0
  0
ENDTAB
  0
TABLE
  2
BLOCK_RECORD
  5
1
100
AcDbSymbolTable
 70
0
  0
BLOCK_RECORD
  5
217
100
AcDbSymbolTableRecord
100
AcDbBlockTableRecord
  2
*Model_Space
  0
BLOCK_RECORD
  5
218
100
AcDbSymbolTableRecord
100
AcDbBlockTableRecord
  2
*Paper_Space
  0
BLOCK_RECORD
  5
219
100
AcDbSymbolTableRecord
100
AcDbBlockTableRecord
  2
_FILLED
  0
BLOCK_RECORD
  5
21A
100
AcDbSymbolTableRecord
100
AcDbBlockTableRecord
  2
*D0
  0
BLOCK_RECORD
  5
21B
100
AcDbSymbolTableRecord
100
AcDbBlockTableRecord
  2
*D1
  0
BLOCK_RECORD
  5
21C
100
AcDbSymbolTableRecord
100
AcDbBlockTableRecord
  2
*D2
  0
BLOCK_RECORD
  5
21D
100
AcDbSymbolTableRecord
100
AcDbBlockTableRecord
  2
*D3
  0
BLOCK_RECORD
  5
21E
100
AcDbSymbolTableRecord
100
AcDbBlockTableRecord
  2
*D4
  0
BLOCK_RECORD
  5
21F
100
AcDbSymbolTableRecord
100
AcDbBlockTableRecord
  2
*D5
  0
BLOCK_RECORD
  5
220
100
AcDbSymbolTableRecord
100
AcDbBlockTableRecord
  2
*D6
  0
ENDTAB
  0
TABLE
  2
DIMSTYLE
  5
A
100
AcDbSymbolTable
 70
1
100
AcDbDimStyleTable
 71
0
  0
DIMSTYLE
105
221
100
AcDbSymbolTableRecord
100
AcDbDimStyleTableRecord
  2
STANDARD
 70
0
  3

  4

 40
1.0
 41
3.5
 42
0.0625
 43
0.38
 44
0.18
 45
0.0
 46
0.0
 47
0.005
 48
0.005
140
3.5
141
0.09
142
0.0
143
25.4
144
1.0
145
0.0
146
1.0
147
0.09
 71
1.0
 72
0.0
 73
0
 74
0
 75
0
 76
0
 77
1
 78
8
170
0
171
2
172
0
173
0
174
0
175
0
176
0
177
0
178
5
270
2
271
3
272
3
273
2
274
2
275
0
280
0
281
0
282
0
283
1
284
8
285
0
286
0
287
3
288
0
340
11
341
219
342
219
343
219
344
219
  0
DIMSTYLE
105
222
100
AcDbSymbolTableRecord
100
AcDbDimStyleTableRecord
  2
DIMSTYLE_1
 70
0
  3

  4

 40
1.0
 41
3.5
 42
0.0625
 43
0.38
 44
0.18
 45
0.0
 46
0.0
 47
0.0
 48
0.1
140
3.5
141
0.09
142
0.0
143
25.4
144
1.0
145
0.0
146
1.0
147
0.09
 71
0.0
 72
0.0
 73
0
 74
0
 75
0
 76
0
 77
1
 78
8
170
0
171
2
172
0
173
0
174
0
175
0
176
0
177
0
178
5
270
2
271
2
272
2
273
2
274
2
275
0
280
0
281
0
282
0
283
1
284
8
285
0
286
0
287
3
288
0
340
11
341
219
342
219
343
219
344
219
  0
DIMSTYLE
105
223
100
AcDbSymbolTableRecord
100
AcDbDimStyleTableRecord
  2
DIMSTYLE_2
 70
0
  3

  4

 40
1.0
 41
3.5
 42
0.0625
 43
0.38
 44
0.18
 45
0.0
 46
0.0
 47
0.25
 48
0.25
140
3.5
141
0.09
142
0.0
143
25.4
144
1.0
145
0.0
146
1.0
147
0.09
 71
0.0
 72
0.0
 73
0
 74
0
 75
0
 76
0
 77
1
 78
8
170
0
171
2
172
0
173
0
174
0
175
0
176
0
177
0
178
5
270
2
271
2
272
2
273
2
274
2
275
0
280
0
281
0
282
0
283
1
284
8
285
0
286
0
287
3
288
0
340
11
341
219
342
219
343
219
344
219
  0
DIMSTYLE
105
224
100
AcDbSymbolTableRecord
100
AcDbDimStyleTableRecord
  2
DIMSTYLE_3
 70
0
  3

  4

 40
1.0
 41
3.5
 42
0.0625
 43
0.38
 44
0.18
 45
0.0
 46
0.0
 47
0.5
 48
0.5
140
3.5
141
0.09
142
0.0
143
25.4
144
1.0
145
0.0
146
1.0
147
0.09
 71
0.0
 72
0.0
 73
0
 74
0
 75
0
 76
0
 77
1
 78
8
170
0
171
2
172
0
173
0
174
0
175
0
176
0
177
0
178
5
270
2
271
2
272
2
273
2
274
2
275
0
280
0
281
0
282
0
283
1
284
8
285
0
286
0
287
3
288
0
340
11
341
219
342
219
343
219
344
219
  0
DIMSTYLE
105
225
100
AcDbSymbolTableRecord
100
AcDbDimStyleTableRecord
  2
DIMSTYLE_4
 70
0
  3

  4

 40
1.0
 41
3.5
 42
0.0625
 43
0.38
 44
0.18
 45
0.0
 46
0.0
 47
-0.038
 48
0.043
140
3.5
141
0.09
142
0.0
143
25.4
144
1.0
145
0.0
146
1.0
147
0.09
 71
0.0
 72
0.0
 73
0
 74
0
 75
0
 76
0
 77
1
 78
8
170
0
171
2
172
0
173
0
174
0
175
0
176
0
177
0
178
5
270
2
271
3
272
3
273
2
274
2
275
0
280
0
281
0
282
0
283
1
284
8
285
0
286
0
287
3
288
0
340
11
341
219
342
219
343
219
344
219
  0
DIMSTYLE
105
226
100
AcDbSymbolTableRecord
100
AcDbDimStyleTableRecord
  2
DIMSTYLE_5
 70
0
  3

  4

 40
1.0
 41
3.5
 42
0.0625
 43
0.38
 44
0.18
 45
0.0
 46
0.0
 47
0.3
 48
0.3
140
3.5
141
0.09
142
0.0
143
25.4
144
1.0
145
0.0
146
1.0
147
0.09
 71
0.0
 72
0.0
 73
0
 74
0
 75
0
 76
0
 77
1
 78
8
170
0
171
2
172
0
173
0
174
0
175
0
176
0
177
0
178
5
270
2
271
2
272
2
273
2
274
2
275
0
280
0
281
0
282
0
283
1
284
8
285
0
286
0
287
3
288
0
340
11
341
219
342
219
343
219
344
219
  0
ENDTAB
  0
ENDSEC
  0
SECTION
  2
BLOCKS
  0
BLOCK
  5
20
100
AcDbEntity
  8
0
100
AcDbBlockBegin
  2
*Model_Space
 70
0
 10
0.0
 20
0.0
 30
0.0
  3
*Model_Space
  1

  0
ENDBLK
  5
21
100
AcDbEntity
  8
0
100
AcDbBlockEnd
  0
BLOCK
  5
1C
100
AcDbEntity
  8
0
100
AcDbBlockBegin
  2
*Paper_Space
 70
0
 10
0.0
 20
0.0
 30
0.0
  3
*Paper_Space
  1

  0
ENDBLK
  5
1D
100
AcDbEntity
  8
0
100
AcDbBlockEnd
  0
BLOCK
  5
227
100
AcDbEntity
  8
0
100
AcDbBlockBegin
  2
_FILLED
 70
64
 10
0.0
 20
0.0
  3
_FILLED
  1

  0
SOLID
  5
228
100
AcDbEntity
  8
0
  6
BYBLOCK
 62
0
100
AcDbTrace
 10
0.0
 20
0.0
 11
-1.0
 21
0.125
 12
-1.0
 22
-0.125
 13
-1.0
 23
-0.125
  0
ENDBLK
  5
229
100
AcDbEntity
  8
0
  6
BYBLOCK
 62
0
100
AcDbBlockEnd
  0
BLOCK
  5
22A
100
AcDbEntity
  8
0
100
AcDbBlockBegin
 62
2
  6
CONTINUOUS
  2
*D0
 70
65
 10
0.0
 20
0.0
  3
*D0
  1

  0
MTEXT
  5
22B
100
AcDbEntity
  8
0
100
AcDbMText
 62
5
  6
CONTINUOUS
  7
TEXTSTYLE_2
 71
2
 72
1
 10
242.3122825432
 20
132.523325577
 30
0.0
 11
0.0
 21
1.0
 31
0.0
 44
0.9
  1
{\Fgdt;n}\Ftxt;44
 40
3.5
 41
10.1666666667
  0
LINE
  5
22C
100
AcDbEntity
  8
0
100
AcDbLine
 62
2
  6
CONTINUOUS
 10
210.7576988046
 20
154.498325577
 11
217.1544923344
 21
154.498325577
  0
LINE
  5
22D
100
AcDbEntity
  8
0
100
AcDbLine
 62
2
  6
CONTINUOUS
 10
223.4381496872
 20
154.498325577
 11
248.1872825432
 21
154.498325577
  0
LINE
  5
22E
100
AcDbEntity
  8
0
100
AcDbLine
 62
2
  6
CONTINUOUS
 10
210.7576988046
 20
110.548325577
 11
237.1973429
 21
110.548325577
  0
LINE
  5
22F
100
AcDbEntity
  8
0
100
AcDbLine
 62
2
  6
CONTINUOUS
 10
241.0044459438
 20
110.548325577
 11
248.1872825432
 21
110.548325577
  0
LINE
  5
230
100
AcDbEntity
  8
0
100
AcDbLine
 62
2
  6
CONTINUOUS
 10
246.6872825432
 20
154.498325577
 11
246.6872825432
 21
132.523325577
  0
LINE
  5
231
100
AcDbEntity
  8
0
100
AcDbLine
 62
2
  6
CONTINUOUS
 10
246.6872825432
 20
110.548325577
 11
246.6872825432
 21
132.523325577
  0
INSERT
  5
232
100
AcDbEntity
  8
0
100
AcDbBlockReference
 62
2
  6
CONTINUOUS
  2
_FILLED
 10
246.6872825432
 20
154.498325577
 41
3.5
 42
3.5
 43
3.5
 50
90.0
  0
INSERT
  5
233
100
AcDbEntity
  8
0
100
AcDbBlockReference
 62
2
  6
CONTINUOUS
  2
_FILLED
 10
246.6872825432
 20
110.548325577
 41
3.5
 42
3.5
 43
3.5
 50
270.0
  0
ENDBLK
  5
234
100
AcDbEntity
  8
0
  6
BYBLOCK
 62
0
100
AcDbBlockEnd
  0
BLOCK
  5
235
100
AcDbEntity
  8
0
100
AcDbBlockBegin
 62
2
  6
CONTINUOUS
  2
*D1
 70
65
 10
0.0
 20
0.0
  3
*D1
  1

  0
MTEXT
  5
236
100
AcDbEntity
  8
0
100
AcDbMText
 62
5
  6
CONTINUOUS
  7
STANDARD
 71
2
 72
1
 10
230.3315595006
 20
93.4673686164
 30
0.0
 11
0.1545745654
 21
0.9879811252
 31
0.0
 44
0.9
  1
4\Fgdt;{\Fgdt;~}\Ftxt;30'
 40
3.5
 41
12.3333333333
  0
LINE
  5
237
100
AcDbEntity
  8
0
100
AcDbLine
 62
2
  6
CONTINUOUS
 10
179.4196118789
 20
108.370079979
 11
239.5326825443
 21
113.1010812428
  0
LINE
  5
238
100
AcDbEntity
  8
0
100
AcDbLine
 62
2
  6
CONTINUOUS
 10
151.4189251009
 20
106.048325577
 11
185.5566702072
 21
106.048325577
  0
LINE
  5
239
100
AcDbEntity
  8
0
100
AcDbLine
 62
2
  6
CONTINUOUS
 10
215.3563150985
 20
106.048325577
 11
239.8097860691
 21
106.048325577
  0
ARC
  5
23A
100
AcDbEntity
  8
0
100
AcDbCircle
 62
2
  6
CONTINUOUS
 10
149.9189251009
 20
106.048325577
 40
88.3908609682
100
AcDbArc
 50
4.5
 51
8.3892558949
  0
ARC
  5
23B
100
AcDbEntity
  8
0
100
AcDbCircle
 62
2
  6
CONTINUOUS
 10
149.9189251009
 20
106.048325577
 40
88.3908609682
100
AcDbArc
 50
351.107876718
 51
0.0
  0
ARC
  5
23C
100
AcDbEntity
  8
0
100
AcDbCircle
 62
2
  6
CONTINUOUS
 10
149.9189251009
 20
106.048325577
 40
88.3908609682
100
AcDbArc
 50
360.0
 51
4.5
  0
SOLID
  5
23D
100
AcDbEntity
  8
0
100
AcDbTrace
 62
2
  6
CONTINUOUS
 10
237.2582908554
 20
116.4235293418
 11
238.0373065437
 21
112.9833925992
 12
238.1290634593
 22
116.5094366883
 13
238.1290634593
 23
116.5094366883
  0
SOLID
  5
23E
100
AcDbEntity
  8
0
100
AcDbTrace
 62
2
  6
CONTINUOUS
 10
238.6779103595
 20
102.5403502697
 11
238.3097860691
 21
106.048325577
 12
237.8030818442
 22
102.5576727615
 13
237.8030818442
 23
102.5576727615
  0
ENDBLK
  5
23F
100
AcDbEntity
  8
0
  6
BYBLOCK
 62
0
100
AcDbBlockEnd
  0
BLOCK
  5
240
100
AcDbEntity
  8
0
100
AcDbBlockBegin
 62
2
  6
CONTINUOUS
  2
*D2
 70
65
 10
0.0
 20
0.0
  3
*D2
  1

  0
MTEXT
  5
241
100
AcDbEntity
  8
0
100
AcDbMText
 62
5
  6
CONTINUOUS
  7
STANDARD
 71
2
 72
1
 10
142.0968464137
 20
181.0867831182
 30
0.0
 11
1.0
 21
0.0
 31
0.0
 44
0.9
  1
130
 40
3.5
 41
7.25
  0
LINE
  5
242
100
AcDbEntity
  8
0
100
AcDbLine
 62
2
  6
CONTINUOUS
 10
77.0968464137
 20
160.1064428825
 11
77.0968464137
 21
178.2117831182
  0
LINE
  5
243
100
AcDbEntity
  8
0
100
AcDbLine
 62
2
  6
CONTINUOUS
 10
207.0968464137
 20
131.8239002858
 11
207.0968464137
 21
178.2117831182
  0
LINE
  5
244
100
AcDbEntity
  8
0
100
AcDbLine
 62
2
  6
CONTINUOUS
 10
77.0968464137
 20
176.7117831182
 11
142.0968464137
 21
176.7117831182
  0
LINE
  5
245
100
AcDbEntity
  8
0
100
AcDbLine
 62
2
  6
CONTINUOUS
 10
207.0968464137
 20
176.7117831182
 11
142.0968464137
 21
176.7117831182
  0
INSERT
  5
246
100
AcDbEntity
  8
0
100
AcDbBlockReference
 62
2
  6
CONTINUOUS
  2
_FILLED
 10
77.0968464137
 20
176.7117831182
 41
3.5
 42
3.5
 43
3.5
 50
180.0
  0
INSERT
  5
247
100
AcDbEntity
  8
0
100
AcDbBlockReference
 62
2
  6
CONTINUOUS
  2
_FILLED
 10
207.0968464137
 20
176.7117831182
 41
3.5
 42
3.5
 43
3.5
  0
ENDBLK
  5
248
100
AcDbEntity
  8
0
  6
BYBLOCK
 62
0
100
AcDbBlockEnd
  0
BLOCK
  5
249
100
AcDbEntity
  8
0
100
AcDbBlockBegin
 62
2
  6
CONTINUOUS
  2
*D3
 70
65
 10
0.0
 20
0.0
  3
*D3
  1

  0
MTEXT
  5
24A
100
AcDbEntity
  8
0
100
AcDbMText
 62
5
  6
CONTINUOUS
  7
TEXTSTYLE_2
 71
2
 72
1
 10
224.9436202123
 20
132.523325577
 30
0.0
 11
0.0
 21
1.0
 31
0.0
 44
0.9
  1
{\Fgdt;n}\Ftxt;25
 40
3.5
 41
9.9166666667
  0
LINE
  5
24B
100
AcDbEntity
  8
0
100
AcDbLine
 62
2
  6
CONTINUOUS
 10
210.7576988046
 20
120.043575577
 11
230.8186202123
 21
120.043575577
  0
LINE
  5
24C
100
AcDbEntity
  8
0
100
AcDbLine
 62
2
  6
CONTINUOUS
 10
210.7576988046
 20
145.003075577
 11
230.8186202123
 21
145.003075577
  0
LINE
  5
24D
100
AcDbEntity
  8
0
100
AcDbLine
 62
2
  6
CONTINUOUS
 10
229.3186202123
 20
120.043575577
 11
229.3186202123
 21
132.523325577
  0
LINE
  5
24E
100
AcDbEntity
  8
0
100
AcDbLine
 62
2
  6
CONTINUOUS
 10
229.3186202123
 20
145.003075577
 11
229.3186202123
 21
132.523325577
  0
INSERT
  5
24F
100
AcDbEntity
  8
0
100
AcDbBlockReference
 62
2
  6
CONTINUOUS
  2
_FILLED
 10
229.3186202123
 20
120.043575577
 41
3.5
 42
3.5
 43
3.5
 50
270.0
  0
INSERT
  5
250
100
AcDbEntity
  8
0
100
AcDbBlockReference
 62
2
  6
CONTINUOUS
  2
_FILLED
 10
229.3186202123
 20
145.003075577
 41
3.5
 42
3.5
 43
3.5
 50
90.0
  0
ENDBLK
  5
251
100
AcDbEntity
  8
0
  6
BYBLOCK
 62
0
100
AcDbBlockEnd
  0
BLOCK
  5
252
100
AcDbEntity
  8
0
100
AcDbBlockBegin
 62
2
  6
CONTINUOUS
  2
*D4
 70
65
 10
0.0
 20
0.0
  3
*D4
  1

  0
MTEXT
  5
253
100
AcDbEntity
  8
0
100
AcDbMText
 62
5
  6
CONTINUOUS
  7
STANDARD
 71
2
 72
1
 10
153.0968464137
 20
174.2562507017
 30
0.0
 11
1.0
 21
0.0
 31
0.0
 44
0.9
  1
108
 40
3.5
 41
7.5
  0
LINE
  5
254
100
AcDbEntity
  8
0
100
AcDbLine
 62
2
  6
CONTINUOUS
 10
207.0968464137
 20
112.048325577
 11
207.0968464137
 21
171.3812507017
  0
LINE
  5
255
100
AcDbEntity
  8
0
100
AcDbLine
 62
2
  6
CONTINUOUS
 10
99.0968464137
 20
161.7549332375
 11
99.0968464137
 21
171.3812507017
  0
LINE
  5
256
100
AcDbEntity
  8
0
100
AcDbLine
 62
2
  6
CONTINUOUS
 10
207.0968464137
 20
169.8812507017
 11
153.0968464137
 21
169.8812507017
  0
LINE
  5
257
100
AcDbEntity
  8
0
100
AcDbLine
 62
2
  6
CONTINUOUS
 10
99.0968464137
 20
169.8812507017
 11
153.0968464137
 21
169.8812507017
  0
INSERT
  5
258
100
AcDbEntity
  8
0
100
AcDbBlockReference
 62
2
  6
CONTINUOUS
  2
_FILLED
 10
207.0968464137
 20
169.8812507017
 41
3.5
 42
3.5
 43
3.5
  0
INSERT
  5
259
100
AcDbEntity
  8
0
100
AcDbBlockReference
 62
2
  6
CONTINUOUS
  2
_FILLED
 10
99.0968464137
 20
169.8812507017
 41
3.5
 42
3.5
 43
3.5
 50
180.0
  0
ENDBLK
  5
25A
100
AcDbEntity
  8
0
  6
BYBLOCK
 62
0
100
AcDbBlockEnd
  0
BLOCK
  5
25B
100
AcDbEntity
  8
0
100
AcDbBlockBegin
 62
2
  6
CONTINUOUS
  2
*D5
 70
65
 10
0.0
 20
0.0
  3
*D5
  1

  0
MTEXT
  5
25C
100
AcDbEntity
  8
0
100
AcDbMText
 62
5
  6
CONTINUOUS
  7
STANDARD
 71
2
 72
1
 10
123.0968464137
 20
189.2479548056
 30
0.0
 11
1.0
 21
0.0
 31
0.0
 44
0.9
  1
168
 40
3.5
 41
7.5
  0
LINE
  5
25D
100
AcDbEntity
  8
0
100
AcDbLine
 62
2
  6
CONTINUOUS
 10
207.0968464137
 20
112.048325577
 11
207.0968464137
 21
186.3729548056
  0
LINE
  5
25E
100
AcDbEntity
  8
0
100
AcDbLine
 62
2
  6
CONTINUOUS
 10
39.0968464137
 20
113.8372098077
 11
39.0968464137
 21
186.3729548056
  0
LINE
  5
25F
100
AcDbEntity
  8
0
100
AcDbLine
 62
2
  6
CONTINUOUS
 10
207.0968464137
 20
184.8729548056
 11
123.0968464137
 21
184.8729548056
  0
LINE
  5
260
100
AcDbEntity
  8
0
100
AcDbLine
 62
2
  6
CONTINUOUS
 10
39.0968464137
 20
184.8729548056
 11
123.0968464137
 21
184.8729548056
  0
INSERT
  5
261
100
AcDbEntity
  8
0
100
AcDbBlockReference
 62
2
  6
CONTINUOUS
  2
_FILLED
 10
207.0968464137
 20
184.8729548056
 41
3.5
 42
3.5
 43
3.5
  0
INSERT
  5
262
100
AcDbEntity
  8
0
100
AcDbBlockReference
 62
2
  6
CONTINUOUS
  2
_FILLED
 10
39.0968464137
 20
184.8729548056
 41
3.5
 42
3.5
 43
3.5
 50
180.0
  0
ENDBLK
  5
263
100
AcDbEntity
  8
0
  6
BYBLOCK
 62
0
100
AcDbBlockEnd
  0
BLOCK
  5
264
100
AcDbEntity
  8
0
100
AcDbBlockBegin
 62
2
  6
CONTINUOUS
  2
*D6
 70
65
 10
0.0
 20
0.0
  3
*D6
  1

  0
MTEXT
  5
265
100
AcDbEntity
  8
0
100
AcDbMText
 62
5
  6
CONTINUOUS
  7
TEXTSTYLE_2
 71
2
 72
1
 10
257.6966403008
 20
132.523325577
 30
0.0
 11
0.0
 21
1.0
 31
0.0
 44
0.9
  1
{\Fgdt;n}\Ftxt;53
 40
3.5
 41
9.6666666667
  0
LINE
  5
266
100
AcDbEntity
  8
0
100
AcDbLine
 62
2
  6
CONTINUOUS
 10
151.4189251009
 20
158.998325577
 11
205.052633729
 21
158.998325577
  0
LINE
  5
267
100
AcDbEntity
  8
0
100
AcDbLine
 62
2
  6
CONTINUOUS
 10
224.9120940045
 20
158.998325577
 11
263.5716403008
 21
158.998325577
  0
LINE
  5
268
100
AcDbEntity
  8
0
100
AcDbLine
 62
2
  6
CONTINUOUS
 10
151.4189251009
 20
106.048325577
 11
202.8471824054
 21
106.048325577
  0
LINE
  5
269
100
AcDbEntity
  8
0
100
AcDbLine
 62
2
  6
CONTINUOUS
 10
214.3866148897
 20
106.048325577
 11
263.5716403008
 21
106.048325577
  0
LINE
  5
26A
100
AcDbEntity
  8
0
100
AcDbLine
 62
2
  6
CONTINUOUS
 10
262.0716403008
 20
158.998325577
 11
262.0716403008
 21
132.523325577
  0
LINE
  5
26B
100
AcDbEntity
  8
0
100
AcDbLine
 62
2
  6
CONTINUOUS
 10
262.0716403008
 20
106.048325577
 11
262.0716403008
 21
132.523325577
  0
INSERT
  5
26C
100
AcDbEntity
  8
0
100
AcDbBlockReference
 62
2
  6
CONTINUOUS
  2
_FILLED
 10
262.0716403008
 20
158.998325577
 41
3.5
 42
3.5
 43
3.5
 50
90.0
  0
INSERT
  5
26D
100
AcDbEntity
  8
0
100
AcDbBlockReference
 62
2
  6
CONTINUOUS
  2
_FILLED
 10
262.0716403008
 20
106.048325577
 41
3.5
 42
3.5
 43
3.5
 50
270.0
  0
ENDBLK
  5
26E
100
AcDbEntity
  8
0
  6
BYBLOCK
 62
0
100
AcDbBlockEnd
  0
ENDSEC
  0
SECTION
  2
ENTITIES
  0
DIMENSION
  5
26F
100
AcDbEntity
  8
0
100
AcDbDimension
 62
2
  6
CONTINUOUS
  2
*D0
 10
246.6872825432
 20
110.548325577
 11
245.2011363175
 21
130.2510840571
 70
160
 71
2
 42
43.95
  1
%%c<>
  3
DIMSTYLE_1
100
AcDbAlignedDimension
 13
210.7576988046
 23
154.498325577
 14
210.7576988046
 24
110.548325577
 50
270.0
100
AcDbRotatedDimension
  0
DIMENSION
  5
270
100
AcDbEntity
  8
0
100
AcDbDimension
 62
2
  6
CONTINUOUS
  2
*D1
 10
239.8097860691
 20
106.048325577
 11
229.880595612
 21
94.5533693822
 70
162
 71
2
 42
0.0785398163
  3
DIMSTYLE_2
100
AcDb2LineAngularDimension
 13
239.5326825443
 23
113.1010812428
 14
179.4196118789
 24
108.370079979
 15
151.4189251009
 25
106.048325577
 16
238.2416399187
 26
109.5185344934
  0
DIMENSION
  5
271
100
AcDbEntity
  8
0
100
AcDbDimension
 62
2
  6
CONTINUOUS
  2
*D2
 10
207.0968464137
 20
176.7117831182
 11
138.4718464137
 21
179.3367831182
 70
160
 71
2
 42
130.0
  3
DIMSTYLE_3
100
AcDbAlignedDimension
 13
77.0968464137
 23
160.1064428825
 14
207.0968464137
 24
131.8239002858
100
AcDbRotatedDimension
  0
DIMENSION
  5
272
100
AcDbEntity
  8
0
100
AcDbDimension
 62
2
  6
CONTINUOUS
  2
*D3
 10
229.3186202123
 20
145.003075577
 11
227.8044693856
 21
130.3069588485
 70
160
 71
2
 42
24.9595
  1
%%c<>
  3
DIMSTYLE_4
100
AcDbAlignedDimension
 13
210.7576988046
 23
120.043575577
 14
210.7576988046
 24
145.003075577
 50
90.0
100
AcDbRotatedDimension
  0
DIMENSION
  5
273
100
AcDbEntity
  8
0
100
AcDbDimension
 62
2
  6
CONTINUOUS
  2
*D4
 10
99.0968464137
 20
169.8812507017
 11
149.3468464137
 21
172.5062507017
 70
160
 71
2
 42
108.0
  3
DIMSTYLE_5
100
AcDbAlignedDimension
 13
207.0968464137
 23
112.048325577
 14
99.0968464137
 24
161.7549332375
 50
180.0
100
AcDbRotatedDimension
  0
DIMENSION
  5
274
100
AcDbEntity
  8
0
100
AcDbDimension
 62
2
  6
CONTINUOUS
  2
*D5
 10
39.0968464137
 20
184.8729548056
 11
119.3468464137
 21
187.4979548056
 70
160
 71
2
 42
168.0
  3
DIMSTYLE_3
100
AcDbAlignedDimension
 13
207.0968464137
 23
112.048325577
 14
39.0968464137
 24
113.8372098077
 50
180.0
100
AcDbRotatedDimension
  0
DIMENSION
  5
275
100
AcDbEntity
  8
0
100
AcDbDimension
 62
2
  6
CONTINUOUS
  2
*D6
 10
262.0716403008
 20
106.048325577
 11
260.5294848731
 21
130.36283364
 70
160
 71
2
 42
52.95
  1
%%c<>
  3
DIMSTYLE_1
100
AcDbAlignedDimension
 13
151.4189251009
 23
158.998325577
 14
151.4189251009
 24
106.048325577
 50
270.0
100
AcDbRotatedDimension
  0
MTEXT
  5
276
100
AcDbEntity
  8
0
100
AcDbMText
 62
5
  6
CONTINUOUS
  7
STANDARD
 71
1
 72
1
 10
12.7834264553
 20
81.4822310291
 30
0.0
 11
1.0
 21
0.0
 31
0.0
 44
0.9
  3
Für diese Unterlage behalten wir das Ur-\Pheberrecht. Sie darf nur für den von uns \Pbestimmten Zweck benutzt und ohne unsere \PZustimmung weder vervielfältigt noch\PDritten zugänglich gemacht werden\P \PWe own the copyright of this document. It \Pde
  1
termined and may neither be copied or \Pmade accessible to outsiders without our\Ppermission.\P \PCe plan reste notre propriété. Il ne peut\Pêtre utilisé, copié ou reproduit sans notre\Paccord.\P 
 40
3.5
 41
104.8333333333
  0
LINE
  5
277
100
AcDbEntity
  8
0
100
AcDbLine
 62
7
  6
CONTINUOUS
 10
0.0
 20
0.0
 11
0.0
 21
210.0
  0
LINE
  5
278
100
AcDbEntity
  8
0
100
AcDbLine
 62
7
  6
CONTINUOUS
 10
0.0
 20
0.0
 11
297.0
 21
0.0
  0
LINE
  5
279
100
AcDbEntity
  8
0
100
AcDbLine
 62
7
  6
CONTINUOUS
 10
0.0
 20
210.0
 11
297.0
 21
210.0
  0
LINE
  5
27A
100
AcDbEntity
  8
0
100
AcDbLine
 62
7
  6
CONTINUOUS
 10
297.0
 20
0.0
 11
297.0
 21
210.0
  0
LINE
  5
27B
100
AcDbEntity
  8
0
100
AcDbLine
 62
7
  6
CONTINUOUS
 10
39.0968464137
 20
110.8309875842
 11
39.0968464137
 21
147.4845702158
  0
LINE
  5
27C
100
AcDbEntity
  8
KURVEN
100
AcDbLine
 62
4
  6
CONTINUOUS
 10
39.0968464137
 20
110.0026474014
 11
39.0968464137
 21
151.734899564
  0
LINE
  5
27D
100
AcDbEntity
  8
ACHSEN
100
AcDbLine
 62
7
  6
CONTINUOUS
 10
39.0968464137
 20
147.4845702158
 11
39.0968464137
 21
151.271804891
  0
LINE
  5
27E
100
AcDbEntity
  8
ACHSEN
100
AcDbLine
 62
7
  6
CONTINUOUS
 10
40.5968464137
 20
152.0203151906
 11
40.5968464137
 21
148.2345702158
  0
LINE
  5
27F
100
AcDbEntity
  8
0
100
AcDbLine
 62
7
  6
CONTINUOUS
 10
40.5968464137
 20
148.2345702158
 11
40.5968464137
 21
109.9649621804
  0
LINE
  5
280
100
AcDbEntity
  8
ACHSEN
100
AcDbLine
 62
7
  6
CENTER
 10
61.5968464137
 20
109.58984007
 11
61.5968464137
 21
156.7116961416
  0
LINE
  5
281
100
AcDbEntity
  8
0
100
AcDbLine
 62
7
  6
CONTINUOUS
 10
77.0968482497
 20
163.7233236697
 11
77.3968483396
 21
164.0233237236
  0
LINE
  5
282
100
AcDbEntity
  8
0
100
AcDbLine
 62
9
  6
CONTINUOUS
 10
40.5968464137
 20
148.2345702158
 11
39.0968464137
 21
147.4845702158
  0
LINE
  5
283
100
AcDbEntity
  8
0
100
AcDbLine
 62
7
  6
CONTINUOUS
 10
40.5968464137
 20
109.9649621804
 11
39.0968464137
 21
110.8309875842
  0
LINE
  5
284
100
AcDbEntity
  8
0
100
AcDbLine
 62
7
  6
CONTINUOUS
 10
74.8969095028
 20
153.1434259466
 11
74.8969095028
 21
148.9808563257
  0
LINE
  5
285
100
AcDbEntity
  8
0
100
AcDbLine
 62
7
  6
CONTINUOUS
 10
74.8969095028
 20
137.7481967076
 11
74.8969095028
 21
110.8409236978
  0
LINE
  5
286
100
AcDbEntity
  8
0
100
AcDbLine
 62
9
  6
CONTINUOUS
 10
75.1018695248
 20
152.9485121468
 11
75.1018695248
 21
147.2082677818
  0
LINE
  5
287
100
AcDbEntity
  8
0
100
AcDbLine
 62
9
  6
CONTINUOUS
 10
75.1018695248
 20
140.7092687638
 11
75.1018695248
 21
109.6524401855
  0
LINE
  5
288
100
AcDbEntity
  8
0
100
AcDbLine
 62
9
  6
CONTINUOUS
 10
75.7897396325
 20
109.7804323582
 11
75.7897396325
 21
110.4197689261
  0
LINE
  5
289
100
AcDbEntity
  8
0
100
AcDbLine
 62
9
  6
CONTINUOUS
 10
75.7897396325
 20
138.9378653378
 11
75.7897396325
 21
148.2123424672
  0
LINE
  5
28A
100
AcDbEntity
  8
0
100
AcDbLine
 62
9
  6
CONTINUOUS
 10
76.7018695248
 20
152.9887097159
 11
76.7018695248
 21
148.867803864
  0
LINE
  5
28B
100
AcDbEntity
  8
0
100
AcDbLine
 62
9
  6
CONTINUOUS
 10
76.7018695248
 20
137.7062760302
 11
76.7018695248
 21
110.9958968369
  0
LINE
  5
28C
100
AcDbEntity
  8
0
100
AcDbLine
 62
7
  6
CONTINUOUS
 10
77.0968464137
 20
101.3236012466
 11
77.0968464137
 21
163.7230499075
  0
LINE
  5
28D
100
AcDbEntity
  8
0
100
AcDbLine
 62
7
  6
CONTINUOUS
 10
77.3968464873
 20
101.023325577
 11
77.3968464873
 21
164.023325577
  0
LINE
  5
28E
100
AcDbEntity
  8
0
100
AcDbLine
 62
7
  6
CONTINUOUS
 10
76.8967815619
 20
149.3129001628
 11
76.8968464137
 21
155.0568104381
  0
LINE
  5
28F
100
AcDbEntity
  8
0
100
AcDbLine
 62
7
  6
CONTINUOUS
 10
76.8967815619
 20
111.1131574856
 11
76.8967504474
 21
137.1485507911
  0
LINE
  5
290
100
AcDbEntity
  8
0
100
AcDbLine
 62
9
  6
CONTINUOUS
 10
40.5968464137
 20
111.5872098077
 11
39.0968464137
 21
112.3372098077
  0
LINE
  5
291
100
AcDbEntity
  8
0
100
AcDbLine
 62
7
  6
CONTINUOUS
 10
77.0968482497
 20
101.3233274844
 11
77.3968483396
 21
101.0233274305
  0
LINE
  5
292
100
AcDbEntity
  8
0
100
AcDbLine
 62
9
  6
CONTINUOUS
 10
87.2025088464
 20
162.4372804235
 11
87.2025088464
 21
142.392738196
  0
LINE
  5
293
100
AcDbEntity
  8
0
100
AcDbLine
 62
9
  6
CONTINUOUS
 10
87.2025088464
 20
122.6539129581
 11
87.2025088464
 21
102.6093707306
  0
LINE
  5
294
100
AcDbEntity
  8
0
100
AcDbLine
 62
9
  6
CONTINUOUS
 10
87.6355215483
 20
162.6039183374
 11
87.6355215483
 21
141.8725468916
  0
LINE
  5
295
100
AcDbEntity
  8
0
100
AcDbLine
 62
9
  6
CONTINUOUS
 10
87.6355215483
 20
123.1741042625
 11
87.6355215483
 21
102.4427328167
  0
LINE
  5
296
100
AcDbEntity
  8
ACHSEN
100
AcDbLine
 62
7
  6
CENTER
 10
89.0968464137
 20
155.9548750379
 11
89.0968464137
 21
167.023325577
  0
LINE
  5
297
100
AcDbEntity
  8
0
100
AcDbLine
 62
9
  6
CONTINUOUS
 10
90.5581712791
 20
162.6039183374
 11
90.5581712791
 21
141.8725468916
  0
LINE
  5
298
100
AcDbEntity
  8
0
100
AcDbLine
 62
9
  6
CONTINUOUS
 10
90.5581712791
 20
123.1741042625
 11
90.5581712791
 21
102.4427328167
  0
LINE
  5
299
100
AcDbEntity
  8
0
100
AcDbLine
 62
9
  6
CONTINUOUS
 10
90.991183981
 20
162.4372804235
 11
90.991183981
 21
142.392738196
  0
LINE
  5
29A
100
AcDbEntity
  8
0
100
AcDbLine
 62
9
  6
CONTINUOUS
 10
90.991183981
 20
122.6539129581
 11
90.991183981
 21
102.6093707306
  0
LINE
  5
29B
100
AcDbEntity
  8
0
100
AcDbLine
 62
7
  6
CONTINUOUS
 10
99.0968464137
 20
101.023325577
 11
77.3968464861
 21
101.023325577
  0
LINE
  5
29C
100
AcDbEntity
  8
0
100
AcDbLine
 62
7
  6
CONTINUOUS
 10
99.0968464137
 20
101.023325577
 11
99.0968464137
 21
164.023325577
  0
LINE
  5
29D
100
AcDbEntity
  8
RUNDUNGEN
100
AcDbLine
 62
9
  6
CONTINUOUS
 10
100.0968464137
 20
158.998325577
 11
100.0968464137
 21
106.048325577
  0
LINE
  5
29E
100
AcDbEntity
  8
0
100
AcDbLine
 62
7
  6
CONTINUOUS
 10
75.7897396325
 20
109.7804323582
 11
75.1072492363
 21
109.097941962
  0
LINE
  5
29F
100
AcDbEntity
  8
RUNDUNGEN
100
AcDbLine
 62
7
  6
CONTINUOUS
 10
206.1753055095
 20
110.475798735
 11
149.9189251009
 21
106.048325577
  0
LINE
  5
2A0
100
AcDbEntity
  8
0
100
AcDbLine
 62
7
  6
CONTINUOUS
 10
149.9189251009
 20
106.048325577
 11
206.1753055095
 21
110.475798735
  0
LINE
  5
2A1
100
AcDbEntity
  8
0
100
AcDbLine
 62
7
  6
CONTINUOUS
 10
90.5581712791
 20
102.4427328167
 11
87.6355215483
 21
102.4427328167
  0
LINE
  5
2A2
100
AcDbEntity
  8
0
100
AcDbLine
 62
7
  6
CONTINUOUS
 10
149.9189251009
 20
106.048325577
 11
146.3468464137
 21
106.048325577
  0
LINE
  5
2A3
100
AcDbEntity
  8
0
100
AcDbLine
 62
7
  6
CONTINUOUS
 10
137.8468464137
 20
106.048325577
 11
100.0968464137
 21
106.048325577
  0
LINE
  5
2A4
100
AcDbEntity
  8
0
100
AcDbLine
 62
7
  6
CONTINUOUS
 10
138.5808210099
 20
106.348325577
 11
139.5968464137
 21
106.348325577
  0
LINE
  5
2A5
100
AcDbEntity
  8
0
100
AcDbLine
 62
7
  6
CONTINUOUS
 10
144.5968464137
 20
106.348325577
 11
145.6128718175
 21
106.348325577
  0
LINE
  5
2A6
100
AcDbEntity
  8
0
100
AcDbLine
 62
7
  6
CONTINUOUS
 10
75.3498751646
 20
109.6465967017
 11
75.1018695248
 21
109.6524401855
  0
LINE
  5
2A7
100
AcDbEntity
  8
0
100
AcDbLine
 62
7
  6
CONTINUOUS
 10
40.5968464137
 20
109.9649621804
 11
75.1072492365
 21
109.0979407412
  0
LINE
  5
2A8
100
AcDbEntity
  8
0
100
AcDbLine
 62
7
  6
CONTINUOUS
 10
146.0128718175
 20
158.805505254
 11
146.3468464137
 21
158.998325577
  0
LINE
  5
2A9
100
AcDbEntity
  8
RUNDUNGEN
100
AcDbLine
 62
7
  6
CONTINUOUS
 10
146.0128718175
 20
158.805505254
 11
146.3468464137
 21
158.998325577
  0
LINE
  5
2AA
100
AcDbEntity
  8
0
100
AcDbLine
 62
9
  6
CONTINUOUS
 10
74.8969095028
 20
110.8409236978
 11
40.5968464137
 21
111.5872098077
  0
LINE
  5
2AB
100
AcDbEntity
  8
DEFAULT_2
100
AcDbLine
 62
8
  6
HIDDEN
 10
147.6466112973
 20
119.693575577
 11
158.7116371325
 21
119.693575577
  0
LINE
  5
2AC
100
AcDbEntity
  8
BOHRUNGEN
100
AcDbLine
 62
8
  6
HIDDEN
 10
160.0968464137
 20
120.043575577
 11
202.9968464137
 21
120.043575577
  0
LINE
  5
2AD
100
AcDbEntity
  8
0
100
AcDbLine
 62
7
  6
CONTINUOUS
 10
146.0128718175
 20
106.2411459001
 11
146.3468464137
 21
106.048325577
  0
LINE
  5
2AE
100
AcDbEntity
  8
RUNDUNGEN
100
AcDbLine
 62
7
  6
CONTINUOUS
 10
146.0128718175
 20
106.2411459001
 11
146.3468464137
 21
106.048325577
  0
LINE
  5
2AF
100
AcDbEntity
  8
0
100
AcDbLine
 62
7
  6
CONTINUOUS
 10
90.5581712791
 20
123.1741042625
 11
87.6355215483
 21
123.1741042625
  0
LINE
  5
2B0
100
AcDbEntity
  8
S_ACHSEN
100
AcDbLine
 62
7
  6
CENTER
 10
36.0968464137
 20
132.523325577
 11
211.0968464137
 21
132.523325577
  0
LINE
  5
2B1
100
AcDbEntity
  8
0
100
AcDbLine
 62
7
  6
CONTINUOUS
 10
75.1018695248
 20
140.7092687638
 11
75.3498751646
 21
140.7102830197
  0
LINE
  5
2B2
100
AcDbEntity
  8
0
100
AcDbLine
 62
9
  6
CONTINUOUS
 10
39.0968464137
 20
137.7481967076
 11
74.8969095028
 21
137.7481967076
  0
LINE
  5
2B3
100
AcDbEntity
  8
0
100
AcDbLine
 62
7
  6
CONTINUOUS
 10
137.8468464137
 20
158.998325577
 11
137.8468464137
 21
106.048325577
  0
LINE
  5
2B4
100
AcDbEntity
  8
RUNDUNGEN
100
AcDbLine
 62
9
  6
CONTINUOUS
 10
138.1808210099
 20
106.2411459001
 11
138.1808210099
 21
158.805505254
  0
LINE
  5
2B5
100
AcDbEntity
  8
RUNDUNGEN
100
AcDbLine
 62
9
  6
CONTINUOUS
 10
138.5808210099
 20
106.348325577
 11
138.5808210099
 21
158.698325577
  0
LINE
  5
2B6
100
AcDbEntity
  8
BEZUGSACHSEN
100
AcDbLine
 62
7
  6
CENTER
 10
142.0968464137
 20
161.698325577
 11
142.0968464137
 21
147.998325577
  0
LINE
  5
2B7
100
AcDbEntity
  8
BEZUGSACHSEN
100
AcDbLine
 62
7
  6
CENTER
 10
142.0968464137
 20
103.348325577
 11
142.0968464137
 21
117.048325577
  0
LINE
  5
2B8
100
AcDbEntity
  8
0
100
AcDbLine
 62
7
  6
CONTINUOUS
 10
90.5581712791
 20
141.8725468916
 11
87.6355215483
 21
141.8725468916
  0
LINE
  5
2B9
100
AcDbEntity
  8
BOHRUNGEN
100
AcDbLine
 62
8
  6
HIDDEN
 10
160.0968464137
 20
145.003075577
 11
202.9968464137
 21
145.003075577
  0
LINE
  5
2BA
100
AcDbEntity
  8
RUNDUNGEN
100
AcDbLine
 62
8
  6
HIDDEN
 10
158.7116371325
 20
145.353075577
 11
147.6466112973
 21
145.353075577
  0
LINE
  5
2BB
100
AcDbEntity
  8
DEFAULT_2
100
AcDbLine
 62
8
  6
HIDDEN
 10
147.6466112973
 20
145.353075577
 11
158.7116371325
 21
145.353075577
  0
LINE
  5
2BC
100
AcDbEntity
  8
RUNDUNGEN
100
AcDbLine
 62
9
  6
CONTINUOUS
 10
145.6128718175
 20
106.348325577
 11
145.6128718175
 21
158.698325577
  0
LINE
  5
2BD
100
AcDbEntity
  8
RUNDUNGEN
100
AcDbLine
 62
9
  6
CONTINUOUS
 10
146.0128718175
 20
106.2411459001
 11
146.0128718175
 21
158.805505254
  0
LINE
  5
2BE
100
AcDbEntity
  8
0
100
AcDbLine
 62
7
  6
CONTINUOUS
 10
146.3468464137
 20
158.998325577
 11
146.3468464137
 21
106.048325577
  0
LINE
  5
2BF
100
AcDbEntity
  8
RUNDUNGEN
100
AcDbLine
 62
9
  6
CONTINUOUS
 10
147.6466112973
 20
119.693575577
 11
147.6466112973
 21
145.353075577
  0
LINE
  5
2C0
100
AcDbEntity
  8
0
100
AcDbLine
 62
7
  6
CONTINUOUS
 10
149.9189251009
 20
106.048325577
 11
149.9189251009
 21
158.998325577
  0
LINE
  5
2C1
100
AcDbEntity
  8
0
100
AcDbLine
 62
7
  6
CONTINUOUS
 10
137.8468464137
 20
106.048325577
 11
138.1808210099
 21
106.2411459001
  0
LINE
  5
2C2
100
AcDbEntity
  8
RUNDUNGEN
100
AcDbLine
 62
7
  6
CONTINUOUS
 10
137.8468464137
 20
106.048325577
 11
138.1808210099
 21
106.2411459001
  0
LINE
  5
2C3
100
AcDbEntity
  8
0
100
AcDbLine
 62
7
  6
CONTINUOUS
 10
75.1018695248
 20
152.9485121468
 11
76.7018695248
 21
152.9887097159
  0
LINE
  5
2C4
100
AcDbEntity
  8
0
100
AcDbLine
 62
7
  6
CONTINUOUS
 10
47.3604511678
 20
152.4516142672
 11
57.1468464137
 21
152.6974825792
  0
LINE
  5
2C5
100
AcDbEntity
  8
0
100
AcDbLine
 62
7
  6
CONTINUOUS
 10
66.2762077469
 20
152.9268439125
 11
74.8969095028
 21
153.1434259466
  0
LINE
  5
2C6
100
AcDbEntity
  8
0
100
AcDbLine
 62
9
  6
CONTINUOUS
 10
40.5968464137
 20
148.2345702158
 11
74.8969095028
 21
148.9808563257
  0
LINE
  5
2C7
100
AcDbEntity
  8
0
100
AcDbLine
 62
7
  6
CONTINUOUS
 10
75.3498751646
 20
147.2130970097
 11
75.1018695248
 21
147.2082677818
  0
LINE
  5
2C8
100
AcDbEntity
  8
0
100
AcDbLine
 62
7
  6
CONTINUOUS
 10
138.5808210099
 20
158.698325577
 11
139.5968464137
 21
158.698325577
  0
LINE
  5
2C9
100
AcDbEntity
  8
BEZUGSACHSEN
100
AcDbLine
 62
7
  6
CONTINUOUS
 10
138.5808210099
 20
158.698325577
 11
139.5968464137
 21
158.698325577
  0
LINE
  5
2CA
100
AcDbEntity
  8
0
100
AcDbLine
 62
7
  6
CONTINUOUS
 10
144.5968464137
 20
158.698325577
 11
145.6128718175
 21
158.698325577
  0
LINE
  5
2CB
100
AcDbEntity
  8
BEZUGSACHSEN
100
AcDbLine
 62
7
  6
CONTINUOUS
 10
144.5968464137
 20
158.698325577
 11
145.6128718175
 21
158.698325577
  0
LINE
  5
2CC
100
AcDbEntity
  8
0
100
AcDbLine
 62
7
  6
CONTINUOUS
 10
149.9189251009
 20
158.998325577
 11
146.3468464137
 21
158.998325577
  0
LINE
  5
2CD
100
AcDbEntity
  8
0
100
AcDbLine
 62
7
  6
CONTINUOUS
 10
100.0968464137
 20
158.998325577
 11
137.8468464137
 21
158.998325577
  0
LINE
  5
2CE
100
AcDbEntity
  8
RUNDUNGEN
100
AcDbLine
 62
7
  6
CONTINUOUS
 10
206.1753055095
 20
154.5708524191
 11
149.9189251009
 21
158.998325577
  0
LINE
  5
2CF
100
AcDbEntity
  8
0
100
AcDbLine
 62
7
  6
CONTINUOUS
 10
149.9189251009
 20
158.998325577
 11
206.1753055095
 21
154.5708524191
  0
LINE
  5
2D0
100
AcDbEntity
  8
0
100
AcDbLine
 62
7
  6
CONTINUOUS
 10
90.5581712791
 20
162.6039183374
 11
87.6355215483
 21
162.6039183374
  0
LINE
  5
2D1
100
AcDbEntity
  8
0
100
AcDbLine
 62
7
  6
CONTINUOUS
 10
99.0968464137
 20
164.023325577
 11
94.3187573189
 21
164.023325577
  0
LINE
  5
2D2
100
AcDbEntity
  8
0
100
AcDbLine
 62
7
  6
CONTINUOUS
 10
83.8749355086
 20
164.023325577
 11
77.3968464861
 21
164.023325577
  0
LINE
  5
2D3
100
AcDbEntity
  8
0
100
AcDbLine
 62
7
  6
CONTINUOUS
 10
137.8468464137
 20
158.998325577
 11
138.1808210099
 21
158.805505254
  0
LINE
  5
2D4
100
AcDbEntity
  8
RUNDUNGEN
100
AcDbLine
 62
7
  6
CONTINUOUS
 10
137.8468464137
 20
158.998325577
 11
138.1808210099
 21
158.805505254
  0
LINE
  5
2D5
100
AcDbEntity
  8
RUNDUNGEN
100
AcDbLine
 62
9
  6
CONTINUOUS
 10
206.1753055095
 20
110.475798735
 11
206.1753055095
 21
154.5708524191
  0
LINE
  5
2D6
100
AcDbEntity
  8
RUNDUNGEN
100
AcDbLine
 62
7
  6
CONTINUOUS
 10
207.0968464137
 20
153.5739350854
 11
207.0968464137
 21
111.4727160687
  0
ARC
  5
2D7
100
AcDbEntity
  8
0
100
AcDbCircle
 62
7
  6
CONTINUOUS
 10
-31.6551647819
 20
113.2138367477
 40
110.4813700654
100
AcDbArc
 50
13.4640903998
 51
14.4111621352
  0
ARC
  5
2D8
100
AcDbEntity
  8
ACHSEN
100
AcDbCircle
 62
7
  6
CONTINUOUS
 10
52.3584180334
 20
116.954922392
 40
35.8451025478
100
AcDbArc
 50
98.0149288422
 51
101.1172700805
  0
ARC
  5
2D9
100
AcDbEntity
  8
0
100
AcDbCircle
 62
7
  6
CONTINUOUS
 10
76.4968464137
 20
109.073325577
 40
1.0
100
AcDbArc
 50
53.0400606802
 51
135.0
  0
ARC
  5
2DA
100
AcDbEntity
  8
0
100
AcDbCircle
 62
7
  6
CONTINUOUS
 10
76.4968464137
 20
155.973325577
 40
1.0
100
AcDbArc
 50
293.5781784782
 51
306.9599393198
  0
ARC
  5
2DB
100
AcDbEntity
  8
0
100
AcDbCircle
 62
7
  6
CONTINUOUS
 10
76.6968464137
 20
153.1886466269
 40
0.2
100
AcDbArc
 50
271.439166666
 51
360.0
  0
ARC
  5
2DC
100
AcDbEntity
  8
0
100
AcDbCircle
 62
7
  6
CONTINUOUS
 10
75.0968464137
 20
153.1484490577
 40
0.2
100
AcDbArc
 50
181.439166666
 51
271.439166666
  0
ARC
  5
2DD
100
AcDbEntity
  8
ACHSEN
100
AcDbCircle
 62
7
  6
CONTINUOUS
 10
-24.6613705642
 20
280.9192651295
 40
144.4768984249
100
AcDbArc
 50
296.187103939
 51
296.8519184685
  0
ARC
  5
2DE
100
AcDbEntity
  8
FASEN
100
AcDbCircle
 62
7
  6
CONTINUOUS
 10
89.3863574586
 20
196.8514066536
 40
33.2876143245
100
AcDbArc
 50
260.536348598
 51
261.5195221874
  0
ARC
  5
2DF
100
AcDbEntity
  8
FASEN
100
AcDbCircle
 62
7
  6
CONTINUOUS
 10
88.8082475961
 20
196.8401389608
 40
33.2763391143
100
AcDbArc
 50
278.4862446768
 51
278.9386216515
  0
ARC
  5
2E0
100
AcDbEntity
  8
FASEN
100
AcDbCircle
 62
7
  6
CONTINUOUS
 10
89.0572991587
 20
195.1207311426
 40
31.5390043832
100
AcDbArc
 50
270.0718441004
 51
278.4997090997
  0
ARC
  5
2E1
100
AcDbEntity
  8
FASEN
100
AcDbCircle
 62
7
  6
CONTINUOUS
 10
89.1099203062
 20
194.7668819468
 40
31.1851331333
100
AcDbArc
 50
261.4570633999
 51
269.9759796157
  0
ARC
  5
2E2
100
AcDbEntity
  8
0
100
AcDbCircle
 62
7
  6
CONTINUOUS
 10
221.3310191881
 20
83.5491277059
 40
159.2595221578
100
AcDbArc
 50
156.0446773748
 51
156.4374589831
  0
ARC
  5
2E3
100
AcDbEntity
  8
BEZUGSACHSEN
100
AcDbCircle
 62
7
  6
CONTINUOUS
 10
142.1085758853
 20
80.0706457799
 40
26.3974476126
100
AcDbArc
 50
90.7315365906
 51
95.459980175
  0
ARC
  5
2E4
100
AcDbEntity
  8
BEZUGSACHSEN
100
AcDbCircle
 62
7
  6
CONTINUOUS
 10
142.0914738748
 20
80.1857095679
 40
26.2823014213
100
AcDbArc
 50
84.5299475453
 51
89.1356900224
  0
ARC
  5
2E5
100
AcDbEntity
  8
BEZUGSACHSEN
100
AcDbCircle
 62
7
  6
CONTINUOUS
 10
142.0947948363
 20
80.4231684625
 40
26.0448194505
100
AcDbArc
 50
89.1351150565
 51
90.7181334562
  0
ARC
  5
2E6
100
AcDbEntity
  8
BEZUGSACHSEN
100
AcDbCircle
 62
7
  6
CONTINUOUS
 10
142.0981995022
 20
141.0447171984
 40
2.8811864948
100
AcDbArc
 50
90.8369239118
 51
98.6924516295
  0
ARC
  5
2E7
100
AcDbEntity
  8
BEZUGSACHSEN
100
AcDbCircle
 62
7
  6
CONTINUOUS
 10
142.0954933253
 20
141.0447171984
 40
2.8811864948
100
AcDbArc
 50
81.3075483705
 51
89.1630760882
  0
ARC
  5
2E8
100
AcDbEntity
  8
BEZUGSACHSEN
100
AcDbCircle
 62
7
  6
CONTINUOUS
 10
142.0954933253
 20
124.0019339557
 40
2.8811864948
100
AcDbArc
 50
270.8369239118
 51
278.6924516294
  0
ARC
  5
2E9
100
AcDbEntity
  8
BEZUGSACHSEN
100
AcDbCircle
 62
7
  6
CONTINUOUS
 10
142.0981995022
 20
124.0019339557
 40
2.8811864948
100
AcDbArc
 50
261.3075483706
 51
269.1630760882
  0
ARC
  5
2EA
100
AcDbEntity
  8
BEZUGSACHSEN
100
AcDbCircle
 62
7
  6
CONTINUOUS
 10
142.0968634923
 20
123.9566821737
 40
2.8359201061
100
AcDbArc
 50
269.1767113831
 51
270.8232886169
  0
ARC
  5
2EB
100
AcDbEntity
  8
BEZUGSACHSEN
100
AcDbCircle
 62
7
  6
CONTINUOUS
 10
142.0968293351
 20
141.0899689811
 40
2.8359201055
100
AcDbArc
 50
89.176711383
 51
90.823288617
  0
ARC
  5
2EC
100
AcDbEntity
  8
RUNDUNGEN
100
AcDbCircle
 62
7
  6
CONTINUOUS
 10
206.0968464137
 20
153.5739350854
 40
1.0
100
AcDbArc
 50
0.0
 51
85.499999998
  0
ARC
  5
2ED
100
AcDbEntity
  8
RUNDUNGEN
100
AcDbCircle
 62
7
  6
CONTINUOUS
 10
206.0968464137
 20
111.4727160687
 40
1.0
100
AcDbArc
 50
274.5000000016
 51
360.0
  0
ARC
  5
2EE
100
AcDbEntity
  8
RUNDUNGEN
100
AcDbCircle
 62
7
  6
CONTINUOUS
 10
100.0968464137
 20
159.998325577
 40
1.0
100
AcDbArc
 50
180.0000000001
 51
270.0
  0
ARC
  5
2EF
100
AcDbEntity
  8
RUNDUNGEN
100
AcDbCircle
 62
7
  6
CONTINUOUS
 10
100.0968464137
 20
105.048325577
 40
1.0
100
AcDbArc
 50
90.0
 51
179.9999999996
  0
ARC
  5
2F0
100
AcDbEntity
  8
RUNDUNGEN
100
AcDbCircle
 62
7
  6
CONTINUOUS
 10
145.6128718175
 20
159.498325577
 40
0.8
100
AcDbArc
 50
270.0
 51
300.0000000016
  0
ARC
  5
2F1
100
AcDbEntity
  8
RUNDUNGEN
100
AcDbCircle
 62
7
  6
CONTINUOUS
 10
145.6128718175
 20
105.548325577
 40
0.8
100
AcDbArc
 50
59.9999999982
 51
90.0
  0
ARC
  5
2F2
100
AcDbEntity
  8
RUNDUNGEN
100
AcDbCircle
 62
7
  6
CONTINUOUS
 10
138.5808210099
 20
159.498325577
 40
0.8
100
AcDbArc
 50
239.9999999984
 51
270.0
  0
ARC
  5
2F3
100
AcDbEntity
  8
RUNDUNGEN
100
AcDbCircle
 62
7
  6
CONTINUOUS
 10
138.5808210099
 20
105.548325577
 40
0.8
100
AcDbArc
 50
90.0
 51
120.0000000018
  0
ARC
  5
2F4
100
AcDbEntity
  8
BEZUGSACHSEN
100
AcDbCircle
 62
7
  6
CONTINUOUS
 10
142.0851108882
 20
184.9761213369
 40
26.3975636252
100
AcDbArc
 50
270.7311903874
 51
275.4599693065
  0
ARC
  5
2F5
100
AcDbEntity
  8
BEZUGSACHSEN
100
AcDbCircle
 62
7
  6
CONTINUOUS
 10
142.1022180918
 20
184.8609161679
 40
26.2822760367
100
AcDbArc
 50
264.5299441311
 51
269.1360783112
  0
ARC
  5
2F6
100
AcDbEntity
  8
BEZUGSACHSEN
100
AcDbCircle
 62
7
  6
CONTINUOUS
 10
142.098895265
 20
184.6234922849
 40
26.0448290436
100
AcDbArc
 50
269.1355121504
 51
270.7177690588
  0
SPLINE
  5
2F7
100
AcDbEntity
  8
0
100
AcDbSpline
 62
2
  6
CONTINUOUS
 70
0
 71
3
 72
18
 73
14
 74
0
 42
0.0000001
 43
0.0000001
 44
0.0000000001
 40
0.0
 40
0.0
 40
0.0
 40
0.0
 40
0.0909090909
 40
0.1818181818
 40
0.2727272727
 40
0.3636363636
 40
0.4545454545
 40
0.5454545455
 40
0.6363636364
 40
0.7272727273
 40
0.8181818182
 40
0.9090909091
 40
1.0
 40
1.0
 40
1.0
 40
1.0
 10
142.0968464137
 20
142.9265053146
 30
0.0
 10
142.3809081217
 20
142.9265053146
 30
0.0
 10
142.9496421615
 20
143.0018155937
 30
0.0
 10
143.7344820497
 20
143.3294406839
 30
0.0
 10
144.3921141376
 20
143.8463650298
 30
0.0
 10
144.8563467818
 20
144.4939781646
 30
0.0
 10
145.1028372172
 20
145.2118547671
 30
0.0
 10
145.1109953082
 20
145.9809834942
 30
0.0
 10
144.8565763828
 20
146.703930027
 30
0.0
 10
144.3919942109
 20
147.3010617424
 30
0.0
 10
143.7340833229
 20
147.7682902436
 30
0.0
 10
142.949826889
 20
148.0567762535
 30
0.0
 10
142.3810039007
 20
148.1226577373
 30
0.0
 10
142.0968464137
 20
148.1226577373
 30
0.0
  0
SPLINE
  5
2F8
100
AcDbEntity
  8
0
100
AcDbSpline
 62
7
  6
CONTINUOUS
 70
0
 71
3
 72
21
 73
17
 74
0
 42
0.0000001
 43
0.0000001
 44
0.0000000001
 40
0.0
 40
0.0
 40
0.0
 40
0.0
 40
0.125
 40
0.1875
 40
0.25
 40
0.3125
 40
0.375
 40
0.4375
 40
0.5
 40
0.5625
 40
0.625
 40
0.6875
 40
0.75
 40
0.8125
 40
0.875
 40
1.0
 40
1.0
 40
1.0
 40
1.0
 10
143.986482411
 20
144.1783786972
 30
0.0
 10
143.9249336091
 20
144.2318680626
 30
0.0
 10
143.8339846156
 20
144.3130240743
 30
0.0
 10
143.7072224534
 20
144.4175442354
 30
0.0
 10
143.5964130685
 20
144.4844244553
 30
0.0
 10
143.4923434407
 20
144.5577291324
 30
0.0
 10
143.3770525475
 20
144.6168458817
 30
0.0
 10
143.2582571912
 20
144.6705347035
 30
0.0
 10
143.1438760691
 20
144.7322455722
 30
0.0
 10
143.0153424731
 20
144.7672961809
 30
0.0
 10
142.8909424048
 20
144.8104711663
 30
0.0
 10
142.7641606997
 20
144.847808905
 30
0.0
 10
142.6318830596
 20
144.8685358976
 30
0.0
 10
142.5021928871
 20
144.8978724091
 30
0.0
 10
142.3228007433
 20
144.9132179845
 30
0.0
 10
142.1870699016
 20
144.9202196426
 30
0.0
 10
142.0968463924
 20
144.9258890865
 30
0.0
  0
SPLINE
  5
2F9
100
AcDbEntity
  8
0
100
AcDbSpline
 62
7
  6
CONTINUOUS
 70
0
 71
3
 72
21
 73
17
 74
0
 42
0.0000001
 43
0.0000001
 44
0.0000000001
 40
0.0
 40
0.0
 40
0.0
 40
0.0
 40
0.125
 40
0.1875
 40
0.25
 40
0.3125
 40
0.375
 40
0.4375
 40
0.5
 40
0.5625
 40
0.625
 40
0.6875
 40
0.75
 40
0.8125
 40
0.875
 40
1.0
 40
1.0
 40
1.0
 40
1.0
 10
142.0968464137
 20
144.9258890865
 30
0.0
 10
142.0098632256
 20
144.9206215242
 30
0.0
 10
141.8794835165
 20
144.9142233695
 30
0.0
 10
141.7052636122
 20
144.8996797416
 30
0.0
 10
141.5743402193
 20
144.8709342626
 30
0.0
 10
141.4422224405
 20
144.8508069028
 30
0.0
 10
141.3151406701
 20
144.8140448242
 30
0.0
 10
141.1905018067
 20
144.7714348843
 30
0.0
 10
141.0617515843
 20
144.7369667995
 30
0.0
 10
140.9470038909
 20
144.6757791559
 30
0.0
 10
140.827871639
 20
144.6226165214
 30
0.0
 10
140.7122750921
 20
144.5640734091
 30
0.0
 10
140.6075762891
 20
144.4910555351
 30
0.0
 10
140.4970628162
 20
144.4253738579
 30
0.0
 10
140.3661927667
 20
144.3179715878
 30
0.0
 10
140.2711914298
 20
144.2336859096
 30
0.0
 10
140.2071569385
 20
144.1783252298
 30
0.0
  0
SPLINE
  5
2FA
100
AcDbEntity
  8
0
100
AcDbSpline
 62
2
  6
CONTINUOUS
 70
0
 71
3
 72
18
 73
14
 74
0
 42
0.0000001
 43
0.0000001
 44
0.0000000001
 40
0.0
 40
0.0
 40
0.0
 40
0.0
 40
0.0909090909
 40
0.1818181818
 40
0.2727272727
 40
0.3636363636
 40
0.4545454545
 40
0.5454545455
 40
0.6363636364
 40
0.7272727273
 40
0.8181818182
 40
0.9090909091
 40
1.0
 40
1.0
 40
1.0
 40
1.0
 10
142.0968464137
 20
148.1226577373
 30
0.0
 10
141.8132684985
 20
148.1226577373
 30
0.0
 10
141.2455256247
 20
148.0571557471
 30
0.0
 10
140.461891879
 20
147.7690827592
 30
0.0
 10
139.8047932465
 20
147.3047627097
 30
0.0
 10
139.3402332878
 20
146.7052258706
 30
0.0
 10
139.0911391258
 20
146.0157793334
 30
0.0
 10
139.0825879359
 20
145.2381843902
 30
0.0
 10
139.3398518301
 20
144.4855295497
 30
0.0
 10
139.8049098776
 20
143.8440421889
 30
0.0
 10
140.4622962155
 20
143.3275676916
 30
0.0
 10
141.2453347977
 20
143.0017237645
 30
0.0
 10
141.8131700425
 20
142.9265053146
 30
0.0
 10
142.0968464137
 20
142.9265053146
 30
0.0
  0
SPLINE
  5
2FB
100
AcDbEntity
  8
0
100
AcDbSpline
 62
2
  6
CONTINUOUS
 70
0
 71
3
 72
18
 73
14
 74
0
 42
0.0000001
 43
0.0000001
 44
0.0000000001
 40
0.0
 40
0.0
 40
0.0
 40
0.0
 40
0.0909090909
 40
0.1818181818
 40
0.2727272727
 40
0.3636363636
 40
0.4545454545
 40
0.5454545455
 40
0.6363636364
 40
0.7272727273
 40
0.8181818182
 40
0.9090909091
 40
1.0
 40
1.0
 40
1.0
 40
1.0
 10
142.0968464137
 20
116.9239934167
 30
0.0
 10
142.3809081217
 20
116.9239934167
 30
0.0
 10
142.9496421615
 20
116.9897210914
 30
0.0
 10
143.7344820497
 20
117.2788065019
 30
0.0
 10
144.3921141376
 20
117.7447608312
 30
0.0
 10
144.8563467818
 20
118.346207368
 30
0.0
 10
145.1028372172
 20
119.0362090911
 30
0.0
 10
145.1109953082
 20
119.80440456
 30
0.0
 10
144.8565763828
 20
120.5561571217
 30
0.0
 10
144.3919942109
 20
121.199466076
 30
0.0
 10
143.7340833229
 20
121.7176802959
 30
0.0
 10
142.949826889
 20
122.0446712094
 30
0.0
 10
142.3810039007
 20
122.1201458395
 30
0.0
 10
142.0968464137
 20
122.1201458395
 30
0.0
  0
SPLINE
  5
2FC
100
AcDbEntity
  8
0
100
AcDbSpline
 62
7
  6
CONTINUOUS
 70
0
 71
3
 72
21
 73
17
 74
0
 42
0.0000001
 43
0.0000001
 44
0.0000000001
 40
0.0
 40
0.0
 40
0.0
 40
0.0
 40
0.125
 40
0.1875
 40
0.25
 40
0.3125
 40
0.375
 40
0.4375
 40
0.5
 40
0.5625
 40
0.625
 40
0.6875
 40
0.75
 40
0.8125
 40
0.875
 40
1.0
 40
1.0
 40
1.0
 40
1.0
 10
142.0968464137
 20
120.1207620676
 30
0.0
 10
142.1838296018
 20
120.1260296299
 30
0.0
 10
142.3142093109
 20
120.1324277846
 30
0.0
 10
142.4884292153
 20
120.1469714125
 30
0.0
 10
142.6193526081
 20
120.1757168915
 30
0.0
 10
142.751470387
 20
120.1958442513
 30
0.0
 10
142.8785521574
 20
120.2326063299
 30
0.0
 10
143.0031910207
 20
120.2752162697
 30
0.0
 10
143.1319412431
 20
120.3096843546
 30
0.0
 10
143.2466889365
 20
120.3708719982
 30
0.0
 10
143.3658211884
 20
120.4240346327
 30
0.0
 10
143.4814177353
 20
120.482577745
 30
0.0
 10
143.5861165383
 20
120.555595619
 30
0.0
 10
143.6966300112
 20
120.6212772962
 30
0.0
 10
143.8275000607
 20
120.7286795663
 30
0.0
 10
143.9225013976
 20
120.8129652445
 30
0.0
 10
143.9865358889
 20
120.8683259243
 30
0.0
  0
SPLINE
  5
2FD
100
AcDbEntity
  8
0
100
AcDbSpline
 62
7
  6
CONTINUOUS
 70
0
 71
3
 72
21
 73
17
 74
0
 42
0.0000001
 43
0.0000001
 44
0.0000000001
 40
0.0
 40
0.0
 40
0.0
 40
0.0
 40
0.125
 40
0.1875
 40
0.25
 40
0.3125
 40
0.375
 40
0.4375
 40
0.5
 40
0.5625
 40
0.625
 40
0.6875
 40
0.75
 40
0.8125
 40
0.875
 40
1.0
 40
1.0
 40
1.0
 40
1.0
 10
140.2072104165
 20
120.8682724569
 30
0.0
 10
140.2687592184
 20
120.8147830915
 30
0.0
 10
140.3597082118
 20
120.7336270798
 30
0.0
 10
140.486470374
 20
120.6291069187
 30
0.0
 10
140.597279759
 20
120.5622266988
 30
0.0
 10
140.7013493868
 20
120.4889220217
 30
0.0
 10
140.8166402799
 20
120.4298052724
 30
0.0
 10
140.9354356363
 20
120.3761164506
 30
0.0
 10
141.0498167583
 20
120.3144055819
 30
0.0
 10
141.1783503543
 20
120.2793549732
 30
0.0
 10
141.3027504226
 20
120.2361799878
 30
0.0
 10
141.4295321277
 20
120.1988422491
 30
0.0
 10
141.5618097678
 20
120.1781152565
 30
0.0
 10
141.6914999404
 20
120.148778745
 30
0.0
 10
141.8708920842
 20
120.1334331696
 30
0.0
 10
142.0066229259
 20
120.1264315115
 30
0.0
 10
142.096846435
 20
120.1207620676
 30
0.0
  0
SPLINE
  5
2FE
100
AcDbEntity
  8
0
100
AcDbSpline
 62
2
  6
CONTINUOUS
 70
0
 71
3
 72
18
 73
14
 74
0
 42
0.0000001
 43
0.0000001
 44
0.0000000001
 40
0.0
 40
0.0
 40
0.0
 40
0.0
 40
0.0909090909
 40
0.1818181818
 40
0.2727272727
 40
0.3636363636
 40
0.4545454545
 40
0.5454545455
 40
0.6363636364
 40
0.7272727273
 40
0.8181818182
 40
0.9090909091
 40
1.0
 40
1.0
 40
1.0
 40
1.0
 10
142.0968464137
 20
122.1201458395
 30
0.0
 10
141.8132684985
 20
122.1201458395
 30
0.0
 10
141.2455256247
 20
122.0450945484
 30
0.0
 10
140.461891879
 20
121.718608925
 30
0.0
 10
139.8047932465
 20
121.2034394129
 30
0.0
 10
139.3402332878
 20
120.5577676935
 30
0.0
 10
139.0911391258
 20
119.8401688498
 30
0.0
 10
139.0825879359
 20
119.0615953781
 30
0.0
 10
139.3398518301
 20
118.3380546277
 30
0.0
 10
139.8049098776
 20
117.742727567
 30
0.0
 10
140.4622962155
 20
117.2771182777
 30
0.0
 10
141.2453347977
 20
116.9896517947
 30
0.0
 10
141.8131700425
 20
116.9239934167
 30
0.0
 10
142.0968464137
 20
116.9239934167
 30
0.0
  0
SPLINE
  5
2FF
100
AcDbEntity
  8
0
100
AcDbSpline
 62
2
  6
CONTINUOUS
 70
0
 71
3
 72
13
 73
9
 74
0
 42
0.0000001
 43
0.0000001
 44
0.0000000001
 40
0.0
 40
0.0
 40
0.0
 40
0.0
 40
0.1666666667
 40
0.3333333333
 40
0.5
 40
0.6666666667
 40
0.8333333333
 40
1.0
 40
1.0
 40
1.0
 40
1.0
 10
145.0968464137
 20
106.348325577
 30
0.0
 10
145.0968464137
 20
106.348325577
 30
0.0
 10
145.0252421809
 20
106.3566687737
 30
0.0
 10
144.7222271488
 20
106.389555684
 30
0.0
 10
144.2425093757
 20
106.4344332648
 30
0.0
 10
143.6090529377
 20
106.4798982355
 30
0.0
 10
142.8805330796
 20
106.5127365305
 30
0.0
 10
142.357972216
 20
106.5208136792
 30
0.0
 10
142.0968464137
 20
106.5208136792
 30
0.0
  0
SPLINE
  5
300
100
AcDbEntity
  8
0
100
AcDbSpline
 62
2
  6
CONTINUOUS
 70
0
 71
3
 72
13
 73
9
 74
0
 42
0.0000001
 43
0.0000001
 44
0.0000000001
 40
0.0
 40
0.0
 40
0.0
 40
0.0
 40
0.1666666667
 40
0.3333333333
 40
0.5
 40
0.6666666667
 40
0.8333333333
 40
1.0
 40
1.0
 40
1.0
 40
1.0
 10
142.0968464137
 20
106.5208136792
 30
0.0
 10
141.8358137441
 20
106.5208136792
 30
0.0
 10
141.313403477
 20
106.5127420485
 30
0.0
 10
140.5849916215
 20
106.4799189435
 30
0.0
 10
139.9514516873
 20
106.4344551469
 30
0.0
 10
139.4718553764
 20
106.3895948776
 30
0.0
 10
139.1686008409
 20
106.3566865221
 30
0.0
 10
139.0968464137
 20
106.348325577
 30
0.0
 10
139.0968464137
 20
106.348325577
 30
0.0
  0
SPLINE
  5
301
100
AcDbEntity
  8
0
100
AcDbSpline
 62
2
  6
CONTINUOUS
 70
0
 71
3
 72
13
 73
9
 74
0
 42
0.0000001
 43
0.0000001
 44
0.0000000001
 40
0.0
 40
0.0
 40
0.0
 40
0.0
 40
0.1666666667
 40
0.3333333333
 40
0.5
 40
0.6666666667
 40
0.8333333333
 40
1.0
 40
1.0
 40
1.0
 40
1.0
 10
142.0968464137
 20
158.5258374749
 30
0.0
 10
142.3575066604
 20
158.5258374749
 30
0.0
 10
142.8792716747
 20
158.5338797948
 30
0.0
 10
143.6080003568
 20
158.5666913777
 30
0.0
 10
144.2403805995
 20
158.6120624032
 30
0.0
 10
144.7182297186
 20
158.6566772041
 30
0.0
 10
145.0284359663
 20
158.6903290128
 30
0.0
 10
145.0968464137
 20
158.698325577
 30
0.0
 10
145.0968464137
 20
158.698325577
 30
0.0
  0
SPLINE
  5
302
100
AcDbEntity
  8
0
100
AcDbSpline
 62
2
  6
CONTINUOUS
 70
0
 71
3
 72
13
 73
9
 74
0
 42
0.0000001
 43
0.0000001
 44
0.0000000001
 40
0.0
 40
0.0
 40
0.0
 40
0.0
 40
0.1666666667
 40
0.3333333333
 40
0.5
 40
0.6666666667
 40
0.8333333333
 40
1.0
 40
1.0
 40
1.0
 40
1.0
 10
139.0968464137
 20
158.698325577
 30
0.0
 10
139.0968464137
 20
158.698325577
 30
0.0
 10
139.1653039206
 20
158.690325401
 30
0.0
 10
139.4748596963
 20
158.6567384227
 30
0.0
 10
139.9529950384
 20
158.6120875173
 30
0.0
 10
140.5852576459
 20
158.5667169934
 30
0.0
 10
141.3141642672
 20
158.5338850301
 30
0.0
 10
141.8360903613
 20
158.5258374749
 30
0.0
 10
142.0968464137
 20
158.5258374749
 30
0.0
  0
LINE
  5
303
100
AcDbEntity
  8
FASEN
100
AcDbLine
 62
7
  6
CONTINUOUS
 10
83.9131456493
 20
164.0168331082
 11
83.8744028348
 21
164.0232910655
  0
LINE
  5
304
100
AcDbEntity
  8
FASEN
100
AcDbLine
 62
7
  6
CONTINUOUS
 10
94.2805471781
 20
164.0168331082
 11
94.3192899927
 21
164.0232910655
  0
LINE
  5
305
100
AcDbEntity
  8
ACHSEN
100
AcDbLine
 62
7
  6
CONTINUOUS
 10
45.4468464137
 20
152.1273768757
 11
40.5968464137
 21
152.0203151906
  0
LINE
  5
306
100
AcDbEntity
  8
ACHSEN
100
AcDbLine
 62
7
  6
CONTINUOUS
 10
47.2376174452
 20
152.4323649956
 11
47.3604657617
 21
152.4498776529
  0
LINE
  5
307
100
AcDbEntity
  8
ACHSEN
100
AcDbLine
 62
7
  6
CONTINUOUS
 10
47.3604657617
 20
152.4498776529
 11
47.3754166997
 21
152.4519833823
  0
SPLINE
  5
308
100
AcDbEntity
  8
BEZUGSACHSEN
100
AcDbSpline
 62
7
  6
CONTINUOUS
 70
0
 71
3
 72
13
 73
9
 74
0
 42
0.0000001
 43
0.0000001
 44
0.0000000001
 40
0.0
 40
0.0
 40
0.0
 40
0.0
 40
0.1158066677
 40
0.234031129
 40
0.3553743123
 40
0.4799952716
 40
0.7365565381
 40
1.0
 40
1.0
 40
1.0
 40
1.0
 10
144.5968463911
 20
145.610853582
 30
0.0
 10
144.5968459696
 20
145.4683149625
 30
0.0
 10
144.5635338391
 20
145.1793079959
 30
0.0
 10
144.4188083246
 20
144.7631715313
 30
0.0
 10
144.1849987812
 20
144.376908795
 30
0.0
 10
143.7638681457
 20
143.9191707138
 30
0.0
 10
143.0668516875
 20
143.5011717321
 30
0.0
 10
142.4211012097
 20
143.38593094
 30
0.0
 10
142.0968464137
 20
143.38593094
 30
0.0
  0
SPLINE
  5
309
100
AcDbEntity
  8
BEZUGSACHSEN
100
AcDbSpline
 62
7
  6
CONTINUOUS
 70
0
 71
3
 72
13
 73
9
 74
0
 42
0.0000001
 43
0.0000001
 44
0.0000000001
 40
0.0
 40
0.0
 40
0.0
 40
0.0
 40
0.1158066677
 40
0.234031129
 40
0.3553743123
 40
0.4799952716
 40
0.7365565381
 40
1.0
 40
1.0
 40
1.0
 40
1.0
 10
139.5968464363
 20
119.4357975721
 30
0.0
 10
139.5968468578
 20
119.5783361916
 30
0.0
 10
139.6301589883
 20
119.8673431582
 30
0.0
 10
139.7748845028
 20
120.2834796228
 30
0.0
 10
140.0086940463
 20
120.6697423591
 30
0.0
 10
140.4298246818
 20
121.1274804402
 30
0.0
 10
141.12684114
 20
121.545479422
 30
0.0
 10
141.7725916178
 20
121.6607202141
 30
0.0
 10
142.0968464137
 20
121.6607202141
 30
0.0
  0
SPLINE
  5
30A
100
AcDbEntity
  8
BEZUGSACHSEN
100
AcDbSpline
 62
7
  6
CONTINUOUS
 70
0
 71
3
 72
13
 73
9
 74
0
 42
0.0000001
 43
0.0000001
 44
0.0000000001
 40
0.0
 40
0.0
 40
0.0
 40
0.0
 40
0.2634428366
 40
0.5200018067
 40
0.6446229804
 40
0.765970387
 40
0.8841952704
 40
1.0
 40
1.0
 40
1.0
 40
1.0
 10
142.0968464137
 20
121.6607202141
 30
0.0
 10
142.4210956433
 20
121.6607202141
 30
0.0
 10
143.0668312495
 20
121.5454813127
 30
0.0
 10
143.7638432596
 20
121.1275053852
 30
0.0
 10
144.1849720263
 20
120.6697739133
 30
0.0
 10
144.4187863875
 20
120.2835157409
 30
0.0
 10
144.5635284263
 20
119.8673888366
 30
0.0
 10
144.5968468127
 20
119.5783877127
 30
0.0
 10
144.5968463911
 20
119.4358535871
 30
0.0
  0
SPLINE
  5
30B
100
AcDbEntity
  8
BEZUGSACHSEN
100
AcDbSpline
 62
7
  6
CONTINUOUS
 70
0
 71
3
 72
13
 73
9
 74
0
 42
0.0000001
 43
0.0000001
 44
0.0000000001
 40
0.0
 40
0.0
 40
0.0
 40
0.0
 40
0.2634428366
 40
0.5200018067
 40
0.6446229804
 40
0.765970387
 40
0.8841952704
 40
1.0
 40
1.0
 40
1.0
 40
1.0
 10
142.0968464137
 20
143.38593094
 30
0.0
 10
141.7725971841
 20
143.38593094
 30
0.0
 10
141.1268615779
 20
143.5011698414
 30
0.0
 10
140.4298495678
 20
143.9191457689
 30
0.0
 10
140.0087208012
 20
144.3768772408
 30
0.0
 10
139.7749064399
 20
144.7631354132
 30
0.0
 10
139.6301644011
 20
145.1792623175
 30
0.0
 10
139.5968460148
 20
145.4682634414
 30
0.0
 10
139.5968464363
 20
145.610797567
 30
0.0
  0
SPLINE
  5
30C
100
AcDbEntity
  8
FASEN
100
AcDbSpline
 62
7
  6
CONTINUOUS
 70
0
 71
3
 72
13
 73
9
 74
0
 42
0.0000001
 43
0.0000001
 44
0.0000000001
 40
0.0
 40
0.0
 40
0.0
 40
0.0
 40
0.0157914555
 40
0.0631395717
 40
0.1420412357
 40
0.2523478212
 40
0.5656689994
 40
1.0
 40
1.0
 40
1.0
 40
1.0
 10
94.3192899917
 20
164.0232910657
 30
0.0
 10
94.3174756489
 20
164.0233864441
 30
0.0
 10
94.3103637684
 20
164.0212354993
 30
0.0
 10
94.2941917558
 20
164.0194745287
 30
0.0
 10
94.2673752101
 20
164.0144759326
 30
0.0
 10
94.2103222386
 20
164.0053151503
 30
0.0
 10
94.1129198283
 20
163.9891399841
 30
0.0
 10
94.0279668264
 20
163.9756908573
 30
0.0
 10
93.9786023823
 20
163.9679291745
 30
0.0
  0
LINE
  5
30D
100
AcDbEntity
  8
FASEN
100
AcDbLine
 62
7
  6
CONTINUOUS
 10
83.8744028357
 20
164.0232910657
 11
84.1653860999
 21
163.9757801203
  0
SPLINE
  5
30E
100
AcDbEntity
  8
ACHSEN
100
AcDbSpline
 62
7
  6
CONTINUOUS
 70
0
 71
3
 72
11
 73
7
 74
0
 42
0.0000001
 43
0.0000001
 44
0.0000000001
 40
0.0
 40
0.0
 40
0.0
 40
0.0
 40
0.1537099379
 40
0.500508937
 40
0.8472910559
 40
1.0
 40
1.0
 40
1.0
 40
1.0
 10
66.2762077469
 20
152.9268439125
 30
0.0
 10
65.8126224778
 20
152.8555669577
 30
0.0
 10
64.2983901637
 20
152.6515091853
 30
0.0
 10
61.7156157362
 20
152.4660001534
 30
0.0
 10
59.1295697062
 20
152.5189473721
 30
0.0
 10
57.6102805235
 20
152.6487138649
 30
0.0
 10
57.1468464137
 20
152.6974825792
 30
0.0
  0
LINE
  5
30F
100
AcDbEntity
  8
ACHSEN
100
AcDbLine
 62
7
  6
CONTINUOUS
 10
47.3754166993
 20
152.4519833823
 11
47.3604953119
 21
152.4498818247
  0
SPLINE
  5
310
100
AcDbEntity
  8
0
100
AcDbSpline
 62
7
  6
CONTINUOUS
 70
0
 71
3
 72
9
 73
5
 74
0
 42
0.0000001
 43
0.0000001
 44
0.0000000001
 40
0.0
 40
0.0
 40
0.0
 40
0.0
 40
0.2573720101
 40
1.0
 40
1.0
 40
1.0
 40
1.0
 10
75.7897396325
 20
110.4197689261
 30
0.0
 10
75.7546002443
 20
110.352013632
 30
0.0
 10
75.6156121088
 20
110.090041981
 30
0.0
 10
75.4666286183
 20
109.8333328309
 30
0.0
 10
75.3498751646
 20
109.6465967017
 30
0.0
  0
SPLINE
  5
311
100
AcDbEntity
  8
0
100
AcDbSpline
 62
7
  6
CONTINUOUS
 70
0
 71
3
 72
12
 73
8
 74
0
 42
0.0000001
 43
0.0000001
 44
0.0000000001
 40
0.0
 40
0.0
 40
0.0
 40
0.0
 40
0.128679218
 40
0.2561331636
 40
0.5063352459
 40
0.7539715031
 40
1.0
 40
1.0
 40
1.0
 40
1.0
 10
90.5581712791
 20
123.1741042625
 30
0.0
 10
90.5890474047
 20
123.1741042625
 30
0.0
 10
90.6509620312
 20
123.1617810361
 30
0.0
 10
90.7571829583
 20
123.099866245
 30
0.0
 10
90.8565542317
 20
122.9831046799
 30
0.0
 10
90.9379305222
 20
122.8236098711
 30
0.0
 10
90.9756072622
 20
122.7108545095
 30
0.0
 10
90.991183981
 20
122.6539129581
 30
0.0
  0
SPLINE
  5
312
100
AcDbEntity
  8
0
100
AcDbSpline
 62
7
  6
CONTINUOUS
 70
0
 71
3
 72
9
 73
5
 74
0
 42
0.0000001
 43
0.0000001
 44
0.0000000001
 40
0.0
 40
0.0
 40
0.0
 40
0.0
 40
0.1680195226
 40
1.0
 40
1.0
 40
1.0
 40
1.0
 10
90.991183981
 20
102.6093707306
 30
0.0
 10
90.974335708
 20
102.5890506147
 30
0.0
 10
90.8588824255
 20
102.4805696384
 30
0.0
 10
90.6888781904
 20
102.4427328167
 30
0.0
 10
90.5581712791
 20
102.4427328167
 30
0.0
  0
SPLINE
  5
313
100
AcDbEntity
  8
0
100
AcDbSpline
 62
7
  6
CONTINUOUS
 70
0
 71
3
 72
12
 73
8
 74
0
 42
0.0000001
 43
0.0000001
 44
0.0000000001
 40
0.0
 40
0.0
 40
0.0
 40
0.0
 40
0.2460454262
 40
0.4936983158
 40
0.7439199328
 40
0.8713555617
 40
1.0
 40
1.0
 40
1.0
 40
1.0
 10
87.2025088464
 20
122.6539129581
 30
0.0
 10
87.218086659
 20
122.7108585079
 30
0.0
 10
87.2557686786
 20
122.8236190133
 30
0.0
 10
87.3371444266
 20
122.9831356813
 30
0.0
 10
87.4365490384
 20
123.0998632141
 30
0.0
 10
87.5427448548
 20
123.1618110525
 30
0.0
 10
87.6046537245
 20
123.1741042625
 30
0.0
 10
87.6355215483
 20
123.1741042625
 30
0.0
  0
SPLINE
  5
314
100
AcDbEntity
  8
0
100
AcDbSpline
 62
7
  6
CONTINUOUS
 70
0
 71
3
 72
9
 73
5
 74
0
 42
0.0000001
 43
0.0000001
 44
0.0000000001
 40
0.0
 40
0.0
 40
0.0
 40
0.0
 40
0.3641598889
 40
1.0
 40
1.0
 40
1.0
 40
1.0
 10
87.6355215483
 20
102.4427328167
 30
0.0
 10
87.5781451265
 20
102.4427328167
 30
0.0
 10
87.4219587934
 20
102.4588519107
 30
0.0
 10
87.2664528028
 20
102.5322501496
 30
0.0
 10
87.2025088464
 20
102.6093707306
 30
0.0
  0
SPLINE
  5
315
100
AcDbEntity
  8
0
100
AcDbSpline
 62
7
  6
CONTINUOUS
 70
0
 71
3
 72
9
 73
5
 74
0
 42
0.0000001
 43
0.0000001
 44
0.0000000001
 40
0.0
 40
0.0
 40
0.0
 40
0.0
 40
0.3642526053
 40
1.0
 40
1.0
 40
1.0
 40
1.0
 10
90.5581712791
 20
162.6039183374
 30
0.0
 10
90.6155626856
 20
162.6039183374
 30
0.0
 10
90.7717521442
 20
162.5878037819
 30
0.0
 10
90.9272489295
 20
162.5143902647
 30
0.0
 10
90.991183981
 20
162.4372804235
 30
0.0
  0
SPLINE
  5
316
100
AcDbEntity
  8
0
100
AcDbSpline
 62
7
  6
CONTINUOUS
 70
0
 71
3
 72
21
 73
17
 74
0
 42
0.0000001
 43
0.0000001
 44
0.0000000001
 40
0.0
 40
0.0
 40
0.0
 40
0.0
 40
0.0152736556
 40
0.0307400416
 40
0.0615944727
 40
0.0924597446
 40
0.1233512662
 40
0.1852330485
 40
0.2472659363
 40
0.3094463907
 40
0.3717660941
 40
0.4967787028
 40
0.6222117836
 40
0.747963109
 40
0.8739278454
 40
1.0
 40
1.0
 40
1.0
 40
1.0
 10
75.1018695248
 20
140.7092687638
 30
0.0
 10
75.0866072096
 20
140.7092063445
 30
0.0
 10
75.0609190448
 20
140.6832091898
 30
0.0
 10
75.0351779521
 20
140.6294566539
 30
0.0
 10
75.0115304223
 20
140.5546847609
 30
0.0
 10
74.9917320489
 20
140.4645899365
 30
0.0
 10
74.9707543739
 20
140.3426925724
 30
0.0
 10
74.9518509738
 20
140.1891437689
 30
0.0
 10
74.9356233337
 20
140.0038598167
 30
0.0
 10
74.9238541391
 20
139.8178257494
 30
0.0
 10
74.9123994992
 20
139.5687498971
 30
0.0
 10
74.9039857351
 20
139.256304378
 30
0.0
 10
74.8992332869
 20
138.880408898
 30
0.0
 10
74.8974188643
 20
138.5035388418
 30
0.0
 10
74.8969455262
 20
138.1260282088
 30
0.0
 10
74.8969095028
 20
137.8741763099
 30
0.0
 10
74.8969095028
 20
137.7481967076
 30
0.0
  0
SPLINE
  5
317
100
AcDbEntity
  8
0
100
AcDbSpline
 62
7
  6
CONTINUOUS
 70
0
 71
3
 72
17
 73
13
 74
0
 42
0.0000001
 43
0.0000001
 44
0.0000000001
 40
0.0
 40
0.0
 40
0.0
 40
0.0
 40
0.2182009024
 40
0.3349220057
 40
0.456586696
 40
0.5831112211
 40
0.7144823146
 40
0.7820564401
 40
0.8510300181
 40
0.92186225
 40
0.958727904
 40
1.0
 40
1.0
 40
1.0
 40
1.0
 10
74.8969095028
 20
148.9808563257
 30
0.0
 10
74.8969095028
 20
148.8485773115
 30
0.0
 10
74.8968918154
 20
148.6455376501
 30
0.0
 10
74.8992989243
 20
148.3687488798
 30
0.0
 10
74.9041241178
 20
148.1475764771
 30
0.0
 10
74.9144098559
 20
147.9176614962
 30
0.0
 10
74.9305348793
 20
147.7209928011
 30
0.0
 10
74.9521089798
 20
147.5597919294
 30
0.0
 10
74.9747134504
 20
147.4366216374
 30
0.0
 10
75.0043092467
 20
147.3314709067
 30
0.0
 10
75.0387409214
 20
147.2520010525
 30
0.0
 10
75.0768540579
 20
147.2077806759
 30
0.0
 10
75.1018695248
 20
147.2082677818
 30
0.0
  0
SPLINE
  5
318
100
AcDbEntity
  8
0
100
AcDbSpline
 62
7
  6
CONTINUOUS
 70
0
 71
3
 72
10
 73
6
 74
0
 42
0.0000001
 43
0.0000001
 44
0.0000000001
 40
0.0
 40
0.0
 40
0.0
 40
0.0
 40
0.2163947382
 40
0.4583018846
 40
1.0
 40
1.0
 40
1.0
 40
1.0
 10
75.3498751646
 20
147.2130970097
 30
0.0
 10
75.2641737766
 20
146.7503754541
 30
0.0
 10
75.1418371844
 20
145.7591135628
 30
0.0
 10
75.0666584584
 20
143.5841003781
 30
0.0
 10
75.1971632936
 20
141.8783672602
 30
0.0
 10
75.3498751646
 20
140.7102830197
 30
0.0
  0
SPLINE
  5
319
100
AcDbEntity
  8
0
100
AcDbSpline
 62
7
  6
CONTINUOUS
 70
0
 71
3
 72
13
 73
9
 74
0
 42
0.0000001
 43
0.0000001
 44
0.0000000001
 40
0.0
 40
0.0
 40
0.0
 40
0.0
 40
0.1753307868
 40
0.3422637982
 40
0.4768046258
 40
0.5947351366
 40
0.8062611466
 40
1.0
 40
1.0
 40
1.0
 40
1.0
 10
76.7018695248
 20
110.9958968369
 30
0.0
 10
76.6379567799
 20
111.0228369986
 30
0.0
 10
76.5001797366
 20
111.0515749846
 30
0.0
 10
76.3125327384
 20
111.0027961667
 30
0.0
 10
76.1709480547
 20
110.9139542637
 30
0.0
 10
76.0344828319
 20
110.7903516518
 30
0.0
 10
75.9060641454
 20
110.6264750457
 30
0.0
 10
75.8250241484
 20
110.4878040534
 30
0.0
 10
75.7897396325
 20
110.4197689261
 30
0.0
  0
SPLINE
  5
31A
100
AcDbEntity
  8
0
100
AcDbSpline
 62
7
  6
CONTINUOUS
 70
0
 71
3
 72
12
 73
8
 74
0
 42
0.0000001
 43
0.0000001
 44
0.0000000001
 40
0.0
 40
0.0
 40
0.0
 40
0.0
 40
0.2873076234
 40
0.4555854673
 40
0.6473090081
 40
0.8177551754
 40
1.0
 40
1.0
 40
1.0
 40
1.0
 10
76.7018695248
 20
110.9958968369
 30
0.0
 10
76.7272558088
 20
110.985196145
 30
0.0
 10
76.7699228718
 20
110.9726202012
 30
0.0
 10
76.8337280646
 20
110.9767787035
 30
0.0
 10
76.8766605619
 20
111.0111312021
 30
0.0
 10
76.8934904325
 20
111.0619315029
 30
0.0
 10
76.8964367424
 20
111.0956943386
 30
0.0
 10
76.896760207
 20
111.1131664519
 30
0.0
  0
SPLINE
  5
31B
100
AcDbEntity
  8
BEZUGSACHSEN
100
AcDbSpline
 62
7
  6
CONTINUOUS
 70
0
 71
3
 72
13
 73
9
 74
0
 42
0.0000001
 43
0.0000001
 44
0.0000000001
 40
0.0
 40
0.0
 40
0.0
 40
0.0
 40
0.2680073107
 40
0.5239564958
 40
0.6465411753
 40
0.7658127057
 40
0.8830817758
 40
1.0
 40
1.0
 40
1.0
 40
1.0
 10
142.0968464137
 20
117.3305931951
 30
0.0
 10
141.7735921273
 20
117.3305931951
 30
0.0
 10
141.1368826007
 20
117.4303205934
 30
0.0
 10
140.4337810157
 20
117.8086585083
 30
0.0
 10
140.0087620961
 20
118.2382634098
 30
0.0
 10
139.773936214
 20
118.6064847085
 30
0.0
 10
139.6292194493
 20
119.0112292555
 30
0.0
 10
139.5968460193
 20
119.2947778475
 30
0.0
 10
139.5968464363
 20
119.4357975721
 30
0.0
  0
SPLINE
  5
31C
100
AcDbEntity
  8
0
100
AcDbSpline
 62
7
  6
CONTINUOUS
 70
0
 71
3
 72
16
 73
12
 74
0
 42
0.0000001
 43
0.0000001
 44
0.0000000001
 40
0.0
 40
0.0
 40
0.0
 40
0.0
 40
0.1251648965
 40
0.2503573139
 40
0.375568813
 40
0.5007901353
 40
0.6259923846
 40
0.7510481625
 40
0.8746362128
 40
0.9372915345
 40
1.0
 40
1.0
 40
1.0
 40
1.0
 10
75.7897396325
 20
138.9378653378
 30
0.0
 10
75.8068079762
 20
138.8665390292
 30
0.0
 10
75.8430799126
 20
138.7243656363
 30
0.0
 10
75.905102195
 20
138.5131708272
 30
0.0
 10
75.9767720748
 20
138.3049379022
 30
0.0
 10
76.0607814253
 20
138.1014175334
 30
0.0
 10
76.1641632988
 20
137.9061291026
 30
0.0
 10
76.2921229728
 20
137.7293026436
 30
0.0
 10
76.4591611631
 20
137.6218579072
 30
0.0
 10
76.6098664595
 20
137.6434218296
 30
0.0
 10
76.6731443391
 20
137.6833636489
 30
0.0
 10
76.7018695248
 20
137.7062760302
 30
0.0
  0
SPLINE
  5
31D
100
AcDbEntity
  8
BEZUGSACHSEN
100
AcDbSpline
 62
7
  6
CONTINUOUS
 70
0
 71
3
 72
13
 73
9
 74
0
 42
0.0000001
 43
0.0000001
 44
0.0000000001
 40
0.0
 40
0.0
 40
0.0
 40
0.0
 40
0.2680073107
 40
0.5239564958
 40
0.6465411753
 40
0.7658127057
 40
0.8830817758
 40
1.0
 40
1.0
 40
1.0
 40
1.0
 10
142.0968464137
 20
147.7160579589
 30
0.0
 10
142.4201007002
 20
147.7160579589
 30
0.0
 10
143.0568102267
 20
147.6163305607
 30
0.0
 10
143.7599118118
 20
147.2379926458
 30
0.0
 10
144.1849307313
 20
146.8083877443
 30
0.0
 10
144.4197566135
 20
146.4401664456
 30
0.0
 10
144.5644733781
 20
146.0354218986
 30
0.0
 10
144.5968468082
 20
145.7518733066
 30
0.0
 10
144.5968463911
 20
145.610853582
 30
0.0
  0
SPLINE
  5
31E
100
AcDbEntity
  8
0
100
AcDbSpline
 62
7
  6
CONTINUOUS
 70
0
 71
3
 72
13
 73
9
 74
0
 42
0.0000001
 43
0.0000001
 44
0.0000000001
 40
0.0
 40
0.0
 40
0.0
 40
0.0
 40
0.1670510693
 40
0.3289369806
 40
0.4609641718
 40
0.578209763
 40
0.7939442568
 40
1.0
 40
1.0
 40
1.0
 40
1.0
 10
76.7018695248
 20
148.867803864
 30
0.0
 10
76.6374360741
 20
148.892038969
 30
0.0
 10
76.4982350811
 20
148.9139733115
 30
0.0
 10
76.3116270928
 20
148.8574971392
 30
0.0
 10
76.1701660547
 20
148.7619336846
 30
0.0
 10
76.0326374573
 20
148.6275662156
 30
0.0
 10
75.9032177528
 20
148.4451939569
 30
0.0
 10
75.8242177862
 20
148.2899417158
 30
0.0
 10
75.7897396325
 20
148.2123424672
 30
0.0
  0
SPLINE
  5
31F
100
AcDbEntity
  8
0
100
AcDbSpline
 62
7
  6
CONTINUOUS
 70
0
 71
3
 72
15
 73
11
 74
0
 42
0.0000001
 43
0.0000001
 44
0.0000000001
 40
0.0
 40
0.0
 40
0.0
 40
0.0
 40
0.0735479282
 40
0.1546005725
 40
0.2292557381
 40
0.2979289731
 40
0.4260365971
 40
0.5473626904
 40
0.7785364517
 40
1.0
 40
1.0
 40
1.0
 40
1.0
 10
76.7018695248
 20
148.867803864
 30
0.0
 10
76.7143213436
 20
148.8631204095
 30
0.0
 10
76.7434715973
 20
148.859039897
 30
0.0
 10
76.7829410889
 20
148.8772819242
 30
0.0
 10
76.810502764
 20
148.9076852178
 30
0.0
 10
76.836397774
 20
148.9495629006
 30
0.0
 10
76.8574837378
 20
149.0034931231
 30
0.0
 10
76.8791224484
 20
149.0877637828
 30
0.0
 10
76.8929926354
 20
149.190974668
 30
0.0
 10
76.8964171249
 20
149.2728360182
 30
0.0
 10
76.896760207
 20
149.3128932645
 30
0.0
  0
SPLINE
  5
320
100
AcDbEntity
  8
0
100
AcDbSpline
 62
7
  6
CONTINUOUS
 70
0
 71
3
 72
12
 73
8
 74
0
 42
0.0000001
 43
0.0000001
 44
0.0000000001
 40
0.0
 40
0.0
 40
0.0
 40
0.0
 40
0.2460280129
 40
0.4936634005
 40
0.7438647573
 40
0.8713194616
 40
1.0
 40
1.0
 40
1.0
 40
1.0
 10
90.991183981
 20
142.392738196
 30
0.0
 10
90.975607294
 20
142.3357967607
 30
0.0
 10
90.9379307988
 20
142.223041586
 30
0.0
 10
90.8565543449
 20
142.0635477453
 30
0.0
 10
90.7571845657
 20
141.946784686
 30
0.0
 10
90.6509625416
 20
141.8848713778
 30
0.0
 10
90.5890477193
 20
141.8725468916
 30
0.0
 10
90.5581712791
 20
141.8725468916
 30
0.0
  0
SPLINE
  5
321
100
AcDbEntity
  8
0
100
AcDbSpline
 62
7
  6
CONTINUOUS
 70
0
 71
3
 72
16
 73
12
 74
0
 42
0.0000001
 43
0.0000001
 44
0.0000000001
 40
0.0
 40
0.0
 40
0.0
 40
0.0
 40
0.2846406373
 40
0.4153418401
 40
0.5382258172
 40
0.6534042926
 40
0.7614765699
 40
0.8135102488
 40
0.8652468039
 40
0.9195357931
 40
1.0
 40
1.0
 40
1.0
 40
1.0
 10
74.8969095028
 20
110.8409236978
 30
0.0
 10
74.8969095028
 20
110.7213502605
 30
0.0
 10
74.8967678192
 20
110.5468672632
 30
0.0
 10
74.8991450059
 20
110.3207780185
 30
0.0
 10
74.9037720625
 20
110.1659062783
 30
0.0
 10
74.9136741102
 20
110.0208147863
 30
0.0
 10
74.9298619037
 20
109.9060313551
 30
0.0
 10
74.9516873001
 20
109.819696996
 30
0.0
 10
74.9754265941
 20
109.7572673361
 30
0.0
 10
75.0142129315
 20
109.6897384008
 30
0.0
 10
75.0680770479
 20
109.6532364025
 30
0.0
 10
75.1018695248
 20
109.6524401855
 30
0.0
  0
SPLINE
  5
322
100
AcDbEntity
  8
0
100
AcDbSpline
 62
7
  6
CONTINUOUS
 70
0
 71
3
 72
9
 73
5
 74
0
 42
0.0000001
 43
0.0000001
 44
0.0000000001
 40
0.0
 40
0.0
 40
0.0
 40
0.0
 40
0.1680322176
 40
1.0
 40
1.0
 40
1.0
 40
1.0
 10
87.2025088464
 20
162.4372804235
 30
0.0
 10
87.2193584054
 20
162.4576020903
 30
0.0
 10
87.3348129822
 20
162.5660821223
 30
0.0
 10
87.5048165313
 20
162.6039183374
 30
0.0
 10
87.6355215483
 20
162.6039183374
 30
0.0
  0
SPLINE
  5
323
100
AcDbEntity
  8
0
100
AcDbSpline
 62
7
  6
CONTINUOUS
 70
0
 71
3
 72
12
 73
8
 74
0
 42
0.0000001
 43
0.0000001
 44
0.0000000001
 40
0.0
 40
0.0
 40
0.0
 40
0.0
 40
0.1286448926
 40
0.256081
 40
0.5063027424
 40
0.7539549585
 40
1.0
 40
1.0
 40
1.0
 40
1.0
 10
87.6355215483
 20
141.8725468916
 30
0.0
 10
87.6046536168
 20
141.8725468916
 30
0.0
 10
87.5427446226
 20
141.8848405154
 30
0.0
 10
87.4365483253
 20
141.946787979
 30
0.0
 10
87.3371443432
 20
142.063516181
 30
0.0
 10
87.2557684968
 20
142.2230324191
 30
0.0
 10
87.218086634
 20
142.3357927376
 30
0.0
 10
87.2025088464
 20
142.392738196
 30
0.0
  0
SPLINE
  5
324
100
AcDbEntity
  8
BEZUGSACHSEN
100
AcDbSpline
 62
7
  6
CONTINUOUS
 70
0
 71
3
 72
13
 73
9
 74
0
 42
0.0000001
 43
0.0000001
 44
0.0000000001
 40
0.0
 40
0.0
 40
0.0
 40
0.0
 40
0.1169202397
 40
0.2341892271
 40
0.3534566409
 40
0.4760409319
 40
0.7319921608
 40
1.0
 40
1.0
 40
1.0
 40
1.0
 10
139.5968464363
 20
145.610797567
 30
0.0
 10
139.5968468534
 20
145.7518218521
 30
0.0
 10
139.6292143622
 20
146.0353766504
 30
0.0
 10
139.7739140531
 20
146.4401317994
 30
0.0
 10
140.0087350716
 20
146.8083584478
 30
0.0
 10
140.4337563702
 20
147.2379690564
 30
0.0
 10
141.1368625788
 20
147.6163296597
 30
0.0
 10
141.7735866084
 20
147.7160579589
 30
0.0
 10
142.0968464137
 20
147.7160579589
 30
0.0
  0
SPLINE
  5
325
100
AcDbEntity
  8
BEZUGSACHSEN
100
AcDbSpline
 62
7
  6
CONTINUOUS
 70
0
 71
3
 72
9
 73
5
 74
0
 42
0.0000001
 43
0.0000001
 44
0.0000000001
 40
0.0
 40
0.0
 40
0.0
 40
0.0
 40
0.2526342036
 40
1.0
 40
1.0
 40
1.0
 40
1.0
 10
141.6627640848
 20
143.892809826
 30
0.0
 10
141.5972374601
 20
143.8827972008
 30
0.0
 10
141.339312886
 20
143.8343138869
 30
0.0
 10
141.0880619525
 20
143.7495224118
 30
0.0
 10
140.9103895619
 20
143.6665374493
 30
0.0
  0
SPLINE
  5
326
100
AcDbEntity
  8
BEZUGSACHSEN
100
AcDbSpline
 62
7
  6
CONTINUOUS
 70
0
 71
3
 72
9
 73
5
 74
0
 42
0.0000001
 43
0.0000001
 44
0.0000000001
 40
0.0
 40
0.0
 40
0.0
 40
0.0
 40
0.2526345464
 40
1.0
 40
1.0
 40
1.0
 40
1.0
 10
142.5309287427
 20
143.892809826
 30
0.0
 10
142.5964608438
 20
143.882796364
 30
0.0
 10
142.854406497
 20
143.834308339
 30
0.0
 10
143.1056772953
 20
143.749506039
 30
0.0
 10
143.2833621766
 20
143.666509933
 30
0.0
  0
SPLINE
  5
327
100
AcDbEntity
  8
BEZUGSACHSEN
100
AcDbSpline
 62
7
  6
CONTINUOUS
 70
0
 71
3
 72
13
 73
9
 74
0
 42
0.0000001
 43
0.0000001
 44
0.0000000001
 40
0.0
 40
0.0
 40
0.0
 40
0.0
 40
0.1169202397
 40
0.2341892271
 40
0.3534566409
 40
0.4760409319
 40
0.7319921608
 40
1.0
 40
1.0
 40
1.0
 40
1.0
 10
144.5968463911
 20
119.4358535871
 30
0.0
 10
144.5968459741
 20
119.294829302
 30
0.0
 10
144.5644784652
 20
119.0112745037
 30
0.0
 10
144.4197787743
 20
118.6065193547
 30
0.0
 10
144.1849577558
 20
118.2382927063
 30
0.0
 10
143.7599364572
 20
117.8086820977
 30
0.0
 10
143.0568302486
 20
117.4303214943
 30
0.0
 10
142.420106219
 20
117.3305931951
 30
0.0
 10
142.0968464137
 20
117.3305931951
 30
0.0
  0
SPLINE
  5
328
100
AcDbEntity
  8
0
100
AcDbSpline
 62
7
  6
CONTINUOUS
 70
0
 71
3
 72
8
 73
4
 74
0
 42
0.0000001
 43
0.0000001
 44
0.0000000001
 40
0.0
 40
0.0
 40
0.0
 40
0.0
 40
1.0
 40
1.0
 40
1.0
 40
1.0
 10
76.8967244603
 20
137.148548237
 30
0.0
 10
76.8963935262
 20
137.1960769447
 30
0.0
 10
76.895211011
 20
137.2436173536
 30
0.0
 10
76.8927070392
 20
137.2910812103
 30
0.0
  0
SPLINE
  5
329
100
AcDbEntity
  8
0
100
AcDbSpline
 62
7
  6
CONTINUOUS
 70
0
 71
3
 72
15
 73
11
 74
0
 42
0.0000001
 43
0.0000001
 44
0.0000000001
 40
0.0
 40
0.0
 40
0.0
 40
0.0
 40
0.2532162989
 40
0.3790219793
 40
0.5040739368
 40
0.6282014989
 40
0.7508575768
 40
0.8716570132
 40
0.9343432508
 40
1.0
 40
1.0
 40
1.0
 40
1.0
 10
76.8927070392
 20
137.2910812103
 30
0.0
 10
76.8903436209
 20
137.3358808157
 30
0.0
 10
76.8851861761
 20
137.4028868058
 30
0.0
 10
76.8730138525
 20
137.4914110665
 30
0.0
 10
76.8604360547
 20
137.5566188096
 30
0.0
 10
76.8425092433
 20
137.6204099054
 30
0.0
 10
76.8174205315
 20
137.6796851046
 30
0.0
 10
76.7781412424
 20
137.7245663177
 30
0.0
 10
76.7308809046
 20
137.7262603826
 30
0.0
 10
76.7109632771
 20
137.7135295784
 30
0.0
 10
76.7018695248
 20
137.7062760302
 30
0.0
  0
SPLINE
  5
32A
100
AcDbEntity
  8
BEZUGSACHSEN
100
AcDbSpline
 62
7
  6
CONTINUOUS
 70
0
 71
3
 72
9
 73
5
 74
0
 42
0.0000001
 43
0.0000001
 44
0.0000000001
 40
0.0
 40
0.0
 40
0.0
 40
0.0
 40
0.2475579876
 40
1.0
 40
1.0
 40
1.0
 40
1.0
 10
143.2833032656
 20
121.3801137048
 30
0.0
 10
143.2244488674
 20
121.3526247403
 30
0.0
 10
142.9827078399
 20
121.2502908843
 30
0.0
 10
142.7260991362
 20
121.1836638317
 30
0.0
 10
142.5309287427
 20
121.1538413281
 30
0.0
  0
SPLINE
  5
32B
100
AcDbEntity
  8
BEZUGSACHSEN
100
AcDbSpline
 62
7
  6
CONTINUOUS
 70
0
 71
3
 72
9
 73
5
 74
0
 42
0.0000001
 43
0.0000001
 44
0.0000000001
 40
0.0
 40
0.0
 40
0.0
 40
0.0
 40
0.2475577202
 40
1.0
 40
1.0
 40
1.0
 40
1.0
 10
140.9103306509
 20
121.380141221
 30
0.0
 10
140.9691891504
 20
121.3526485823
 30
0.0
 10
141.2109478925
 20
121.2503011485
 30
0.0
 10
141.4675775743
 20
121.1836662945
 30
0.0
 10
141.6627640848
 20
121.1538413281
 30
0.0
  0
LINE
  5
32C
100
AcDbEntity
  8
0
100
AcDbLine
 62
7
  6
CONTINUOUS
 10
75.1072480455
 20
109.0979407712
 11
75.3498751646
 21
109.6465967017
  0
ELLIPSE
  5
32D
100
AcDbEntity
  8
0
100
AcDbEllipse
 62
7
  6
CONTINUOUS
 10
74.7496922244
 20
132.523325577
 30
0.0
 11
14.7536831607
 21
31.0932549156
 31
0.0
 40
0.3419987131
 41
-1.0912395858
 42
-0.1578061866
  0
ELLIPSE
  5
32E
100
AcDbEntity
  8
0
100
AcDbEllipse
 62
7
  6
CONTINUOUS
 10
103.4440006031
 20
132.523325577
 30
0.0
 11
-14.7536831607
 21
31.0932549156
 31
0.0
 40
0.3419987131
 41
0.1578061866
 42
1.0912395858
  0
ELLIPSE
  5
32F
100
AcDbEntity
  8
0
100
AcDbEllipse
 62
7
  6
CONTINUOUS
 10
103.4440006031
 20
132.523325577
 30
0.0
 11
14.7536831607
 21
31.0932549156
 31
0.0
 40
0.3419987131
 41
-4.2328322393
 42
-3.2993988402
  0
ELLIPSE
  5
330
100
AcDbEntity
  8
0
100
AcDbEllipse
 62
7
  6
CONTINUOUS
 10
74.7496922244
 20
132.523325577
 30
0.0
 11
-14.7536831607
 21
31.0932549156
 31
0.0
 40
0.3419987131
 41
-2.9837864669
 42
-2.0503530678
  0
ENDSEC
  0
SECTION
  2
OBJECTS
  0
DICTIONARY
  5
C
100
AcDbDictionary
280
0
281
1
  3
ACAD_GROUP
350
D
  3
ACAD_MLINESTYLE
350
17
  3
ACAD_LAYOUT
350
1A
  3
ACAD_PLOTSETTINGS
350
19
  3
ACAD_PLOTSTYLENAME
350
E
  0
DICTIONARY
  5
D
102
{ACAD_REACTORS
330
C
102
}
100
AcDbDictionary
280
0
281
1
  0
ACDBDICTIONARYWDFLT
  5
E
102
{ACAD_REACTORS
330
C
102
}
100
AcDbDictionary
281
1
  3
Normal
350
F
100
AcDbDictionaryWithDefault
340
F
  0
DICTIONARY
  5
17
102
{ACAD_REACTORS
330
C
102
}
100
AcDbDictionary
280
0
281
1
  3
Standard
350
18
  0
DICTIONARY
  5
19
102
{ACAD_REACTORS
330
C
102
}
100
AcDbDictionary
281
1
  0
DICTIONARY
  5
1A
102
{ACAD_REACTORS
330
C
102
}
100
AcDbDictionary
281
1
  3
Model
350
331
  3
Layout1
350
332
  0
ACDBPLACEHOLDER
  5
F
102
{ACAD_REACTORS
330
E
102
}
  0
MLINESTYLE
  5
18
102
{ACAD_REACTORS
330
17
102
}
100
AcDbMlineStyle
  2
STANDARD
 70
0
  3

 62
256
 51
90.0
 52
90.0
 71
2
 49
0.5
 62
256
  6
BYLAYER
 49
-0.5
 62
256
  6
BYLAYER
  0
LAYOUT
  5
331
102
{ACAD_REACTORS
330
1A
102
}
100
AcDbPlotSettings
  1

  2
none_device
  4
ISO_A4_(297.00_x_210.00_MM)
  6

 40
0.0
 41
0.0
 42
0.0
 43
0.0
 44
297.0
 45
210.0
 46
0.0
 47
0.0
 48
0.0
 49
0.0
140
0.0
141
0.0
142
1.0
143
1.0
 70
1024
 72
1
 73
0
 74
0
  7

 75
0
147
1.0
148
0.0
149
0.0
100
AcDbLayout
  1
Model
 70
0
 71
0
 10
0.0
 20
0.0
 11
297.0
 21
210.0
 12
0.0
 22
0.0
 32
0.0
 14
0.0
 24
0.0
 34
0.0
 15
0.0
 25
0.0
 35
0.0
146
0.0
 13
0.0
 23
0.0
 33
0.0
 16
1.0
 26
0.0
 36
0.0
 17
0.0
 27
1.0
 37
0.0
 76
0
330
217
345
0
346
0
  0
LAYOUT
  5
332
102
{ACAD_REACTORS
330
1A
102
}
100
AcDbPlotSettings
  1

  2
none_device
  4
ISO_A4_(297.00_x_210.00_MM)
  6

 40
0.0
 41
0.0
 42
0.0
 43
0.0
 44
297.0
 45
210.0
 46
0.0
 47
0.0
 48
0.0
 49
0.0
140
0.0
141
0.0
142
1.0
143
1.0
 70
0
 72
1
 73
0
 74
0
  7

 75
0
147
1.0
148
0.0
149
0.0
100
AcDbLayout
  1
Layout1
 70
0
 71
1
 10
0.0
 20
0.0
 11
297.0
 21
210.0
 12
0.0
 22
0.0
 32
0.0
 14
0.0
 24
0.0
 34
0.0
 15
0.0
 25
0.0
 35
0.0
146
0.0
 13
0.0
 23
0.0
 33
0.0
 16
1.0
 26
0.0
 36
0.0
 17
0.0
 27
1.0
 37
0.0
 76
0
330
218
345
0
346
0
  0
ENDSEC
  0
EOF
