999
DXF file: cc6-144-20.dxf
999
Pro/ENGINEER 2010430 by Parametric Technology Corporation
  0
SECTION
  2
HEADER
  9
$ACADVER
  1
AC1021
  9
$DWGCODEPAGE
  3
ANSI_1252
  9
$EXTMAX
 10
297.0
 20
210.0
 30
0.0
  9
$EXTMIN
 10
0.0
 20
0.0
 30
0.0
  9
$LIMMIN
 10
0.0
 20
0.0
  9
$LIMMAX
 10
297.0
 20
210.0
  9
$VIEWCTR
 10
148.5
 20
105.0
  9
$VIEWSIZE
 40
210.0
  9
$CLAYER
  8
0
  9
$LTSCALE
 40
16.335
  9
$CELTYPE
  6
BYLAYER
  9
$DIMSCALE
 40
1.0
  9
$DIMASZ
 40
3.5
  9
$DIMEXO
 40
1.85625
  9
$DIMDLI
 40
11.286
  9
$DIMEXE
 40
5.346
  9
$DIMCEN
 40
2.673
  9
$DIMLFAC
 40
1.0
  9
$DIMBLK
  1
_FILLED
  9
$DIMTXT
 40
3.5
  9
$DIMTOL
 70
1
  9
$DIMLIM
 70
0
  9
$DIMTFAC
 40
1.0
  9
$DIMTP
 40
0.005
  9
$DIMTM
 40
0.005
  9
$PDMODE
 70
3
  9
$PDSIZE
 40
0.3125
  9
$HANDSEED
  5
31C
  9
$TILEMODE
 70
1
  9
$MEASUREMENT
 70
1
  9
$INSUNITS
 70
4
  0
ENDSEC
  0
SECTION
  2
CLASSES
  0
CLASS
  1
ACDBDICTIONARYWDFLT
  2
AcDbDictionaryWithDefault
  3
AutoCAD 2000
 90
0
 91
1
280
0
281
0
  0
CLASS
  1
ACDBPLACEHOLDER
  2
AcDbPlaceHolder
  3
AutoCAD 2000
 90
0
 91
1
280
0
281
0
  0
CLASS
  1
LAYOUT
  2
AcDbLayout
  3
AutoCAD 2000
 90
0
 91
0
280
0
281
0
  0
ENDSEC
  0
SECTION
  2
TABLES
  0
TABLE
  2
VPORT
  5
8
100
AcDbSymbolTable
 70
2
  0
VPORT
  5
1F4
100
AcDbSymbolTableRecord
100
AcDbViewportTableRecord
  2
*ACTIVE
 70
0
 10
0.0
 20
0.0
 11
1.0
 21
1.0
 12
148.5
 22
105.0
 13
0.0
 23
0.0
 14
1.0
 24
1.0
 15
0.0
 25
0.0
 16
0.0
 26
0.0
 36
1.0
 17
0.0
 27
0.0
 37
0.0
 40
210.0
 41
1.4142857143
 42
50.0
 43
0.0
 44
0.0
 50
0.0
 51
0.0
 71
0
 72
100
 73
1
 74
1
 75
0
 76
0
 77
0
 78
0
  0
ENDTAB
  0
TABLE
  2
LTYPE
  5
5
100
AcDbSymbolTable
 70
6
  0
LTYPE
  5
14
100
AcDbSymbolTableRecord
100
AcDbLinetypeTableRecord
  2
BYBLOCK
 70
0
  3

 72
65
 73
0
 40
0.0
  0
LTYPE
  5
15
100
AcDbSymbolTableRecord
100
AcDbLinetypeTableRecord
  2
BYLAYER
 70
0
  3

 72
65
 73
0
 40
0.0
  0
LTYPE
  5
16
100
AcDbSymbolTableRecord
100
AcDbLinetypeTableRecord
  2
CONTINUOUS
 70
64
  3
Solid line
 72
65
 73
0
 40
0.0
  0
LTYPE
  5
1F5
100
AcDbSymbolTableRecord
100
AcDbLinetypeTableRecord
  2
CENTER
 70
64
  3
____ _ ____ _ ____ _ ____ _ ____ _ ____ _ ____
 72
65
 73
4
 40
0.6
 49
0.375
 74
0
 49
-0.075
 74
0
 49
0.075
 74
0
 49
-0.075
 74
0
  0
LTYPE
  5
1F6
100
AcDbSymbolTableRecord
100
AcDbLinetypeTableRecord
  2
HIDDEN
 70
64
  3
- - - - - - - - - - - - - - - - - - - -
 72
65
 73
2
 40
0.2
 49
0.1
 74
0
 49
-0.1
 74
0
  0
LTYPE
  5
1F7
100
AcDbSymbolTableRecord
100
AcDbLinetypeTableRecord
  2
PHANTOM
 70
64
  3
_____ _ _ _____ _ _ _____ _ _ _____
 72
65
 73
6
 40
0.8
 49
0.45
 74
0
 49
-0.05
 74
0
 49
0.1
 74
0
 49
-0.05
 74
0
 49
0.1
 74
0
 49
-0.05
 74
0
  0
LTYPE
  5
1F8
100
AcDbSymbolTableRecord
100
AcDbLinetypeTableRecord
  2
DOT
 70
64
  3
. . . . . . . . . . . . . . . . . . . .
 72
65
 73
2
 40
0.2
 49
0.1
 74
0
 49
-0.1
 74
0
  0
LTYPE
  5
1F9
100
AcDbSymbolTableRecord
100
AcDbLinetypeTableRecord
  2
DASHED
 70
64
  3
- - - - - - - - - - - - - - - - - - - -
 72
65
 73
2
 40
0.2
 49
0.1
 74
0
 49
-0.1
 74
0
  0
ENDTAB
  0
TABLE
  2
LAYER
  5
2
100
AcDbSymbolTable
 70
36
  0
LAYER
  5
10
100
AcDbSymbolTableRecord
100
AcDbLayerTableRecord
  2
0
 70
0
 62
7
  6
CONTINUOUS
370
-3
390
F
  0
LAYER
  5
1FA
100
AcDbSymbolTableRecord
100
AcDbLayerTableRecord
  2
DEFAULT_1
 70
0
 62
7
  6
CENTER
370
-3
390
F
  0
LAYER
  5
1FB
100
AcDbSymbolTableRecord
100
AcDbLayerTableRecord
  2
DEFAULT_2
 70
0
 62
8
  6
HIDDEN
370
-3
390
F
  0
LAYER
  5
1FC
100
AcDbSymbolTableRecord
100
AcDbLayerTableRecord
  2
DEFAULT_3
 70
0
 62
7
  6
PHANTOM
370
-3
390
F
  0
LAYER
  5
1FD
100
AcDbSymbolTableRecord
100
AcDbLayerTableRecord
  2
ACHSEN
 70
0
 62
7
  6
CONTINUOUS
370
-3
390
F
  0
LAYER
  5
1FE
100
AcDbSymbolTableRecord
100
AcDbLayerTableRecord
  2
BEZUGSACHSEN
 70
0
 62
7
  6
CONTINUOUS
370
-3
390
F
  0
LAYER
  5
1FF
100
AcDbSymbolTableRecord
100
AcDbLayerTableRecord
  2
BEZUGSEBENE_B
 70
0
 62
7
  6
CONTINUOUS
370
-3
390
F
  0
LAYER
  5
200
100
AcDbSymbolTableRecord
100
AcDbLayerTableRecord
  2
BOHRUNGEN
 70
0
 62
7
  6
CONTINUOUS
370
-3
390
F
  0
LAYER
  5
201
100
AcDbSymbolTableRecord
100
AcDbLayerTableRecord
  2
EBENEN
 70
0
 62
7
  6
CONTINUOUS
370
-3
390
F
  0
LAYER
  5
202
100
AcDbSymbolTableRecord
100
AcDbLayerTableRecord
  2
FASEN
 70
0
 62
7
  6
CONTINUOUS
370
-3
390
F
  0
LAYER
  5
203
100
AcDbSymbolTableRecord
100
AcDbLayerTableRecord
  2
FLAECHEN
 70
0
 62
7
  6
CONTINUOUS
370
-3
390
F
  0
LAYER
  5
204
100
AcDbSymbolTableRecord
100
AcDbLayerTableRecord
  2
GEWINDE
 70
0
 62
7
  6
CONTINUOUS
370
-3
390
F
  0
LAYER
  5
205
100
AcDbSymbolTableRecord
100
AcDbLayerTableRecord
  2
KOORDSYS
 70
0
 62
7
  6
CONTINUOUS
370
-3
390
F
  0
LAYER
  5
206
100
AcDbSymbolTableRecord
100
AcDbLayerTableRecord
  2
KURVEN
 70
0
 62
7
  6
CONTINUOUS
370
-3
390
F
  0
LAYER
  5
207
100
AcDbSymbolTableRecord
100
AcDbLayerTableRecord
  2
KURVE_FUER_GTOL_DETAILANSICHT
 70
0
 62
7
  6
CONTINUOUS
370
-3
390
F
  0
LAYER
  5
208
100
AcDbSymbolTableRecord
100
AcDbLayerTableRecord
  2
KURVE_GAUGE2_POLIGON_INNENEINST
 70
0
 62
7
  6
CONTINUOUS
370
-3
390
F
  0
LAYER
  5
209
100
AcDbSymbolTableRecord
100
AcDbLayerTableRecord
  2
KURVE_PHANTOM1_GAUGE_PIN_1
 70
0
 62
7
  6
CONTINUOUS
370
-3
390
F
  0
LAYER
  5
20A
100
AcDbSymbolTableRecord
100
AcDbLayerTableRecord
  2
KURVE_PHANTOM2_GAUGE_PIN1
 70
0
 62
7
  6
CONTINUOUS
370
-3
390
F
  0
LAYER
  5
20B
100
AcDbSymbolTableRecord
100
AcDbLayerTableRecord
  2
KURVE_POLIGON_BEMASUNG
 70
0
 62
7
  6
CONTINUOUS
370
-3
390
F
  0
LAYER
  5
20C
100
AcDbSymbolTableRecord
100
AcDbLayerTableRecord
  2
PUNKTE
 70
0
 62
7
  6
CONTINUOUS
370
-3
390
F
  0
LAYER
  5
20D
100
AcDbSymbolTableRecord
100
AcDbLayerTableRecord
  2
RUNDUNGEN
 70
0
 62
7
  6
CONTINUOUS
370
-3
390
F
  0
LAYER
  5
20E
100
AcDbSymbolTableRecord
100
AcDbLayerTableRecord
  2
S_ACHSEN
 70
0
 62
7
  6
CONTINUOUS
370
-3
390
F
  0
LAYER
  5
20F
100
AcDbSymbolTableRecord
100
AcDbLayerTableRecord
  2
S_EBENEN
 70
0
 62
7
  6
CONTINUOUS
370
-3
390
F
  0
LAYER
  5
210
100
AcDbSymbolTableRecord
100
AcDbLayerTableRecord
  2
S_KOORDSYS
 70
0
 62
7
  6
CONTINUOUS
370
-3
390
F
  0
LAYER
  5
211
100
AcDbSymbolTableRecord
100
AcDbLayerTableRecord
  2
TOL_BEZUEGE
 70
0
 62
7
  6
CONTINUOUS
370
-3
390
F
  0
LAYER
  5
212
100
AcDbSymbolTableRecord
100
AcDbLayerTableRecord
  2
VERBFLAECHE
 70
0
 62
7
  6
CONTINUOUS
370
-3
390
F
  0
LAYER
  5
213
100
AcDbSymbolTableRecord
100
AcDbLayerTableRecord
  2
ZEICHNUNGSBEMASSUNGEN
 70
0
 62
7
  6
CONTINUOUS
370
-3
390
F
  0
ENDTAB
  0
TABLE
  2
STYLE
  5
3
100
AcDbSymbolTable
 70
1
  0
STYLE
  5
11
100
AcDbSymbolTableRecord
100
AcDbTextStyleTableRecord
  2
STANDARD
 70
0
 40
0.0
 41
0.7
 50
0.0
 71
0
 42
0.2
  3
txt
  4

  0
STYLE
  5
214
100
AcDbSymbolTableRecord
100
AcDbTextStyleTableRecord
  2
TEXTSTYLE_1
 70
0
 40
0.0
 41
0.8
 50
0.0
 71
0
 42
0.2
  3
gdt
  4

  0
STYLE
  5
215
100
AcDbSymbolTableRecord
100
AcDbTextStyleTableRecord
  2
TEXTSTYLE_2
 70
0
 40
0.0
 41
0.7
 50
0.0
 71
0
 42
0.2
  3
gdt
  4

  0
ENDTAB
  0
TABLE
  2
VIEW
  5
6
100
AcDbSymbolTable
 70
0
  0
ENDTAB
  0
TABLE
  2
UCS
  5
7
100
AcDbSymbolTable
 70
0
  0
ENDTAB
  0
TABLE
  2
APPID
  5
9
100
AcDbSymbolTable
 70
1
  0
APPID
  5
216
100
AcDbSymbolTableRecord
100
AcDbRegAppTableRecord
  2
ACAD
 70
0
  0
ENDTAB
  0
TABLE
  2
BLOCK_RECORD
  5
1
100
AcDbSymbolTable
 70
0
  0
BLOCK_RECORD
  5
217
100
AcDbSymbolTableRecord
100
AcDbBlockTableRecord
  2
*Model_Space
  0
BLOCK_RECORD
  5
218
100
AcDbSymbolTableRecord
100
AcDbBlockTableRecord
  2
*Paper_Space
  0
BLOCK_RECORD
  5
219
100
AcDbSymbolTableRecord
100
AcDbBlockTableRecord
  2
_FILLED
  0
BLOCK_RECORD
  5
21A
100
AcDbSymbolTableRecord
100
AcDbBlockTableRecord
  2
*D0
  0
BLOCK_RECORD
  5
21B
100
AcDbSymbolTableRecord
100
AcDbBlockTableRecord
  2
*D1
  0
BLOCK_RECORD
  5
21C
100
AcDbSymbolTableRecord
100
AcDbBlockTableRecord
  2
*D2
  0
BLOCK_RECORD
  5
21D
100
AcDbSymbolTableRecord
100
AcDbBlockTableRecord
  2
*D3
  0
BLOCK_RECORD
  5
21E
100
AcDbSymbolTableRecord
100
AcDbBlockTableRecord
  2
*D4
  0
BLOCK_RECORD
  5
21F
100
AcDbSymbolTableRecord
100
AcDbBlockTableRecord
  2
*D5
  0
BLOCK_RECORD
  5
220
100
AcDbSymbolTableRecord
100
AcDbBlockTableRecord
  2
*D6
  0
ENDTAB
  0
TABLE
  2
DIMSTYLE
  5
A
100
AcDbSymbolTable
 70
1
100
AcDbDimStyleTable
 71
0
  0
DIMSTYLE
105
221
100
AcDbSymbolTableRecord
100
AcDbDimStyleTableRecord
  2
STANDARD
 70
0
  3

  4

 40
1.0
 41
3.5
 42
0.0625
 43
0.38
 44
0.18
 45
0.0
 46
0.0
 47
0.005
 48
0.005
140
3.5
141
0.09
142
0.0
143
25.4
144
1.0
145
0.0
146
1.0
147
0.09
 71
1.0
 72
0.0
 73
0
 74
0
 75
0
 76
0
 77
1
 78
8
170
0
171
2
172
0
173
0
174
0
175
0
176
0
177
0
178
5
270
2
271
3
272
3
273
2
274
2
275
0
280
0
281
0
282
0
283
1
284
8
285
0
286
0
287
3
288
0
340
11
341
219
342
219
343
219
344
219
  0
DIMSTYLE
105
222
100
AcDbSymbolTableRecord
100
AcDbDimStyleTableRecord
  2
DIMSTYLE_1
 70
0
  3

  4

 40
1.0
 41
3.5
 42
0.0625
 43
0.38
 44
0.18
 45
0.0
 46
0.0
 47
0.0
 48
0.1
140
3.5
141
0.09
142
0.0
143
25.4
144
1.0
145
0.0
146
1.0
147
0.09
 71
0.0
 72
0.0
 73
0
 74
0
 75
0
 76
0
 77
1
 78
8
170
0
171
2
172
0
173
0
174
0
175
0
176
0
177
0
178
5
270
2
271
2
272
2
273
2
274
2
275
0
280
0
281
0
282
0
283
1
284
8
285
0
286
0
287
3
288
0
340
11
341
219
342
219
343
219
344
219
  0
DIMSTYLE
105
223
100
AcDbSymbolTableRecord
100
AcDbDimStyleTableRecord
  2
DIMSTYLE_2
 70
0
  3

  4

 40
1.0
 41
3.5
 42
0.0625
 43
0.38
 44
0.18
 45
0.0
 46
0.0
 47
0.25
 48
0.25
140
3.5
141
0.09
142
0.0
143
25.4
144
1.0
145
0.0
146
1.0
147
0.09
 71
0.0
 72
0.0
 73
0
 74
0
 75
0
 76
0
 77
1
 78
8
170
0
171
2
172
0
173
0
174
0
175
0
176
0
177
0
178
5
270
2
271
2
272
2
273
2
274
2
275
0
280
0
281
0
282
0
283
1
284
8
285
0
286
0
287
3
288
0
340
11
341
219
342
219
343
219
344
219
  0
DIMSTYLE
105
224
100
AcDbSymbolTableRecord
100
AcDbDimStyleTableRecord
  2
DIMSTYLE_3
 70
0
  3

  4

 40
1.0
 41
3.5
 42
0.0625
 43
0.38
 44
0.18
 45
0.0
 46
0.0
 47
0.5
 48
0.5
140
3.5
141
0.09
142
0.0
143
25.4
144
1.0
145
0.0
146
1.0
147
0.09
 71
0.0
 72
0.0
 73
0
 74
0
 75
0
 76
0
 77
1
 78
8
170
0
171
2
172
0
173
0
174
0
175
0
176
0
177
0
178
5
270
2
271
2
272
2
273
2
274
2
275
0
280
0
281
0
282
0
283
1
284
8
285
0
286
0
287
3
288
0
340
11
341
219
342
219
343
219
344
219
  0
DIMSTYLE
105
225
100
AcDbSymbolTableRecord
100
AcDbDimStyleTableRecord
  2
DIMSTYLE_4
 70
0
  3

  4

 40
1.0
 41
3.5
 42
0.0625
 43
0.38
 44
0.18
 45
0.0
 46
0.0
 47
-0.037
 48
0.042
140
3.5
141
0.09
142
0.0
143
25.4
144
1.0
145
0.0
146
1.0
147
0.09
 71
0.0
 72
0.0
 73
0
 74
0
 75
0
 76
0
 77
1
 78
8
170
0
171
2
172
0
173
0
174
0
175
0
176
0
177
0
178
5
270
2
271
3
272
3
273
2
274
2
275
0
280
0
281
0
282
0
283
1
284
8
285
0
286
0
287
3
288
0
340
11
341
219
342
219
343
219
344
219
  0
DIMSTYLE
105
226
100
AcDbSymbolTableRecord
100
AcDbDimStyleTableRecord
  2
DIMSTYLE_5
 70
0
  3

  4

 40
1.0
 41
3.5
 42
0.0625
 43
0.38
 44
0.18
 45
0.0
 46
0.0
 47
0.3
 48
0.3
140
3.5
141
0.09
142
0.0
143
25.4
144
1.0
145
0.0
146
1.0
147
0.09
 71
0.0
 72
0.0
 73
0
 74
0
 75
0
 76
0
 77
1
 78
8
170
0
171
2
172
0
173
0
174
0
175
0
176
0
177
0
178
5
270
2
271
2
272
2
273
2
274
2
275
0
280
0
281
0
282
0
283
1
284
8
285
0
286
0
287
3
288
0
340
11
341
219
342
219
343
219
344
219
  0
ENDTAB
  0
ENDSEC
  0
SECTION
  2
BLOCKS
  0
BLOCK
  5
20
100
AcDbEntity
  8
0
100
AcDbBlockBegin
  2
*Model_Space
 70
0
 10
0.0
 20
0.0
 30
0.0
  3
*Model_Space
  1

  0
ENDBLK
  5
21
100
AcDbEntity
  8
0
100
AcDbBlockEnd
  0
BLOCK
  5
1C
100
AcDbEntity
  8
0
100
AcDbBlockBegin
  2
*Paper_Space
 70
0
 10
0.0
 20
0.0
 30
0.0
  3
*Paper_Space
  1

  0
ENDBLK
  5
1D
100
AcDbEntity
  8
0
100
AcDbBlockEnd
  0
BLOCK
  5
227
100
AcDbEntity
  8
0
100
AcDbBlockBegin
  2
_FILLED
 70
64
 10
0.0
 20
0.0
  3
_FILLED
  1

  0
SOLID
  5
228
100
AcDbEntity
  8
0
  6
BYBLOCK
 62
0
100
AcDbTrace
 10
0.0
 20
0.0
 11
-1.0
 21
0.125
 12
-1.0
 22
-0.125
 13
-1.0
 23
-0.125
  0
ENDBLK
  5
229
100
AcDbEntity
  8
0
  6
BYBLOCK
 62
0
100
AcDbBlockEnd
  0
BLOCK
  5
22A
100
AcDbEntity
  8
0
100
AcDbBlockBegin
 62
2
  6
CONTINUOUS
  2
*D0
 70
65
 10
0.0
 20
0.0
  3
*D0
  1

  0
MTEXT
  5
22B
100
AcDbEntity
  8
0
100
AcDbMText
 62
5
  6
CONTINUOUS
  7
TEXTSTYLE_2
 71
2
 72
1
 10
247.4255717609
 20
133.2179721467
 30
0.0
 11
0.0
 21
1.0
 31
0.0
 44
0.9
  1
{\Fgdt;n}\Ftxt;33
 40
3.5
 41
9.6666666667
  0
LINE
  5
22C
100
AcDbEntity
  8
0
100
AcDbLine
 62
2
  6
CONTINUOUS
 10
214.1441008316
 20
149.6929721467
 11
216.6151722289
 21
149.6929721467
  0
LINE
  5
22D
100
AcDbEntity
  8
0
100
AcDbLine
 62
2
  6
CONTINUOUS
 10
223.4577275773
 20
149.6929721467
 11
253.3005717609
 21
149.6929721467
  0
LINE
  5
22E
100
AcDbEntity
  8
0
100
AcDbLine
 62
2
  6
CONTINUOUS
 10
214.1441008316
 20
116.7429721467
 11
239.1540592845
 21
116.7429721467
  0
LINE
  5
22F
100
AcDbEntity
  8
0
100
AcDbLine
 62
2
  6
CONTINUOUS
 10
243.7725072743
 20
116.7429721467
 11
253.3005717609
 21
116.7429721467
  0
LINE
  5
230
100
AcDbEntity
  8
0
100
AcDbLine
 62
2
  6
CONTINUOUS
 10
251.8005717609
 20
149.6929721467
 11
251.8005717609
 21
133.2179721467
  0
LINE
  5
231
100
AcDbEntity
  8
0
100
AcDbLine
 62
2
  6
CONTINUOUS
 10
251.8005717609
 20
116.7429721467
 11
251.8005717609
 21
133.2179721467
  0
INSERT
  5
232
100
AcDbEntity
  8
0
100
AcDbBlockReference
 62
2
  6
CONTINUOUS
  2
_FILLED
 10
251.8005717609
 20
149.6929721467
 41
3.5
 42
3.5
 43
3.5
 50
90.0
  0
INSERT
  5
233
100
AcDbEntity
  8
0
100
AcDbBlockReference
 62
2
  6
CONTINUOUS
  2
_FILLED
 10
251.8005717609
 20
116.7429721467
 41
3.5
 42
3.5
 43
3.5
 50
270.0
  0
ENDBLK
  5
234
100
AcDbEntity
  8
0
  6
BYBLOCK
 62
0
100
AcDbBlockEnd
  0
BLOCK
  5
235
100
AcDbEntity
  8
0
100
AcDbBlockBegin
 62
2
  6
CONTINUOUS
  2
*D1
 70
65
 10
0.0
 20
0.0
  3
*D1
  1

  0
MTEXT
  5
236
100
AcDbEntity
  8
0
100
AcDbMText
 62
5
  6
CONTINUOUS
  7
STANDARD
 71
2
 72
1
 10
232.3805508512
 20
99.7745172641
 30
0.0
 11
0.1545745654
 21
0.9879811252
 31
0.0
 44
0.9
  1
4\Fgdt;{\Fgdt;~}\Ftxt;30'
 40
3.5
 41
12.3333333333
  0
LINE
  5
237
100
AcDbEntity
  8
0
100
AcDbLine
 62
2
  6
CONTINUOUS
 10
182.1876732094
 20
114.5647265486
 11
241.5751699657
 21
119.2386239074
  0
LINE
  5
238
100
AcDbEntity
  8
0
100
AcDbLine
 62
2
  6
CONTINUOUS
 10
154.1869864315
 20
112.2429721467
 11
188.3247315377
 21
112.2429721467
  0
LINE
  5
239
100
AcDbEntity
  8
0
100
AcDbLine
 62
2
  6
CONTINUOUS
 10
218.124376429
 20
112.2429721467
 11
241.850029872
 21
112.2429721467
  0
ARC
  5
23A
100
AcDbEntity
  8
0
100
AcDbCircle
 62
2
  6
CONTINUOUS
 10
152.6869864315
 20
112.2429721467
 40
87.6630434405
100
AcDbArc
 50
4.5
 51
8.421546225
  0
ARC
  5
23B
100
AcDbEntity
  8
0
100
AcDbCircle
 62
2
  6
CONTINUOUS
 10
152.6869864315
 20
112.2429721467
 40
87.6630434405
100
AcDbArc
 50
351.107876718
 51
0.0
  0
ARC
  5
23C
100
AcDbEntity
  8
0
100
AcDbCircle
 62
2
  6
CONTINUOUS
 10
152.6869864315
 20
112.2429721467
 40
87.6630434405
100
AcDbArc
 50
360.0
 51
4.5
  0
SOLID
  5
23D
100
AcDbEntity
  8
0
100
AcDbTrace
 62
2
  6
CONTINUOUS
 10
239.3002128137
 20
122.5609439089
 11
240.0797939651
 21
119.1209352638
 12
240.1709712848
 22
122.6469943878
 13
240.1709712848
 23
122.6469943878
  0
SOLID
  5
23E
100
AcDbEntity
  8
0
100
AcDbTrace
 62
2
  6
CONTINUOUS
 10
240.7175775328
 20
108.7349363762
 11
240.350029872
 21
112.2429721467
 12
239.8427518766
 22
108.752402668
 13
239.8427518766
 23
108.752402668
  0
ENDBLK
  5
23F
100
AcDbEntity
  8
0
  6
BYBLOCK
 62
0
100
AcDbBlockEnd
  0
BLOCK
  5
240
100
AcDbEntity
  8
0
100
AcDbBlockBegin
 62
2
  6
CONTINUOUS
  2
*D2
 70
65
 10
0.0
 20
0.0
  3
*D2
  1

  0
MTEXT
  5
241
100
AcDbEntity
  8
0
100
AcDbMText
 62
5
  6
CONTINUOUS
  7
STANDARD
 71
2
 72
1
 10
144.8649077443
 20
182.1361501512
 30
0.0
 11
1.0
 21
0.0
 31
0.0
 44
0.9
  1
130
 40
3.5
 41
7.25
  0
LINE
  5
242
100
AcDbEntity
  8
0
100
AcDbLine
 62
2
  6
CONTINUOUS
 10
79.8649077443
 20
154.6841468555
 11
79.8649077443
 21
179.2611501512
  0
LINE
  5
243
100
AcDbEntity
  8
0
100
AcDbLine
 62
2
  6
CONTINUOUS
 10
209.8649077443
 20
138.0185468555
 11
209.8649077443
 21
179.2611501512
  0
LINE
  5
244
100
AcDbEntity
  8
0
100
AcDbLine
 62
2
  6
CONTINUOUS
 10
79.8649077443
 20
177.7611501512
 11
144.8649077443
 21
177.7611501512
  0
LINE
  5
245
100
AcDbEntity
  8
0
100
AcDbLine
 62
2
  6
CONTINUOUS
 10
209.8649077443
 20
177.7611501512
 11
144.8649077443
 21
177.7611501512
  0
INSERT
  5
246
100
AcDbEntity
  8
0
100
AcDbBlockReference
 62
2
  6
CONTINUOUS
  2
_FILLED
 10
79.8649077443
 20
177.7611501512
 41
3.5
 42
3.5
 43
3.5
 50
180.0
  0
INSERT
  5
247
100
AcDbEntity
  8
0
100
AcDbBlockReference
 62
2
  6
CONTINUOUS
  2
_FILLED
 10
209.8649077443
 20
177.7611501512
 41
3.5
 42
3.5
 43
3.5
  0
ENDBLK
  5
248
100
AcDbEntity
  8
0
  6
BYBLOCK
 62
0
100
AcDbBlockEnd
  0
BLOCK
  5
249
100
AcDbEntity
  8
0
100
AcDbBlockBegin
 62
2
  6
CONTINUOUS
  2
*D3
 70
65
 10
0.0
 20
0.0
  3
*D3
  1

  0
MTEXT
  5
24A
100
AcDbEntity
  8
0
100
AcDbMText
 62
5
  6
CONTINUOUS
  7
TEXTSTYLE_2
 71
2
 72
1
 10
225.3882211538
 20
133.2179721467
 30
0.0
 11
0.0
 21
1.0
 31
0.0
 44
0.9
  1
{\Fgdt;n}\Ftxt;20
 40
3.5
 41
10.1666666667
  0
LINE
  5
24B
100
AcDbEntity
  8
0
100
AcDbLine
 62
2
  6
CONTINUOUS
 10
214.1441008316
 20
123.2377221467
 11
231.2632211538
 21
123.2377221467
  0
LINE
  5
24C
100
AcDbEntity
  8
0
100
AcDbLine
 62
2
  6
CONTINUOUS
 10
214.1441008316
 20
143.1982221467
 11
231.2632211538
 21
143.1982221467
  0
LINE
  5
24D
100
AcDbEntity
  8
0
100
AcDbLine
 62
2
  6
CONTINUOUS
 10
229.7632211538
 20
123.2377221467
 11
229.7632211538
 21
133.2179721467
  0
LINE
  5
24E
100
AcDbEntity
  8
0
100
AcDbLine
 62
2
  6
CONTINUOUS
 10
229.7632211538
 20
143.1982221467
 11
229.7632211538
 21
133.2179721467
  0
INSERT
  5
24F
100
AcDbEntity
  8
0
100
AcDbBlockReference
 62
2
  6
CONTINUOUS
  2
_FILLED
 10
229.7632211538
 20
123.2377221467
 41
3.5
 42
3.5
 43
3.5
 50
270.0
  0
INSERT
  5
250
100
AcDbEntity
  8
0
100
AcDbBlockReference
 62
2
  6
CONTINUOUS
  2
_FILLED
 10
229.7632211538
 20
143.1982221467
 41
3.5
 42
3.5
 43
3.5
 50
90.0
  0
ENDBLK
  5
251
100
AcDbEntity
  8
0
  6
BYBLOCK
 62
0
100
AcDbBlockEnd
  0
BLOCK
  5
252
100
AcDbEntity
  8
0
100
AcDbBlockBegin
 62
2
  6
CONTINUOUS
  2
*D4
 70
65
 10
0.0
 20
0.0
  3
*D4
  1

  0
MTEXT
  5
253
100
AcDbEntity
  8
0
100
AcDbMText
 62
5
  6
CONTINUOUS
  7
STANDARD
 71
2
 72
1
 10
155.8649077443
 20
175.3056177347
 30
0.0
 11
1.0
 21
0.0
 31
0.0
 44
0.9
  1
108
 40
3.5
 41
7.5
  0
LINE
  5
254
100
AcDbEntity
  8
0
100
AcDbLine
 62
2
  6
CONTINUOUS
 10
209.8649077443
 20
118.2429721467
 11
209.8649077443
 21
172.4306177347
  0
LINE
  5
255
100
AcDbEntity
  8
0
100
AcDbLine
 62
2
  6
CONTINUOUS
 10
101.8649077443
 20
157.9827173486
 11
101.8649077443
 21
172.4306177347
  0
LINE
  5
256
100
AcDbEntity
  8
0
100
AcDbLine
 62
2
  6
CONTINUOUS
 10
209.8649077443
 20
170.9306177347
 11
155.8649077443
 21
170.9306177347
  0
LINE
  5
257
100
AcDbEntity
  8
0
100
AcDbLine
 62
2
  6
CONTINUOUS
 10
101.8649077443
 20
170.9306177347
 11
155.8649077443
 21
170.9306177347
  0
INSERT
  5
258
100
AcDbEntity
  8
0
100
AcDbBlockReference
 62
2
  6
CONTINUOUS
  2
_FILLED
 10
209.8649077443
 20
170.9306177347
 41
3.5
 42
3.5
 43
3.5
  0
INSERT
  5
259
100
AcDbEntity
  8
0
100
AcDbBlockReference
 62
2
  6
CONTINUOUS
  2
_FILLED
 10
101.8649077443
 20
170.9306177347
 41
3.5
 42
3.5
 43
3.5
 50
180.0
  0
ENDBLK
  5
25A
100
AcDbEntity
  8
0
  6
BYBLOCK
 62
0
100
AcDbBlockEnd
  0
BLOCK
  5
25B
100
AcDbEntity
  8
0
100
AcDbBlockBegin
 62
2
  6
CONTINUOUS
  2
*D5
 70
65
 10
0.0
 20
0.0
  3
*D5
  1

  0
MTEXT
  5
25C
100
AcDbEntity
  8
0
100
AcDbMText
 62
5
  6
CONTINUOUS
  7
STANDARD
 71
2
 72
1
 10
125.8649077443
 20
190.2973218386
 30
0.0
 11
1.0
 21
0.0
 31
0.0
 44
0.9
  1
168
 40
3.5
 41
7.5
  0
LINE
  5
25D
100
AcDbEntity
  8
0
100
AcDbLine
 62
2
  6
CONTINUOUS
 10
209.8649077443
 20
118.2429721467
 11
209.8649077443
 21
187.4223218386
  0
LINE
  5
25E
100
AcDbEntity
  8
0
100
AcDbLine
 62
2
  6
CONTINUOUS
 10
41.8649077443
 20
114.5318563774
 11
41.8649077443
 21
187.4223218386
  0
LINE
  5
25F
100
AcDbEntity
  8
0
100
AcDbLine
 62
2
  6
CONTINUOUS
 10
209.8649077443
 20
185.9223218386
 11
125.8649077443
 21
185.9223218386
  0
LINE
  5
260
100
AcDbEntity
  8
0
100
AcDbLine
 62
2
  6
CONTINUOUS
 10
41.8649077443
 20
185.9223218386
 11
125.8649077443
 21
185.9223218386
  0
INSERT
  5
261
100
AcDbEntity
  8
0
100
AcDbBlockReference
 62
2
  6
CONTINUOUS
  2
_FILLED
 10
209.8649077443
 20
185.9223218386
 41
3.5
 42
3.5
 43
3.5
  0
INSERT
  5
262
100
AcDbEntity
  8
0
100
AcDbBlockReference
 62
2
  6
CONTINUOUS
  2
_FILLED
 10
41.8649077443
 20
185.9223218386
 41
3.5
 42
3.5
 43
3.5
 50
180.0
  0
ENDBLK
  5
263
100
AcDbEntity
  8
0
  6
BYBLOCK
 62
0
100
AcDbBlockEnd
  0
BLOCK
  5
264
100
AcDbEntity
  8
0
100
AcDbBlockBegin
 62
2
  6
CONTINUOUS
  2
*D6
 70
65
 10
0.0
 20
0.0
  3
*D6
  1

  0
MTEXT
  5
265
100
AcDbEntity
  8
0
100
AcDbMText
 62
5
  6
CONTINUOUS
  7
TEXTSTYLE_2
 71
2
 72
1
 10
261.1432572847
 20
133.2179721467
 30
0.0
 11
0.0
 21
1.0
 31
0.0
 44
0.9
  1
{\Fgdt;n}\Ftxt;42
 40
3.5
 41
10.1666666667
  0
LINE
  5
266
100
AcDbEntity
  8
0
100
AcDbLine
 62
2
  6
CONTINUOUS
 10
154.1869864315
 20
154.1929721467
 11
196.7909718361
 21
154.1929721467
  0
LINE
  5
267
100
AcDbEntity
  8
0
100
AcDbLine
 62
2
  6
CONTINUOUS
 10
225.5910680366
 20
154.1929721467
 11
267.0182572847
 21
154.1929721467
  0
LINE
  5
268
100
AcDbEntity
  8
0
100
AcDbLine
 62
2
  6
CONTINUOUS
 10
154.1869864315
 20
112.2429721467
 11
205.6152437359
 21
112.2429721467
  0
LINE
  5
269
100
AcDbEntity
  8
0
100
AcDbLine
 62
2
  6
CONTINUOUS
 10
217.1546762203
 20
112.2429721467
 11
267.0182572847
 21
112.2429721467
  0
LINE
  5
26A
100
AcDbEntity
  8
0
100
AcDbLine
 62
2
  6
CONTINUOUS
 10
265.5182572847
 20
154.1929721467
 11
265.5182572847
 21
133.2179721467
  0
LINE
  5
26B
100
AcDbEntity
  8
0
100
AcDbLine
 62
2
  6
CONTINUOUS
 10
265.5182572847
 20
112.2429721467
 11
265.5182572847
 21
133.2179721467
  0
INSERT
  5
26C
100
AcDbEntity
  8
0
100
AcDbBlockReference
 62
2
  6
CONTINUOUS
  2
_FILLED
 10
265.5182572847
 20
154.1929721467
 41
3.5
 42
3.5
 43
3.5
 50
90.0
  0
INSERT
  5
26D
100
AcDbEntity
  8
0
100
AcDbBlockReference
 62
2
  6
CONTINUOUS
  2
_FILLED
 10
265.5182572847
 20
112.2429721467
 41
3.5
 42
3.5
 43
3.5
 50
270.0
  0
ENDBLK
  5
26E
100
AcDbEntity
  8
0
  6
BYBLOCK
 62
0
100
AcDbBlockEnd
  0
ENDSEC
  0
SECTION
  2
ENTITIES
  0
DIMENSION
  5
26F
100
AcDbEntity
  8
0
100
AcDbDimension
 62
2
  6
CONTINUOUS
  2
*D0
 10
251.8005717609
 20
116.7429721467
 11
250.2584163332
 21
131.0574802097
 70
160
 71
2
 42
32.95
  1
%%c<>
  3
DIMSTYLE_1
100
AcDbAlignedDimension
 13
214.1441008316
 23
149.6929721467
 14
214.1441008316
 24
116.7429721467
 50
270.0
100
AcDbRotatedDimension
  0
DIMENSION
  5
270
100
AcDbEntity
  8
0
100
AcDbDimension
 62
2
  6
CONTINUOUS
  2
*D1
 10
241.850029872
 20
112.2429721467
 11
231.9295869626
 21
100.8605180298
 70
162
 71
2
 42
0.0785398163
  3
DIMSTYLE_2
100
AcDb2LineAngularDimension
 13
241.5751699657
 23
119.2386239074
 14
182.1876732094
 24
114.5647265486
 15
154.1869864315
 25
112.2429721467
 16
240.2824448424
 26
115.684607081
  0
DIMENSION
  5
271
100
AcDbEntity
  8
0
100
AcDbDimension
 62
2
  6
CONTINUOUS
  2
*D2
 10
209.8649077443
 20
177.7611501512
 11
141.2399077443
 21
180.3861501512
 70
160
 71
2
 42
130.0
  3
DIMSTYLE_3
100
AcDbAlignedDimension
 13
79.8649077443
 23
154.6841468555
 14
209.8649077443
 24
138.0185468555
100
AcDbRotatedDimension
  0
DIMENSION
  5
272
100
AcDbEntity
  8
0
100
AcDbDimension
 62
2
  6
CONTINUOUS
  2
*D3
 10
229.7632211538
 20
143.1982221467
 11
228.2770749282
 21
130.9457306267
 70
160
 71
2
 42
19.9605
  1
%%c<>
  3
DIMSTYLE_4
100
AcDbAlignedDimension
 13
214.1441008316
 23
123.2377221467
 14
214.1441008316
 24
143.1982221467
 50
90.0
100
AcDbRotatedDimension
  0
DIMENSION
  5
273
100
AcDbEntity
  8
0
100
AcDbDimension
 62
2
  6
CONTINUOUS
  2
*D4
 10
101.8649077443
 20
170.9306177347
 11
152.1149077443
 21
173.5556177347
 70
160
 71
2
 42
108.0
  3
DIMSTYLE_5
100
AcDbAlignedDimension
 13
209.8649077443
 23
118.2429721467
 14
101.8649077443
 24
157.9827173486
 50
180.0
100
AcDbRotatedDimension
  0
DIMENSION
  5
274
100
AcDbEntity
  8
0
100
AcDbDimension
 62
2
  6
CONTINUOUS
  2
*D5
 10
41.8649077443
 20
185.9223218386
 11
122.1149077443
 21
188.5473218386
 70
160
 71
2
 42
168.0
  3
DIMSTYLE_3
100
AcDbAlignedDimension
 13
209.8649077443
 23
118.2429721467
 14
41.8649077443
 24
114.5318563774
 50
180.0
100
AcDbRotatedDimension
  0
DIMENSION
  5
275
100
AcDbEntity
  8
0
100
AcDbDimension
 62
2
  6
CONTINUOUS
  2
*D6
 10
265.5182572847
 20
112.2429721467
 11
264.032111059
 21
130.9457306267
 70
160
 71
2
 42
41.95
  1
%%c<>
  3
DIMSTYLE_1
100
AcDbAlignedDimension
 13
154.1869864315
 23
154.1929721467
 14
154.1869864315
 24
112.2429721467
 50
270.0
100
AcDbRotatedDimension
  0
MTEXT
  5
276
100
AcDbEntity
  8
0
100
AcDbMText
 62
5
  6
CONTINUOUS
  7
STANDARD
 71
1
 72
1
 10
29.9759290541
 20
87.9945426195
 30
0.0
 11
1.0
 21
0.0
 31
0.0
 44
0.9
  3
Für diese Unterlage behalten wir das Ur-\Pheberrecht. Sie darf nur für den von uns \Pbestimmten Zweck benutzt und ohne unsere \PZustimmung weder vervielfältigt noch\PDritten zugänglich gemacht werden\P \PWe own the copyright of this document. It \Pde
  1
termined and may neither be copied or \Pmade accessible to outsiders without our\Ppermission.\P \PCe plan reste notre propriété. Il ne peut\Pêtre utilisé, copié ou reproduit sans notre\Paccord.\P 
 40
3.5
 41
104.8333333333
  0
LINE
  5
277
100
AcDbEntity
  8
0
100
AcDbLine
 62
7
  6
CONTINUOUS
 10
0.0
 20
0.0
 11
0.0
 21
210.0
  0
LINE
  5
278
100
AcDbEntity
  8
0
100
AcDbLine
 62
7
  6
CONTINUOUS
 10
0.0
 20
0.0
 11
297.0
 21
0.0
  0
LINE
  5
279
100
AcDbEntity
  8
0
100
AcDbLine
 62
7
  6
CONTINUOUS
 10
0.0
 20
210.0
 11
297.0
 21
210.0
  0
LINE
  5
27A
100
AcDbEntity
  8
0
100
AcDbLine
 62
7
  6
CONTINUOUS
 10
297.0
 20
0.0
 11
297.0
 21
210.0
  0
LINE
  5
27B
100
AcDbEntity
  8
0
100
AcDbLine
 62
7
  6
CONTINUOUS
 10
41.8649077443
 20
111.5256341538
 11
41.8649077443
 21
148.1792167854
  0
LINE
  5
27C
100
AcDbEntity
  8
KURVEN
100
AcDbLine
 62
4
  6
CONTINUOUS
 10
41.8649077443
 20
110.6972939711
 11
41.8649077443
 21
152.4295461336
  0
LINE
  5
27D
100
AcDbEntity
  8
ACHSEN
100
AcDbLine
 62
7
  6
CONTINUOUS
 10
41.8649077443
 20
148.1792167854
 11
41.8649077443
 21
151.9664514607
  0
LINE
  5
27E
100
AcDbEntity
  8
ACHSEN
100
AcDbLine
 62
7
  6
CONTINUOUS
 10
43.3649077443
 20
152.7149617602
 11
43.3649077443
 21
148.9292167854
  0
LINE
  5
27F
100
AcDbEntity
  8
0
100
AcDbLine
 62
7
  6
CONTINUOUS
 10
43.3649077443
 20
148.9292167854
 11
43.3649077443
 21
110.65960875
  0
LINE
  5
280
100
AcDbEntity
  8
ACHSEN
100
AcDbLine
 62
7
  6
CENTER
 10
64.3649077443
 20
110.2844866396
 11
64.3649077443
 21
157.4063427113
  0
LINE
  5
281
100
AcDbEntity
  8
0
100
AcDbLine
 62
7
  6
CONTINUOUS
 10
79.8649095802
 20
164.4179702393
 11
80.1649096701
 21
164.7179702932
  0
LINE
  5
282
100
AcDbEntity
  8
0
100
AcDbLine
 62
9
  6
CONTINUOUS
 10
43.3649077443
 20
148.9292167854
 11
41.8649077443
 21
148.1792167854
  0
LINE
  5
283
100
AcDbEntity
  8
0
100
AcDbLine
 62
7
  6
CONTINUOUS
 10
43.3649077443
 20
110.65960875
 11
41.8649077443
 21
111.5256341538
  0
LINE
  5
284
100
AcDbEntity
  8
0
100
AcDbLine
 62
7
  6
CONTINUOUS
 10
77.6649708333
 20
153.8380725163
 11
77.6649708333
 21
149.6755028953
  0
LINE
  5
285
100
AcDbEntity
  8
0
100
AcDbLine
 62
7
  6
CONTINUOUS
 10
77.6649708333
 20
138.4428432773
 11
77.6649708333
 21
111.5355702675
  0
LINE
  5
286
100
AcDbEntity
  8
0
100
AcDbLine
 62
9
  6
CONTINUOUS
 10
77.8699308554
 20
153.6431587165
 11
77.8699308554
 21
147.9029143515
  0
LINE
  5
287
100
AcDbEntity
  8
0
100
AcDbLine
 62
9
  6
CONTINUOUS
 10
77.8699308554
 20
141.4039153334
 11
77.8699308554
 21
110.3470867552
  0
LINE
  5
288
100
AcDbEntity
  8
0
100
AcDbLine
 62
9
  6
CONTINUOUS
 10
78.5578009631
 20
110.4750789279
 11
78.5578009631
 21
111.1144154958
  0
LINE
  5
289
100
AcDbEntity
  8
0
100
AcDbLine
 62
9
  6
CONTINUOUS
 10
78.5578009631
 20
139.6325119074
 11
78.5578009631
 21
148.9069890369
  0
LINE
  5
28A
100
AcDbEntity
  8
0
100
AcDbLine
 62
9
  6
CONTINUOUS
 10
79.4699308554
 20
153.6833562856
 11
79.4699308554
 21
149.5624504337
  0
LINE
  5
28B
100
AcDbEntity
  8
0
100
AcDbLine
 62
9
  6
CONTINUOUS
 10
79.4699308554
 20
138.4009225998
 11
79.4699308554
 21
111.6905434066
  0
LINE
  5
28C
100
AcDbEntity
  8
0
100
AcDbLine
 62
7
  6
CONTINUOUS
 10
79.8649077443
 20
102.0182478162
 11
79.8649077443
 21
164.4176964772
  0
LINE
  5
28D
100
AcDbEntity
  8
0
100
AcDbLine
 62
7
  6
CONTINUOUS
 10
80.1649078178
 20
101.7179721467
 11
80.1649078178
 21
164.7179721467
  0
LINE
  5
28E
100
AcDbEntity
  8
0
100
AcDbLine
 62
7
  6
CONTINUOUS
 10
79.6648428925
 20
150.0075467324
 11
79.6649077443
 21
155.7514570077
  0
LINE
  5
28F
100
AcDbEntity
  8
0
100
AcDbLine
 62
7
  6
CONTINUOUS
 10
79.6648428925
 20
111.8078040553
 11
79.6648117779
 21
137.8431973608
  0
LINE
  5
290
100
AcDbEntity
  8
0
100
AcDbLine
 62
9
  6
CONTINUOUS
 10
43.3649077443
 20
112.2818563774
 11
41.8649077443
 21
113.0318563774
  0
LINE
  5
291
100
AcDbEntity
  8
0
100
AcDbLine
 62
7
  6
CONTINUOUS
 10
79.8649095802
 20
102.017974054
 11
80.1649096701
 21
101.7179740001
  0
LINE
  5
292
100
AcDbEntity
  8
0
100
AcDbLine
 62
9
  6
CONTINUOUS
 10
89.970570177
 20
163.1319269932
 11
89.970570177
 21
143.0873847657
  0
LINE
  5
293
100
AcDbEntity
  8
0
100
AcDbLine
 62
9
  6
CONTINUOUS
 10
89.970570177
 20
123.3485595277
 11
89.970570177
 21
103.3040173002
  0
LINE
  5
294
100
AcDbEntity
  8
0
100
AcDbLine
 62
9
  6
CONTINUOUS
 10
90.4035828789
 20
163.298564907
 11
90.4035828789
 21
142.5671934612
  0
LINE
  5
295
100
AcDbEntity
  8
0
100
AcDbLine
 62
9
  6
CONTINUOUS
 10
90.4035828789
 20
123.8687508322
 11
90.4035828789
 21
103.1373793864
  0
LINE
  5
296
100
AcDbEntity
  8
ACHSEN
100
AcDbLine
 62
7
  6
CENTER
 10
91.8649077443
 20
156.0460631524
 11
91.8649077443
 21
167.7179721467
  0
LINE
  5
297
100
AcDbEntity
  8
0
100
AcDbLine
 62
9
  6
CONTINUOUS
 10
93.3262326097
 20
163.298564907
 11
93.3262326097
 21
142.5671934612
  0
LINE
  5
298
100
AcDbEntity
  8
0
100
AcDbLine
 62
9
  6
CONTINUOUS
 10
93.3262326097
 20
123.8687508322
 11
93.3262326097
 21
103.1373793864
  0
LINE
  5
299
100
AcDbEntity
  8
0
100
AcDbLine
 62
9
  6
CONTINUOUS
 10
93.7592453116
 20
163.1319269932
 11
93.7592453116
 21
143.0873847657
  0
LINE
  5
29A
100
AcDbEntity
  8
0
100
AcDbLine
 62
9
  6
CONTINUOUS
 10
93.7592453116
 20
123.3485595277
 11
93.7592453116
 21
103.3040173002
  0
LINE
  5
29B
100
AcDbEntity
  8
0
100
AcDbLine
 62
7
  6
CONTINUOUS
 10
101.8649077443
 20
101.7179721467
 11
80.1649078167
 21
101.7179721467
  0
LINE
  5
29C
100
AcDbEntity
  8
0
100
AcDbLine
 62
7
  6
CONTINUOUS
 10
101.8649077443
 20
101.7179721467
 11
101.8649077443
 21
164.7179721467
  0
LINE
  5
29D
100
AcDbEntity
  8
RUNDUNGEN
100
AcDbLine
 62
9
  6
CONTINUOUS
 10
106.3649077443
 20
154.1929721467
 11
106.3649077443
 21
112.2429721467
  0
LINE
  5
29E
100
AcDbEntity
  8
0
100
AcDbLine
 62
7
  6
CONTINUOUS
 10
78.5578009631
 20
110.4750789279
 11
77.8753105668
 21
109.7925885316
  0
LINE
  5
29F
100
AcDbEntity
  8
0
100
AcDbLine
 62
7
  6
CONTINUOUS
 10
93.3262326097
 20
103.1373793864
 11
90.4035828789
 21
103.1373793864
  0
LINE
  5
2A0
100
AcDbEntity
  8
0
100
AcDbLine
 62
7
  6
CONTINUOUS
 10
78.1179364951
 20
110.3412432714
 11
77.8699308554
 21
110.3470867552
  0
LINE
  5
2A1
100
AcDbEntity
  8
0
100
AcDbLine
 62
7
  6
CONTINUOUS
 10
43.3649077443
 20
110.65960875
 11
77.8753105671
 21
109.7925873109
  0
LINE
  5
2A2
100
AcDbEntity
  8
RUNDUNGEN
100
AcDbLine
 62
7
  6
CONTINUOUS
 10
208.94336684
 20
116.6704453046
 11
152.6869864315
 21
112.2429721467
  0
LINE
  5
2A3
100
AcDbEntity
  8
0
100
AcDbLine
 62
7
  6
CONTINUOUS
 10
152.6869864315
 20
112.2429721467
 11
208.94336684
 21
116.6704453046
  0
LINE
  5
2A4
100
AcDbEntity
  8
0
100
AcDbLine
 62
7
  6
CONTINUOUS
 10
152.6869864315
 20
112.2429721467
 11
149.1149077443
 21
112.2429721467
  0
LINE
  5
2A5
100
AcDbEntity
  8
0
100
AcDbLine
 62
7
  6
CONTINUOUS
 10
140.6149077443
 20
112.2429721467
 11
106.3649077443
 21
112.2429721467
  0
LINE
  5
2A6
100
AcDbEntity
  8
0
100
AcDbLine
 62
7
  6
CONTINUOUS
 10
141.3488823405
 20
112.5429721467
 11
142.3649077443
 21
112.5429721467
  0
LINE
  5
2A7
100
AcDbEntity
  8
0
100
AcDbLine
 62
7
  6
CONTINUOUS
 10
147.3649077443
 20
112.5429721467
 11
148.3809331481
 21
112.5429721467
  0
LINE
  5
2A8
100
AcDbEntity
  8
0
100
AcDbLine
 62
9
  6
CONTINUOUS
 10
77.6649708333
 20
111.5355702675
 11
43.3649077443
 21
112.2818563774
  0
LINE
  5
2A9
100
AcDbEntity
  8
0
100
AcDbLine
 62
7
  6
CONTINUOUS
 10
148.7809331481
 20
154.0001518237
 11
149.1149077443
 21
154.1929721467
  0
LINE
  5
2AA
100
AcDbEntity
  8
RUNDUNGEN
100
AcDbLine
 62
7
  6
CONTINUOUS
 10
148.7809331481
 20
154.0001518237
 11
149.1149077443
 21
154.1929721467
  0
LINE
  5
2AB
100
AcDbEntity
  8
DEFAULT_2
100
AcDbLine
 62
8
  6
HIDDEN
 10
157.4146726279
 20
122.8877221467
 11
167.4796984631
 21
122.8877221467
  0
LINE
  5
2AC
100
AcDbEntity
  8
BOHRUNGEN
100
AcDbLine
 62
8
  6
HIDDEN
 10
168.8649077443
 20
123.2377221467
 11
207.5649077443
 21
123.2377221467
  0
LINE
  5
2AD
100
AcDbEntity
  8
0
100
AcDbLine
 62
7
  6
CONTINUOUS
 10
93.3262326097
 20
123.8687508322
 11
90.4035828789
 21
123.8687508322
  0
LINE
  5
2AE
100
AcDbEntity
  8
0
100
AcDbLine
 62
7
  6
CONTINUOUS
 10
148.7809331481
 20
112.4357924697
 11
149.1149077443
 21
112.2429721467
  0
LINE
  5
2AF
100
AcDbEntity
  8
RUNDUNGEN
100
AcDbLine
 62
7
  6
CONTINUOUS
 10
148.7809331481
 20
112.4357924697
 11
149.1149077443
 21
112.2429721467
  0
LINE
  5
2B0
100
AcDbEntity
  8
S_ACHSEN
100
AcDbLine
 62
7
  6
CENTER
 10
38.8649077443
 20
133.2179721467
 11
213.8649077443
 21
133.2179721467
  0
LINE
  5
2B1
100
AcDbEntity
  8
0
100
AcDbLine
 62
7
  6
CONTINUOUS
 10
77.8699308554
 20
141.4039153334
 11
78.1179364951
 21
141.4049295893
  0
LINE
  5
2B2
100
AcDbEntity
  8
0
100
AcDbLine
 62
9
  6
CONTINUOUS
 10
41.8649077443
 20
138.4428432773
 11
77.6649708333
 21
138.4428432773
  0
LINE
  5
2B3
100
AcDbEntity
  8
0
100
AcDbLine
 62
7
  6
CONTINUOUS
 10
140.6149077443
 20
154.1929721467
 11
140.6149077443
 21
112.2429721467
  0
LINE
  5
2B4
100
AcDbEntity
  8
RUNDUNGEN
100
AcDbLine
 62
9
  6
CONTINUOUS
 10
140.9488823405
 20
112.4357924697
 11
140.9488823405
 21
154.0001518237
  0
LINE
  5
2B5
100
AcDbEntity
  8
RUNDUNGEN
100
AcDbLine
 62
9
  6
CONTINUOUS
 10
141.3488823405
 20
112.5429721467
 11
141.3488823405
 21
153.8929721467
  0
LINE
  5
2B6
100
AcDbEntity
  8
BEZUGSACHSEN
100
AcDbLine
 62
7
  6
CENTER
 10
144.8649077443
 20
156.8929721467
 11
144.8649077443
 21
143.1929721467
  0
LINE
  5
2B7
100
AcDbEntity
  8
BEZUGSACHSEN
100
AcDbLine
 62
7
  6
CENTER
 10
144.8649077443
 20
109.5429721467
 11
144.8649077443
 21
123.2429721467
  0
LINE
  5
2B8
100
AcDbEntity
  8
0
100
AcDbLine
 62
7
  6
CONTINUOUS
 10
93.3262326097
 20
142.5671934612
 11
90.4035828789
 21
142.5671934612
  0
LINE
  5
2B9
100
AcDbEntity
  8
BOHRUNGEN
100
AcDbLine
 62
8
  6
HIDDEN
 10
168.8649077443
 20
143.1982221467
 11
207.5649077443
 21
143.1982221467
  0
LINE
  5
2BA
100
AcDbEntity
  8
RUNDUNGEN
100
AcDbLine
 62
8
  6
HIDDEN
 10
167.4796984631
 20
143.5482221467
 11
157.4146726279
 21
143.5482221467
  0
LINE
  5
2BB
100
AcDbEntity
  8
DEFAULT_2
100
AcDbLine
 62
8
  6
HIDDEN
 10
157.4146726279
 20
143.5482221467
 11
167.4796984631
 21
143.5482221467
  0
LINE
  5
2BC
100
AcDbEntity
  8
RUNDUNGEN
100
AcDbLine
 62
9
  6
CONTINUOUS
 10
148.3809331481
 20
112.5429721467
 11
148.3809331481
 21
153.8929721467
  0
LINE
  5
2BD
100
AcDbEntity
  8
RUNDUNGEN
100
AcDbLine
 62
9
  6
CONTINUOUS
 10
148.7809331481
 20
112.4357924697
 11
148.7809331481
 21
154.0001518237
  0
LINE
  5
2BE
100
AcDbEntity
  8
0
100
AcDbLine
 62
7
  6
CONTINUOUS
 10
149.1149077443
 20
154.1929721467
 11
149.1149077443
 21
112.2429721467
  0
LINE
  5
2BF
100
AcDbEntity
  8
0
100
AcDbLine
 62
7
  6
CONTINUOUS
 10
152.6869864315
 20
112.2429721467
 11
152.6869864315
 21
154.1929721467
  0
LINE
  5
2C0
100
AcDbEntity
  8
0
100
AcDbLine
 62
7
  6
CONTINUOUS
 10
140.6149077443
 20
112.2429721467
 11
140.9488823405
 21
112.4357924697
  0
LINE
  5
2C1
100
AcDbEntity
  8
RUNDUNGEN
100
AcDbLine
 62
7
  6
CONTINUOUS
 10
140.6149077443
 20
112.2429721467
 11
140.9488823405
 21
112.4357924697
  0
LINE
  5
2C2
100
AcDbEntity
  8
0
100
AcDbLine
 62
7
  6
CONTINUOUS
 10
77.8699308554
 20
153.6431587165
 11
79.4699308554
 21
153.6833562856
  0
LINE
  5
2C3
100
AcDbEntity
  8
0
100
AcDbLine
 62
7
  6
CONTINUOUS
 10
50.1285124984
 20
153.1462608368
 11
59.9149077443
 21
153.3921291489
  0
LINE
  5
2C4
100
AcDbEntity
  8
0
100
AcDbLine
 62
7
  6
CONTINUOUS
 10
69.0442690775
 20
153.6214904821
 11
77.6649708333
 21
153.8380725163
  0
LINE
  5
2C5
100
AcDbEntity
  8
0
100
AcDbLine
 62
9
  6
CONTINUOUS
 10
43.3649077443
 20
148.9292167854
 11
77.6649708333
 21
149.6755028953
  0
LINE
  5
2C6
100
AcDbEntity
  8
0
100
AcDbLine
 62
7
  6
CONTINUOUS
 10
78.1179364951
 20
147.9077435794
 11
77.8699308554
 21
147.9029143515
  0
LINE
  5
2C7
100
AcDbEntity
  8
0
100
AcDbLine
 62
7
  6
CONTINUOUS
 10
141.3488823405
 20
153.8929721467
 11
142.3649077443
 21
153.8929721467
  0
LINE
  5
2C8
100
AcDbEntity
  8
BEZUGSACHSEN
100
AcDbLine
 62
7
  6
CONTINUOUS
 10
141.3488823405
 20
153.8929721467
 11
142.3649077443
 21
153.8929721467
  0
LINE
  5
2C9
100
AcDbEntity
  8
0
100
AcDbLine
 62
7
  6
CONTINUOUS
 10
147.3649077443
 20
153.8929721467
 11
148.3809331481
 21
153.8929721467
  0
LINE
  5
2CA
100
AcDbEntity
  8
BEZUGSACHSEN
100
AcDbLine
 62
7
  6
CONTINUOUS
 10
147.3649077443
 20
153.8929721467
 11
148.3809331481
 21
153.8929721467
  0
LINE
  5
2CB
100
AcDbEntity
  8
0
100
AcDbLine
 62
7
  6
CONTINUOUS
 10
152.6869864315
 20
154.1929721467
 11
149.1149077443
 21
154.1929721467
  0
LINE
  5
2CC
100
AcDbEntity
  8
0
100
AcDbLine
 62
7
  6
CONTINUOUS
 10
140.6149077443
 20
154.1929721467
 11
106.3649077443
 21
154.1929721467
  0
LINE
  5
2CD
100
AcDbEntity
  8
RUNDUNGEN
100
AcDbLine
 62
9
  6
CONTINUOUS
 10
157.4146726279
 20
122.8877221467
 11
157.4146726279
 21
143.5482221467
  0
LINE
  5
2CE
100
AcDbEntity
  8
RUNDUNGEN
100
AcDbLine
 62
7
  6
CONTINUOUS
 10
208.94336684
 20
149.7654989888
 11
152.6869864315
 21
154.1929721467
  0
LINE
  5
2CF
100
AcDbEntity
  8
0
100
AcDbLine
 62
7
  6
CONTINUOUS
 10
152.6869864315
 20
154.1929721467
 11
208.94336684
 21
149.7654989888
  0
LINE
  5
2D0
100
AcDbEntity
  8
0
100
AcDbLine
 62
7
  6
CONTINUOUS
 10
140.6149077443
 20
154.1929721467
 11
140.9488823405
 21
154.0001518237
  0
LINE
  5
2D1
100
AcDbEntity
  8
RUNDUNGEN
100
AcDbLine
 62
7
  6
CONTINUOUS
 10
140.6149077443
 20
154.1929721467
 11
140.9488823405
 21
154.0001518237
  0
LINE
  5
2D2
100
AcDbEntity
  8
0
100
AcDbLine
 62
7
  6
CONTINUOUS
 10
93.3262326097
 20
163.298564907
 11
90.4035828789
 21
163.298564907
  0
LINE
  5
2D3
100
AcDbEntity
  8
0
100
AcDbLine
 62
7
  6
CONTINUOUS
 10
101.8649077443
 20
164.7179721467
 11
97.0868186494
 21
164.7179721467
  0
LINE
  5
2D4
100
AcDbEntity
  8
0
100
AcDbLine
 62
7
  6
CONTINUOUS
 10
86.6429968391
 20
164.7179721467
 11
80.1649078167
 21
164.7179721467
  0
LINE
  5
2D5
100
AcDbEntity
  8
RUNDUNGEN
100
AcDbLine
 62
9
  6
CONTINUOUS
 10
208.94336684
 20
116.6704453046
 11
208.94336684
 21
149.7654989888
  0
LINE
  5
2D6
100
AcDbEntity
  8
RUNDUNGEN
100
AcDbLine
 62
7
  6
CONTINUOUS
 10
209.8649077443
 20
117.6673626384
 11
209.8649077443
 21
148.768581655
  0
ARC
  5
2D7
100
AcDbEntity
  8
0
100
AcDbCircle
 62
7
  6
CONTINUOUS
 10
-28.8871034507
 20
113.9084833175
 40
110.4813700648
100
AcDbArc
 50
13.4640903998
 51
14.4111621352
  0
ARC
  5
2D8
100
AcDbEntity
  8
ACHSEN
100
AcDbCircle
 62
7
  6
CONTINUOUS
 10
55.126479364
 20
117.6495689615
 40
35.845102548
100
AcDbArc
 50
98.0149288422
 51
101.1172700805
  0
ARC
  5
2D9
100
AcDbEntity
  8
0
100
AcDbCircle
 62
7
  6
CONTINUOUS
 10
79.2649077443
 20
109.7679721467
 40
1.0
100
AcDbArc
 50
53.0400606802
 51
135.0
  0
ARC
  5
2DA
100
AcDbEntity
  8
0
100
AcDbCircle
 62
7
  6
CONTINUOUS
 10
79.2649077443
 20
156.6679721467
 40
1.0
100
AcDbArc
 50
293.5781784782
 51
306.9599393198
  0
ARC
  5
2DB
100
AcDbEntity
  8
0
100
AcDbCircle
 62
7
  6
CONTINUOUS
 10
79.4649077443
 20
153.8832931965
 40
0.2
100
AcDbArc
 50
271.439166666
 51
360.0
  0
ARC
  5
2DC
100
AcDbEntity
  8
0
100
AcDbCircle
 62
7
  6
CONTINUOUS
 10
77.8649077443
 20
153.8430956274
 40
0.2
100
AcDbArc
 50
181.439166666
 51
271.439166666
  0
ARC
  5
2DD
100
AcDbEntity
  8
ACHSEN
100
AcDbCircle
 62
7
  6
CONTINUOUS
 10
-21.8933092336
 20
281.6139116991
 40
144.4768984249
100
AcDbArc
 50
296.187103939
 51
296.8519184685
  0
ARC
  5
2DE
100
AcDbEntity
  8
FASEN
100
AcDbCircle
 62
7
  6
CONTINUOUS
 10
92.1544187892
 20
197.5460532232
 40
33.2876143245
100
AcDbArc
 50
260.536348598
 51
261.5195221874
  0
ARC
  5
2DF
100
AcDbEntity
  8
FASEN
100
AcDbCircle
 62
7
  6
CONTINUOUS
 10
91.5763089254
 20
197.5347855383
 40
33.2763391223
100
AcDbArc
 50
278.4862446768
 51
278.9386216515
  0
ARC
  5
2E0
100
AcDbEntity
  8
FASEN
100
AcDbCircle
 62
7
  6
CONTINUOUS
 10
91.8253604893
 20
195.8153777123
 40
31.5390043832
100
AcDbArc
 50
270.0718441004
 51
278.4997090997
  0
ARC
  5
2E1
100
AcDbEntity
  8
FASEN
100
AcDbCircle
 62
7
  6
CONTINUOUS
 10
91.8779816368
 20
195.4615285164
 40
31.1851331333
100
AcDbArc
 50
261.4570633999
 51
269.9759796157
  0
ARC
  5
2E2
100
AcDbEntity
  8
0
100
AcDbCircle
 62
7
  6
CONTINUOUS
 10
224.0990805149
 20
84.2437742771
 40
159.2595221537
100
AcDbArc
 50
156.0446773748
 51
156.4374589831
  0
ARC
  5
2E3
100
AcDbEntity
  8
BEZUGSACHSEN
100
AcDbCircle
 62
7
  6
CONTINUOUS
 10
144.8450157039
 20
174.7117319434
 40
20.970708509
100
AcDbArc
 50
270.9421628875
 51
276.9014790214
  0
ARC
  5
2E4
100
AcDbEntity
  8
BEZUGSACHSEN
100
AcDbCircle
 62
7
  6
CONTINUOUS
 10
144.8847946137
 20
91.7242970079
 40
20.9706238431
100
AcDbArc
 50
90.9426134735
 51
96.9014927894
  0
ARC
  5
2E5
100
AcDbEntity
  8
BEZUGSACHSEN
100
AcDbCircle
 62
7
  6
CONTINUOUS
 10
144.8556803347
 20
91.8786161623
 40
20.8161435056
100
AcDbArc
 50
83.0765943037
 51
88.898496584
  0
ARC
  5
2E6
100
AcDbEntity
  8
BEZUGSACHSEN
100
AcDbCircle
 62
7
  6
CONTINUOUS
 10
144.8741333312
 20
174.557296044
 40
20.8161114327
100
AcDbArc
 50
263.076588638
 51
268.8990074684
  0
ARC
  5
2E7
100
AcDbEntity
  8
BEZUGSACHSEN
100
AcDbCircle
 62
7
  6
CONTINUOUS
 10
144.8669884247
 20
174.2587491978
 40
20.5174824649
100
AcDbArc
 50
268.90293679
 51
270.9106654623
  0
ARC
  5
2E8
100
AcDbEntity
  8
BEZUGSACHSEN
100
AcDbCircle
 62
7
  6
CONTINUOUS
 10
144.8628241835
 20
92.1772011975
 40
20.5174763633
100
AcDbArc
 50
88.902413468
 51
90.911141094
  0
ARC
  5
2E9
100
AcDbEntity
  8
RUNDUNGEN
100
AcDbCircle
 62
7
  6
CONTINUOUS
 10
106.3649077443
 20
158.6929721467
 40
4.5
100
AcDbArc
 50
180.0
 51
270.0
  0
ARC
  5
2EA
100
AcDbEntity
  8
RUNDUNGEN
100
AcDbCircle
 62
7
  6
CONTINUOUS
 10
106.3649077443
 20
107.7429721467
 40
4.5
100
AcDbArc
 50
90.0
 51
179.9999999999
  0
ARC
  5
2EB
100
AcDbEntity
  8
0
100
AcDbCircle
 62
2
  6
CONTINUOUS
 10
144.8661837116
 20
133.2269316076
 40
3.0089597314
100
AcDbArc
 50
255.0546637034
 51
269.975703382
  0
ARC
  5
2EC
100
AcDbEntity
  8
0
100
AcDbCircle
 62
2
  6
CONTINUOUS
 10
144.8645301463
 20
133.2184490558
 40
2.9994585498
100
AcDbArc
 50
270.0
 51
195.0146097012
  0
CIRCLE
  5
2ED
100
AcDbEntity
  8
BEZUGSACHSEN
100
AcDbCircle
 62
7
  6
CONTINUOUS
 10
144.8649077443
 20
133.2179721467
 40
2.5
  0
ARC
  5
2EE
100
AcDbEntity
  8
RUNDUNGEN
100
AcDbCircle
 62
7
  6
CONTINUOUS
 10
208.8649077443
 20
148.768581655
 40
1.0
100
AcDbArc
 50
0.0
 51
85.5
  0
ARC
  5
2EF
100
AcDbEntity
  8
RUNDUNGEN
100
AcDbCircle
 62
7
  6
CONTINUOUS
 10
208.8649077443
 20
117.6673626384
 40
1.0
100
AcDbArc
 50
274.5
 51
360.0
  0
ARC
  5
2F0
100
AcDbEntity
  8
RUNDUNGEN
100
AcDbCircle
 62
7
  6
CONTINUOUS
 10
148.3809331481
 20
154.6929721467
 40
0.8
100
AcDbArc
 50
270.0
 51
300.0000000067
  0
ARC
  5
2F1
100
AcDbEntity
  8
RUNDUNGEN
100
AcDbCircle
 62
7
  6
CONTINUOUS
 10
148.3809331481
 20
111.7429721467
 40
0.8
100
AcDbArc
 50
59.9999999925
 51
90.0
  0
ARC
  5
2F2
100
AcDbEntity
  8
RUNDUNGEN
100
AcDbCircle
 62
7
  6
CONTINUOUS
 10
141.3488823405
 20
154.6929721467
 40
0.8
100
AcDbArc
 50
239.9999999932
 51
270.0
  0
ARC
  5
2F3
100
AcDbEntity
  8
RUNDUNGEN
100
AcDbCircle
 62
7
  6
CONTINUOUS
 10
141.3488823405
 20
111.7429721467
 40
0.8
100
AcDbArc
 50
90.0
 51
120.0000000074
  0
SPLINE
  5
2F4
100
AcDbEntity
  8
0
100
AcDbSpline
 62
2
  6
CONTINUOUS
 70
0
 71
3
 72
13
 73
9
 74
0
 42
0.0000001
 43
0.0000001
 44
0.0000000001
 40
0.0
 40
0.0
 40
0.0
 40
0.0
 40
0.1666666667
 40
0.3333333333
 40
0.5
 40
0.6666666667
 40
0.8333333333
 40
1.0
 40
1.0
 40
1.0
 40
1.0
 10
147.8649077443
 20
112.5429721467
 30
0.0
 10
147.8649077443
 20
112.5429721467
 30
0.0
 10
147.793418698
 20
112.5535170733
 30
0.0
 10
147.4901987692
 20
112.5952005838
 30
0.0
 10
147.010228782
 20
112.6521208055
 30
0.0
 10
146.3766221608
 20
112.7098323892
 30
0.0
 10
145.6477767535
 20
112.7515460231
 30
0.0
 10
145.1256889199
 20
112.7617842076
 30
0.0
 10
144.8649077443
 20
112.7617842076
 30
0.0
  0
SPLINE
  5
2F5
100
AcDbEntity
  8
0
100
AcDbSpline
 62
2
  6
CONTINUOUS
 70
0
 71
3
 72
13
 73
9
 74
0
 42
0.0000001
 43
0.0000001
 44
0.0000000001
 40
0.0
 40
0.0
 40
0.0
 40
0.0
 40
0.1666666667
 40
0.3333333333
 40
0.5
 40
0.6666666667
 40
0.8333333333
 40
1.0
 40
1.0
 40
1.0
 40
1.0
 10
144.8649077443
 20
112.7617842076
 30
0.0
 10
144.6042118635
 20
112.7617842076
 30
0.0
 10
144.0822648202
 20
112.7515523537
 30
0.0
 10
143.3535376795
 20
112.7098579908
 30
0.0
 10
142.7198563627
 20
112.652148662
 30
0.0
 10
142.2400114371
 20
112.5952508933
 30
0.0
 10
141.9365483514
 20
112.5535397493
 30
0.0
 10
141.8649077443
 20
112.5429721467
 30
0.0
 10
141.8649077443
 20
112.5429721467
 30
0.0
  0
SPLINE
  5
2F6
100
AcDbEntity
  8
0
100
AcDbSpline
 62
2
  6
CONTINUOUS
 70
0
 71
3
 72
13
 73
9
 74
0
 42
0.0000001
 43
0.0000001
 44
0.0000000001
 40
0.0
 40
0.0
 40
0.0
 40
0.0
 40
0.1666666667
 40
0.3333333333
 40
0.5
 40
0.6666666667
 40
0.8333333333
 40
1.0
 40
1.0
 40
1.0
 40
1.0
 10
144.8649077443
 20
153.6741600858
 30
0.0
 10
145.1252527765
 20
153.6741600858
 30
0.0
 10
145.6466009409
 20
153.6843563588
 30
0.0
 10
146.3757183451
 20
153.726044265
 30
0.0
 10
147.0082690578
 20
153.7836438082
 30
0.0
 10
147.4863381644
 20
153.8402316766
 30
0.0
 10
147.7966505263
 20
153.8828719627
 30
0.0
 10
147.8649077443
 20
153.8929721467
 30
0.0
 10
147.8649077443
 20
153.8929721467
 30
0.0
  0
SPLINE
  5
2F7
100
AcDbEntity
  8
0
100
AcDbSpline
 62
2
  6
CONTINUOUS
 70
0
 71
3
 72
13
 73
9
 74
0
 42
0.0000001
 43
0.0000001
 44
0.0000000001
 40
0.0
 40
0.0
 40
0.0
 40
0.0
 40
0.1666666667
 40
0.3333333333
 40
0.5
 40
0.6666666667
 40
0.8333333333
 40
1.0
 40
1.0
 40
1.0
 40
1.0
 10
141.8649077443
 20
153.8929721467
 30
0.0
 10
141.8649077443
 20
153.8929721467
 30
0.0
 10
141.9332097144
 20
153.882867716
 30
0.0
 10
142.2428689875
 20
153.8403098812
 30
0.0
 10
142.7212279757
 20
153.7836757444
 30
0.0
 10
143.3536726631
 20
153.7260758494
 30
0.0
 10
144.0829792831
 20
153.6843621937
 30
0.0
 10
144.6044764719
 20
153.6741600858
 30
0.0
 10
144.8649077443
 20
153.6741600858
 30
0.0
  0
LINE
  5
2F8
100
AcDbEntity
  8
FASEN
100
AcDbLine
 62
7
  6
CONTINUOUS
 10
86.6812069799
 20
164.7114796779
 11
86.6424641653
 21
164.7179376351
  0
LINE
  5
2F9
100
AcDbEntity
  8
FASEN
100
AcDbLine
 62
7
  6
CONTINUOUS
 10
97.0486085087
 20
164.7114796779
 11
97.0873513232
 21
164.7179376351
  0
LINE
  5
2FA
100
AcDbEntity
  8
ACHSEN
100
AcDbLine
 62
7
  6
CONTINUOUS
 10
48.2149077443
 20
152.8220234453
 11
43.3649077443
 21
152.7149617602
  0
LINE
  5
2FB
100
AcDbEntity
  8
ACHSEN
100
AcDbLine
 62
7
  6
CONTINUOUS
 10
50.0056787758
 20
153.1270115653
 11
50.1285270922
 21
153.1445242225
  0
LINE
  5
2FC
100
AcDbEntity
  8
ACHSEN
100
AcDbLine
 62
7
  6
CONTINUOUS
 10
50.1285270922
 20
153.1445242225
 11
50.1434780303
 21
153.146629952
  0
LINE
  5
2FD
100
AcDbEntity
  8
ACHSEN
100
AcDbLine
 62
7
  6
CONTINUOUS
 10
50.1434780299
 20
153.1466299519
 11
50.1285566425
 21
153.1445283944
  0
SPLINE
  5
2FE
100
AcDbEntity
  8
ACHSEN
100
AcDbSpline
 62
7
  6
CONTINUOUS
 70
0
 71
3
 72
11
 73
7
 74
0
 42
0.0000001
 43
0.0000001
 44
0.0000000001
 40
0.0
 40
0.0
 40
0.0
 40
0.0
 40
0.1537099379
 40
0.500508937
 40
0.8472910559
 40
1.0
 40
1.0
 40
1.0
 40
1.0
 10
69.0442690775
 20
153.6214904821
 30
0.0
 10
68.5806838084
 20
153.5502135274
 30
0.0
 10
67.0664514942
 20
153.346155755
 30
0.0
 10
64.4836770667
 20
153.1606467231
 30
0.0
 10
61.8976310368
 20
153.2135939418
 30
0.0
 10
60.378341854
 20
153.3433604345
 30
0.0
 10
59.9149077443
 20
153.3921291489
 30
0.0
  0
LINE
  5
2FF
100
AcDbEntity
  8
FASEN
100
AcDbLine
 62
7
  6
CONTINUOUS
 10
86.6424641663
 20
164.7179376354
 11
86.9334474304
 21
164.6704266899
  0
SPLINE
  5
300
100
AcDbEntity
  8
FASEN
100
AcDbSpline
 62
7
  6
CONTINUOUS
 70
0
 71
3
 72
13
 73
9
 74
0
 42
0.0000001
 43
0.0000001
 44
0.0000000001
 40
0.0
 40
0.0
 40
0.0
 40
0.0
 40
0.0157914555
 40
0.0631395717
 40
0.1420412357
 40
0.2523478212
 40
0.5656689994
 40
1.0
 40
1.0
 40
1.0
 40
1.0
 10
97.0873513223
 20
164.7179376354
 30
0.0
 10
97.0855369795
 20
164.7180330138
 30
0.0
 10
97.078425099
 20
164.715882069
 30
0.0
 10
97.0622530864
 20
164.7141210983
 30
0.0
 10
97.0354365406
 20
164.7091225023
 30
0.0
 10
96.9783835691
 20
164.6999617199
 30
0.0
 10
96.8809811589
 20
164.6837865538
 30
0.0
 10
96.796028157
 20
164.6703374269
 30
0.0
 10
96.7466637128
 20
164.6625757441
 30
0.0
  0
SPLINE
  5
301
100
AcDbEntity
  8
0
100
AcDbSpline
 62
7
  6
CONTINUOUS
 70
0
 71
3
 72
13
 73
9
 74
0
 42
0.0000001
 43
0.0000001
 44
0.0000000001
 40
0.0
 40
0.0
 40
0.0
 40
0.0
 40
0.1753307868
 40
0.3422637982
 40
0.4768046258
 40
0.5947351366
 40
0.8062611466
 40
1.0
 40
1.0
 40
1.0
 40
1.0
 10
79.4699308554
 20
111.6905434066
 30
0.0
 10
79.4060181105
 20
111.7174835682
 30
0.0
 10
79.2682410672
 20
111.7462215542
 30
0.0
 10
79.0805940689
 20
111.6974427363
 30
0.0
 10
78.9390093853
 20
111.6086008333
 30
0.0
 10
78.8025441625
 20
111.4849982214
 30
0.0
 10
78.6741254759
 20
111.3211216154
 30
0.0
 10
78.593085479
 20
111.1824506231
 30
0.0
 10
78.5578009631
 20
111.1144154958
 30
0.0
  0
SPLINE
  5
302
100
AcDbEntity
  8
0
100
AcDbSpline
 62
7
  6
CONTINUOUS
 70
0
 71
3
 72
12
 73
8
 74
0
 42
0.0000001
 43
0.0000001
 44
0.0000000001
 40
0.0
 40
0.0
 40
0.0
 40
0.0
 40
0.2873076234
 40
0.4555854673
 40
0.6473090081
 40
0.8177551754
 40
1.0
 40
1.0
 40
1.0
 40
1.0
 10
79.4699308554
 20
111.6905434066
 30
0.0
 10
79.4953171393
 20
111.6798427147
 30
0.0
 10
79.5379842023
 20
111.6672667709
 30
0.0
 10
79.6017893951
 20
111.6714252731
 30
0.0
 10
79.6447218925
 20
111.7057777717
 30
0.0
 10
79.661551763
 20
111.7565780725
 30
0.0
 10
79.6644980729
 20
111.7903409082
 30
0.0
 10
79.6648215376
 20
111.8078130215
 30
0.0
  0
SPLINE
  5
303
100
AcDbEntity
  8
0
100
AcDbSpline
 62
7
  6
CONTINUOUS
 70
0
 71
3
 72
16
 73
12
 74
0
 42
0.0000001
 43
0.0000001
 44
0.0000000001
 40
0.0
 40
0.0
 40
0.0
 40
0.0
 40
0.1251648965
 40
0.2503573139
 40
0.375568813
 40
0.5007901353
 40
0.6259923846
 40
0.7510481625
 40
0.8746362128
 40
0.9372915345
 40
1.0
 40
1.0
 40
1.0
 40
1.0
 10
78.5578009631
 20
139.6325119074
 30
0.0
 10
78.5748693067
 20
139.5611855988
 30
0.0
 10
78.6111412432
 20
139.4190122059
 30
0.0
 10
78.6731635255
 20
139.2078173968
 30
0.0
 10
78.7448334054
 20
138.9995844718
 30
0.0
 10
78.8288427558
 20
138.796064103
 30
0.0
 10
78.9322246294
 20
138.6007756722
 30
0.0
 10
79.0601843033
 20
138.4239492133
 30
0.0
 10
79.2272224936
 20
138.3165044768
 30
0.0
 10
79.3779277901
 20
138.3380683993
 30
0.0
 10
79.4412056696
 20
138.3780102185
 30
0.0
 10
79.4699308554
 20
138.4009225998
 30
0.0
  0
SPLINE
  5
304
100
AcDbEntity
  8
0
100
AcDbSpline
 62
7
  6
CONTINUOUS
 70
0
 71
3
 72
13
 73
9
 74
0
 42
0.0000001
 43
0.0000001
 44
0.0000000001
 40
0.0
 40
0.0
 40
0.0
 40
0.0
 40
0.1670510693
 40
0.3289369806
 40
0.4609641718
 40
0.578209763
 40
0.7939442568
 40
1.0
 40
1.0
 40
1.0
 40
1.0
 10
79.4699308554
 20
149.5624504337
 30
0.0
 10
79.4054974046
 20
149.5866855387
 30
0.0
 10
79.2662964117
 20
149.6086198811
 30
0.0
 10
79.0796884234
 20
149.5521437089
 30
0.0
 10
78.9382273852
 20
149.4565802543
 30
0.0
 10
78.8006987879
 20
149.3222127852
 30
0.0
 10
78.6712790834
 20
149.1398405266
 30
0.0
 10
78.5922791168
 20
148.9845882855
 30
0.0
 10
78.5578009631
 20
148.9069890369
 30
0.0
  0
SPLINE
  5
305
100
AcDbEntity
  8
0
100
AcDbSpline
 62
7
  6
CONTINUOUS
 70
0
 71
3
 72
15
 73
11
 74
0
 42
0.0000001
 43
0.0000001
 44
0.0000000001
 40
0.0
 40
0.0
 40
0.0
 40
0.0
 40
0.0735479282
 40
0.1546005725
 40
0.2292557381
 40
0.2979289731
 40
0.4260365971
 40
0.5473626904
 40
0.7785364517
 40
1.0
 40
1.0
 40
1.0
 40
1.0
 10
79.4699308554
 20
149.5624504337
 30
0.0
 10
79.4823826742
 20
149.5577669791
 30
0.0
 10
79.5115329279
 20
149.5536864666
 30
0.0
 10
79.5510024195
 20
149.5719284939
 30
0.0
 10
79.5785640945
 20
149.6023317875
 30
0.0
 10
79.6044591046
 20
149.6442094702
 30
0.0
 10
79.6255450684
 20
149.6981396928
 30
0.0
 10
79.6471837789
 20
149.7824103524
 30
0.0
 10
79.6610539659
 20
149.8856212377
 30
0.0
 10
79.6644784555
 20
149.9674825878
 30
0.0
 10
79.6648215376
 20
150.0075398341
 30
0.0
  0
SPLINE
  5
306
100
AcDbEntity
  8
0
100
AcDbSpline
 62
7
  6
CONTINUOUS
 70
0
 71
3
 72
16
 73
12
 74
0
 42
0.0000001
 43
0.0000001
 44
0.0000000001
 40
0.0
 40
0.0
 40
0.0
 40
0.0
 40
0.2846406373
 40
0.4153418401
 40
0.5382258172
 40
0.6534042926
 40
0.7614765699
 40
0.8135102488
 40
0.8652468039
 40
0.9195357931
 40
1.0
 40
1.0
 40
1.0
 40
1.0
 10
77.6649708333
 20
111.5355702675
 30
0.0
 10
77.6649708333
 20
111.4159968301
 30
0.0
 10
77.6648291498
 20
111.2415138329
 30
0.0
 10
77.6672063365
 20
111.0154245881
 30
0.0
 10
77.6718333931
 20
110.8605528479
 30
0.0
 10
77.6817354408
 20
110.7154613559
 30
0.0
 10
77.6979232342
 20
110.6006779247
 30
0.0
 10
77.7197486306
 20
110.5143435657
 30
0.0
 10
77.7434879247
 20
110.4519139058
 30
0.0
 10
77.7822742621
 20
110.3843849705
 30
0.0
 10
77.8361383784
 20
110.3478829721
 30
0.0
 10
77.8699308554
 20
110.3470867552
 30
0.0
  0
SPLINE
  5
307
100
AcDbEntity
  8
0
100
AcDbSpline
 62
7
  6
CONTINUOUS
 70
0
 71
3
 72
9
 73
5
 74
0
 42
0.0000001
 43
0.0000001
 44
0.0000000001
 40
0.0
 40
0.0
 40
0.0
 40
0.0
 40
0.2573720101
 40
1.0
 40
1.0
 40
1.0
 40
1.0
 10
78.5578009631
 20
111.1144154958
 30
0.0
 10
78.5226615749
 20
111.0466602016
 30
0.0
 10
78.3836734394
 20
110.7846885506
 30
0.0
 10
78.2346899488
 20
110.5279794006
 30
0.0
 10
78.1179364951
 20
110.3412432714
 30
0.0
  0
SPLINE
  5
308
100
AcDbEntity
  8
0
100
AcDbSpline
 62
7
  6
CONTINUOUS
 70
0
 71
3
 72
8
 73
4
 74
0
 42
0.0000001
 43
0.0000001
 44
0.0000000001
 40
0.0
 40
0.0
 40
0.0
 40
0.0
 40
1.0
 40
1.0
 40
1.0
 40
1.0
 10
79.6647857909
 20
137.8431948066
 30
0.0
 10
79.6644548568
 20
137.8907235143
 30
0.0
 10
79.6632723416
 20
137.9382639232
 30
0.0
 10
79.6607683698
 20
137.98572778
 30
0.0
  0
SPLINE
  5
309
100
AcDbEntity
  8
0
100
AcDbSpline
 62
7
  6
CONTINUOUS
 70
0
 71
3
 72
15
 73
11
 74
0
 42
0.0000001
 43
0.0000001
 44
0.0000000001
 40
0.0
 40
0.0
 40
0.0
 40
0.0
 40
0.2532162989
 40
0.3790219793
 40
0.5040739368
 40
0.6282014989
 40
0.7508575768
 40
0.8716570132
 40
0.9343432508
 40
1.0
 40
1.0
 40
1.0
 40
1.0
 10
79.6607683698
 20
137.98572778
 30
0.0
 10
79.6584049514
 20
138.0305273854
 30
0.0
 10
79.6532475067
 20
138.0975333754
 30
0.0
 10
79.6410751831
 20
138.1860576361
 30
0.0
 10
79.6284973853
 20
138.2512653792
 30
0.0
 10
79.6105705739
 20
138.3150564751
 30
0.0
 10
79.5854818621
 20
138.3743316742
 30
0.0
 10
79.546202573
 20
138.4192128873
 30
0.0
 10
79.4989422352
 20
138.4209069523
 30
0.0
 10
79.4790246077
 20
138.4081761481
 30
0.0
 10
79.4699308554
 20
138.4009225998
 30
0.0
  0
SPLINE
  5
30A
100
AcDbEntity
  8
0
100
AcDbSpline
 62
7
  6
CONTINUOUS
 70
0
 71
3
 72
12
 73
8
 74
0
 42
0.0000001
 43
0.0000001
 44
0.0000000001
 40
0.0
 40
0.0
 40
0.0
 40
0.0
 40
0.128679218
 40
0.2561331636
 40
0.5063352459
 40
0.7539715031
 40
1.0
 40
1.0
 40
1.0
 40
1.0
 10
93.3262326097
 20
123.8687508322
 30
0.0
 10
93.3571087353
 20
123.8687508322
 30
0.0
 10
93.4190233618
 20
123.8564276057
 30
0.0
 10
93.5252442889
 20
123.7945128146
 30
0.0
 10
93.6246155622
 20
123.6777512495
 30
0.0
 10
93.7059918527
 20
123.5182564408
 30
0.0
 10
93.7436685928
 20
123.4055010791
 30
0.0
 10
93.7592453116
 20
123.3485595277
 30
0.0
  0
SPLINE
  5
30B
100
AcDbEntity
  8
0
100
AcDbSpline
 62
7
  6
CONTINUOUS
 70
0
 71
3
 72
9
 73
5
 74
0
 42
0.0000001
 43
0.0000001
 44
0.0000000001
 40
0.0
 40
0.0
 40
0.0
 40
0.0
 40
0.1680195226
 40
1.0
 40
1.0
 40
1.0
 40
1.0
 10
93.7592453116
 20
103.3040173002
 30
0.0
 10
93.7423970385
 20
103.2836971843
 30
0.0
 10
93.626943756
 20
103.1752162081
 30
0.0
 10
93.456939521
 20
103.1373793864
 30
0.0
 10
93.3262326097
 20
103.1373793864
 30
0.0
  0
SPLINE
  5
30C
100
AcDbEntity
  8
0
100
AcDbSpline
 62
7
  6
CONTINUOUS
 70
0
 71
3
 72
12
 73
8
 74
0
 42
0.0000001
 43
0.0000001
 44
0.0000000001
 40
0.0
 40
0.0
 40
0.0
 40
0.0
 40
0.2460454262
 40
0.4936983158
 40
0.7439199328
 40
0.8713555617
 40
1.0
 40
1.0
 40
1.0
 40
1.0
 10
89.970570177
 20
123.3485595277
 30
0.0
 10
89.9861479895
 20
123.4055050775
 30
0.0
 10
90.0238300092
 20
123.5182655829
 30
0.0
 10
90.1052057571
 20
123.6777822509
 30
0.0
 10
90.2046103689
 20
123.7945097837
 30
0.0
 10
90.3108061853
 20
123.8564576221
 30
0.0
 10
90.3727150551
 20
123.8687508322
 30
0.0
 10
90.4035828789
 20
123.8687508322
 30
0.0
  0
SPLINE
  5
30D
100
AcDbEntity
  8
0
100
AcDbSpline
 62
7
  6
CONTINUOUS
 70
0
 71
3
 72
9
 73
5
 74
0
 42
0.0000001
 43
0.0000001
 44
0.0000000001
 40
0.0
 40
0.0
 40
0.0
 40
0.0
 40
0.3641598889
 40
1.0
 40
1.0
 40
1.0
 40
1.0
 10
90.4035828789
 20
103.1373793864
 30
0.0
 10
90.346206457
 20
103.1373793864
 30
0.0
 10
90.190020124
 20
103.1534984804
 30
0.0
 10
90.0345141333
 20
103.2268967193
 30
0.0
 10
89.970570177
 20
103.3040173002
 30
0.0
  0
SPLINE
  5
30E
100
AcDbEntity
  8
0
100
AcDbSpline
 62
7
  6
CONTINUOUS
 70
0
 71
3
 72
9
 73
5
 74
0
 42
0.0000001
 43
0.0000001
 44
0.0000000001
 40
0.0
 40
0.0
 40
0.0
 40
0.0
 40
0.3642526053
 40
1.0
 40
1.0
 40
1.0
 40
1.0
 10
93.3262326097
 20
163.298564907
 30
0.0
 10
93.3836240162
 20
163.298564907
 30
0.0
 10
93.5398134747
 20
163.2824503515
 30
0.0
 10
93.69531026
 20
163.2090368344
 30
0.0
 10
93.7592453116
 20
163.1319269932
 30
0.0
  0
SPLINE
  5
30F
100
AcDbEntity
  8
0
100
AcDbSpline
 62
7
  6
CONTINUOUS
 70
0
 71
3
 72
21
 73
17
 74
0
 42
0.0000001
 43
0.0000001
 44
0.0000000001
 40
0.0
 40
0.0
 40
0.0
 40
0.0
 40
0.0152736556
 40
0.0307400416
 40
0.0615944727
 40
0.0924597446
 40
0.1233512662
 40
0.1852330485
 40
0.2472659363
 40
0.3094463907
 40
0.3717660941
 40
0.4967787028
 40
0.6222117836
 40
0.747963109
 40
0.8739278454
 40
1.0
 40
1.0
 40
1.0
 40
1.0
 10
77.8699308554
 20
141.4039153334
 30
0.0
 10
77.8546685402
 20
141.4038529141
 30
0.0
 10
77.8289803753
 20
141.3778557594
 30
0.0
 10
77.8032392827
 20
141.3241032236
 30
0.0
 10
77.7795917528
 20
141.2493313306
 30
0.0
 10
77.7597933794
 20
141.1592365062
 30
0.0
 10
77.7388157045
 20
141.037339142
 30
0.0
 10
77.7199123043
 20
140.8837903386
 30
0.0
 10
77.7036846642
 20
140.6985063864
 30
0.0
 10
77.6919154697
 20
140.512472319
 30
0.0
 10
77.6804608297
 20
140.2633964667
 30
0.0
 10
77.6720470657
 20
139.9509509476
 30
0.0
 10
77.6672946175
 20
139.5750554676
 30
0.0
 10
77.6654801948
 20
139.1981854115
 30
0.0
 10
77.6650068567
 20
138.8206747785
 30
0.0
 10
77.6649708333
 20
138.5688228796
 30
0.0
 10
77.6649708333
 20
138.4428432773
 30
0.0
  0
SPLINE
  5
310
100
AcDbEntity
  8
0
100
AcDbSpline
 62
7
  6
CONTINUOUS
 70
0
 71
3
 72
17
 73
13
 74
0
 42
0.0000001
 43
0.0000001
 44
0.0000000001
 40
0.0
 40
0.0
 40
0.0
 40
0.0
 40
0.2182009024
 40
0.3349220057
 40
0.456586696
 40
0.5831112211
 40
0.7144823146
 40
0.7820564401
 40
0.8510300181
 40
0.92186225
 40
0.958727904
 40
1.0
 40
1.0
 40
1.0
 40
1.0
 10
77.6649708333
 20
149.6755028953
 30
0.0
 10
77.6649708333
 20
149.5432238811
 30
0.0
 10
77.6649531459
 20
149.3401842197
 30
0.0
 10
77.6673602548
 20
149.0633954494
 30
0.0
 10
77.6721854483
 20
148.8422230468
 30
0.0
 10
77.6824711864
 20
148.6123080658
 30
0.0
 10
77.6985962098
 20
148.4156393707
 30
0.0
 10
77.7201703104
 20
148.2544384991
 30
0.0
 10
77.7427747809
 20
148.131268207
 30
0.0
 10
77.7723705772
 20
148.0261174764
 30
0.0
 10
77.806802252
 20
147.9466476221
 30
0.0
 10
77.8449153885
 20
147.9024272455
 30
0.0
 10
77.8699308554
 20
147.9029143515
 30
0.0
  0
LINE
  5
311
100
AcDbEntity
  8
0
100
AcDbLine
 62
7
  6
CONTINUOUS
 10
77.875309376
 20
109.7925873408
 11
78.1179364951
 21
110.3412432714
  0
SPLINE
  5
312
100
AcDbEntity
  8
0
100
AcDbSpline
 62
7
  6
CONTINUOUS
 70
0
 71
3
 72
10
 73
6
 74
0
 42
0.0000001
 43
0.0000001
 44
0.0000000001
 40
0.0
 40
0.0
 40
0.0
 40
0.0
 40
0.2163947382
 40
0.4583018846
 40
1.0
 40
1.0
 40
1.0
 40
1.0
 10
78.1179364951
 20
147.9077435794
 30
0.0
 10
78.0322351072
 20
147.4450220237
 30
0.0
 10
77.9098985149
 20
146.4537601324
 30
0.0
 10
77.834719789
 20
144.2787469477
 30
0.0
 10
77.9652246241
 20
142.5730138299
 30
0.0
 10
78.1179364951
 20
141.4049295893
 30
0.0
  0
SPLINE
  5
313
100
AcDbEntity
  8
0
100
AcDbSpline
 62
7
  6
CONTINUOUS
 70
0
 71
3
 72
12
 73
8
 74
0
 42
0.0000001
 43
0.0000001
 44
0.0000000001
 40
0.0
 40
0.0
 40
0.0
 40
0.0
 40
0.2460280129
 40
0.4936634005
 40
0.7438647573
 40
0.8713194616
 40
1.0
 40
1.0
 40
1.0
 40
1.0
 10
93.7592453116
 20
143.0873847657
 30
0.0
 10
93.7436686246
 20
143.0304433304
 30
0.0
 10
93.7059921294
 20
142.9176881556
 30
0.0
 10
93.6246156754
 20
142.7581943149
 30
0.0
 10
93.5252458963
 20
142.6414312556
 30
0.0
 10
93.4190238722
 20
142.5795179475
 30
0.0
 10
93.3571090499
 20
142.5671934612
 30
0.0
 10
93.3262326097
 20
142.5671934612
 30
0.0
  0
SPLINE
  5
314
100
AcDbEntity
  8
0
100
AcDbSpline
 62
7
  6
CONTINUOUS
 70
0
 71
3
 72
9
 73
5
 74
0
 42
0.0000001
 43
0.0000001
 44
0.0000000001
 40
0.0
 40
0.0
 40
0.0
 40
0.0
 40
0.1680322176
 40
1.0
 40
1.0
 40
1.0
 40
1.0
 10
89.970570177
 20
163.1319269932
 30
0.0
 10
89.9874197359
 20
163.15224866
 30
0.0
 10
90.1028743128
 20
163.260728692
 30
0.0
 10
90.2728778618
 20
163.298564907
 30
0.0
 10
90.4035828789
 20
163.298564907
 30
0.0
  0
SPLINE
  5
315
100
AcDbEntity
  8
0
100
AcDbSpline
 62
7
  6
CONTINUOUS
 70
0
 71
3
 72
12
 73
8
 74
0
 42
0.0000001
 43
0.0000001
 44
0.0000000001
 40
0.0
 40
0.0
 40
0.0
 40
0.0
 40
0.1286448926
 40
0.256081
 40
0.5063027424
 40
0.7539549585
 40
1.0
 40
1.0
 40
1.0
 40
1.0
 10
90.4035828789
 20
142.5671934612
 30
0.0
 10
90.3727149474
 20
142.5671934612
 30
0.0
 10
90.3108059531
 20
142.579487085
 30
0.0
 10
90.2046096558
 20
142.6414345487
 30
0.0
 10
90.1052056738
 20
142.7581627507
 30
0.0
 10
90.0238298274
 20
142.9176789887
 30
0.0
 10
89.9861479645
 20
143.0304393073
 30
0.0
 10
89.970570177
 20
143.0873847657
 30
0.0
  0
ELLIPSE
  5
316
100
AcDbEntity
  8
0
100
AcDbEllipse
 62
7
  6
CONTINUOUS
 10
77.5177535549
 20
133.2179721467
 30
0.0
 11
14.7536831607
 21
31.0932549156
 31
0.0
 40
0.3419987131
 41
-1.0912395858
 42
-0.1578061866
  0
ELLIPSE
  5
317
100
AcDbEntity
  8
0
100
AcDbEllipse
 62
7
  6
CONTINUOUS
 10
106.2120619336
 20
133.2179721467
 30
0.0
 11
-14.7536831607
 21
31.0932549156
 31
0.0
 40
0.3419987131
 41
0.1578061866
 42
1.0912395858
  0
ELLIPSE
  5
318
100
AcDbEntity
  8
0
100
AcDbEllipse
 62
7
  6
CONTINUOUS
 10
106.2120619336
 20
133.2179721467
 30
0.0
 11
14.7536831607
 21
31.0932549156
 31
0.0
 40
0.3419987131
 41
-4.2328322393
 42
-3.2993988402
  0
ELLIPSE
  5
319
100
AcDbEntity
  8
0
100
AcDbEllipse
 62
7
  6
CONTINUOUS
 10
77.5177535549
 20
133.2179721467
 30
0.0
 11
-14.7536831607
 21
31.0932549156
 31
0.0
 40
0.3419987131
 41
-2.9837864669
 42
-2.0503530678
  0
ENDSEC
  0
SECTION
  2
OBJECTS
  0
DICTIONARY
  5
C
100
AcDbDictionary
280
0
281
1
  3
ACAD_GROUP
350
D
  3
ACAD_MLINESTYLE
350
17
  3
ACAD_LAYOUT
350
1A
  3
ACAD_PLOTSETTINGS
350
19
  3
ACAD_PLOTSTYLENAME
350
E
  0
DICTIONARY
  5
D
102
{ACAD_REACTORS
330
C
102
}
100
AcDbDictionary
280
0
281
1
  0
ACDBDICTIONARYWDFLT
  5
E
102
{ACAD_REACTORS
330
C
102
}
100
AcDbDictionary
281
1
  3
Normal
350
F
100
AcDbDictionaryWithDefault
340
F
  0
DICTIONARY
  5
17
102
{ACAD_REACTORS
330
C
102
}
100
AcDbDictionary
280
0
281
1
  3
Standard
350
18
  0
DICTIONARY
  5
19
102
{ACAD_REACTORS
330
C
102
}
100
AcDbDictionary
281
1
  0
DICTIONARY
  5
1A
102
{ACAD_REACTORS
330
C
102
}
100
AcDbDictionary
281
1
  3
Model
350
31A
  3
Layout1
350
31B
  0
ACDBPLACEHOLDER
  5
F
102
{ACAD_REACTORS
330
E
102
}
  0
MLINESTYLE
  5
18
102
{ACAD_REACTORS
330
17
102
}
100
AcDbMlineStyle
  2
STANDARD
 70
0
  3

 62
256
 51
90.0
 52
90.0
 71
2
 49
0.5
 62
256
  6
BYLAYER
 49
-0.5
 62
256
  6
BYLAYER
  0
LAYOUT
  5
31A
102
{ACAD_REACTORS
330
1A
102
}
100
AcDbPlotSettings
  1

  2
none_device
  4
ISO_A4_(297.00_x_210.00_MM)
  6

 40
0.0
 41
0.0
 42
0.0
 43
0.0
 44
297.0
 45
210.0
 46
0.0
 47
0.0
 48
0.0
 49
0.0
140
0.0
141
0.0
142
1.0
143
1.0
 70
1024
 72
1
 73
0
 74
0
  7

 75
0
147
1.0
148
0.0
149
0.0
100
AcDbLayout
  1
Model
 70
0
 71
0
 10
0.0
 20
0.0
 11
297.0
 21
210.0
 12
0.0
 22
0.0
 32
0.0
 14
0.0
 24
0.0
 34
0.0
 15
0.0
 25
0.0
 35
0.0
146
0.0
 13
0.0
 23
0.0
 33
0.0
 16
1.0
 26
0.0
 36
0.0
 17
0.0
 27
1.0
 37
0.0
 76
0
330
217
345
0
346
0
  0
LAYOUT
  5
31B
102
{ACAD_REACTORS
330
1A
102
}
100
AcDbPlotSettings
  1

  2
none_device
  4
ISO_A4_(297.00_x_210.00_MM)
  6

 40
0.0
 41
0.0
 42
0.0
 43
0.0
 44
297.0
 45
210.0
 46
0.0
 47
0.0
 48
0.0
 49
0.0
140
0.0
141
0.0
142
1.0
143
1.0
 70
0
 72
1
 73
0
 74
0
  7

 75
0
147
1.0
148
0.0
149
0.0
100
AcDbLayout
  1
Layout1
 70
0
 71
1
 10
0.0
 20
0.0
 11
297.0
 21
210.0
 12
0.0
 22
0.0
 32
0.0
 14
0.0
 24
0.0
 34
0.0
 15
0.0
 25
0.0
 35
0.0
146
0.0
 13
0.0
 23
0.0
 33
0.0
 16
1.0
 26
0.0
 36
0.0
 17
0.0
 27
1.0
 37
0.0
 76
0
330
218
345
0
346
0
  0
ENDSEC
  0
EOF
