999
DXF file: cc6-144-12.dxf
999
Pro/ENGINEER 2010430 by Parametric Technology Corporation
  0
SECTION
  2
HEADER
  9
$ACADVER
  1
AC1021
  9
$DWGCODEPAGE
  3
ANSI_1252
  9
$EXTMAX
 10
297.0
 20
210.0
 30
0.0
  9
$EXTMIN
 10
0.0
 20
0.0
 30
0.0
  9
$LIMMIN
 10
0.0
 20
0.0
  9
$LIMMAX
 10
297.0
 20
210.0
  9
$VIEWCTR
 10
148.5
 20
105.0
  9
$VIEWSIZE
 40
210.0
  9
$CLAYER
  8
0
  9
$LTSCALE
 40
16.335
  9
$CELTYPE
  6
BYLAYER
  9
$DIMSCALE
 40
1.0
  9
$DIMASZ
 40
3.5
  9
$DIMEXO
 40
1.85625
  9
$DIMDLI
 40
11.286
  9
$DIMEXE
 40
5.346
  9
$DIMCEN
 40
2.673
  9
$DIMLFAC
 40
1.0
  9
$DIMBLK
  1
_FILLED
  9
$DIMTXT
 40
3.5
  9
$DIMTOL
 70
1
  9
$DIMLIM
 70
0
  9
$DIMTFAC
 40
1.0
  9
$DIMTP
 40
0.005
  9
$DIMTM
 40
0.005
  9
$PDMODE
 70
3
  9
$PDSIZE
 40
0.3125
  9
$HANDSEED
  5
316
  9
$TILEMODE
 70
1
  9
$MEASUREMENT
 70
1
  9
$INSUNITS
 70
4
  0
ENDSEC
  0
SECTION
  2
CLASSES
  0
CLASS
  1
ACDBDICTIONARYWDFLT
  2
AcDbDictionaryWithDefault
  3
AutoCAD 2000
 90
0
 91
1
280
0
281
0
  0
CLASS
  1
ACDBPLACEHOLDER
  2
AcDbPlaceHolder
  3
AutoCAD 2000
 90
0
 91
1
280
0
281
0
  0
CLASS
  1
LAYOUT
  2
AcDbLayout
  3
AutoCAD 2000
 90
0
 91
0
280
0
281
0
  0
ENDSEC
  0
SECTION
  2
TABLES
  0
TABLE
  2
VPORT
  5
8
100
AcDbSymbolTable
 70
2
  0
VPORT
  5
1F4
100
AcDbSymbolTableRecord
100
AcDbViewportTableRecord
  2
*ACTIVE
 70
0
 10
0.0
 20
0.0
 11
1.0
 21
1.0
 12
148.5
 22
105.0
 13
0.0
 23
0.0
 14
1.0
 24
1.0
 15
0.0
 25
0.0
 16
0.0
 26
0.0
 36
1.0
 17
0.0
 27
0.0
 37
0.0
 40
210.0
 41
1.4142857143
 42
50.0
 43
0.0
 44
0.0
 50
0.0
 51
0.0
 71
0
 72
100
 73
1
 74
1
 75
0
 76
0
 77
0
 78
0
  0
ENDTAB
  0
TABLE
  2
LTYPE
  5
5
100
AcDbSymbolTable
 70
6
  0
LTYPE
  5
14
100
AcDbSymbolTableRecord
100
AcDbLinetypeTableRecord
  2
BYBLOCK
 70
0
  3

 72
65
 73
0
 40
0.0
  0
LTYPE
  5
15
100
AcDbSymbolTableRecord
100
AcDbLinetypeTableRecord
  2
BYLAYER
 70
0
  3

 72
65
 73
0
 40
0.0
  0
LTYPE
  5
16
100
AcDbSymbolTableRecord
100
AcDbLinetypeTableRecord
  2
CONTINUOUS
 70
64
  3
Solid line
 72
65
 73
0
 40
0.0
  0
LTYPE
  5
1F5
100
AcDbSymbolTableRecord
100
AcDbLinetypeTableRecord
  2
CENTER
 70
64
  3
____ _ ____ _ ____ _ ____ _ ____ _ ____ _ ____
 72
65
 73
4
 40
0.6
 49
0.375
 74
0
 49
-0.075
 74
0
 49
0.075
 74
0
 49
-0.075
 74
0
  0
LTYPE
  5
1F6
100
AcDbSymbolTableRecord
100
AcDbLinetypeTableRecord
  2
HIDDEN
 70
64
  3
- - - - - - - - - - - - - - - - - - - -
 72
65
 73
2
 40
0.2
 49
0.1
 74
0
 49
-0.1
 74
0
  0
LTYPE
  5
1F7
100
AcDbSymbolTableRecord
100
AcDbLinetypeTableRecord
  2
PHANTOM
 70
64
  3
_____ _ _ _____ _ _ _____ _ _ _____
 72
65
 73
6
 40
0.8
 49
0.45
 74
0
 49
-0.05
 74
0
 49
0.1
 74
0
 49
-0.05
 74
0
 49
0.1
 74
0
 49
-0.05
 74
0
  0
LTYPE
  5
1F8
100
AcDbSymbolTableRecord
100
AcDbLinetypeTableRecord
  2
DOT
 70
64
  3
. . . . . . . . . . . . . . . . . . . .
 72
65
 73
2
 40
0.2
 49
0.1
 74
0
 49
-0.1
 74
0
  0
LTYPE
  5
1F9
100
AcDbSymbolTableRecord
100
AcDbLinetypeTableRecord
  2
DASHED
 70
64
  3
- - - - - - - - - - - - - - - - - - - -
 72
65
 73
2
 40
0.2
 49
0.1
 74
0
 49
-0.1
 74
0
  0
ENDTAB
  0
TABLE
  2
LAYER
  5
2
100
AcDbSymbolTable
 70
36
  0
LAYER
  5
10
100
AcDbSymbolTableRecord
100
AcDbLayerTableRecord
  2
0
 70
0
 62
7
  6
CONTINUOUS
370
-3
390
F
  0
LAYER
  5
1FA
100
AcDbSymbolTableRecord
100
AcDbLayerTableRecord
  2
DEFAULT_1
 70
0
 62
7
  6
CENTER
370
-3
390
F
  0
LAYER
  5
1FB
100
AcDbSymbolTableRecord
100
AcDbLayerTableRecord
  2
DEFAULT_2
 70
0
 62
8
  6
HIDDEN
370
-3
390
F
  0
LAYER
  5
1FC
100
AcDbSymbolTableRecord
100
AcDbLayerTableRecord
  2
DEFAULT_3
 70
0
 62
7
  6
PHANTOM
370
-3
390
F
  0
LAYER
  5
1FD
100
AcDbSymbolTableRecord
100
AcDbLayerTableRecord
  2
ACHSEN
 70
0
 62
7
  6
CONTINUOUS
370
-3
390
F
  0
LAYER
  5
1FE
100
AcDbSymbolTableRecord
100
AcDbLayerTableRecord
  2
BEZUGSACHSEN
 70
0
 62
7
  6
CONTINUOUS
370
-3
390
F
  0
LAYER
  5
1FF
100
AcDbSymbolTableRecord
100
AcDbLayerTableRecord
  2
BEZUGSEBENE_B
 70
0
 62
7
  6
CONTINUOUS
370
-3
390
F
  0
LAYER
  5
200
100
AcDbSymbolTableRecord
100
AcDbLayerTableRecord
  2
BOHRUNGEN
 70
0
 62
7
  6
CONTINUOUS
370
-3
390
F
  0
LAYER
  5
201
100
AcDbSymbolTableRecord
100
AcDbLayerTableRecord
  2
EBENEN
 70
0
 62
7
  6
CONTINUOUS
370
-3
390
F
  0
LAYER
  5
202
100
AcDbSymbolTableRecord
100
AcDbLayerTableRecord
  2
FASEN
 70
0
 62
7
  6
CONTINUOUS
370
-3
390
F
  0
LAYER
  5
203
100
AcDbSymbolTableRecord
100
AcDbLayerTableRecord
  2
FLAECHEN
 70
0
 62
7
  6
CONTINUOUS
370
-3
390
F
  0
LAYER
  5
204
100
AcDbSymbolTableRecord
100
AcDbLayerTableRecord
  2
GEWINDE
 70
0
 62
7
  6
CONTINUOUS
370
-3
390
F
  0
LAYER
  5
205
100
AcDbSymbolTableRecord
100
AcDbLayerTableRecord
  2
KOORDSYS
 70
0
 62
7
  6
CONTINUOUS
370
-3
390
F
  0
LAYER
  5
206
100
AcDbSymbolTableRecord
100
AcDbLayerTableRecord
  2
KURVEN
 70
0
 62
7
  6
CONTINUOUS
370
-3
390
F
  0
LAYER
  5
207
100
AcDbSymbolTableRecord
100
AcDbLayerTableRecord
  2
KURVE_FUER_GTOL_DETAILANSICHT
 70
0
 62
7
  6
CONTINUOUS
370
-3
390
F
  0
LAYER
  5
208
100
AcDbSymbolTableRecord
100
AcDbLayerTableRecord
  2
KURVE_GAUGE2_POLIGON_INNENEINST
 70
0
 62
7
  6
CONTINUOUS
370
-3
390
F
  0
LAYER
  5
209
100
AcDbSymbolTableRecord
100
AcDbLayerTableRecord
  2
KURVE_PHANTOM1_GAUGE_PIN_1
 70
0
 62
7
  6
CONTINUOUS
370
-3
390
F
  0
LAYER
  5
20A
100
AcDbSymbolTableRecord
100
AcDbLayerTableRecord
  2
KURVE_PHANTOM2_GAUGE_PIN1
 70
0
 62
7
  6
CONTINUOUS
370
-3
390
F
  0
LAYER
  5
20B
100
AcDbSymbolTableRecord
100
AcDbLayerTableRecord
  2
KURVE_POLIGON_BEMASUNG
 70
0
 62
7
  6
CONTINUOUS
370
-3
390
F
  0
LAYER
  5
20C
100
AcDbSymbolTableRecord
100
AcDbLayerTableRecord
  2
PUNKTE
 70
0
 62
7
  6
CONTINUOUS
370
-3
390
F
  0
LAYER
  5
20D
100
AcDbSymbolTableRecord
100
AcDbLayerTableRecord
  2
RUNDUNGEN
 70
0
 62
7
  6
CONTINUOUS
370
-3
390
F
  0
LAYER
  5
20E
100
AcDbSymbolTableRecord
100
AcDbLayerTableRecord
  2
S_ACHSEN
 70
0
 62
7
  6
CONTINUOUS
370
-3
390
F
  0
LAYER
  5
20F
100
AcDbSymbolTableRecord
100
AcDbLayerTableRecord
  2
S_EBENEN
 70
0
 62
7
  6
CONTINUOUS
370
-3
390
F
  0
LAYER
  5
210
100
AcDbSymbolTableRecord
100
AcDbLayerTableRecord
  2
S_KOORDSYS
 70
0
 62
7
  6
CONTINUOUS
370
-3
390
F
  0
LAYER
  5
211
100
AcDbSymbolTableRecord
100
AcDbLayerTableRecord
  2
TOL_BEZUEGE
 70
0
 62
7
  6
CONTINUOUS
370
-3
390
F
  0
LAYER
  5
212
100
AcDbSymbolTableRecord
100
AcDbLayerTableRecord
  2
VERBFLAECHE
 70
0
 62
7
  6
CONTINUOUS
370
-3
390
F
  0
LAYER
  5
213
100
AcDbSymbolTableRecord
100
AcDbLayerTableRecord
  2
ZEICHNUNGSBEMASSUNGEN
 70
0
 62
7
  6
CONTINUOUS
370
-3
390
F
  0
ENDTAB
  0
TABLE
  2
STYLE
  5
3
100
AcDbSymbolTable
 70
1
  0
STYLE
  5
11
100
AcDbSymbolTableRecord
100
AcDbTextStyleTableRecord
  2
STANDARD
 70
0
 40
0.0
 41
0.7
 50
0.0
 71
0
 42
0.2
  3
txt
  4

  0
STYLE
  5
214
100
AcDbSymbolTableRecord
100
AcDbTextStyleTableRecord
  2
TEXTSTYLE_1
 70
0
 40
0.0
 41
0.8
 50
0.0
 71
0
 42
0.2
  3
gdt
  4

  0
STYLE
  5
215
100
AcDbSymbolTableRecord
100
AcDbTextStyleTableRecord
  2
TEXTSTYLE_2
 70
0
 40
0.0
 41
0.7
 50
0.0
 71
0
 42
0.2
  3
gdt
  4

  0
ENDTAB
  0
TABLE
  2
VIEW
  5
6
100
AcDbSymbolTable
 70
0
  0
ENDTAB
  0
TABLE
  2
UCS
  5
7
100
AcDbSymbolTable
 70
0
  0
ENDTAB
  0
TABLE
  2
APPID
  5
9
100
AcDbSymbolTable
 70
1
  0
APPID
  5
216
100
AcDbSymbolTableRecord
100
AcDbRegAppTableRecord
  2
ACAD
 70
0
  0
ENDTAB
  0
TABLE
  2
BLOCK_RECORD
  5
1
100
AcDbSymbolTable
 70
0
  0
BLOCK_RECORD
  5
217
100
AcDbSymbolTableRecord
100
AcDbBlockTableRecord
  2
*Model_Space
  0
BLOCK_RECORD
  5
218
100
AcDbSymbolTableRecord
100
AcDbBlockTableRecord
  2
*Paper_Space
  0
BLOCK_RECORD
  5
219
100
AcDbSymbolTableRecord
100
AcDbBlockTableRecord
  2
_FILLED
  0
BLOCK_RECORD
  5
21A
100
AcDbSymbolTableRecord
100
AcDbBlockTableRecord
  2
*D0
  0
BLOCK_RECORD
  5
21B
100
AcDbSymbolTableRecord
100
AcDbBlockTableRecord
  2
*D1
  0
BLOCK_RECORD
  5
21C
100
AcDbSymbolTableRecord
100
AcDbBlockTableRecord
  2
*D2
  0
BLOCK_RECORD
  5
21D
100
AcDbSymbolTableRecord
100
AcDbBlockTableRecord
  2
*D3
  0
BLOCK_RECORD
  5
21E
100
AcDbSymbolTableRecord
100
AcDbBlockTableRecord
  2
*D4
  0
BLOCK_RECORD
  5
21F
100
AcDbSymbolTableRecord
100
AcDbBlockTableRecord
  2
*D5
  0
BLOCK_RECORD
  5
220
100
AcDbSymbolTableRecord
100
AcDbBlockTableRecord
  2
*D6
  0
ENDTAB
  0
TABLE
  2
DIMSTYLE
  5
A
100
AcDbSymbolTable
 70
1
100
AcDbDimStyleTable
 71
0
  0
DIMSTYLE
105
221
100
AcDbSymbolTableRecord
100
AcDbDimStyleTableRecord
  2
STANDARD
 70
0
  3

  4

 40
1.0
 41
3.5
 42
0.0625
 43
0.38
 44
0.18
 45
0.0
 46
0.0
 47
0.005
 48
0.005
140
3.5
141
0.09
142
0.0
143
25.4
144
1.0
145
0.0
146
1.0
147
0.09
 71
1.0
 72
0.0
 73
0
 74
0
 75
0
 76
0
 77
1
 78
8
170
0
171
2
172
0
173
0
174
0
175
0
176
0
177
0
178
5
270
2
271
3
272
3
273
2
274
2
275
0
280
0
281
0
282
0
283
1
284
8
285
0
286
0
287
3
288
0
340
11
341
219
342
219
343
219
344
219
  0
DIMSTYLE
105
222
100
AcDbSymbolTableRecord
100
AcDbDimStyleTableRecord
  2
DIMSTYLE_1
 70
0
  3

  4

 40
1.0
 41
3.5
 42
0.0625
 43
0.38
 44
0.18
 45
0.0
 46
0.0
 47
0.0
 48
0.1
140
3.5
141
0.09
142
0.0
143
25.4
144
1.0
145
0.0
146
1.0
147
0.09
 71
0.0
 72
0.0
 73
0
 74
0
 75
0
 76
0
 77
1
 78
8
170
0
171
2
172
0
173
0
174
0
175
0
176
0
177
0
178
5
270
2
271
2
272
2
273
2
274
2
275
0
280
0
281
0
282
0
283
1
284
8
285
0
286
0
287
3
288
0
340
11
341
219
342
219
343
219
344
219
  0
DIMSTYLE
105
223
100
AcDbSymbolTableRecord
100
AcDbDimStyleTableRecord
  2
DIMSTYLE_2
 70
0
  3

  4

 40
1.0
 41
3.5
 42
0.0625
 43
0.38
 44
0.18
 45
0.0
 46
0.0
 47
0.25
 48
0.25
140
3.5
141
0.09
142
0.0
143
25.4
144
1.0
145
0.0
146
1.0
147
0.09
 71
0.0
 72
0.0
 73
0
 74
0
 75
0
 76
0
 77
1
 78
8
170
0
171
2
172
0
173
0
174
0
175
0
176
0
177
0
178
5
270
2
271
2
272
2
273
2
274
2
275
0
280
0
281
0
282
0
283
1
284
8
285
0
286
0
287
3
288
0
340
11
341
219
342
219
343
219
344
219
  0
DIMSTYLE
105
224
100
AcDbSymbolTableRecord
100
AcDbDimStyleTableRecord
  2
DIMSTYLE_3
 70
0
  3

  4

 40
1.0
 41
3.5
 42
0.0625
 43
0.38
 44
0.18
 45
0.0
 46
0.0
 47
0.5
 48
0.5
140
3.5
141
0.09
142
0.0
143
25.4
144
1.0
145
0.0
146
1.0
147
0.09
 71
0.0
 72
0.0
 73
0
 74
0
 75
0
 76
0
 77
1
 78
8
170
0
171
2
172
0
173
0
174
0
175
0
176
0
177
0
178
5
270
2
271
2
272
2
273
2
274
2
275
0
280
0
281
0
282
0
283
1
284
8
285
0
286
0
287
3
288
0
340
11
341
219
342
219
343
219
344
219
  0
DIMSTYLE
105
225
100
AcDbSymbolTableRecord
100
AcDbDimStyleTableRecord
  2
DIMSTYLE_4
 70
0
  3

  4

 40
1.0
 41
3.5
 42
0.0625
 43
0.38
 44
0.18
 45
0.0
 46
0.0
 47
-0.025
 48
0.03
140
3.5
141
0.09
142
0.0
143
25.4
144
1.0
145
0.0
146
1.0
147
0.09
 71
0.0
 72
0.0
 73
0
 74
0
 75
0
 76
0
 77
1
 78
8
170
0
171
2
172
0
173
0
174
0
175
0
176
0
177
0
178
5
270
2
271
3
272
3
273
2
274
2
275
0
280
0
281
0
282
0
283
1
284
8
285
0
286
0
287
3
288
0
340
11
341
219
342
219
343
219
344
219
  0
DIMSTYLE
105
226
100
AcDbSymbolTableRecord
100
AcDbDimStyleTableRecord
  2
DIMSTYLE_5
 70
0
  3

  4

 40
1.0
 41
3.5
 42
0.0625
 43
0.38
 44
0.18
 45
0.0
 46
0.0
 47
0.3
 48
0.3
140
3.5
141
0.09
142
0.0
143
25.4
144
1.0
145
0.0
146
1.0
147
0.09
 71
0.0
 72
0.0
 73
0
 74
0
 75
0
 76
0
 77
1
 78
8
170
0
171
2
172
0
173
0
174
0
175
0
176
0
177
0
178
5
270
2
271
2
272
2
273
2
274
2
275
0
280
0
281
0
282
0
283
1
284
8
285
0
286
0
287
3
288
0
340
11
341
219
342
219
343
219
344
219
  0
ENDTAB
  0
ENDSEC
  0
SECTION
  2
BLOCKS
  0
BLOCK
  5
20
100
AcDbEntity
  8
0
100
AcDbBlockBegin
  2
*Model_Space
 70
0
 10
0.0
 20
0.0
 30
0.0
  3
*Model_Space
  1

  0
ENDBLK
  5
21
100
AcDbEntity
  8
0
100
AcDbBlockEnd
  0
BLOCK
  5
1C
100
AcDbEntity
  8
0
100
AcDbBlockBegin
  2
*Paper_Space
 70
0
 10
0.0
 20
0.0
 30
0.0
  3
*Paper_Space
  1

  0
ENDBLK
  5
1D
100
AcDbEntity
  8
0
100
AcDbBlockEnd
  0
BLOCK
  5
227
100
AcDbEntity
  8
0
100
AcDbBlockBegin
  2
_FILLED
 70
64
 10
0.0
 20
0.0
  3
_FILLED
  1

  0
SOLID
  5
228
100
AcDbEntity
  8
0
  6
BYBLOCK
 62
0
100
AcDbTrace
 10
0.0
 20
0.0
 11
-1.0
 21
0.125
 12
-1.0
 22
-0.125
 13
-1.0
 23
-0.125
  0
ENDBLK
  5
229
100
AcDbEntity
  8
0
  6
BYBLOCK
 62
0
100
AcDbBlockEnd
  0
BLOCK
  5
22A
100
AcDbEntity
  8
0
100
AcDbBlockBegin
 62
2
  6
CONTINUOUS
  2
*D0
 70
65
 10
0.0
 20
0.0
  3
*D0
  1

  0
MTEXT
  5
22B
100
AcDbEntity
  8
0
100
AcDbMText
 62
5
  6
CONTINUOUS
  7
TEXTSTYLE_2
 71
2
 72
1
 10
254.9543334939
 20
131.2787504731
 30
0.0
 11
0.0
 21
1.0
 31
0.0
 44
0.9
  1
{\Fgdt;n}\Ftxt;24
 40
3.5
 41
10.1666666667
  0
LINE
  5
22C
100
AcDbEntity
  8
0
100
AcDbLine
 62
2
  6
CONTINUOUS
 10
219.7086456861
 20
143.2537504731
 11
260.8293334939
 21
143.2537504731
  0
LINE
  5
22D
100
AcDbEntity
  8
0
100
AcDbLine
 62
2
  6
CONTINUOUS
 10
219.7086456861
 20
119.3037504731
 11
247.8696401973
 21
119.3037504731
  0
LINE
  5
22E
100
AcDbEntity
  8
0
100
AcDbLine
 62
2
  6
CONTINUOUS
 10
251.6767432411
 20
119.3037504731
 11
260.8293334939
 21
119.3037504731
  0
LINE
  5
22F
100
AcDbEntity
  8
0
100
AcDbLine
 62
2
  6
CONTINUOUS
 10
259.3293334939
 20
143.2537504731
 11
259.3293334939
 21
131.2787504731
  0
LINE
  5
230
100
AcDbEntity
  8
0
100
AcDbLine
 62
2
  6
CONTINUOUS
 10
259.3293334939
 20
119.3037504731
 11
259.3293334939
 21
131.2787504731
  0
INSERT
  5
231
100
AcDbEntity
  8
0
100
AcDbBlockReference
 62
2
  6
CONTINUOUS
  2
_FILLED
 10
259.3293334939
 20
143.2537504731
 41
3.5
 42
3.5
 43
3.5
 50
90.0
  0
INSERT
  5
232
100
AcDbEntity
  8
0
100
AcDbBlockReference
 62
2
  6
CONTINUOUS
  2
_FILLED
 10
259.3293334939
 20
119.3037504731
 41
3.5
 42
3.5
 43
3.5
 50
270.0
  0
ENDBLK
  5
233
100
AcDbEntity
  8
0
  6
BYBLOCK
 62
0
100
AcDbBlockEnd
  0
BLOCK
  5
234
100
AcDbEntity
  8
0
100
AcDbBlockBegin
 62
2
  6
CONTINUOUS
  2
*D1
 70
65
 10
0.0
 20
0.0
  3
*D1
  1

  0
MTEXT
  5
235
100
AcDbEntity
  8
0
100
AcDbMText
 62
5
  6
CONTINUOUS
  7
STANDARD
 71
2
 72
1
 10
241.4050577342
 20
102.5331404274
 30
0.0
 11
0.1690398479
 21
0.9856092176
 31
0.0
 44
0.9
  1
4\Fgdt;{\Fgdt;~}\Ftxt;30'
 40
3.5
 41
12.3333333333
  0
LINE
  5
236
100
AcDbEntity
  8
0
100
AcDbLine
 62
2
  6
CONTINUOUS
 10
196.4450115443
 20
117.625504875
 11
250.7331598
 21
121.8980748031
  0
LINE
  5
237
100
AcDbEntity
  8
0
100
AcDbLine
 62
2
  6
CONTINUOUS
 10
168.4443247663
 20
115.3037504731
 11
250.9922515085
 21
115.3037504731
  0
ARC
  5
238
100
AcDbEntity
  8
0
100
AcDbCircle
 62
2
  6
CONTINUOUS
 10
166.9443247663
 20
115.3037504731
 40
82.5479267422
100
AcDbArc
 50
4.5
 51
8.6645464719
  0
ARC
  5
239
100
AcDbEntity
  8
0
100
AcDbCircle
 62
2
  6
CONTINUOUS
 10
166.9443247663
 20
115.3037504731
 40
82.5479267422
100
AcDbArc
 50
350.2680015131
 51
0.0
  0
ARC
  5
23A
100
AcDbEntity
  8
0
100
AcDbCircle
 62
2
  6
CONTINUOUS
 10
166.9443247663
 20
115.3037504731
 40
82.5479267422
100
AcDbArc
 50
360.0
 51
4.5
  0
SOLID
  5
23B
100
AcDbEntity
  8
0
100
AcDbTrace
 62
2
  6
CONTINUOUS
 10
248.4539479432
 20
125.2194278284
 11
249.2377837994
 21
121.7803861595
 12
249.3245993034
 22
125.3065553724
 13
249.3245993034
 23
125.3065553724
  0
SOLID
  5
23C
100
AcDbEntity
  8
0
100
AcDbTrace
 62
2
  6
CONTINUOUS
 10
249.8554594372
 20
111.795262729
 11
249.4922515085
 21
115.3037504731
 12
248.9806560562
 22
111.8138111694
 13
248.9806560562
 23
111.8138111694
  0
ENDBLK
  5
23D
100
AcDbEntity
  8
0
  6
BYBLOCK
 62
0
100
AcDbBlockEnd
  0
BLOCK
  5
23E
100
AcDbEntity
  8
0
100
AcDbBlockBegin
 62
2
  6
CONTINUOUS
  2
*D2
 70
65
 10
0.0
 20
0.0
  3
*D2
  1

  0
MTEXT
  5
23F
100
AcDbEntity
  8
0
100
AcDbMText
 62
5
  6
CONTINUOUS
  7
STANDARD
 71
2
 72
1
 10
152.769143711
 20
180.6878392083
 30
0.0
 11
1.0
 21
0.0
 31
0.0
 44
0.9
  1
130
 40
3.5
 41
7.25
  0
LINE
  5
240
100
AcDbEntity
  8
0
100
AcDbLine
 62
2
  6
CONTINUOUS
 10
87.769143711
 20
157.2449251819
 11
87.769143711
 21
177.8128392083
  0
LINE
  5
241
100
AcDbEntity
  8
0
100
AcDbLine
 62
2
  6
CONTINUOUS
 10
217.769143711
 20
140.5793251819
 11
217.769143711
 21
177.8128392083
  0
LINE
  5
242
100
AcDbEntity
  8
0
100
AcDbLine
 62
2
  6
CONTINUOUS
 10
87.769143711
 20
176.3128392083
 11
152.769143711
 21
176.3128392083
  0
LINE
  5
243
100
AcDbEntity
  8
0
100
AcDbLine
 62
2
  6
CONTINUOUS
 10
217.769143711
 20
176.3128392083
 11
152.769143711
 21
176.3128392083
  0
INSERT
  5
244
100
AcDbEntity
  8
0
100
AcDbBlockReference
 62
2
  6
CONTINUOUS
  2
_FILLED
 10
87.769143711
 20
176.3128392083
 41
3.5
 42
3.5
 43
3.5
 50
180.0
  0
INSERT
  5
245
100
AcDbEntity
  8
0
100
AcDbBlockReference
 62
2
  6
CONTINUOUS
  2
_FILLED
 10
217.769143711
 20
176.3128392083
 41
3.5
 42
3.5
 43
3.5
  0
ENDBLK
  5
246
100
AcDbEntity
  8
0
  6
BYBLOCK
 62
0
100
AcDbBlockEnd
  0
BLOCK
  5
247
100
AcDbEntity
  8
0
100
AcDbBlockBegin
 62
2
  6
CONTINUOUS
  2
*D3
 70
65
 10
0.0
 20
0.0
  3
*D3
  1

  0
MTEXT
  5
248
100
AcDbEntity
  8
0
100
AcDbMText
 62
5
  6
CONTINUOUS
  7
TEXTSTYLE_2
 71
2
 72
1
 10
237.3445621102
 20
131.2787504731
 30
0.0
 11
0.0
 21
1.0
 31
0.0
 44
0.9
  1
{\Fgdt;n}\Ftxt;12
 40
3.5
 41
9.4166666667
  0
LINE
  5
249
100
AcDbEntity
  8
0
100
AcDbLine
 62
2
  6
CONTINUOUS
 10
219.7086456861
 20
125.2925004731
 11
243.2195621102
 21
125.2925004731
  0
LINE
  5
24A
100
AcDbEntity
  8
0
100
AcDbLine
 62
2
  6
CONTINUOUS
 10
219.7086456861
 20
137.2650004731
 11
243.2195621102
 21
137.2650004731
  0
LINE
  5
24B
100
AcDbEntity
  8
0
100
AcDbLine
 62
2
  6
CONTINUOUS
 10
241.7195621102
 20
125.2925004731
 11
241.7195621102
 21
131.2787504731
  0
LINE
  5
24C
100
AcDbEntity
  8
0
100
AcDbLine
 62
2
  6
CONTINUOUS
 10
241.7195621102
 20
137.2650004731
 11
241.7195621102
 21
131.2787504731
  0
INSERT
  5
24D
100
AcDbEntity
  8
0
100
AcDbBlockReference
 62
2
  6
CONTINUOUS
  2
_FILLED
 10
241.7195621102
 20
125.2925004731
 41
3.5
 42
3.5
 43
3.5
 50
270.0
  0
INSERT
  5
24E
100
AcDbEntity
  8
0
100
AcDbBlockReference
 62
2
  6
CONTINUOUS
  2
_FILLED
 10
241.7195621102
 20
137.2650004731
 41
3.5
 42
3.5
 43
3.5
 50
90.0
  0
ENDBLK
  5
24F
100
AcDbEntity
  8
0
  6
BYBLOCK
 62
0
100
AcDbBlockEnd
  0
BLOCK
  5
250
100
AcDbEntity
  8
0
100
AcDbBlockBegin
 62
2
  6
CONTINUOUS
  2
*D4
 70
65
 10
0.0
 20
0.0
  3
*D4
  1

  0
MTEXT
  5
251
100
AcDbEntity
  8
0
100
AcDbMText
 62
5
  6
CONTINUOUS
  7
STANDARD
 71
2
 72
1
 10
163.769143711
 20
172.530029631
 30
0.0
 11
1.0
 21
0.0
 31
0.0
 44
0.9
  1
108
 40
3.5
 41
7.5
  0
LINE
  5
252
100
AcDbEntity
  8
0
100
AcDbLine
 62
2
  6
CONTINUOUS
 10
217.769143711
 20
120.8037504731
 11
217.769143711
 21
169.655029631
  0
LINE
  5
253
100
AcDbEntity
  8
0
100
AcDbLine
 62
2
  6
CONTINUOUS
 10
109.769143711
 20
155.6321251819
 11
109.769143711
 21
169.655029631
  0
LINE
  5
254
100
AcDbEntity
  8
0
100
AcDbLine
 62
2
  6
CONTINUOUS
 10
217.769143711
 20
168.155029631
 11
163.769143711
 21
168.155029631
  0
LINE
  5
255
100
AcDbEntity
  8
0
100
AcDbLine
 62
2
  6
CONTINUOUS
 10
109.769143711
 20
168.155029631
 11
163.769143711
 21
168.155029631
  0
INSERT
  5
256
100
AcDbEntity
  8
0
100
AcDbBlockReference
 62
2
  6
CONTINUOUS
  2
_FILLED
 10
217.769143711
 20
168.155029631
 41
3.5
 42
3.5
 43
3.5
  0
INSERT
  5
257
100
AcDbEntity
  8
0
100
AcDbBlockReference
 62
2
  6
CONTINUOUS
  2
_FILLED
 10
109.769143711
 20
168.155029631
 41
3.5
 42
3.5
 43
3.5
 50
180.0
  0
ENDBLK
  5
258
100
AcDbEntity
  8
0
  6
BYBLOCK
 62
0
100
AcDbBlockEnd
  0
BLOCK
  5
259
100
AcDbEntity
  8
0
100
AcDbBlockBegin
 62
2
  6
CONTINUOUS
  2
*D5
 70
65
 10
0.0
 20
0.0
  3
*D5
  1

  0
MTEXT
  5
25A
100
AcDbEntity
  8
0
100
AcDbMText
 62
5
  6
CONTINUOUS
  7
STANDARD
 71
2
 72
1
 10
133.769143711
 20
188.358100165
 30
0.0
 11
1.0
 21
0.0
 31
0.0
 44
0.9
  1
168
 40
3.5
 41
7.5
  0
LINE
  5
25B
100
AcDbEntity
  8
0
100
AcDbLine
 62
2
  6
CONTINUOUS
 10
217.769143711
 20
120.8037504731
 11
217.769143711
 21
185.483100165
  0
LINE
  5
25C
100
AcDbEntity
  8
0
100
AcDbLine
 62
2
  6
CONTINUOUS
 10
49.769143711
 20
112.5926347038
 11
49.769143711
 21
185.483100165
  0
LINE
  5
25D
100
AcDbEntity
  8
0
100
AcDbLine
 62
2
  6
CONTINUOUS
 10
217.769143711
 20
183.983100165
 11
133.769143711
 21
183.983100165
  0
LINE
  5
25E
100
AcDbEntity
  8
0
100
AcDbLine
 62
2
  6
CONTINUOUS
 10
49.769143711
 20
183.983100165
 11
133.769143711
 21
183.983100165
  0
INSERT
  5
25F
100
AcDbEntity
  8
0
100
AcDbBlockReference
 62
2
  6
CONTINUOUS
  2
_FILLED
 10
217.769143711
 20
183.983100165
 41
3.5
 42
3.5
 43
3.5
  0
INSERT
  5
260
100
AcDbEntity
  8
0
100
AcDbBlockReference
 62
2
  6
CONTINUOUS
  2
_FILLED
 10
49.769143711
 20
183.983100165
 41
3.5
 42
3.5
 43
3.5
 50
180.0
  0
ENDBLK
  5
261
100
AcDbEntity
  8
0
  6
BYBLOCK
 62
0
100
AcDbBlockEnd
  0
BLOCK
  5
262
100
AcDbEntity
  8
0
100
AcDbBlockBegin
 62
2
  6
CONTINUOUS
  2
*D6
 70
65
 10
0.0
 20
0.0
  3
*D6
  1

  0
MTEXT
  5
263
100
AcDbEntity
  8
0
100
AcDbMText
 62
5
  6
CONTINUOUS
  7
TEXTSTYLE_2
 71
2
 72
1
 10
267.9144407296
 20
131.2787504731
 30
0.0
 11
0.0
 21
1.0
 31
0.0
 44
0.9
  1
{\Fgdt;n}\Ftxt;32
 40
3.5
 41
9.9166666667
  0
LINE
  5
264
100
AcDbEntity
  8
0
100
AcDbLine
 62
2
  6
CONTINUOUS
 10
168.4443247663
 20
147.2537504731
 11
216.2346319365
 21
147.2537504731
  0
LINE
  5
265
100
AcDbEntity
  8
0
100
AcDbLine
 62
2
  6
CONTINUOUS
 10
221.4590371622
 20
147.2537504731
 11
273.7894407296
 21
147.2537504731
  0
LINE
  5
266
100
AcDbEntity
  8
0
100
AcDbLine
 62
2
  6
CONTINUOUS
 10
168.4443247663
 20
115.3037504731
 11
214.8382636359
 21
115.3037504731
  0
LINE
  5
267
100
AcDbEntity
  8
0
100
AcDbLine
 62
2
  6
CONTINUOUS
 10
225.1558738572
 20
115.3037504731
 11
273.7894407296
 21
115.3037504731
  0
LINE
  5
268
100
AcDbEntity
  8
0
100
AcDbLine
 62
2
  6
CONTINUOUS
 10
272.2894407296
 20
147.2537504731
 11
272.2894407296
 21
131.2787504731
  0
LINE
  5
269
100
AcDbEntity
  8
0
100
AcDbLine
 62
2
  6
CONTINUOUS
 10
272.2894407296
 20
115.3037504731
 11
272.2894407296
 21
131.2787504731
  0
INSERT
  5
26A
100
AcDbEntity
  8
0
100
AcDbBlockReference
 62
2
  6
CONTINUOUS
  2
_FILLED
 10
272.2894407296
 20
147.2537504731
 41
3.5
 42
3.5
 43
3.5
 50
90.0
  0
INSERT
  5
26B
100
AcDbEntity
  8
0
100
AcDbBlockReference
 62
2
  6
CONTINUOUS
  2
_FILLED
 10
272.2894407296
 20
115.3037504731
 41
3.5
 42
3.5
 43
3.5
 50
270.0
  0
ENDBLK
  5
26C
100
AcDbEntity
  8
0
  6
BYBLOCK
 62
0
100
AcDbBlockEnd
  0
ENDSEC
  0
SECTION
  2
ENTITIES
  0
DIMENSION
  5
26D
100
AcDbEntity
  8
0
100
AcDbDimension
 62
2
  6
CONTINUOUS
  2
*D0
 10
259.3293334939
 20
119.3037504731
 11
257.8431872682
 21
129.0065089531
 70
160
 71
2
 42
23.95
  1
%%c<>
  3
DIMSTYLE_1
100
AcDbAlignedDimension
 13
219.7086456861
 23
143.2537504731
 14
219.7086456861
 24
119.3037504731
 50
270.0
100
AcDbRotatedDimension
  0
DIMENSION
  5
26E
100
AcDbEntity
  8
0
100
AcDbDimension
 62
2
  6
CONTINUOUS
  2
*D1
 10
250.9922515085
 20
115.3037504731
 11
242.7380242036
 21
104.7064204977
 70
162
 71
2
 42
0.0785398163
  3
DIMSTYLE_2
100
AcDb2LineAngularDimension
 13
250.7331598
 23
121.8980748031
 14
196.4450115443
 24
117.625504875
 15
168.4443247663
 25
115.3037504731
 16
249.4286100486
 26
118.5445668683
  0
DIMENSION
  5
26F
100
AcDbEntity
  8
0
100
AcDbDimension
 62
2
  6
CONTINUOUS
  2
*D2
 10
217.769143711
 20
176.3128392083
 11
149.144143711
 21
178.9378392083
 70
160
 71
2
 42
130.0
  3
DIMSTYLE_3
100
AcDbAlignedDimension
 13
87.769143711
 23
157.2449251819
 14
217.769143711
 24
140.5793251819
100
AcDbRotatedDimension
  0
DIMENSION
  5
270
100
AcDbEntity
  8
0
100
AcDbDimension
 62
2
  6
CONTINUOUS
  2
*D3
 10
241.7195621102
 20
137.2650004731
 11
240.1494020815
 21
129.1741333275
 70
160
 71
2
 42
11.9725
  1
%%c<>
  3
DIMSTYLE_4
100
AcDbAlignedDimension
 13
219.7086456861
 23
125.2925004731
 14
219.7086456861
 24
137.2650004731
 50
90.0
100
AcDbRotatedDimension
  0
DIMENSION
  5
271
100
AcDbEntity
  8
0
100
AcDbDimension
 62
2
  6
CONTINUOUS
  2
*D4
 10
109.769143711
 20
168.155029631
 11
160.019143711
 21
170.780029631
 70
160
 71
2
 42
108.0
  3
DIMSTYLE_5
100
AcDbAlignedDimension
 13
217.769143711
 23
120.8037504731
 14
109.769143711
 24
155.6321251819
 50
180.0
100
AcDbRotatedDimension
  0
DIMENSION
  5
272
100
AcDbEntity
  8
0
100
AcDbDimension
 62
2
  6
CONTINUOUS
  2
*D5
 10
49.769143711
 20
183.983100165
 11
130.019143711
 21
186.608100165
 70
160
 71
2
 42
168.0
  3
DIMSTYLE_3
100
AcDbAlignedDimension
 13
217.769143711
 23
120.8037504731
 14
49.769143711
 24
112.5926347038
 50
180.0
100
AcDbRotatedDimension
  0
DIMENSION
  5
273
100
AcDbEntity
  8
0
100
AcDbDimension
 62
2
  6
CONTINUOUS
  2
*D6
 10
272.2894407296
 20
115.3037504731
 11
270.775289903
 21
129.0623837446
 70
160
 71
2
 42
31.95
  1
%%c<>
  3
DIMSTYLE_1
100
AcDbAlignedDimension
 13
168.4443247663
 23
147.2537504731
 14
168.4443247663
 24
115.3037504731
 50
270.0
100
AcDbRotatedDimension
  0
MTEXT
  5
274
100
AcDbEntity
  8
0
100
AcDbMText
 62
5
  6
CONTINUOUS
  7
STANDARD
 71
1
 72
1
 10
19.816722973
 20
85.650110447
 30
0.0
 11
1.0
 21
0.0
 31
0.0
 44
0.9
  3
Für diese Unterlage behalten wir das Ur-\Pheberrecht. Sie darf nur für den von uns \Pbestimmten Zweck benutzt und ohne unsere \PZustimmung weder vervielfältigt noch\PDritten zugänglich gemacht werden\P \PWe own the copyright of this document. It \Pde
  1
termined and may neither be copied or \Pmade accessible to outsiders without our\Ppermission.\P \PCe plan reste notre propriété. Il ne peut\Pêtre utilisé, copié ou reproduit sans notre\Paccord.\P 
 40
3.5
 41
104.8333333333
  0
LINE
  5
275
100
AcDbEntity
  8
0
100
AcDbLine
 62
7
  6
CONTINUOUS
 10
0.0
 20
0.0
 11
0.0
 21
210.0
  0
LINE
  5
276
100
AcDbEntity
  8
0
100
AcDbLine
 62
7
  6
CONTINUOUS
 10
0.0
 20
0.0
 11
297.0
 21
0.0
  0
LINE
  5
277
100
AcDbEntity
  8
0
100
AcDbLine
 62
7
  6
CONTINUOUS
 10
0.0
 20
210.0
 11
297.0
 21
210.0
  0
LINE
  5
278
100
AcDbEntity
  8
0
100
AcDbLine
 62
7
  6
CONTINUOUS
 10
297.0
 20
0.0
 11
297.0
 21
210.0
  0
LINE
  5
279
100
AcDbEntity
  8
0
100
AcDbLine
 62
7
  6
CONTINUOUS
 10
49.769143711
 20
109.5864124802
 11
49.769143711
 21
146.2399951118
  0
LINE
  5
27A
100
AcDbEntity
  8
KURVEN
100
AcDbLine
 62
4
  6
CONTINUOUS
 10
49.769143711
 20
108.7580722975
 11
49.769143711
 21
150.4903244601
  0
LINE
  5
27B
100
AcDbEntity
  8
ACHSEN
100
AcDbLine
 62
7
  6
CONTINUOUS
 10
49.769143711
 20
146.2399951118
 11
49.769143711
 21
150.0272297871
  0
LINE
  5
27C
100
AcDbEntity
  8
ACHSEN
100
AcDbLine
 62
7
  6
CONTINUOUS
 10
51.269143711
 20
150.7757400866
 11
51.269143711
 21
146.9899951118
  0
LINE
  5
27D
100
AcDbEntity
  8
0
100
AcDbLine
 62
7
  6
CONTINUOUS
 10
51.269143711
 20
146.9899951118
 11
51.269143711
 21
108.7203870764
  0
LINE
  5
27E
100
AcDbEntity
  8
ACHSEN
100
AcDbLine
 62
7
  6
CENTER
 10
72.269143711
 20
108.345264966
 11
72.269143711
 21
155.4671210377
  0
LINE
  5
27F
100
AcDbEntity
  8
0
100
AcDbLine
 62
7
  6
CONTINUOUS
 10
87.769145547
 20
162.4787485657
 11
88.0691456369
 21
162.7787486196
  0
LINE
  5
280
100
AcDbEntity
  8
0
100
AcDbLine
 62
9
  6
CONTINUOUS
 10
51.269143711
 20
146.9899951118
 11
49.769143711
 21
146.2399951118
  0
LINE
  5
281
100
AcDbEntity
  8
0
100
AcDbLine
 62
7
  6
CONTINUOUS
 10
51.269143711
 20
108.7203870764
 11
49.769143711
 21
109.5864124802
  0
LINE
  5
282
100
AcDbEntity
  8
0
100
AcDbLine
 62
7
  6
CONTINUOUS
 10
85.5692068001
 20
151.8988508427
 11
85.5692068001
 21
147.7362812217
  0
LINE
  5
283
100
AcDbEntity
  8
0
100
AcDbLine
 62
7
  6
CONTINUOUS
 10
85.5692068001
 20
136.5036216037
 11
85.5692068001
 21
109.5963485939
  0
LINE
  5
284
100
AcDbEntity
  8
0
100
AcDbLine
 62
9
  6
CONTINUOUS
 10
85.7741668221
 20
151.7039370429
 11
85.7741668221
 21
145.9636926779
  0
LINE
  5
285
100
AcDbEntity
  8
0
100
AcDbLine
 62
9
  6
CONTINUOUS
 10
85.7741668221
 20
139.4646936598
 11
85.7741668221
 21
108.4078650816
  0
LINE
  5
286
100
AcDbEntity
  8
0
100
AcDbLine
 62
9
  6
CONTINUOUS
 10
86.4620369298
 20
108.5358572543
 11
86.4620369298
 21
109.1751938222
  0
LINE
  5
287
100
AcDbEntity
  8
0
100
AcDbLine
 62
9
  6
CONTINUOUS
 10
86.4620369298
 20
137.6932902338
 11
86.4620369298
 21
146.9677673633
  0
LINE
  5
288
100
AcDbEntity
  8
0
100
AcDbLine
 62
9
  6
CONTINUOUS
 10
87.3741668221
 20
151.744134612
 11
87.3741668221
 21
147.6232287601
  0
LINE
  5
289
100
AcDbEntity
  8
0
100
AcDbLine
 62
9
  6
CONTINUOUS
 10
87.3741668221
 20
136.4617009262
 11
87.3741668221
 21
109.751321733
  0
LINE
  5
28A
100
AcDbEntity
  8
0
100
AcDbLine
 62
7
  6
CONTINUOUS
 10
87.769143711
 20
100.0790261426
 11
87.769143711
 21
162.4784748036
  0
LINE
  5
28B
100
AcDbEntity
  8
0
100
AcDbLine
 62
7
  6
CONTINUOUS
 10
88.0691437846
 20
99.7787504731
 11
88.0691437846
 21
162.7787504731
  0
LINE
  5
28C
100
AcDbEntity
  8
0
100
AcDbLine
 62
7
  6
CONTINUOUS
 10
87.5690788592
 20
148.0683250588
 11
87.569143711
 21
153.8122353341
  0
LINE
  5
28D
100
AcDbEntity
  8
0
100
AcDbLine
 62
7
  6
CONTINUOUS
 10
87.5690788592
 20
109.8685823817
 11
87.5690477447
 21
135.9039756872
  0
LINE
  5
28E
100
AcDbEntity
  8
0
100
AcDbLine
 62
9
  6
CONTINUOUS
 10
51.269143711
 20
110.3426347038
 11
49.769143711
 21
111.0926347038
  0
LINE
  5
28F
100
AcDbEntity
  8
0
100
AcDbLine
 62
7
  6
CONTINUOUS
 10
87.769145547
 20
100.0787523804
 11
88.0691456369
 21
99.7787523266
  0
LINE
  5
290
100
AcDbEntity
  8
0
100
AcDbLine
 62
9
  6
CONTINUOUS
 10
97.8748061437
 20
161.1927053196
 11
97.8748061437
 21
141.1481630921
  0
LINE
  5
291
100
AcDbEntity
  8
0
100
AcDbLine
 62
9
  6
CONTINUOUS
 10
97.8748061437
 20
121.4093378541
 11
97.8748061437
 21
101.3647956266
  0
LINE
  5
292
100
AcDbEntity
  8
0
100
AcDbLine
 62
9
  6
CONTINUOUS
 10
98.3078188456
 20
161.3593432334
 11
98.3078188456
 21
140.6279717876
  0
LINE
  5
293
100
AcDbEntity
  8
0
100
AcDbLine
 62
9
  6
CONTINUOUS
 10
98.3078188456
 20
121.9295291586
 11
98.3078188456
 21
101.1981577128
  0
LINE
  5
294
100
AcDbEntity
  8
ACHSEN
100
AcDbLine
 62
7
  6
CENTER
 10
99.769143711
 20
153.8948616041
 11
99.769143711
 21
165.7787504731
  0
LINE
  5
295
100
AcDbEntity
  8
0
100
AcDbLine
 62
9
  6
CONTINUOUS
 10
101.2304685764
 20
161.3593432334
 11
101.2304685764
 21
140.6279717876
  0
LINE
  5
296
100
AcDbEntity
  8
0
100
AcDbLine
 62
9
  6
CONTINUOUS
 10
101.2304685764
 20
121.9295291586
 11
101.2304685764
 21
101.1981577128
  0
LINE
  5
297
100
AcDbEntity
  8
0
100
AcDbLine
 62
9
  6
CONTINUOUS
 10
101.6634812783
 20
161.1927053196
 11
101.6634812783
 21
141.1481630921
  0
LINE
  5
298
100
AcDbEntity
  8
0
100
AcDbLine
 62
9
  6
CONTINUOUS
 10
101.6634812783
 20
121.4093378541
 11
101.6634812783
 21
101.3647956266
  0
LINE
  5
299
100
AcDbEntity
  8
0
100
AcDbLine
 62
7
  6
CONTINUOUS
 10
109.769143711
 20
99.7787504731
 11
88.0691437834
 21
99.7787504731
  0
LINE
  5
29A
100
AcDbEntity
  8
0
100
AcDbLine
 62
7
  6
CONTINUOUS
 10
109.769143711
 20
99.7787504731
 11
109.769143711
 21
162.7787504731
  0
LINE
  5
29B
100
AcDbEntity
  8
0
100
AcDbLine
 62
7
  6
CONTINUOUS
 10
86.4620369298
 20
108.5358572543
 11
85.7795465336
 21
107.853366858
  0
LINE
  5
29C
100
AcDbEntity
  8
0
100
AcDbLine
 62
7
  6
CONTINUOUS
 10
101.2304685764
 20
101.1981577128
 11
98.3078188456
 21
101.1981577128
  0
LINE
  5
29D
100
AcDbEntity
  8
0
100
AcDbLine
 62
7
  6
CONTINUOUS
 10
86.0221724618
 20
108.4020215978
 11
85.7741668221
 21
108.4078650816
  0
LINE
  5
29E
100
AcDbEntity
  8
0
100
AcDbLine
 62
7
  6
CONTINUOUS
 10
51.269143711
 20
108.7203870764
 11
85.7795465338
 21
107.8533656373
  0
LINE
  5
29F
100
AcDbEntity
  8
RUNDUNGEN
100
AcDbLine
 62
9
  6
CONTINUOUS
 10
119.269143711
 20
147.2537504731
 11
119.269143711
 21
115.3037504731
  0
LINE
  5
2A0
100
AcDbEntity
  8
0
100
AcDbLine
 62
7
  6
CONTINUOUS
 10
216.8476028067
 20
119.231223631
 11
167.0101682352
 21
115.3089324665
  0
LINE
  5
2A1
100
AcDbEntity
  8
0
100
AcDbLine
 62
9
  6
CONTINUOUS
 10
85.5692068001
 20
109.5963485939
 11
51.269143711
 21
110.3426347038
  0
LINE
  5
2A2
100
AcDbEntity
  8
0
100
AcDbLine
 62
7
  6
CONTINUOUS
 10
158.519143711
 20
115.3037504731
 11
119.269143711
 21
115.3037504731
  0
LINE
  5
2A3
100
AcDbEntity
  8
0
100
AcDbLine
 62
7
  6
CONTINUOUS
 10
159.2531183072
 20
115.6037504731
 11
160.269143711
 21
115.6037504731
  0
LINE
  5
2A4
100
AcDbEntity
  8
0
100
AcDbLine
 62
7
  6
CONTINUOUS
 10
165.269143711
 20
115.6037504731
 11
166.2851691148
 21
115.6037504731
  0
LINE
  5
2A5
100
AcDbEntity
  8
BEZUGSACHSEN
100
AcDbLine
 62
7
  6
CONTINUOUS
 10
165.269143711
 20
115.6037504731
 11
166.2851691148
 21
115.6037504731
  0
LINE
  5
2A6
100
AcDbEntity
  8
0
100
AcDbLine
 62
7
  6
CONTINUOUS
 10
166.6851691148
 20
147.0609301501
 11
167.0101682352
 21
147.2485684797
  0
LINE
  5
2A7
100
AcDbEntity
  8
RUNDUNGEN
100
AcDbLine
 62
7
  6
CONTINUOUS
 10
166.6851691148
 20
147.0609301501
 11
167.0101682352
 21
147.2485684797
  0
LINE
  5
2A8
100
AcDbEntity
  8
0
100
AcDbLine
 62
7
  6
CONTINUOUS
 10
101.2304685764
 20
121.9295291586
 11
98.3078188456
 21
121.9295291586
  0
LINE
  5
2A9
100
AcDbEntity
  8
DEFAULT_2
100
AcDbLine
 62
8
  6
HIDDEN
 10
170.3189085946
 20
124.9425004731
 11
180.3839344298
 21
124.9425004731
  0
LINE
  5
2AA
100
AcDbEntity
  8
BOHRUNGEN
100
AcDbLine
 62
8
  6
HIDDEN
 10
181.769143711
 20
125.2925004731
 11
215.469143711
 21
125.2925004731
  0
LINE
  5
2AB
100
AcDbEntity
  8
S_ACHSEN
100
AcDbLine
 62
7
  6
CENTER
 10
46.769143711
 20
131.2787504731
 11
221.769143711
 21
131.2787504731
  0
LINE
  5
2AC
100
AcDbEntity
  8
0
100
AcDbLine
 62
7
  6
CONTINUOUS
 10
166.6851691148
 20
115.4965707961
 11
167.0101682352
 21
115.3089324665
  0
LINE
  5
2AD
100
AcDbEntity
  8
RUNDUNGEN
100
AcDbLine
 62
7
  6
CONTINUOUS
 10
166.6851691148
 20
115.4965707961
 11
167.0101682352
 21
115.3089324665
  0
LINE
  5
2AE
100
AcDbEntity
  8
0
100
AcDbLine
 62
7
  6
CONTINUOUS
 10
85.7741668221
 20
139.4646936598
 11
86.0221724618
 21
139.4657079157
  0
LINE
  5
2AF
100
AcDbEntity
  8
0
100
AcDbLine
 62
9
  6
CONTINUOUS
 10
49.769143711
 20
136.5036216037
 11
85.5692068001
 21
136.5036216037
  0
LINE
  5
2B0
100
AcDbEntity
  8
BOHRUNGEN
100
AcDbLine
 62
8
  6
HIDDEN
 10
181.769143711
 20
137.2650004731
 11
215.469143711
 21
137.2650004731
  0
LINE
  5
2B1
100
AcDbEntity
  8
RUNDUNGEN
100
AcDbLine
 62
8
  6
HIDDEN
 10
180.3839344298
 20
137.6150004731
 11
170.3189085946
 21
137.6150004731
  0
LINE
  5
2B2
100
AcDbEntity
  8
DEFAULT_2
100
AcDbLine
 62
8
  6
HIDDEN
 10
170.3189085946
 20
137.6150004731
 11
180.3839344298
 21
137.6150004731
  0
LINE
  5
2B3
100
AcDbEntity
  8
0
100
AcDbLine
 62
7
  6
CONTINUOUS
 10
101.2304685764
 20
140.6279717876
 11
98.3078188456
 21
140.6279717876
  0
LINE
  5
2B4
100
AcDbEntity
  8
0
100
AcDbLine
 62
7
  6
CONTINUOUS
 10
158.519143711
 20
147.2537504731
 11
158.519143711
 21
115.3037504731
  0
LINE
  5
2B5
100
AcDbEntity
  8
RUNDUNGEN
100
AcDbLine
 62
9
  6
CONTINUOUS
 10
158.8531183072
 20
115.4965707961
 11
158.8531183072
 21
147.0609301501
  0
LINE
  5
2B6
100
AcDbEntity
  8
RUNDUNGEN
100
AcDbLine
 62
9
  6
CONTINUOUS
 10
159.2531183072
 20
115.6037504731
 11
159.2531183072
 21
146.9537504731
  0
LINE
  5
2B7
100
AcDbEntity
  8
0
100
AcDbLine
 62
7
  6
CONTINUOUS
 10
158.519143711
 20
115.3037504731
 11
158.8531183072
 21
115.4965707961
  0
LINE
  5
2B8
100
AcDbEntity
  8
RUNDUNGEN
100
AcDbLine
 62
7
  6
CONTINUOUS
 10
158.519143711
 20
115.3037504731
 11
158.8531183072
 21
115.4965707961
  0
LINE
  5
2B9
100
AcDbEntity
  8
0
100
AcDbLine
 62
7
  6
CONTINUOUS
 10
85.7741668221
 20
151.7039370429
 11
87.3741668221
 21
151.744134612
  0
LINE
  5
2BA
100
AcDbEntity
  8
0
100
AcDbLine
 62
7
  6
CONTINUOUS
 10
58.0327484651
 20
151.2070391632
 11
67.819143711
 21
151.4529074753
  0
LINE
  5
2BB
100
AcDbEntity
  8
0
100
AcDbLine
 62
7
  6
CONTINUOUS
 10
76.9485050442
 20
151.6822688085
 11
85.5692068001
 21
151.8988508427
  0
LINE
  5
2BC
100
AcDbEntity
  8
0
100
AcDbLine
 62
9
  6
CONTINUOUS
 10
51.269143711
 20
146.9899951118
 11
85.5692068001
 21
147.7362812217
  0
LINE
  5
2BD
100
AcDbEntity
  8
0
100
AcDbLine
 62
7
  6
CONTINUOUS
 10
86.0221724618
 20
145.9685219058
 11
85.7741668221
 21
145.9636926779
  0
LINE
  5
2BE
100
AcDbEntity
  8
0
100
AcDbLine
 62
7
  6
CONTINUOUS
 10
159.2531183072
 20
146.9537504731
 11
160.269143711
 21
146.9537504731
  0
LINE
  5
2BF
100
AcDbEntity
  8
BEZUGSACHSEN
100
AcDbLine
 62
7
  6
CONTINUOUS
 10
159.2531183072
 20
146.9537504731
 11
160.269143711
 21
146.9537504731
  0
LINE
  5
2C0
100
AcDbEntity
  8
0
100
AcDbLine
 62
7
  6
CONTINUOUS
 10
165.269143711
 20
146.9537504731
 11
166.2851691148
 21
146.9537504731
  0
LINE
  5
2C1
100
AcDbEntity
  8
BEZUGSACHSEN
100
AcDbLine
 62
7
  6
CONTINUOUS
 10
165.269143711
 20
146.9537504731
 11
166.2851691148
 21
146.9537504731
  0
LINE
  5
2C2
100
AcDbEntity
  8
0
100
AcDbLine
 62
7
  6
CONTINUOUS
 10
119.269143711
 20
147.2537504731
 11
158.519143711
 21
147.2537504731
  0
LINE
  5
2C3
100
AcDbEntity
  8
0
100
AcDbLine
 62
7
  6
CONTINUOUS
 10
167.0101682352
 20
147.2485684797
 11
216.8476028067
 21
143.3262773152
  0
LINE
  5
2C4
100
AcDbEntity
  8
BEZUGSACHSEN
100
AcDbLine
 62
7
  6
CENTER
 10
162.769143711
 20
149.9537504731
 11
162.769143711
 21
136.2537504731
  0
LINE
  5
2C5
100
AcDbEntity
  8
BEZUGSACHSEN
100
AcDbLine
 62
7
  6
CENTER
 10
162.769143711
 20
112.6037504731
 11
162.769143711
 21
126.3037504731
  0
LINE
  5
2C6
100
AcDbEntity
  8
RUNDUNGEN
100
AcDbLine
 62
9
  6
CONTINUOUS
 10
166.2851691148
 20
115.6037504731
 11
166.2851691148
 21
146.9537504731
  0
LINE
  5
2C7
100
AcDbEntity
  8
RUNDUNGEN
100
AcDbLine
 62
9
  6
CONTINUOUS
 10
166.6851691148
 20
115.4965707961
 11
166.6851691148
 21
147.0609301501
  0
LINE
  5
2C8
100
AcDbEntity
  8
0
100
AcDbLine
 62
7
  6
CONTINUOUS
 10
167.0101682352
 20
147.2485684797
 11
167.0101682352
 21
115.3089324665
  0
LINE
  5
2C9
100
AcDbEntity
  8
0
100
AcDbLine
 62
7
  6
CONTINUOUS
 10
158.519143711
 20
147.2537504731
 11
158.8531183072
 21
147.0609301501
  0
LINE
  5
2CA
100
AcDbEntity
  8
RUNDUNGEN
100
AcDbLine
 62
7
  6
CONTINUOUS
 10
158.519143711
 20
147.2537504731
 11
158.8531183072
 21
147.0609301501
  0
LINE
  5
2CB
100
AcDbEntity
  8
RUNDUNGEN
100
AcDbLine
 62
9
  6
CONTINUOUS
 10
170.3189085946
 20
124.9425004731
 11
170.3189085946
 21
137.6150004731
  0
LINE
  5
2CC
100
AcDbEntity
  8
0
100
AcDbLine
 62
7
  6
CONTINUOUS
 10
101.2304685764
 20
161.3593432334
 11
98.3078188456
 21
161.3593432334
  0
LINE
  5
2CD
100
AcDbEntity
  8
0
100
AcDbLine
 62
7
  6
CONTINUOUS
 10
109.769143711
 20
162.7787504731
 11
104.9910546162
 21
162.7787504731
  0
LINE
  5
2CE
100
AcDbEntity
  8
0
100
AcDbLine
 62
7
  6
CONTINUOUS
 10
94.5472328059
 20
162.7787504731
 11
88.0691437834
 21
162.7787504731
  0
LINE
  5
2CF
100
AcDbEntity
  8
RUNDUNGEN
100
AcDbLine
 62
9
  6
CONTINUOUS
 10
216.8476028067
 20
119.231223631
 11
216.8476028067
 21
143.3262773152
  0
LINE
  5
2D0
100
AcDbEntity
  8
RUNDUNGEN
100
AcDbLine
 62
7
  6
CONTINUOUS
 10
217.769143711
 20
142.3293599814
 11
217.769143711
 21
120.2281409648
  0
ARC
  5
2D1
100
AcDbEntity
  8
0
100
AcDbCircle
 62
7
  6
CONTINUOUS
 10
-20.9828674841
 20
111.9692616439
 40
110.4813700649
100
AcDbArc
 50
13.4640903998
 51
14.4111621352
  0
ARC
  5
2D2
100
AcDbEntity
  8
ACHSEN
100
AcDbCircle
 62
7
  6
CONTINUOUS
 10
63.0307153307
 20
115.7103472878
 40
35.8451025481
100
AcDbArc
 50
98.0149288422
 51
101.1172700805
  0
ARC
  5
2D3
100
AcDbEntity
  8
0
100
AcDbCircle
 62
7
  6
CONTINUOUS
 10
87.169143711
 20
107.8287504731
 40
1.0
100
AcDbArc
 50
53.0400606802
 51
135.0
  0
ARC
  5
2D4
100
AcDbEntity
  8
0
100
AcDbCircle
 62
7
  6
CONTINUOUS
 10
87.169143711
 20
154.7287504731
 40
1.0
100
AcDbArc
 50
293.5781784782
 51
306.9599393198
  0
ARC
  5
2D5
100
AcDbEntity
  8
0
100
AcDbCircle
 62
7
  6
CONTINUOUS
 10
87.369143711
 20
151.9440715229
 40
0.2
100
AcDbArc
 50
271.439166666
 51
360.0
  0
ARC
  5
2D6
100
AcDbEntity
  8
0
100
AcDbCircle
 62
7
  6
CONTINUOUS
 10
85.769143711
 20
151.9038739538
 40
0.2
100
AcDbArc
 50
181.439166666
 51
271.439166666
  0
ARC
  5
2D7
100
AcDbEntity
  8
ACHSEN
100
AcDbCircle
 62
7
  6
CONTINUOUS
 10
-13.9890732657
 20
279.6746900232
 40
144.4768984223
100
AcDbArc
 50
296.1871039389
 51
296.8519184685
  0
ARC
  5
2D8
100
AcDbEntity
  8
FASEN
100
AcDbCircle
 62
7
  6
CONTINUOUS
 10
100.058654756
 20
195.6068315502
 40
33.2876143251
100
AcDbArc
 50
260.536348598
 51
261.5195221874
  0
ARC
  5
2D9
100
AcDbEntity
  8
FASEN
100
AcDbCircle
 62
7
  6
CONTINUOUS
 10
99.4805448924
 20
195.5955638629
 40
33.2763391204
100
AcDbArc
 50
278.4862446768
 51
278.9386216515
  0
ARC
  5
2DA
100
AcDbEntity
  8
FASEN
100
AcDbCircle
 62
7
  6
CONTINUOUS
 10
99.729596456
 20
193.8761560387
 40
31.5390043832
100
AcDbArc
 50
270.0718441004
 51
278.4997090997
  0
ARC
  5
2DB
100
AcDbEntity
  8
FASEN
100
AcDbCircle
 62
7
  6
CONTINUOUS
 10
99.7822176035
 20
193.5223068428
 40
31.1851331334
100
AcDbArc
 50
261.4570633999
 51
269.9759796157
  0
ARC
  5
2DC
100
AcDbEntity
  8
0
100
AcDbCircle
 62
7
  6
CONTINUOUS
 10
232.0033164816
 20
82.3045526036
 40
159.2595221537
100
AcDbArc
 50
156.0446773748
 51
156.4374589831
  0
ARC
  5
2DD
100
AcDbEntity
  8
BEZUGSACHSEN
100
AcDbCircle
 62
7
  6
CONTINUOUS
 10
162.7522306722
 20
99.9376443534
 40
15.8670013613
100
AcDbArc
 50
80.8728683007
 51
88.5281078963
  0
ARC
  5
2DE
100
AcDbEntity
  8
BEZUGSACHSEN
100
AcDbCircle
 62
7
  6
CONTINUOUS
 10
162.7860528231
 20
162.6198125145
 40
15.8669572182
100
AcDbArc
 50
260.8728570527
 51
268.5288263719
  0
ARC
  5
2DF
100
AcDbEntity
  8
BEZUGSACHSEN
100
AcDbCircle
 62
7
  6
CONTINUOUS
 10
162.771287989
 20
162.226777397
 40
15.4736732896
100
AcDbArc
 50
268.5461153798
 51
271.2063019737
  0
ARC
  5
2E0
100
AcDbEntity
  8
BEZUGSACHSEN
100
AcDbCircle
 62
7
  6
CONTINUOUS
 10
162.7669962637
 20
100.3307256285
 40
15.4736712106
100
AcDbArc
 50
88.5453770592
 51
91.2069621322
  0
ARC
  5
2E1
100
AcDbEntity
  8
RUNDUNGEN
100
AcDbCircle
 62
7
  6
CONTINUOUS
 10
119.269143711
 20
156.7537504731
 40
9.5
100
AcDbArc
 50
180.0000000011
 51
270.0
  0
ARC
  5
2E2
100
AcDbEntity
  8
RUNDUNGEN
100
AcDbCircle
 62
7
  6
CONTINUOUS
 10
119.269143711
 20
105.8037504731
 40
9.5
100
AcDbArc
 50
90.0
 51
179.9999999996
  0
ARC
  5
2E3
100
AcDbEntity
  8
0
100
AcDbCircle
 62
2
  6
CONTINUOUS
 10
162.7702517439
 20
131.2866152606
 40
3.0078649916
100
AcDbArc
 50
255.0730591232
 51
269.9788934653
  0
ARC
  5
2E4
100
AcDbEntity
  8
0
100
AcDbCircle
 62
2
  6
CONTINUOUS
 10
162.7687704228
 20
131.2792219457
 40
2.9994647508
100
AcDbArc
 50
270.0
 51
195.0050250824
  0
CIRCLE
  5
2E5
100
AcDbEntity
  8
BEZUGSACHSEN
100
AcDbCircle
 62
7
  6
CONTINUOUS
 10
162.769143711
 20
131.2787504731
 40
2.5
  0
ARC
  5
2E6
100
AcDbEntity
  8
RUNDUNGEN
100
AcDbCircle
 62
7
  6
CONTINUOUS
 10
216.769143711
 20
142.3293599814
 40
1.0
100
AcDbArc
 50
0.0
 51
85.4999999947
  0
ARC
  5
2E7
100
AcDbEntity
  8
RUNDUNGEN
100
AcDbCircle
 62
7
  6
CONTINUOUS
 10
216.769143711
 20
120.2281409648
 40
1.0
100
AcDbArc
 50
274.5000000042
 51
360.0
  0
ARC
  5
2E8
100
AcDbEntity
  8
RUNDUNGEN
100
AcDbCircle
 62
7
  6
CONTINUOUS
 10
166.2851691148
 20
147.7537504731
 40
0.8
100
AcDbArc
 50
270.0
 51
300.0000000034
  0
ARC
  5
2E9
100
AcDbEntity
  8
RUNDUNGEN
100
AcDbCircle
 62
7
  6
CONTINUOUS
 10
166.2851691148
 20
114.8037504731
 40
0.8
100
AcDbArc
 50
59.9999999631
 51
90.0
  0
ARC
  5
2EA
100
AcDbEntity
  8
RUNDUNGEN
100
AcDbCircle
 62
7
  6
CONTINUOUS
 10
159.2531183072
 20
147.7537504731
 40
0.8
100
AcDbArc
 50
239.9999999965
 51
270.0
  0
ARC
  5
2EB
100
AcDbEntity
  8
RUNDUNGEN
100
AcDbCircle
 62
7
  6
CONTINUOUS
 10
159.2531183072
 20
114.8037504731
 40
0.8
100
AcDbArc
 50
90.0
 51
120.000000036
  0
SPLINE
  5
2EC
100
AcDbEntity
  8
0
100
AcDbSpline
 62
2
  6
CONTINUOUS
 70
0
 71
3
 72
13
 73
9
 74
0
 42
0.0000001
 43
0.0000001
 44
0.0000000001
 40
0.0
 40
0.0
 40
0.0
 40
0.0
 40
0.1666666667
 40
0.3333333333
 40
0.5
 40
0.6666666667
 40
0.8333333333
 40
1.0
 40
1.0
 40
1.0
 40
1.0
 10
165.769143711
 20
115.6037504731
 30
0.0
 10
165.769143711
 20
115.6037504731
 30
0.0
 10
165.6978747922
 20
115.6176140427
 30
0.0
 10
165.394275668
 20
115.6727142862
 30
0.0
 10
164.9137864062
 20
115.7480666069
 30
0.0
 10
164.2798975884
 20
115.8245842713
 30
0.0
 10
163.5503947604
 20
115.879973442
 30
0.0
 10
163.0292428297
 20
115.893509981
 30
0.0
 10
162.769143711
 20
115.893509981
 30
0.0
  0
SPLINE
  5
2ED
100
AcDbEntity
  8
0
100
AcDbSpline
 62
2
  6
CONTINUOUS
 70
0
 71
3
 72
13
 73
9
 74
0
 42
0.0000001
 43
0.0000001
 44
0.0000000001
 40
0.0
 40
0.0
 40
0.0
 40
0.0
 40
0.1666666667
 40
0.3333333333
 40
0.5
 40
0.6666666667
 40
0.8333333333
 40
1.0
 40
1.0
 40
1.0
 40
1.0
 10
162.769143711
 20
115.893509981
 30
0.0
 10
162.5091131088
 20
115.893509981
 30
0.0
 10
161.9880806667
 20
115.8799799184
 30
0.0
 10
161.2587169587
 20
115.824616157
 30
0.0
 10
160.6247707482
 20
115.748103373
 30
0.0
 10
160.1444148094
 20
115.6727821651
 30
0.0
 10
159.8405667871
 20
115.6176444657
 30
0.0
 10
159.769143711
 20
115.6037504731
 30
0.0
 10
159.769143711
 20
115.6037504731
 30
0.0
  0
SPLINE
  5
2EE
100
AcDbEntity
  8
0
100
AcDbSpline
 62
2
  6
CONTINUOUS
 70
0
 71
3
 72
13
 73
9
 74
0
 42
0.0000001
 43
0.0000001
 44
0.0000000001
 40
0.0
 40
0.0
 40
0.0
 40
0.0
 40
0.1666666667
 40
0.3333333333
 40
0.5
 40
0.6666666667
 40
0.8333333333
 40
1.0
 40
1.0
 40
1.0
 40
1.0
 10
162.769143711
 20
146.6639909652
 30
0.0
 10
163.0288652419
 20
146.6639909652
 30
0.0
 10
163.549388278
 20
146.6774780603
 30
0.0
 10
164.2792806519
 20
146.7328538401
 30
0.0
 10
164.912154648
 20
146.8092414929
 30
0.0
 10
165.3906817426
 20
146.8841563428
 30
0.0
 10
165.7011892849
 20
146.9404902604
 30
0.0
 10
165.769143711
 20
146.9537504731
 30
0.0
 10
165.769143711
 20
146.9537504731
 30
0.0
  0
SPLINE
  5
2EF
100
AcDbEntity
  8
0
100
AcDbSpline
 62
2
  6
CONTINUOUS
 70
0
 71
3
 72
13
 73
9
 74
0
 42
0.0000001
 43
0.0000001
 44
0.0000000001
 40
0.0
 40
0.0
 40
0.0
 40
0.0
 40
0.1666666667
 40
0.3333333333
 40
0.5
 40
0.6666666667
 40
0.8333333333
 40
1.0
 40
1.0
 40
1.0
 40
1.0
 10
159.769143711
 20
146.9537504731
 30
0.0
 10
159.769143711
 20
146.9537504731
 30
0.0
 10
159.8371381951
 20
146.9404855252
 30
0.0
 10
160.1469901526
 20
146.8842608819
 30
0.0
 10
160.6258146702
 20
146.8092835997
 30
0.0
 10
161.2586054884
 20
146.7328929985
 30
0.0
 10
161.9887097973
 20
146.6774835229
 30
0.0
 10
162.5093561166
 20
146.6639909652
 30
0.0
 10
162.769143711
 20
146.6639909652
 30
0.0
  0
LINE
  5
2F0
100
AcDbEntity
  8
FASEN
100
AcDbLine
 62
7
  6
CONTINUOUS
 10
94.5854429466
 20
162.7722580043
 11
94.5467001321
 21
162.7787159615
  0
LINE
  5
2F1
100
AcDbEntity
  8
FASEN
100
AcDbLine
 62
7
  6
CONTINUOUS
 10
104.9528444754
 20
162.7722580043
 11
104.99158729
 21
162.7787159615
  0
LINE
  5
2F2
100
AcDbEntity
  8
ACHSEN
100
AcDbLine
 62
7
  6
CONTINUOUS
 10
56.119143711
 20
150.8828017717
 11
51.269143711
 21
150.7757400866
  0
LINE
  5
2F3
100
AcDbEntity
  8
ACHSEN
100
AcDbLine
 62
7
  6
CONTINUOUS
 10
57.9099147427
 20
151.1877898917
 11
58.032763059
 21
151.205302549
  0
LINE
  5
2F4
100
AcDbEntity
  8
ACHSEN
100
AcDbLine
 62
7
  6
CONTINUOUS
 10
58.032763059
 20
151.205302549
 11
58.047713997
 21
151.2074082784
  0
SPLINE
  5
2F5
100
AcDbEntity
  8
BEZUGSACHSEN
100
AcDbSpline
 62
7
  6
CONTINUOUS
 70
0
 71
3
 72
9
 73
5
 74
0
 42
0.0000001
 43
0.0000001
 44
0.0000000001
 40
0.0
 40
0.0
 40
0.0
 40
0.0
 40
0.0744744974
 40
1.0
 40
1.0
 40
1.0
 40
1.0
 10
160.269143711
 20
115.6037504731
 30
0.0
 10
160.3226882487
 20
115.6122974943
 30
0.0
 10
161.0423478681
 20
115.7235171615
 30
0.0
 10
161.7706228397
 20
115.7868206758
 30
0.0
 10
162.4444276305
 20
115.8009634831
 30
0.0
  0
SPLINE
  5
2F6
100
AcDbEntity
  8
BEZUGSACHSEN
100
AcDbSpline
 62
7
  6
CONTINUOUS
 70
0
 71
3
 72
9
 73
5
 74
0
 42
0.0000001
 43
0.0000001
 44
0.0000000001
 40
0.0
 40
0.0
 40
0.0
 40
0.0
 40
0.0744765136
 40
1.0
 40
1.0
 40
1.0
 40
1.0
 10
165.269143711
 20
146.9537504731
 30
0.0
 10
165.2155934031
 20
146.9452025502
 30
0.0
 10
164.4958756342
 20
146.8339745132
 30
0.0
 10
163.7675411177
 20
146.7706699429
 30
0.0
 10
163.0936832803
 20
146.7565337068
 30
0.0
  0
LINE
  5
2F7
100
AcDbEntity
  8
ACHSEN
100
AcDbLine
 62
7
  6
CONTINUOUS
 10
58.0477139966
 20
151.2074082783
 11
58.0327926092
 21
151.2053067208
  0
SPLINE
  5
2F8
100
AcDbEntity
  8
ACHSEN
100
AcDbSpline
 62
7
  6
CONTINUOUS
 70
0
 71
3
 72
11
 73
7
 74
0
 42
0.0000001
 43
0.0000001
 44
0.0000000001
 40
0.0
 40
0.0
 40
0.0
 40
0.0
 40
0.1537099379
 40
0.500508937
 40
0.8472910559
 40
1.0
 40
1.0
 40
1.0
 40
1.0
 10
76.9485050442
 20
151.6822688085
 30
0.0
 10
76.4849197751
 20
151.6109918538
 30
0.0
 10
74.970687461
 20
151.4069340814
 30
0.0
 10
72.3879130335
 20
151.2214250495
 30
0.0
 10
69.8018670035
 20
151.2743722682
 30
0.0
 10
68.2825778208
 20
151.4041387609
 30
0.0
 10
67.819143711
 20
151.4529074753
 30
0.0
  0
LINE
  5
2F9
100
AcDbEntity
  8
FASEN
100
AcDbLine
 62
7
  6
CONTINUOUS
 10
94.546700133
 20
162.7787159618
 11
94.8376833972
 21
162.7312050163
  0
SPLINE
  5
2FA
100
AcDbEntity
  8
FASEN
100
AcDbSpline
 62
7
  6
CONTINUOUS
 70
0
 71
3
 72
13
 73
9
 74
0
 42
0.0000001
 43
0.0000001
 44
0.0000000001
 40
0.0
 40
0.0
 40
0.0
 40
0.0
 40
0.0157914555
 40
0.0631395717
 40
0.1420412357
 40
0.2523478212
 40
0.5656689994
 40
1.0
 40
1.0
 40
1.0
 40
1.0
 10
104.991587289
 20
162.7787159618
 30
0.0
 10
104.9897729462
 20
162.7788113402
 30
0.0
 10
104.9826610657
 20
162.7766603954
 30
0.0
 10
104.9664890531
 20
162.7748994247
 30
0.0
 10
104.9396725074
 20
162.7699008287
 30
0.0
 10
104.8826195359
 20
162.7607400463
 30
0.0
 10
104.7852171256
 20
162.7445648802
 30
0.0
 10
104.7002641237
 20
162.7311157533
 30
0.0
 10
104.6508996796
 20
162.7233540705
 30
0.0
  0
SPLINE
  5
2FB
100
AcDbEntity
  8
0
100
AcDbSpline
 62
7
  6
CONTINUOUS
 70
0
 71
3
 72
13
 73
9
 74
0
 42
0.0000001
 43
0.0000001
 44
0.0000000001
 40
0.0
 40
0.0
 40
0.0
 40
0.0
 40
0.1753307868
 40
0.3422637982
 40
0.4768046258
 40
0.5947351366
 40
0.8062611466
 40
1.0
 40
1.0
 40
1.0
 40
1.0
 10
87.3741668221
 20
109.751321733
 30
0.0
 10
87.3102540772
 20
109.7782618946
 30
0.0
 10
87.1724770339
 20
109.8069998807
 30
0.0
 10
86.9848300357
 20
109.7582210627
 30
0.0
 10
86.843245352
 20
109.6693791597
 30
0.0
 10
86.7067801292
 20
109.5457765478
 30
0.0
 10
86.5783614427
 20
109.3818999418
 30
0.0
 10
86.4973214457
 20
109.2432289495
 30
0.0
 10
86.4620369298
 20
109.1751938222
 30
0.0
  0
SPLINE
  5
2FC
100
AcDbEntity
  8
0
100
AcDbSpline
 62
7
  6
CONTINUOUS
 70
0
 71
3
 72
12
 73
8
 74
0
 42
0.0000001
 43
0.0000001
 44
0.0000000001
 40
0.0
 40
0.0
 40
0.0
 40
0.0
 40
0.2873076234
 40
0.4555854673
 40
0.6473090081
 40
0.8177551754
 40
1.0
 40
1.0
 40
1.0
 40
1.0
 10
87.3741668221
 20
109.751321733
 30
0.0
 10
87.3995531061
 20
109.7406210411
 30
0.0
 10
87.4422201691
 20
109.7280450973
 30
0.0
 10
87.5060253619
 20
109.7322035996
 30
0.0
 10
87.5489578592
 20
109.7665560981
 30
0.0
 10
87.5657877298
 20
109.8173563989
 30
0.0
 10
87.5687340397
 20
109.8511192346
 30
0.0
 10
87.5690575043
 20
109.8685913479
 30
0.0
  0
SPLINE
  5
2FD
100
AcDbEntity
  8
0
100
AcDbSpline
 62
7
  6
CONTINUOUS
 70
0
 71
3
 72
16
 73
12
 74
0
 42
0.0000001
 43
0.0000001
 44
0.0000000001
 40
0.0
 40
0.0
 40
0.0
 40
0.0
 40
0.1251648965
 40
0.2503573139
 40
0.375568813
 40
0.5007901353
 40
0.6259923846
 40
0.7510481625
 40
0.8746362128
 40
0.9372915345
 40
1.0
 40
1.0
 40
1.0
 40
1.0
 10
86.4620369298
 20
137.6932902338
 30
0.0
 10
86.4791052735
 20
137.6219639252
 30
0.0
 10
86.5153772099
 20
137.4797905324
 30
0.0
 10
86.5773994923
 20
137.2685957232
 30
0.0
 10
86.6490693721
 20
137.0603627982
 30
0.0
 10
86.7330787226
 20
136.8568424294
 30
0.0
 10
86.8364605961
 20
136.6615539986
 30
0.0
 10
86.9644202701
 20
136.4847275397
 30
0.0
 10
87.1314584604
 20
136.3772828032
 30
0.0
 10
87.2821637568
 20
136.3988467257
 30
0.0
 10
87.3454416364
 20
136.4387885449
 30
0.0
 10
87.3741668221
 20
136.4617009262
 30
0.0
  0
SPLINE
  5
2FE
100
AcDbEntity
  8
0
100
AcDbSpline
 62
7
  6
CONTINUOUS
 70
0
 71
3
 72
13
 73
9
 74
0
 42
0.0000001
 43
0.0000001
 44
0.0000000001
 40
0.0
 40
0.0
 40
0.0
 40
0.0
 40
0.1670510693
 40
0.3289369806
 40
0.4609641718
 40
0.578209763
 40
0.7939442568
 40
1.0
 40
1.0
 40
1.0
 40
1.0
 10
87.3741668221
 20
147.6232287601
 30
0.0
 10
87.3097333714
 20
147.6474638651
 30
0.0
 10
87.1705323784
 20
147.6693982075
 30
0.0
 10
86.9839243901
 20
147.6129220353
 30
0.0
 10
86.842463352
 20
147.5173585807
 30
0.0
 10
86.7049347546
 20
147.3829911116
 30
0.0
 10
86.5755150501
 20
147.200618853
 30
0.0
 10
86.4965150835
 20
147.0453666119
 30
0.0
 10
86.4620369298
 20
146.9677673633
 30
0.0
  0
SPLINE
  5
2FF
100
AcDbEntity
  8
0
100
AcDbSpline
 62
7
  6
CONTINUOUS
 70
0
 71
3
 72
15
 73
11
 74
0
 42
0.0000001
 43
0.0000001
 44
0.0000000001
 40
0.0
 40
0.0
 40
0.0
 40
0.0
 40
0.0735479282
 40
0.1546005725
 40
0.2292557381
 40
0.2979289731
 40
0.4260365971
 40
0.5473626904
 40
0.7785364517
 40
1.0
 40
1.0
 40
1.0
 40
1.0
 10
87.3741668221
 20
147.6232287601
 30
0.0
 10
87.3866186409
 20
147.6185453055
 30
0.0
 10
87.4157688946
 20
147.614464793
 30
0.0
 10
87.4552383862
 20
147.6327068203
 30
0.0
 10
87.4828000613
 20
147.6631101139
 30
0.0
 10
87.5086950713
 20
147.7049877966
 30
0.0
 10
87.5297810351
 20
147.7589180192
 30
0.0
 10
87.5514197457
 20
147.8431886788
 30
0.0
 10
87.5652899327
 20
147.9463995641
 30
0.0
 10
87.5687144222
 20
148.0282609142
 30
0.0
 10
87.5690575043
 20
148.0683181605
 30
0.0
  0
SPLINE
  5
300
100
AcDbEntity
  8
0
100
AcDbSpline
 62
7
  6
CONTINUOUS
 70
0
 71
3
 72
16
 73
12
 74
0
 42
0.0000001
 43
0.0000001
 44
0.0000000001
 40
0.0
 40
0.0
 40
0.0
 40
0.0
 40
0.2846406373
 40
0.4153418401
 40
0.5382258172
 40
0.6534042926
 40
0.7614765699
 40
0.8135102488
 40
0.8652468039
 40
0.9195357931
 40
1.0
 40
1.0
 40
1.0
 40
1.0
 10
85.5692068001
 20
109.5963485939
 30
0.0
 10
85.5692068001
 20
109.4767751565
 30
0.0
 10
85.5690651165
 20
109.3022921593
 30
0.0
 10
85.5714423032
 20
109.0762029145
 30
0.0
 10
85.5760693598
 20
108.9213311743
 30
0.0
 10
85.5859714075
 20
108.7762396823
 30
0.0
 10
85.602159201
 20
108.6614562511
 30
0.0
 10
85.6239845974
 20
108.5751218921
 30
0.0
 10
85.6477238914
 20
108.5126922322
 30
0.0
 10
85.6865102288
 20
108.4451632969
 30
0.0
 10
85.7403743452
 20
108.4086612985
 30
0.0
 10
85.7741668221
 20
108.4078650816
 30
0.0
  0
SPLINE
  5
301
100
AcDbEntity
  8
0
100
AcDbSpline
 62
7
  6
CONTINUOUS
 70
0
 71
3
 72
9
 73
5
 74
0
 42
0.0000001
 43
0.0000001
 44
0.0000000001
 40
0.0
 40
0.0
 40
0.0
 40
0.0
 40
0.2573720101
 40
1.0
 40
1.0
 40
1.0
 40
1.0
 10
86.4620369298
 20
109.1751938222
 30
0.0
 10
86.4268975416
 20
109.107438528
 30
0.0
 10
86.2879094061
 20
108.845466877
 30
0.0
 10
86.1389259155
 20
108.588757727
 30
0.0
 10
86.0221724618
 20
108.4020215978
 30
0.0
  0
SPLINE
  5
302
100
AcDbEntity
  8
0
100
AcDbSpline
 62
7
  6
CONTINUOUS
 70
0
 71
3
 72
12
 73
8
 74
0
 42
0.0000001
 43
0.0000001
 44
0.0000000001
 40
0.0
 40
0.0
 40
0.0
 40
0.0
 40
0.1286448926
 40
0.256081
 40
0.5063027424
 40
0.7539549585
 40
1.0
 40
1.0
 40
1.0
 40
1.0
 10
98.3078188456
 20
140.6279717876
 30
0.0
 10
98.2769509141
 20
140.6279717876
 30
0.0
 10
98.2150419199
 20
140.6402654114
 30
0.0
 10
98.1088456226
 20
140.7022128751
 30
0.0
 10
98.0094416405
 20
140.8189410771
 30
0.0
 10
97.9280657941
 20
140.9784573151
 30
0.0
 10
97.8903839313
 20
141.0912176337
 30
0.0
 10
97.8748061437
 20
141.1481630921
 30
0.0
  0
SPLINE
  5
303
100
AcDbEntity
  8
0
100
AcDbSpline
 62
7
  6
CONTINUOUS
 70
0
 71
3
 72
8
 73
4
 74
0
 42
0.0000001
 43
0.0000001
 44
0.0000000001
 40
0.0
 40
0.0
 40
0.0
 40
0.0
 40
1.0
 40
1.0
 40
1.0
 40
1.0
 10
87.5690217576
 20
135.9039731331
 30
0.0
 10
87.5686908235
 20
135.9515018408
 30
0.0
 10
87.5675083083
 20
135.9990422496
 30
0.0
 10
87.5650043365
 20
136.0465061064
 30
0.0
  0
SPLINE
  5
304
100
AcDbEntity
  8
0
100
AcDbSpline
 62
7
  6
CONTINUOUS
 70
0
 71
3
 72
15
 73
11
 74
0
 42
0.0000001
 43
0.0000001
 44
0.0000000001
 40
0.0
 40
0.0
 40
0.0
 40
0.0
 40
0.2532162989
 40
0.3790219793
 40
0.5040739368
 40
0.6282014989
 40
0.7508575768
 40
0.8716570132
 40
0.9343432508
 40
1.0
 40
1.0
 40
1.0
 40
1.0
 10
87.5650043365
 20
136.0465061064
 30
0.0
 10
87.5626409182
 20
136.0913057118
 30
0.0
 10
87.5574834734
 20
136.1583117018
 30
0.0
 10
87.5453111498
 20
136.2468359625
 30
0.0
 10
87.532733352
 20
136.3120437056
 30
0.0
 10
87.5148065406
 20
136.3758348015
 30
0.0
 10
87.4897178288
 20
136.4351100006
 30
0.0
 10
87.4504385397
 20
136.4799912137
 30
0.0
 10
87.4031782019
 20
136.4816852787
 30
0.0
 10
87.3832605744
 20
136.4689544745
 30
0.0
 10
87.3741668221
 20
136.4617009262
 30
0.0
  0
SPLINE
  5
305
100
AcDbEntity
  8
0
100
AcDbSpline
 62
7
  6
CONTINUOUS
 70
0
 71
3
 72
12
 73
8
 74
0
 42
0.0000001
 43
0.0000001
 44
0.0000000001
 40
0.0
 40
0.0
 40
0.0
 40
0.0
 40
0.128679218
 40
0.2561331636
 40
0.5063352459
 40
0.7539715031
 40
1.0
 40
1.0
 40
1.0
 40
1.0
 10
101.2304685764
 20
121.9295291586
 30
0.0
 10
101.261344702
 20
121.9295291586
 30
0.0
 10
101.3232593285
 20
121.9172059321
 30
0.0
 10
101.4294802556
 20
121.855291141
 30
0.0
 10
101.528851529
 20
121.7385295759
 30
0.0
 10
101.6102278195
 20
121.5790347672
 30
0.0
 10
101.6479045595
 20
121.4662794055
 30
0.0
 10
101.6634812783
 20
121.4093378541
 30
0.0
  0
SPLINE
  5
306
100
AcDbEntity
  8
0
100
AcDbSpline
 62
7
  6
CONTINUOUS
 70
0
 71
3
 72
9
 73
5
 74
0
 42
0.0000001
 43
0.0000001
 44
0.0000000001
 40
0.0
 40
0.0
 40
0.0
 40
0.0
 40
0.1680195226
 40
1.0
 40
1.0
 40
1.0
 40
1.0
 10
101.6634812783
 20
101.3647956266
 30
0.0
 10
101.6466330053
 20
101.3444755107
 30
0.0
 10
101.5311797228
 20
101.2359945345
 30
0.0
 10
101.3611754877
 20
101.1981577128
 30
0.0
 10
101.2304685764
 20
101.1981577128
 30
0.0
  0
SPLINE
  5
307
100
AcDbEntity
  8
0
100
AcDbSpline
 62
7
  6
CONTINUOUS
 70
0
 71
3
 72
12
 73
8
 74
0
 42
0.0000001
 43
0.0000001
 44
0.0000000001
 40
0.0
 40
0.0
 40
0.0
 40
0.0
 40
0.2460454262
 40
0.4936983158
 40
0.7439199328
 40
0.8713555617
 40
1.0
 40
1.0
 40
1.0
 40
1.0
 10
97.8748061437
 20
121.4093378541
 30
0.0
 10
97.8903839563
 20
121.4662834039
 30
0.0
 10
97.9280659759
 20
121.5790439093
 30
0.0
 10
98.0094417239
 20
121.7385605774
 30
0.0
 10
98.1088463357
 20
121.8552881101
 30
0.0
 10
98.2150421521
 20
121.9172359485
 30
0.0
 10
98.2769510218
 20
121.9295291586
 30
0.0
 10
98.3078188456
 20
121.9295291586
 30
0.0
  0
SPLINE
  5
308
100
AcDbEntity
  8
0
100
AcDbSpline
 62
7
  6
CONTINUOUS
 70
0
 71
3
 72
9
 73
5
 74
0
 42
0.0000001
 43
0.0000001
 44
0.0000000001
 40
0.0
 40
0.0
 40
0.0
 40
0.0
 40
0.3641598889
 40
1.0
 40
1.0
 40
1.0
 40
1.0
 10
98.3078188456
 20
101.1981577128
 30
0.0
 10
98.2504424238
 20
101.1981577128
 30
0.0
 10
98.0942560907
 20
101.2142768068
 30
0.0
 10
97.9387501001
 20
101.2876750457
 30
0.0
 10
97.8748061437
 20
101.3647956266
 30
0.0
  0
SPLINE
  5
309
100
AcDbEntity
  8
0
100
AcDbSpline
 62
7
  6
CONTINUOUS
 70
0
 71
3
 72
9
 73
5
 74
0
 42
0.0000001
 43
0.0000001
 44
0.0000000001
 40
0.0
 40
0.0
 40
0.0
 40
0.0
 40
0.3642526053
 40
1.0
 40
1.0
 40
1.0
 40
1.0
 10
101.2304685764
 20
161.3593432334
 30
0.0
 10
101.2878599829
 20
161.3593432334
 30
0.0
 10
101.4440494415
 20
161.3432286779
 30
0.0
 10
101.5995462268
 20
161.2698151608
 30
0.0
 10
101.6634812783
 20
161.1927053196
 30
0.0
  0
LINE
  5
30A
100
AcDbEntity
  8
0
100
AcDbLine
 62
7
  6
CONTINUOUS
 10
85.7795453428
 20
107.8533656672
 11
86.0221724618
 21
108.4020215978
  0
SPLINE
  5
30B
100
AcDbEntity
  8
0
100
AcDbSpline
 62
7
  6
CONTINUOUS
 70
0
 71
3
 72
21
 73
17
 74
0
 42
0.0000001
 43
0.0000001
 44
0.0000000001
 40
0.0
 40
0.0
 40
0.0
 40
0.0
 40
0.0152736556
 40
0.0307400416
 40
0.0615944727
 40
0.0924597446
 40
0.1233512662
 40
0.1852330485
 40
0.2472659363
 40
0.3094463907
 40
0.3717660941
 40
0.4967787028
 40
0.6222117836
 40
0.747963109
 40
0.8739278454
 40
1.0
 40
1.0
 40
1.0
 40
1.0
 10
85.7741668221
 20
139.4646936598
 30
0.0
 10
85.7589045069
 20
139.4646312405
 30
0.0
 10
85.733216342
 20
139.4386340858
 30
0.0
 10
85.7074752494
 20
139.38488155
 30
0.0
 10
85.6838277196
 20
139.310109657
 30
0.0
 10
85.6640293462
 20
139.2200148326
 30
0.0
 10
85.6430516712
 20
139.0981174684
 30
0.0
 10
85.6241482711
 20
138.944568665
 30
0.0
 10
85.607920631
 20
138.7592847128
 30
0.0
 10
85.5961514364
 20
138.5732506454
 30
0.0
 10
85.5846967965
 20
138.3241747931
 30
0.0
 10
85.5762830324
 20
138.011729274
 30
0.0
 10
85.5715305842
 20
137.635833794
 30
0.0
 10
85.5697161616
 20
137.2589637379
 30
0.0
 10
85.5692428234
 20
136.8814531049
 30
0.0
 10
85.5692068001
 20
136.629601206
 30
0.0
 10
85.5692068001
 20
136.5036216037
 30
0.0
  0
SPLINE
  5
30C
100
AcDbEntity
  8
0
100
AcDbSpline
 62
7
  6
CONTINUOUS
 70
0
 71
3
 72
17
 73
13
 74
0
 42
0.0000001
 43
0.0000001
 44
0.0000000001
 40
0.0
 40
0.0
 40
0.0
 40
0.0
 40
0.2182009024
 40
0.3349220057
 40
0.456586696
 40
0.5831112211
 40
0.7144823146
 40
0.7820564401
 40
0.8510300181
 40
0.92186225
 40
0.958727904
 40
1.0
 40
1.0
 40
1.0
 40
1.0
 10
85.5692068001
 20
147.7362812217
 30
0.0
 10
85.5692068001
 20
147.6040022075
 30
0.0
 10
85.5691891127
 20
147.4009625461
 30
0.0
 10
85.5715962216
 20
147.1241737758
 30
0.0
 10
85.5764214151
 20
146.9030013732
 30
0.0
 10
85.5867071532
 20
146.6730863922
 30
0.0
 10
85.6028321765
 20
146.4764176971
 30
0.0
 10
85.6244062771
 20
146.3152168255
 30
0.0
 10
85.6470107477
 20
146.1920465334
 30
0.0
 10
85.6766065439
 20
146.0868958028
 30
0.0
 10
85.7110382187
 20
146.0074259485
 30
0.0
 10
85.7491513552
 20
145.9632055719
 30
0.0
 10
85.7741668221
 20
145.9636926779
 30
0.0
  0
SPLINE
  5
30D
100
AcDbEntity
  8
0
100
AcDbSpline
 62
7
  6
CONTINUOUS
 70
0
 71
3
 72
10
 73
6
 74
0
 42
0.0000001
 43
0.0000001
 44
0.0000000001
 40
0.0
 40
0.0
 40
0.0
 40
0.0
 40
0.2163947382
 40
0.4583018846
 40
1.0
 40
1.0
 40
1.0
 40
1.0
 10
86.0221724618
 20
145.9685219058
 30
0.0
 10
85.9364710739
 20
145.5058003501
 30
0.0
 10
85.8141344817
 20
144.5145384588
 30
0.0
 10
85.7389557557
 20
142.3395252741
 30
0.0
 10
85.8694605909
 20
140.6337921563
 30
0.0
 10
86.0221724618
 20
139.4657079157
 30
0.0
  0
SPLINE
  5
30E
100
AcDbEntity
  8
0
100
AcDbSpline
 62
7
  6
CONTINUOUS
 70
0
 71
3
 72
12
 73
8
 74
0
 42
0.0000001
 43
0.0000001
 44
0.0000000001
 40
0.0
 40
0.0
 40
0.0
 40
0.0
 40
0.2460280129
 40
0.4936634005
 40
0.7438647573
 40
0.8713194616
 40
1.0
 40
1.0
 40
1.0
 40
1.0
 10
101.6634812783
 20
141.1481630921
 30
0.0
 10
101.6479045913
 20
141.0912216568
 30
0.0
 10
101.6102280961
 20
140.978466482
 30
0.0
 10
101.5288516422
 20
140.8189726413
 30
0.0
 10
101.429481863
 20
140.702209582
 30
0.0
 10
101.3232598389
 20
140.6402962739
 30
0.0
 10
101.2613450166
 20
140.6279717876
 30
0.0
 10
101.2304685764
 20
140.6279717876
 30
0.0
  0
SPLINE
  5
30F
100
AcDbEntity
  8
0
100
AcDbSpline
 62
7
  6
CONTINUOUS
 70
0
 71
3
 72
9
 73
5
 74
0
 42
0.0000001
 43
0.0000001
 44
0.0000000001
 40
0.0
 40
0.0
 40
0.0
 40
0.0
 40
0.1680322176
 40
1.0
 40
1.0
 40
1.0
 40
1.0
 10
97.8748061437
 20
161.1927053196
 30
0.0
 10
97.8916557027
 20
161.2130269864
 30
0.0
 10
98.0071102795
 20
161.3215070184
 30
0.0
 10
98.1771138286
 20
161.3593432334
 30
0.0
 10
98.3078188456
 20
161.3593432334
 30
0.0
  0
ELLIPSE
  5
310
100
AcDbEntity
  8
0
100
AcDbEllipse
 62
7
  6
CONTINUOUS
 10
85.4219895217
 20
131.2787504731
 30
0.0
 11
14.7536831607
 21
31.0932549156
 31
0.0
 40
0.3419987131
 41
-1.0912395858
 42
-0.1578061866
  0
ELLIPSE
  5
311
100
AcDbEntity
  8
0
100
AcDbEllipse
 62
7
  6
CONTINUOUS
 10
114.1162979004
 20
131.2787504731
 30
0.0
 11
14.7536831607
 21
31.0932549156
 31
0.0
 40
0.3419987131
 41
-4.2328322393
 42
-3.2993988402
  0
ELLIPSE
  5
312
100
AcDbEntity
  8
0
100
AcDbEllipse
 62
7
  6
CONTINUOUS
 10
85.4219895217
 20
131.2787504731
 30
0.0
 11
-14.7536831607
 21
31.0932549156
 31
0.0
 40
0.3419987131
 41
-2.9837864669
 42
-2.0503530678
  0
ELLIPSE
  5
313
100
AcDbEntity
  8
0
100
AcDbEllipse
 62
7
  6
CONTINUOUS
 10
114.1162979004
 20
131.2787504731
 30
0.0
 11
-14.7536831607
 21
31.0932549156
 31
0.0
 40
0.3419987131
 41
0.1578061866
 42
1.0912395858
  0
ENDSEC
  0
SECTION
  2
OBJECTS
  0
DICTIONARY
  5
C
100
AcDbDictionary
280
0
281
1
  3
ACAD_GROUP
350
D
  3
ACAD_MLINESTYLE
350
17
  3
ACAD_LAYOUT
350
1A
  3
ACAD_PLOTSETTINGS
350
19
  3
ACAD_PLOTSTYLENAME
350
E
  0
DICTIONARY
  5
D
102
{ACAD_REACTORS
330
C
102
}
100
AcDbDictionary
280
0
281
1
  0
ACDBDICTIONARYWDFLT
  5
E
102
{ACAD_REACTORS
330
C
102
}
100
AcDbDictionary
281
1
  3
Normal
350
F
100
AcDbDictionaryWithDefault
340
F
  0
DICTIONARY
  5
17
102
{ACAD_REACTORS
330
C
102
}
100
AcDbDictionary
280
0
281
1
  3
Standard
350
18
  0
DICTIONARY
  5
19
102
{ACAD_REACTORS
330
C
102
}
100
AcDbDictionary
281
1
  0
DICTIONARY
  5
1A
102
{ACAD_REACTORS
330
C
102
}
100
AcDbDictionary
281
1
  3
Model
350
314
  3
Layout1
350
315
  0
ACDBPLACEHOLDER
  5
F
102
{ACAD_REACTORS
330
E
102
}
  0
MLINESTYLE
  5
18
102
{ACAD_REACTORS
330
17
102
}
100
AcDbMlineStyle
  2
STANDARD
 70
0
  3

 62
256
 51
90.0
 52
90.0
 71
2
 49
0.5
 62
256
  6
BYLAYER
 49
-0.5
 62
256
  6
BYLAYER
  0
LAYOUT
  5
314
102
{ACAD_REACTORS
330
1A
102
}
100
AcDbPlotSettings
  1

  2
none_device
  4
ISO_A4_(297.00_x_210.00_MM)
  6

 40
0.0
 41
0.0
 42
0.0
 43
0.0
 44
297.0
 45
210.0
 46
0.0
 47
0.0
 48
0.0
 49
0.0
140
0.0
141
0.0
142
1.0
143
1.0
 70
1024
 72
1
 73
0
 74
0
  7

 75
0
147
1.0
148
0.0
149
0.0
100
AcDbLayout
  1
Model
 70
0
 71
0
 10
0.0
 20
0.0
 11
297.0
 21
210.0
 12
0.0
 22
0.0
 32
0.0
 14
0.0
 24
0.0
 34
0.0
 15
0.0
 25
0.0
 35
0.0
146
0.0
 13
0.0
 23
0.0
 33
0.0
 16
1.0
 26
0.0
 36
0.0
 17
0.0
 27
1.0
 37
0.0
 76
0
330
217
345
0
346
0
  0
LAYOUT
  5
315
102
{ACAD_REACTORS
330
1A
102
}
100
AcDbPlotSettings
  1

  2
none_device
  4
ISO_A4_(297.00_x_210.00_MM)
  6

 40
0.0
 41
0.0
 42
0.0
 43
0.0
 44
297.0
 45
210.0
 46
0.0
 47
0.0
 48
0.0
 49
0.0
140
0.0
141
0.0
142
1.0
143
1.0
 70
0
 72
1
 73
0
 74
0
  7

 75
0
147
1.0
148
0.0
149
0.0
100
AcDbLayout
  1
Layout1
 70
0
 71
1
 10
0.0
 20
0.0
 11
297.0
 21
210.0
 12
0.0
 22
0.0
 32
0.0
 14
0.0
 24
0.0
 34
0.0
 15
0.0
 25
0.0
 35
0.0
146
0.0
 13
0.0
 23
0.0
 33
0.0
 16
1.0
 26
0.0
 36
0.0
 17
0.0
 27
1.0
 37
0.0
 76
0
330
218
345
0
346
0
  0
ENDSEC
  0
EOF
