999
DXF file: cc6-144-10.dxf
999
Pro/ENGINEER 2010430 by Parametric Technology Corporation
  0
SECTION
  2
HEADER
  9
$ACADVER
  1
AC1021
  9
$DWGCODEPAGE
  3
ANSI_1252
  9
$EXTMAX
 10
297.0
 20
210.0
 30
0.0
  9
$EXTMIN
 10
0.0
 20
0.0
 30
0.0
  9
$LIMMIN
 10
0.0
 20
0.0
  9
$LIMMAX
 10
297.0
 20
210.0
  9
$VIEWCTR
 10
148.5
 20
105.0
  9
$VIEWSIZE
 40
210.0
  9
$CLAYER
  8
0
  9
$LTSCALE
 40
16.335
  9
$CELTYPE
  6
BYLAYER
  9
$DIMSCALE
 40
1.0
  9
$DIMASZ
 40
3.5
  9
$DIMEXO
 40
1.85625
  9
$DIMDLI
 40
11.286
  9
$DIMEXE
 40
5.346
  9
$DIMCEN
 40
2.673
  9
$DIMLFAC
 40
1.0
  9
$DIMBLK
  1
_FILLED
  9
$DIMTXT
 40
3.5
  9
$DIMTOL
 70
1
  9
$DIMLIM
 70
0
  9
$DIMTFAC
 40
1.0
  9
$DIMTP
 40
0.005
  9
$DIMTM
 40
0.005
  9
$PDMODE
 70
3
  9
$PDSIZE
 40
0.3125
  9
$HANDSEED
  5
31A
  9
$TILEMODE
 70
1
  9
$MEASUREMENT
 70
1
  9
$INSUNITS
 70
4
  0
ENDSEC
  0
SECTION
  2
CLASSES
  0
CLASS
  1
ACDBDICTIONARYWDFLT
  2
AcDbDictionaryWithDefault
  3
AutoCAD 2000
 90
0
 91
1
280
0
281
0
  0
CLASS
  1
ACDBPLACEHOLDER
  2
AcDbPlaceHolder
  3
AutoCAD 2000
 90
0
 91
1
280
0
281
0
  0
CLASS
  1
LAYOUT
  2
AcDbLayout
  3
AutoCAD 2000
 90
0
 91
0
280
0
281
0
  0
ENDSEC
  0
SECTION
  2
TABLES
  0
TABLE
  2
VPORT
  5
8
100
AcDbSymbolTable
 70
2
  0
VPORT
  5
1F4
100
AcDbSymbolTableRecord
100
AcDbViewportTableRecord
  2
*ACTIVE
 70
0
 10
0.0
 20
0.0
 11
1.0
 21
1.0
 12
148.5
 22
105.0
 13
0.0
 23
0.0
 14
1.0
 24
1.0
 15
0.0
 25
0.0
 16
0.0
 26
0.0
 36
1.0
 17
0.0
 27
0.0
 37
0.0
 40
210.0
 41
1.4142857143
 42
50.0
 43
0.0
 44
0.0
 50
0.0
 51
0.0
 71
0
 72
100
 73
1
 74
1
 75
0
 76
0
 77
0
 78
0
  0
ENDTAB
  0
TABLE
  2
LTYPE
  5
5
100
AcDbSymbolTable
 70
6
  0
LTYPE
  5
14
100
AcDbSymbolTableRecord
100
AcDbLinetypeTableRecord
  2
BYBLOCK
 70
0
  3

 72
65
 73
0
 40
0.0
  0
LTYPE
  5
15
100
AcDbSymbolTableRecord
100
AcDbLinetypeTableRecord
  2
BYLAYER
 70
0
  3

 72
65
 73
0
 40
0.0
  0
LTYPE
  5
16
100
AcDbSymbolTableRecord
100
AcDbLinetypeTableRecord
  2
CONTINUOUS
 70
64
  3
Solid line
 72
65
 73
0
 40
0.0
  0
LTYPE
  5
1F5
100
AcDbSymbolTableRecord
100
AcDbLinetypeTableRecord
  2
CENTER
 70
64
  3
____ _ ____ _ ____ _ ____ _ ____ _ ____ _ ____
 72
65
 73
4
 40
0.6
 49
0.375
 74
0
 49
-0.075
 74
0
 49
0.075
 74
0
 49
-0.075
 74
0
  0
LTYPE
  5
1F6
100
AcDbSymbolTableRecord
100
AcDbLinetypeTableRecord
  2
HIDDEN
 70
64
  3
- - - - - - - - - - - - - - - - - - - -
 72
65
 73
2
 40
0.2
 49
0.1
 74
0
 49
-0.1
 74
0
  0
LTYPE
  5
1F7
100
AcDbSymbolTableRecord
100
AcDbLinetypeTableRecord
  2
PHANTOM
 70
64
  3
_____ _ _ _____ _ _ _____ _ _ _____
 72
65
 73
6
 40
0.8
 49
0.45
 74
0
 49
-0.05
 74
0
 49
0.1
 74
0
 49
-0.05
 74
0
 49
0.1
 74
0
 49
-0.05
 74
0
  0
LTYPE
  5
1F8
100
AcDbSymbolTableRecord
100
AcDbLinetypeTableRecord
  2
DOT
 70
64
  3
. . . . . . . . . . . . . . . . . . . .
 72
65
 73
2
 40
0.2
 49
0.1
 74
0
 49
-0.1
 74
0
  0
LTYPE
  5
1F9
100
AcDbSymbolTableRecord
100
AcDbLinetypeTableRecord
  2
DASHED
 70
64
  3
- - - - - - - - - - - - - - - - - - - -
 72
65
 73
2
 40
0.2
 49
0.1
 74
0
 49
-0.1
 74
0
  0
ENDTAB
  0
TABLE
  2
LAYER
  5
2
100
AcDbSymbolTable
 70
36
  0
LAYER
  5
10
100
AcDbSymbolTableRecord
100
AcDbLayerTableRecord
  2
0
 70
0
 62
7
  6
CONTINUOUS
370
-3
390
F
  0
LAYER
  5
1FA
100
AcDbSymbolTableRecord
100
AcDbLayerTableRecord
  2
DEFAULT_1
 70
0
 62
7
  6
CENTER
370
-3
390
F
  0
LAYER
  5
1FB
100
AcDbSymbolTableRecord
100
AcDbLayerTableRecord
  2
DEFAULT_2
 70
0
 62
8
  6
HIDDEN
370
-3
390
F
  0
LAYER
  5
1FC
100
AcDbSymbolTableRecord
100
AcDbLayerTableRecord
  2
DEFAULT_3
 70
0
 62
7
  6
PHANTOM
370
-3
390
F
  0
LAYER
  5
1FD
100
AcDbSymbolTableRecord
100
AcDbLayerTableRecord
  2
ACHSEN
 70
0
 62
7
  6
CONTINUOUS
370
-3
390
F
  0
LAYER
  5
1FE
100
AcDbSymbolTableRecord
100
AcDbLayerTableRecord
  2
BEZUGSACHSEN
 70
0
 62
7
  6
CONTINUOUS
370
-3
390
F
  0
LAYER
  5
1FF
100
AcDbSymbolTableRecord
100
AcDbLayerTableRecord
  2
BEZUGSEBENE_B
 70
0
 62
7
  6
CONTINUOUS
370
-3
390
F
  0
LAYER
  5
200
100
AcDbSymbolTableRecord
100
AcDbLayerTableRecord
  2
BOHRUNGEN
 70
0
 62
7
  6
CONTINUOUS
370
-3
390
F
  0
LAYER
  5
201
100
AcDbSymbolTableRecord
100
AcDbLayerTableRecord
  2
EBENEN
 70
0
 62
7
  6
CONTINUOUS
370
-3
390
F
  0
LAYER
  5
202
100
AcDbSymbolTableRecord
100
AcDbLayerTableRecord
  2
FASEN
 70
0
 62
7
  6
CONTINUOUS
370
-3
390
F
  0
LAYER
  5
203
100
AcDbSymbolTableRecord
100
AcDbLayerTableRecord
  2
FLAECHEN
 70
0
 62
7
  6
CONTINUOUS
370
-3
390
F
  0
LAYER
  5
204
100
AcDbSymbolTableRecord
100
AcDbLayerTableRecord
  2
GEWINDE
 70
0
 62
7
  6
CONTINUOUS
370
-3
390
F
  0
LAYER
  5
205
100
AcDbSymbolTableRecord
100
AcDbLayerTableRecord
  2
KOORDSYS
 70
0
 62
7
  6
CONTINUOUS
370
-3
390
F
  0
LAYER
  5
206
100
AcDbSymbolTableRecord
100
AcDbLayerTableRecord
  2
KURVEN
 70
0
 62
7
  6
CONTINUOUS
370
-3
390
F
  0
LAYER
  5
207
100
AcDbSymbolTableRecord
100
AcDbLayerTableRecord
  2
KURVE_FUER_GTOL_DETAILANSICHT
 70
0
 62
7
  6
CONTINUOUS
370
-3
390
F
  0
LAYER
  5
208
100
AcDbSymbolTableRecord
100
AcDbLayerTableRecord
  2
KURVE_GAUGE2_POLIGON_INNENEINST
 70
0
 62
7
  6
CONTINUOUS
370
-3
390
F
  0
LAYER
  5
209
100
AcDbSymbolTableRecord
100
AcDbLayerTableRecord
  2
KURVE_PHANTOM1_GAUGE_PIN_1
 70
0
 62
7
  6
CONTINUOUS
370
-3
390
F
  0
LAYER
  5
20A
100
AcDbSymbolTableRecord
100
AcDbLayerTableRecord
  2
KURVE_PHANTOM2_GAUGE_PIN1
 70
0
 62
7
  6
CONTINUOUS
370
-3
390
F
  0
LAYER
  5
20B
100
AcDbSymbolTableRecord
100
AcDbLayerTableRecord
  2
KURVE_POLIGON_BEMASUNG
 70
0
 62
7
  6
CONTINUOUS
370
-3
390
F
  0
LAYER
  5
20C
100
AcDbSymbolTableRecord
100
AcDbLayerTableRecord
  2
PUNKTE
 70
0
 62
7
  6
CONTINUOUS
370
-3
390
F
  0
LAYER
  5
20D
100
AcDbSymbolTableRecord
100
AcDbLayerTableRecord
  2
RUNDUNGEN
 70
0
 62
7
  6
CONTINUOUS
370
-3
390
F
  0
LAYER
  5
20E
100
AcDbSymbolTableRecord
100
AcDbLayerTableRecord
  2
S_ACHSEN
 70
0
 62
7
  6
CONTINUOUS
370
-3
390
F
  0
LAYER
  5
20F
100
AcDbSymbolTableRecord
100
AcDbLayerTableRecord
  2
S_EBENEN
 70
0
 62
7
  6
CONTINUOUS
370
-3
390
F
  0
LAYER
  5
210
100
AcDbSymbolTableRecord
100
AcDbLayerTableRecord
  2
S_KOORDSYS
 70
0
 62
7
  6
CONTINUOUS
370
-3
390
F
  0
LAYER
  5
211
100
AcDbSymbolTableRecord
100
AcDbLayerTableRecord
  2
TOL_BEZUEGE
 70
0
 62
7
  6
CONTINUOUS
370
-3
390
F
  0
LAYER
  5
212
100
AcDbSymbolTableRecord
100
AcDbLayerTableRecord
  2
VERBFLAECHE
 70
0
 62
7
  6
CONTINUOUS
370
-3
390
F
  0
LAYER
  5
213
100
AcDbSymbolTableRecord
100
AcDbLayerTableRecord
  2
ZEICHNUNGSBEMASSUNGEN
 70
0
 62
7
  6
CONTINUOUS
370
-3
390
F
  0
ENDTAB
  0
TABLE
  2
STYLE
  5
3
100
AcDbSymbolTable
 70
1
  0
STYLE
  5
11
100
AcDbSymbolTableRecord
100
AcDbTextStyleTableRecord
  2
STANDARD
 70
0
 40
0.0
 41
0.7
 50
0.0
 71
0
 42
0.2
  3
txt
  4

  0
STYLE
  5
214
100
AcDbSymbolTableRecord
100
AcDbTextStyleTableRecord
  2
TEXTSTYLE_1
 70
0
 40
0.0
 41
0.8
 50
0.0
 71
0
 42
0.2
  3
gdt
  4

  0
STYLE
  5
215
100
AcDbSymbolTableRecord
100
AcDbTextStyleTableRecord
  2
TEXTSTYLE_2
 70
0
 40
0.0
 41
0.7
 50
0.0
 71
0
 42
0.2
  3
gdt
  4

  0
ENDTAB
  0
TABLE
  2
VIEW
  5
6
100
AcDbSymbolTable
 70
0
  0
ENDTAB
  0
TABLE
  2
UCS
  5
7
100
AcDbSymbolTable
 70
0
  0
ENDTAB
  0
TABLE
  2
APPID
  5
9
100
AcDbSymbolTable
 70
1
  0
APPID
  5
216
100
AcDbSymbolTableRecord
100
AcDbRegAppTableRecord
  2
ACAD
 70
0
  0
ENDTAB
  0
TABLE
  2
BLOCK_RECORD
  5
1
100
AcDbSymbolTable
 70
0
  0
BLOCK_RECORD
  5
217
100
AcDbSymbolTableRecord
100
AcDbBlockTableRecord
  2
*Model_Space
  0
BLOCK_RECORD
  5
218
100
AcDbSymbolTableRecord
100
AcDbBlockTableRecord
  2
*Paper_Space
  0
BLOCK_RECORD
  5
219
100
AcDbSymbolTableRecord
100
AcDbBlockTableRecord
  2
_FILLED
  0
BLOCK_RECORD
  5
21A
100
AcDbSymbolTableRecord
100
AcDbBlockTableRecord
  2
*D0
  0
BLOCK_RECORD
  5
21B
100
AcDbSymbolTableRecord
100
AcDbBlockTableRecord
  2
*D1
  0
BLOCK_RECORD
  5
21C
100
AcDbSymbolTableRecord
100
AcDbBlockTableRecord
  2
*D2
  0
BLOCK_RECORD
  5
21D
100
AcDbSymbolTableRecord
100
AcDbBlockTableRecord
  2
*D3
  0
BLOCK_RECORD
  5
21E
100
AcDbSymbolTableRecord
100
AcDbBlockTableRecord
  2
*D4
  0
BLOCK_RECORD
  5
21F
100
AcDbSymbolTableRecord
100
AcDbBlockTableRecord
  2
*D5
  0
BLOCK_RECORD
  5
220
100
AcDbSymbolTableRecord
100
AcDbBlockTableRecord
  2
*D6
  0
ENDTAB
  0
TABLE
  2
DIMSTYLE
  5
A
100
AcDbSymbolTable
 70
1
100
AcDbDimStyleTable
 71
0
  0
DIMSTYLE
105
221
100
AcDbSymbolTableRecord
100
AcDbDimStyleTableRecord
  2
STANDARD
 70
0
  3

  4

 40
1.0
 41
3.5
 42
0.0625
 43
0.38
 44
0.18
 45
0.0
 46
0.0
 47
0.005
 48
0.005
140
3.5
141
0.09
142
0.0
143
25.4
144
1.0
145
0.0
146
1.0
147
0.09
 71
1.0
 72
0.0
 73
0
 74
0
 75
0
 76
0
 77
1
 78
8
170
0
171
2
172
0
173
0
174
0
175
0
176
0
177
0
178
5
270
2
271
3
272
3
273
2
274
2
275
0
280
0
281
0
282
0
283
1
284
8
285
0
286
0
287
3
288
0
340
11
341
219
342
219
343
219
344
219
  0
DIMSTYLE
105
222
100
AcDbSymbolTableRecord
100
AcDbDimStyleTableRecord
  2
DIMSTYLE_1
 70
0
  3

  4

 40
1.0
 41
3.5
 42
0.0625
 43
0.38
 44
0.18
 45
0.0
 46
0.0
 47
0.0
 48
0.1
140
3.5
141
0.09
142
0.0
143
25.4
144
1.0
145
0.0
146
1.0
147
0.09
 71
0.0
 72
0.0
 73
0
 74
0
 75
0
 76
0
 77
1
 78
8
170
0
171
2
172
0
173
0
174
0
175
0
176
0
177
0
178
5
270
2
271
2
272
2
273
2
274
2
275
0
280
0
281
0
282
0
283
1
284
8
285
0
286
0
287
3
288
0
340
11
341
219
342
219
343
219
344
219
  0
DIMSTYLE
105
223
100
AcDbSymbolTableRecord
100
AcDbDimStyleTableRecord
  2
DIMSTYLE_2
 70
0
  3

  4

 40
1.0
 41
3.5
 42
0.0625
 43
0.38
 44
0.18
 45
0.0
 46
0.0
 47
0.25
 48
0.25
140
3.5
141
0.09
142
0.0
143
25.4
144
1.0
145
0.0
146
1.0
147
0.09
 71
0.0
 72
0.0
 73
0
 74
0
 75
0
 76
0
 77
1
 78
8
170
0
171
2
172
0
173
0
174
0
175
0
176
0
177
0
178
5
270
2
271
2
272
2
273
2
274
2
275
0
280
0
281
0
282
0
283
1
284
8
285
0
286
0
287
3
288
0
340
11
341
219
342
219
343
219
344
219
  0
DIMSTYLE
105
224
100
AcDbSymbolTableRecord
100
AcDbDimStyleTableRecord
  2
DIMSTYLE_3
 70
0
  3

  4

 40
1.0
 41
3.5
 42
0.0625
 43
0.38
 44
0.18
 45
0.0
 46
0.0
 47
0.5
 48
0.5
140
3.5
141
0.09
142
0.0
143
25.4
144
1.0
145
0.0
146
1.0
147
0.09
 71
0.0
 72
0.0
 73
0
 74
0
 75
0
 76
0
 77
1
 78
8
170
0
171
2
172
0
173
0
174
0
175
0
176
0
177
0
178
5
270
2
271
2
272
2
273
2
274
2
275
0
280
0
281
0
282
0
283
1
284
8
285
0
286
0
287
3
288
0
340
11
341
219
342
219
343
219
344
219
  0
DIMSTYLE
105
225
100
AcDbSymbolTableRecord
100
AcDbDimStyleTableRecord
  2
DIMSTYLE_4
 70
0
  3

  4

 40
1.0
 41
3.5
 42
0.0625
 43
0.38
 44
0.18
 45
0.0
 46
0.0
 47
-0.018
 48
0.023
140
3.5
141
0.09
142
0.0
143
25.4
144
1.0
145
0.0
146
1.0
147
0.09
 71
0.0
 72
0.0
 73
0
 74
0
 75
0
 76
0
 77
1
 78
8
170
0
171
2
172
0
173
0
174
0
175
0
176
0
177
0
178
0
270
2
271
3
272
3
273
2
274
2
275
0
280
0
281
0
282
0
283
1
284
8
285
0
286
0
287
3
288
0
340
11
341
219
342
219
343
219
344
219
  0
DIMSTYLE
105
226
100
AcDbSymbolTableRecord
100
AcDbDimStyleTableRecord
  2
DIMSTYLE_5
 70
0
  3

  4

 40
1.0
 41
3.5
 42
0.0625
 43
0.38
 44
0.18
 45
0.0
 46
0.0
 47
0.3
 48
0.3
140
3.5
141
0.09
142
0.0
143
25.4
144
1.0
145
0.0
146
1.0
147
0.09
 71
0.0
 72
0.0
 73
0
 74
0
 75
0
 76
0
 77
1
 78
8
170
0
171
2
172
0
173
0
174
0
175
0
176
0
177
0
178
5
270
2
271
2
272
2
273
2
274
2
275
0
280
0
281
0
282
0
283
1
284
8
285
0
286
0
287
3
288
0
340
11
341
219
342
219
343
219
344
219
  0
ENDTAB
  0
ENDSEC
  0
SECTION
  2
BLOCKS
  0
BLOCK
  5
20
100
AcDbEntity
  8
0
100
AcDbBlockBegin
  2
*Model_Space
 70
0
 10
0.0
 20
0.0
 30
0.0
  3
*Model_Space
  1

  0
ENDBLK
  5
21
100
AcDbEntity
  8
0
100
AcDbBlockEnd
  0
BLOCK
  5
1C
100
AcDbEntity
  8
0
100
AcDbBlockBegin
  2
*Paper_Space
 70
0
 10
0.0
 20
0.0
 30
0.0
  3
*Paper_Space
  1

  0
ENDBLK
  5
1D
100
AcDbEntity
  8
0
100
AcDbBlockEnd
  0
BLOCK
  5
227
100
AcDbEntity
  8
0
100
AcDbBlockBegin
  2
_FILLED
 70
64
 10
0.0
 20
0.0
  3
_FILLED
  1

  0
SOLID
  5
228
100
AcDbEntity
  8
0
  6
BYBLOCK
 62
0
100
AcDbTrace
 10
0.0
 20
0.0
 11
-1.0
 21
0.125
 12
-1.0
 22
-0.125
 13
-1.0
 23
-0.125
  0
ENDBLK
  5
229
100
AcDbEntity
  8
0
  6
BYBLOCK
 62
0
100
AcDbBlockEnd
  0
BLOCK
  5
22A
100
AcDbEntity
  8
0
100
AcDbBlockBegin
 62
2
  6
CONTINUOUS
  2
*D0
 70
65
 10
0.0
 20
0.0
  3
*D0
  1

  0
MTEXT
  5
22B
100
AcDbEntity
  8
0
100
AcDbMText
 62
5
  6
CONTINUOUS
  7
TEXTSTYLE_2
 71
2
 72
1
 10
258.5600889293
 20
141.1274705874
 30
0.0
 11
0.0
 21
1.0
 31
0.0
 44
0.9
  1
{\Fgdt;n}\Ftxt;24
 40
3.5
 41
10.1666666667
  0
LINE
  5
22C
100
AcDbEntity
  8
0
100
AcDbLine
 62
2
  6
CONTINUOUS
 10
242.7398427755
 20
153.1024705874
 11
247.9901072601
 21
153.1024705874
  0
LINE
  5
22D
100
AcDbEntity
  8
0
100
AcDbLine
 62
2
  6
CONTINUOUS
 10
252.1525399212
 20
153.1024705874
 11
264.4350889293
 21
153.1024705874
  0
LINE
  5
22E
100
AcDbEntity
  8
0
100
AcDbLine
 62
2
  6
CONTINUOUS
 10
242.7398427755
 20
129.1524705874
 11
264.4350889293
 21
129.1524705874
  0
LINE
  5
22F
100
AcDbEntity
  8
0
100
AcDbLine
 62
2
  6
CONTINUOUS
 10
262.9350889293
 20
153.1024705874
 11
262.9350889293
 21
141.1274705874
  0
LINE
  5
230
100
AcDbEntity
  8
0
100
AcDbLine
 62
2
  6
CONTINUOUS
 10
262.9350889293
 20
129.1524705874
 11
262.9350889293
 21
141.1274705874
  0
INSERT
  5
231
100
AcDbEntity
  8
0
100
AcDbBlockReference
 62
2
  6
CONTINUOUS
  2
_FILLED
 10
262.9350889293
 20
153.1024705874
 41
3.5
 42
3.5
 43
3.5
 50
90.0
  0
INSERT
  5
232
100
AcDbEntity
  8
0
100
AcDbBlockReference
 62
2
  6
CONTINUOUS
  2
_FILLED
 10
262.9350889293
 20
129.1524705874
 41
3.5
 42
3.5
 43
3.5
 50
270.0
  0
ENDBLK
  5
233
100
AcDbEntity
  8
0
  6
BYBLOCK
 62
0
100
AcDbBlockEnd
  0
BLOCK
  5
234
100
AcDbEntity
  8
0
100
AcDbBlockBegin
 62
2
  6
CONTINUOUS
  2
*D1
 70
65
 10
0.0
 20
0.0
  3
*D1
  1

  0
MTEXT
  5
235
100
AcDbEntity
  8
0
100
AcDbMText
 62
5
  6
CONTINUOUS
  7
STANDARD
 71
2
 72
1
 10
223.1634493296
 20
113.8505752202
 30
0.0
 11
0.3262314904
 21
0.9452899104
 31
0.0
 44
0.9
  1
4\Fgdt;{\Fgdt;~}\Ftxt;30'
 40
3.5
 41
12.3333333333
  0
LINE
  5
236
100
AcDbEntity
  8
0
100
AcDbLine
 62
2
  6
CONTINUOUS
 10
219.9157106087
 20
127.4742249894
 11
233.4258162986
 21
128.5374933665
  0
LINE
  5
237
100
AcDbEntity
  8
0
100
AcDbLine
 62
2
  6
CONTINUOUS
 10
191.9150238308
 20
125.1524705874
 11
233.5588142058
 21
125.1524705874
  0
ARC
  5
238
100
AcDbEntity
  8
0
100
AcDbCircle
 62
2
  6
CONTINUOUS
 10
190.4150238308
 20
125.1524705874
 40
41.643790375
100
AcDbArc
 50
4.5
 51
12.7551245692
  0
ARC
  5
239
100
AcDbEntity
  8
0
100
AcDbCircle
 62
2
  6
CONTINUOUS
 10
190.4150238308
 20
125.1524705874
 40
41.643790375
100
AcDbArc
 50
340.9597988385
 51
0.0
  0
ARC
  5
23A
100
AcDbEntity
  8
0
100
AcDbCircle
 62
2
  6
CONTINUOUS
 10
190.4150238308
 20
125.1524705874
 40
41.643790375
100
AcDbArc
 50
360.0
 51
4.5
  0
SOLID
  5
23B
100
AcDbEntity
  8
0
100
AcDbTrace
 62
2
  6
CONTINUOUS
 10
231.075167469
 20
131.8417799768
 11
231.930440298
 21
128.4198047229
 12
231.9438159262
 22
131.9470171269
 13
231.9438159262
 23
131.9470171269
  0
SOLID
  5
23C
100
AcDbEntity
  8
0
100
AcDbTrace
 62
2
  6
CONTINUOUS
 10
232.3488904971
 20
121.6371808419
 11
232.0588142058
 21
125.1524705874
 12
231.4746629815
 22
121.6739402085
 13
231.4746629815
 23
121.6739402085
  0
ENDBLK
  5
23D
100
AcDbEntity
  8
0
  6
BYBLOCK
 62
0
100
AcDbBlockEnd
  0
BLOCK
  5
23E
100
AcDbEntity
  8
0
100
AcDbBlockBegin
 62
2
  6
CONTINUOUS
  2
*D2
 70
65
 10
0.0
 20
0.0
  3
*D2
  1

  0
MTEXT
  5
23F
100
AcDbEntity
  8
0
100
AcDbMText
 62
5
  6
CONTINUOUS
  7
STANDARD
 71
2
 72
1
 10
176.2398427755
 20
191.8023715228
 30
0.0
 11
1.0
 21
0.0
 31
0.0
 44
0.9
  1
130
 40
3.5
 41
7.25
  0
LINE
  5
240
100
AcDbEntity
  8
0
100
AcDbLine
 62
2
  6
CONTINUOUS
 10
111.2398427755
 20
167.0936452962
 11
111.2398427755
 21
188.9273715228
  0
LINE
  5
241
100
AcDbEntity
  8
0
100
AcDbLine
 62
2
  6
CONTINUOUS
 10
241.2398427755
 20
150.4280452962
 11
241.2398427755
 21
188.9273715228
  0
LINE
  5
242
100
AcDbEntity
  8
0
100
AcDbLine
 62
2
  6
CONTINUOUS
 10
111.2398427755
 20
187.4273715228
 11
176.2398427755
 21
187.4273715228
  0
LINE
  5
243
100
AcDbEntity
  8
0
100
AcDbLine
 62
2
  6
CONTINUOUS
 10
241.2398427755
 20
187.4273715228
 11
176.2398427755
 21
187.4273715228
  0
INSERT
  5
244
100
AcDbEntity
  8
0
100
AcDbBlockReference
 62
2
  6
CONTINUOUS
  2
_FILLED
 10
111.2398427755
 20
187.4273715228
 41
3.5
 42
3.5
 43
3.5
 50
180.0
  0
INSERT
  5
245
100
AcDbEntity
  8
0
100
AcDbBlockReference
 62
2
  6
CONTINUOUS
  2
_FILLED
 10
241.2398427755
 20
187.4273715228
 41
3.5
 42
3.5
 43
3.5
  0
ENDBLK
  5
246
100
AcDbEntity
  8
0
  6
BYBLOCK
 62
0
100
AcDbBlockEnd
  0
BLOCK
  5
247
100
AcDbEntity
  8
0
100
AcDbBlockBegin
 62
1
  6
CONTINUOUS
  2
*D3
 70
65
 10
0.0
 20
0.0
  3
*D3
  1

  0
MTEXT
  5
248
100
AcDbEntity
  8
0
100
AcDbMText
 62
1
  6
CONTINUOUS
  7
TEXTSTYLE_2
 71
2
 72
1
 10
249.2819984407
 20
141.1274705874
 30
0.0
 11
0.0
 21
1.0
 31
0.0
 44
0.9
  1
{\Fgdt;n}\Ftxt;10
 40
3.5
 41
9.4166666667
  0
LINE
  5
249
100
AcDbEntity
  8
0
100
AcDbLine
 62
1
  6
CONTINUOUS
 10
230.5035468769
 20
136.1377205874
 11
255.1569984407
 21
136.1377205874
  0
LINE
  5
24A
100
AcDbEntity
  8
0
100
AcDbLine
 62
1
  6
CONTINUOUS
 10
230.3601868769
 20
146.1172205874
 11
255.1569984407
 21
146.1172205874
  0
LINE
  5
24B
100
AcDbEntity
  8
0
100
AcDbLine
 62
1
  6
CONTINUOUS
 10
253.6569984407
 20
136.1377205874
 11
253.6569984407
 21
141.1274705874
  0
LINE
  5
24C
100
AcDbEntity
  8
0
100
AcDbLine
 62
1
  6
CONTINUOUS
 10
253.6569984407
 20
146.1172205874
 11
253.6569984407
 21
141.1274705874
  0
INSERT
  5
24D
100
AcDbEntity
  8
0
100
AcDbBlockReference
 62
1
  6
CONTINUOUS
  2
_FILLED
 10
253.6569984407
 20
136.1377205874
 41
3.5
 42
3.5
 43
3.5
 50
270.0
  0
INSERT
  5
24E
100
AcDbEntity
  8
0
100
AcDbBlockReference
 62
1
  6
CONTINUOUS
  2
_FILLED
 10
253.6569984407
 20
146.1172205874
 41
3.5
 42
3.5
 43
3.5
 50
90.0
  0
ENDBLK
  5
24F
100
AcDbEntity
  8
0
  6
BYBLOCK
 62
0
100
AcDbBlockEnd
  0
BLOCK
  5
250
100
AcDbEntity
  8
0
100
AcDbBlockBegin
 62
2
  6
CONTINUOUS
  2
*D4
 70
65
 10
0.0
 20
0.0
  3
*D4
  1

  0
MTEXT
  5
251
100
AcDbEntity
  8
0
100
AcDbMText
 62
5
  6
CONTINUOUS
  7
STANDARD
 71
2
 72
1
 10
187.2398427755
 20
184.5172921335
 30
0.0
 11
1.0
 21
0.0
 31
0.0
 44
0.9
  1
108
 40
3.5
 41
7.5
  0
LINE
  5
252
100
AcDbEntity
  8
0
100
AcDbLine
 62
2
  6
CONTINUOUS
 10
241.2398427755
 20
130.6524705874
 11
241.2398427755
 21
181.6422921335
  0
LINE
  5
253
100
AcDbEntity
  8
0
100
AcDbLine
 62
2
  6
CONTINUOUS
 10
133.2398427755
 20
165.4808452962
 11
133.2398427755
 21
181.6422921335
  0
LINE
  5
254
100
AcDbEntity
  8
0
100
AcDbLine
 62
2
  6
CONTINUOUS
 10
241.2398427755
 20
180.1422921335
 11
187.2398427755
 21
180.1422921335
  0
LINE
  5
255
100
AcDbEntity
  8
0
100
AcDbLine
 62
2
  6
CONTINUOUS
 10
133.2398427755
 20
180.1422921335
 11
187.2398427755
 21
180.1422921335
  0
INSERT
  5
256
100
AcDbEntity
  8
0
100
AcDbBlockReference
 62
2
  6
CONTINUOUS
  2
_FILLED
 10
241.2398427755
 20
180.1422921335
 41
3.5
 42
3.5
 43
3.5
  0
INSERT
  5
257
100
AcDbEntity
  8
0
100
AcDbBlockReference
 62
2
  6
CONTINUOUS
  2
_FILLED
 10
133.2398427755
 20
180.1422921335
 41
3.5
 42
3.5
 43
3.5
 50
180.0
  0
ENDBLK
  5
258
100
AcDbEntity
  8
0
  6
BYBLOCK
 62
0
100
AcDbBlockEnd
  0
BLOCK
  5
259
100
AcDbEntity
  8
0
100
AcDbBlockBegin
 62
2
  6
CONTINUOUS
  2
*D5
 70
65
 10
0.0
 20
0.0
  3
*D5
  1

  0
MTEXT
  5
25A
100
AcDbEntity
  8
0
100
AcDbMText
 62
5
  6
CONTINUOUS
  7
STANDARD
 71
2
 72
1
 10
150.4670387214
 20
100.332245086
 30
0.0
 11
1.0
 21
0.0
 31
0.0
 44
0.9
  1
168
 40
3.5
 41
7.5
  0
LINE
  5
25B
100
AcDbEntity
  8
0
100
AcDbLine
 62
2
  6
CONTINUOUS
 10
241.2398427755
 20
127.6524705874
 11
241.2398427755
 21
94.457245086
  0
LINE
  5
25C
100
AcDbEntity
  8
0
100
AcDbLine
 62
2
  6
CONTINUOUS
 10
73.2398427755
 20
119.4413548181
 11
73.2398427755
 21
94.457245086
  0
LINE
  5
25D
100
AcDbEntity
  8
0
100
AcDbLine
 62
2
  6
CONTINUOUS
 10
241.2398427755
 20
95.957245086
 11
157.2398427755
 21
95.957245086
  0
LINE
  5
25E
100
AcDbEntity
  8
0
100
AcDbLine
 62
2
  6
CONTINUOUS
 10
73.2398427755
 20
95.957245086
 11
157.2398427755
 21
95.957245086
  0
INSERT
  5
25F
100
AcDbEntity
  8
0
100
AcDbBlockReference
 62
2
  6
CONTINUOUS
  2
_FILLED
 10
241.2398427755
 20
95.957245086
 41
3.5
 42
3.5
 43
3.5
  0
INSERT
  5
260
100
AcDbEntity
  8
0
100
AcDbBlockReference
 62
2
  6
CONTINUOUS
  2
_FILLED
 10
73.2398427755
 20
95.957245086
 41
3.5
 42
3.5
 43
3.5
 50
180.0
  0
ENDBLK
  5
261
100
AcDbEntity
  8
0
  6
BYBLOCK
 62
0
100
AcDbBlockEnd
  0
BLOCK
  5
262
100
AcDbEntity
  8
0
100
AcDbBlockBegin
 62
2
  6
CONTINUOUS
  2
*D6
 70
65
 10
0.0
 20
0.0
  3
*D6
  1

  0
MTEXT
  5
263
100
AcDbEntity
  8
0
100
AcDbMText
 62
5
  6
CONTINUOUS
  7
TEXTSTYLE_2
 71
2
 72
1
 10
266.6195623949
 20
141.1274705874
 30
0.0
 11
0.0
 21
1.0
 31
0.0
 44
0.9
  1
{\Fgdt;n}\Ftxt;32
 40
3.5
 41
9.9166666667
  0
LINE
  5
264
100
AcDbEntity
  8
0
100
AcDbLine
 62
2
  6
CONTINUOUS
 10
191.9150238308
 20
157.1024705874
 11
239.7053310009
 21
157.1024705874
  0
LINE
  5
265
100
AcDbEntity
  8
0
100
AcDbLine
 62
2
  6
CONTINUOUS
 10
256.3841745918
 20
157.1024705874
 11
272.4945623949
 21
157.1024705874
  0
LINE
  5
266
100
AcDbEntity
  8
0
100
AcDbLine
 62
2
  6
CONTINUOUS
 10
191.9150238308
 20
125.1524705874
 11
238.3089627003
 21
125.1524705874
  0
LINE
  5
267
100
AcDbEntity
  8
0
100
AcDbLine
 62
2
  6
CONTINUOUS
 10
248.6265729216
 20
125.1524705874
 11
272.4945623949
 21
125.1524705874
  0
LINE
  5
268
100
AcDbEntity
  8
0
100
AcDbLine
 62
2
  6
CONTINUOUS
 10
270.9945623949
 20
157.1024705874
 11
270.9945623949
 21
141.1274705874
  0
LINE
  5
269
100
AcDbEntity
  8
0
100
AcDbLine
 62
2
  6
CONTINUOUS
 10
270.9945623949
 20
125.1524705874
 11
270.9945623949
 21
141.1274705874
  0
INSERT
  5
26A
100
AcDbEntity
  8
0
100
AcDbBlockReference
 62
2
  6
CONTINUOUS
  2
_FILLED
 10
270.9945623949
 20
157.1024705874
 41
3.5
 42
3.5
 43
3.5
 50
90.0
  0
INSERT
  5
26B
100
AcDbEntity
  8
0
100
AcDbBlockReference
 62
2
  6
CONTINUOUS
  2
_FILLED
 10
270.9945623949
 20
125.1524705874
 41
3.5
 42
3.5
 43
3.5
 50
270.0
  0
ENDBLK
  5
26C
100
AcDbEntity
  8
0
  6
BYBLOCK
 62
0
100
AcDbBlockEnd
  0
ENDSEC
  0
SECTION
  2
ENTITIES
  0
DIMENSION
  5
26D
100
AcDbEntity
  8
0
100
AcDbDimension
 62
2
  6
CONTINUOUS
  2
*D0
 10
262.9350889293
 20
129.1524705874
 11
261.4489427036
 21
138.8552290675
 70
160
 71
2
 42
23.95
  1
%%c<>
  3
DIMSTYLE_1
100
AcDbAlignedDimension
 13
242.7398427755
 23
153.1024705874
 14
242.7398427755
 24
129.1524705874
 50
270.0
100
AcDbRotatedDimension
  0
DIMENSION
  5
26E
100
AcDbEntity
  8
0
100
AcDbDimension
 62
2
  6
CONTINUOUS
  2
*D1
 10
233.5588142058
 20
125.1524705874
 11
225.4940812896
 21
110.8729051924
 70
162
 71
2
 42
0.0785398163
  3
DIMSTYLE_2
100
AcDb2LineAngularDimension
 13
233.4258162986
 23
128.5374933665
 14
219.9157106087
 24
127.4742249894
 15
191.9150238308
 25
125.1524705874
 16
232.0267083526
 26
126.7873981251
  0
DIMENSION
  5
26F
100
AcDbEntity
  8
0
100
AcDbDimension
 62
2
  6
CONTINUOUS
  2
*D2
 10
241.2398427755
 20
187.4273715228
 11
172.6148427755
 21
190.0523715228
 70
160
 71
2
 42
130.0
  3
DIMSTYLE_3
100
AcDbAlignedDimension
 13
111.2398427755
 23
167.0936452962
 14
241.2398427755
 24
150.4280452962
100
AcDbRotatedDimension
  0
DIMENSION
  5
270
100
AcDbEntity
  8
0
100
AcDbDimension
 62
1
  6
CONTINUOUS
  2
*D3
 10
253.6569984407
 20
146.1172205874
 11
252.0868384121
 21
139.0228534419
 70
160
 71
2
 42
9.9795
  1
%%c<>
  3
DIMSTYLE_4
100
AcDbAlignedDimension
 13
230.5035468769
 23
136.1377205874
 14
230.3601868769
 24
146.1172205874
 50
90.0
100
AcDbRotatedDimension
  0
DIMENSION
  5
271
100
AcDbEntity
  8
0
100
AcDbDimension
 62
2
  6
CONTINUOUS
  2
*D4
 10
133.2398427755
 20
180.1422921335
 11
183.4898427755
 21
182.7672921335
 70
160
 71
2
 42
108.0
  3
DIMSTYLE_5
100
AcDbAlignedDimension
 13
241.2398427755
 23
130.6524705874
 14
133.2398427755
 24
165.4808452962
 50
180.0
100
AcDbRotatedDimension
  0
DIMENSION
  5
272
100
AcDbEntity
  8
0
100
AcDbDimension
 62
2
  6
CONTINUOUS
  2
*D5
 10
73.2398427755
 20
95.957245086
 11
146.7170387214
 21
98.582245086
 70
160
 71
2
 42
168.0
  3
DIMSTYLE_3
100
AcDbAlignedDimension
 13
241.2398427755
 23
127.6524705874
 14
73.2398427755
 24
119.4413548181
 50
180.0
100
AcDbRotatedDimension
  0
DIMENSION
  5
273
100
AcDbEntity
  8
0
100
AcDbDimension
 62
2
  6
CONTINUOUS
  2
*D6
 10
270.9945623949
 20
125.1524705874
 11
269.4804115682
 21
138.9111038589
 70
160
 71
2
 42
31.95
  1
%%c<>
  3
DIMSTYLE_1
100
AcDbAlignedDimension
 13
191.9150238308
 23
157.1024705874
 14
191.9150238308
 24
125.1524705874
 50
270.0
100
AcDbRotatedDimension
  0
MTEXT
  5
274
100
AcDbEntity
  8
0
100
AcDbMText
 62
5
  6
CONTINUOUS
  7
STANDARD
 71
1
 72
1
 10
13.8253963098
 20
80.179768711
 30
0.0
 11
1.0
 21
0.0
 31
0.0
 44
0.9
  3
Für diese Unterlage behalten wir das Ur-\Pheberrecht. Sie darf nur für den von uns \Pbestimmten Zweck benutzt und ohne unsere \PZustimmung weder vervielfältigt noch\PDritten zugänglich gemacht werden\P \PWe own the copyright of this document. It \Pde
  1
termined and may neither be copied or \Pmade accessible to outsiders without our\Ppermission.\P \PCe plan reste notre propriété. Il ne peut\Pêtre utilisé, copié ou reproduit sans notre\Paccord.\P 
 40
3.5
 41
104.8333333333
  0
LINE
  5
275
100
AcDbEntity
  8
0
100
AcDbLine
 62
7
  6
CONTINUOUS
 10
0.0
 20
0.0
 11
0.0
 21
210.0
  0
LINE
  5
276
100
AcDbEntity
  8
0
100
AcDbLine
 62
7
  6
CONTINUOUS
 10
0.0
 20
0.0
 11
297.0
 21
0.0
  0
LINE
  5
277
100
AcDbEntity
  8
0
100
AcDbLine
 62
7
  6
CONTINUOUS
 10
0.0
 20
210.0
 11
297.0
 21
210.0
  0
LINE
  5
278
100
AcDbEntity
  8
0
100
AcDbLine
 62
7
  6
CONTINUOUS
 10
297.0
 20
0.0
 11
297.0
 21
210.0
  0
LINE
  5
279
100
AcDbEntity
  8
0
100
AcDbLine
 62
7
  6
CONTINUOUS
 10
73.2398427755
 20
119.4351325946
 11
73.2398427755
 21
156.0887152262
  0
LINE
  5
27A
100
AcDbEntity
  8
KURVEN
100
AcDbLine
 62
4
  6
CONTINUOUS
 10
73.2398427755
 20
118.6067924118
 11
73.2398427755
 21
160.3390445744
  0
LINE
  5
27B
100
AcDbEntity
  8
ACHSEN
100
AcDbLine
 62
7
  6
CONTINUOUS
 10
73.2398427755
 20
156.0887152262
 11
73.2398427755
 21
159.8759499014
  0
LINE
  5
27C
100
AcDbEntity
  8
ACHSEN
100
AcDbLine
 62
7
  6
CONTINUOUS
 10
74.7398427755
 20
160.624460201
 11
74.7398427755
 21
156.8387152262
  0
LINE
  5
27D
100
AcDbEntity
  8
0
100
AcDbLine
 62
7
  6
CONTINUOUS
 10
74.7398427755
 20
156.8387152262
 11
74.7398427755
 21
118.5691071908
  0
LINE
  5
27E
100
AcDbEntity
  8
ACHSEN
100
AcDbLine
 62
7
  6
CENTER
 10
95.7398427755
 20
118.1939850804
 11
95.7398427755
 21
165.315841152
  0
LINE
  5
27F
100
AcDbEntity
  8
0
100
AcDbLine
 62
7
  6
CONTINUOUS
 10
111.2398446114
 20
172.3274686801
 11
111.5398447013
 21
172.627468734
  0
LINE
  5
280
100
AcDbEntity
  8
0
100
AcDbLine
 62
9
  6
CONTINUOUS
 10
74.7398427755
 20
156.8387152262
 11
73.2398427755
 21
156.0887152262
  0
LINE
  5
281
100
AcDbEntity
  8
0
100
AcDbLine
 62
7
  6
CONTINUOUS
 10
74.7398427755
 20
118.5691071908
 11
73.2398427755
 21
119.4351325946
  0
LINE
  5
282
100
AcDbEntity
  8
0
100
AcDbLine
 62
7
  6
CONTINUOUS
 10
109.0399058645
 20
161.747570957
 11
109.0399058645
 21
157.5850013361
  0
LINE
  5
283
100
AcDbEntity
  8
0
100
AcDbLine
 62
7
  6
CONTINUOUS
 10
109.0399058645
 20
146.352341718
 11
109.0399058645
 21
119.4450687082
  0
LINE
  5
284
100
AcDbEntity
  8
0
100
AcDbLine
 62
9
  6
CONTINUOUS
 10
109.2448658866
 20
161.5526571572
 11
109.2448658866
 21
155.8124127922
  0
LINE
  5
285
100
AcDbEntity
  8
0
100
AcDbLine
 62
9
  6
CONTINUOUS
 10
109.2448658866
 20
149.3134137742
 11
109.2448658866
 21
118.2565851959
  0
LINE
  5
286
100
AcDbEntity
  8
0
100
AcDbLine
 62
9
  6
CONTINUOUS
 10
109.9327359943
 20
118.3845773686
 11
109.9327359943
 21
119.0239139365
  0
LINE
  5
287
100
AcDbEntity
  8
0
100
AcDbLine
 62
9
  6
CONTINUOUS
 10
109.9327359943
 20
147.5420103482
 11
109.9327359943
 21
156.8164874776
  0
LINE
  5
288
100
AcDbEntity
  8
0
100
AcDbLine
 62
9
  6
CONTINUOUS
 10
110.8448658866
 20
161.5928547263
 11
110.8448658866
 21
157.4719488744
  0
LINE
  5
289
100
AcDbEntity
  8
0
100
AcDbLine
 62
9
  6
CONTINUOUS
 10
110.8448658866
 20
146.3104210406
 11
110.8448658866
 21
119.6000418473
  0
LINE
  5
28A
100
AcDbEntity
  8
0
100
AcDbLine
 62
7
  6
CONTINUOUS
 10
111.2398427755
 20
109.927746257
 11
111.2398427755
 21
172.3271949179
  0
LINE
  5
28B
100
AcDbEntity
  8
0
100
AcDbLine
 62
7
  6
CONTINUOUS
 10
111.539842849
 20
109.6274705874
 11
111.539842849
 21
172.6274705874
  0
LINE
  5
28C
100
AcDbEntity
  8
0
100
AcDbLine
 62
7
  6
CONTINUOUS
 10
111.0397779237
 20
157.9170451732
 11
111.0398427755
 21
163.6609554485
  0
LINE
  5
28D
100
AcDbEntity
  8
0
100
AcDbLine
 62
7
  6
CONTINUOUS
 10
111.0397779237
 20
119.717302496
 11
111.0397468091
 21
145.7526958015
  0
LINE
  5
28E
100
AcDbEntity
  8
0
100
AcDbLine
 62
9
  6
CONTINUOUS
 10
74.7398427755
 20
120.1913548181
 11
73.2398427755
 21
120.9413548181
  0
LINE
  5
28F
100
AcDbEntity
  8
0
100
AcDbLine
 62
7
  6
CONTINUOUS
 10
111.2398446114
 20
109.9274724948
 11
111.5398447013
 21
109.6274724409
  0
LINE
  5
290
100
AcDbEntity
  8
0
100
AcDbLine
 62
9
  6
CONTINUOUS
 10
121.3455052082
 20
171.0414254339
 11
121.3455052082
 21
150.9968832064
  0
LINE
  5
291
100
AcDbEntity
  8
0
100
AcDbLine
 62
9
  6
CONTINUOUS
 10
121.3455052082
 20
131.2580579685
 11
121.3455052082
 21
111.213515741
  0
LINE
  5
292
100
AcDbEntity
  8
0
100
AcDbLine
 62
9
  6
CONTINUOUS
 10
121.7785179101
 20
171.2080633478
 11
121.7785179101
 21
150.476691902
  0
LINE
  5
293
100
AcDbEntity
  8
0
100
AcDbLine
 62
9
  6
CONTINUOUS
 10
121.7785179101
 20
131.7782492729
 11
121.7785179101
 21
111.0468778271
  0
LINE
  5
294
100
AcDbEntity
  8
ACHSEN
100
AcDbLine
 62
7
  6
CENTER
 10
123.2398427755
 20
163.0070972508
 11
123.2398427755
 21
175.6274705874
  0
LINE
  5
295
100
AcDbEntity
  8
0
100
AcDbLine
 62
9
  6
CONTINUOUS
 10
124.7011676409
 20
171.2080633478
 11
124.7011676409
 21
150.476691902
  0
LINE
  5
296
100
AcDbEntity
  8
0
100
AcDbLine
 62
9
  6
CONTINUOUS
 10
124.7011676409
 20
131.7782492729
 11
124.7011676409
 21
111.0468778271
  0
LINE
  5
297
100
AcDbEntity
  8
0
100
AcDbLine
 62
9
  6
CONTINUOUS
 10
125.1341803428
 20
171.0414254339
 11
125.1341803428
 21
150.9968832064
  0
LINE
  5
298
100
AcDbEntity
  8
0
100
AcDbLine
 62
9
  6
CONTINUOUS
 10
125.1341803428
 20
131.2580579685
 11
125.1341803428
 21
111.213515741
  0
LINE
  5
299
100
AcDbEntity
  8
0
100
AcDbLine
 62
7
  6
CONTINUOUS
 10
133.2398427755
 20
109.6274705874
 11
111.5398428479
 21
109.6274705874
  0
LINE
  5
29A
100
AcDbEntity
  8
0
100
AcDbLine
 62
7
  6
CONTINUOUS
 10
133.2398427755
 20
109.6274705874
 11
133.2398427755
 21
172.6274705874
  0
LINE
  5
29B
100
AcDbEntity
  8
0
100
AcDbLine
 62
7
  6
CONTINUOUS
 10
109.9327359943
 20
118.3845773686
 11
109.250245598
 21
117.7020869724
  0
LINE
  5
29C
100
AcDbEntity
  8
0
100
AcDbLine
 62
7
  6
CONTINUOUS
 10
124.7011676409
 20
111.0468778271
 11
121.7785179101
 21
111.0468778271
  0
LINE
  5
29D
100
AcDbEntity
  8
0
100
AcDbLine
 62
7
  6
CONTINUOUS
 10
109.4928715263
 20
118.2507417121
 11
109.2448658866
 21
118.2565851959
  0
LINE
  5
29E
100
AcDbEntity
  8
0
100
AcDbLine
 62
7
  6
CONTINUOUS
 10
74.7398427755
 20
118.5691071908
 11
109.2502455983
 21
117.7020857516
  0
LINE
  5
29F
100
AcDbEntity
  8
RUNDUNGEN
100
AcDbLine
 62
9
  6
CONTINUOUS
 10
142.2398427755
 20
157.1024705874
 11
142.2398427755
 21
125.1524705874
  0
LINE
  5
2A0
100
AcDbEntity
  8
RUNDUNGEN
100
AcDbLine
 62
7
  6
CONTINUOUS
 10
240.3183018712
 20
129.0799437454
 11
190.4150238308
 21
125.1524705874
  0
LINE
  5
2A1
100
AcDbEntity
  8
0
100
AcDbLine
 62
7
  6
CONTINUOUS
 10
190.4150238308
 20
125.1524705874
 11
240.3183018712
 21
129.0799437454
  0
LINE
  5
2A2
100
AcDbEntity
  8
0
100
AcDbLine
 62
9
  6
CONTINUOUS
 10
109.0399058645
 20
119.4450687082
 11
74.7398427755
 21
120.1913548181
  0
LINE
  5
2A3
100
AcDbEntity
  8
0
100
AcDbLine
 62
7
  6
CONTINUOUS
 10
190.4150238308
 20
125.1524705874
 11
189.4898427755
 21
125.1524705874
  0
LINE
  5
2A4
100
AcDbEntity
  8
0
100
AcDbLine
 62
7
  6
CONTINUOUS
 10
180.9898427755
 20
125.1524705874
 11
142.2398427755
 21
125.1524705874
  0
LINE
  5
2A5
100
AcDbEntity
  8
0
100
AcDbLine
 62
7
  6
CONTINUOUS
 10
181.7238173717
 20
125.4524705874
 11
182.7398427755
 21
125.4524705874
  0
LINE
  5
2A6
100
AcDbEntity
  8
0
100
AcDbLine
 62
7
  6
CONTINUOUS
 10
187.7398427755
 20
125.4524705874
 11
188.7558681793
 21
125.4524705874
  0
LINE
  5
2A7
100
AcDbEntity
  8
0
100
AcDbLine
 62
7
  6
CONTINUOUS
 10
189.1558681793
 20
156.9096502644
 11
189.4898427755
 21
157.1024705874
  0
LINE
  5
2A8
100
AcDbEntity
  8
RUNDUNGEN
100
AcDbLine
 62
7
  6
CONTINUOUS
 10
189.1558681793
 20
156.9096502644
 11
189.4898427755
 21
157.1024705874
  0
LINE
  5
2A9
100
AcDbEntity
  8
0
100
AcDbLine
 62
7
  6
CONTINUOUS
 10
124.7011676409
 20
131.7782492729
 11
121.7785179101
 21
131.7782492729
  0
LINE
  5
2AA
100
AcDbEntity
  8
DEFAULT_2
100
AcDbLine
 62
8
  6
HIDDEN
 10
198.789607659
 20
135.7877205874
 11
208.8546334943
 21
135.7877205874
  0
LINE
  5
2AB
100
AcDbEntity
  8
BOHRUNGEN
100
AcDbLine
 62
8
  6
HIDDEN
 10
210.2398427755
 20
136.1377205874
 11
238.9398427755
 21
136.1377205874
  0
LINE
  5
2AC
100
AcDbEntity
  8
S_ACHSEN
100
AcDbLine
 62
7
  6
CENTER
 10
70.2398427755
 20
141.1274705874
 11
244.2398427755
 21
141.1274705874
  0
LINE
  5
2AD
100
AcDbEntity
  8
0
100
AcDbLine
 62
7
  6
CONTINUOUS
 10
189.1558681793
 20
125.3452909105
 11
189.4898427755
 21
125.1524705874
  0
LINE
  5
2AE
100
AcDbEntity
  8
RUNDUNGEN
100
AcDbLine
 62
7
  6
CONTINUOUS
 10
189.1558681793
 20
125.3452909105
 11
189.4898427755
 21
125.1524705874
  0
LINE
  5
2AF
100
AcDbEntity
  8
0
100
AcDbLine
 62
7
  6
CONTINUOUS
 10
109.2448658866
 20
149.3134137742
 11
109.4928715263
 21
149.3144280301
  0
LINE
  5
2B0
100
AcDbEntity
  8
BOHRUNGEN
100
AcDbLine
 62
8
  6
HIDDEN
 10
210.2398427755
 20
146.1172205874
 11
238.9398427755
 21
146.1172205874
  0
LINE
  5
2B1
100
AcDbEntity
  8
0
100
AcDbLine
 62
9
  6
CONTINUOUS
 10
73.2398427755
 20
146.352341718
 11
109.0399058645
 21
146.352341718
  0
LINE
  5
2B2
100
AcDbEntity
  8
RUNDUNGEN
100
AcDbLine
 62
8
  6
HIDDEN
 10
208.8546334943
 20
146.4672205874
 11
198.789607659
 21
146.4672205874
  0
LINE
  5
2B3
100
AcDbEntity
  8
DEFAULT_2
100
AcDbLine
 62
8
  6
HIDDEN
 10
198.789607659
 20
146.4672205874
 11
208.8546334943
 21
146.4672205874
  0
LINE
  5
2B4
100
AcDbEntity
  8
0
100
AcDbLine
 62
7
  6
CONTINUOUS
 10
124.7011676409
 20
150.476691902
 11
121.7785179101
 21
150.476691902
  0
LINE
  5
2B5
100
AcDbEntity
  8
0
100
AcDbLine
 62
7
  6
CONTINUOUS
 10
180.9898427755
 20
157.1024705874
 11
180.9898427755
 21
125.1524705874
  0
LINE
  5
2B6
100
AcDbEntity
  8
RUNDUNGEN
100
AcDbLine
 62
9
  6
CONTINUOUS
 10
181.3238173717
 20
125.3452909105
 11
181.3238173717
 21
156.9096502644
  0
LINE
  5
2B7
100
AcDbEntity
  8
RUNDUNGEN
100
AcDbLine
 62
9
  6
CONTINUOUS
 10
181.7238173717
 20
125.4524705874
 11
181.7238173717
 21
156.8024705874
  0
LINE
  5
2B8
100
AcDbEntity
  8
0
100
AcDbLine
 62
7
  6
CONTINUOUS
 10
180.9898427755
 20
125.1524705874
 11
181.3238173717
 21
125.3452909105
  0
LINE
  5
2B9
100
AcDbEntity
  8
RUNDUNGEN
100
AcDbLine
 62
7
  6
CONTINUOUS
 10
180.9898427755
 20
125.1524705874
 11
181.3238173717
 21
125.3452909105
  0
LINE
  5
2BA
100
AcDbEntity
  8
0
100
AcDbLine
 62
7
  6
CONTINUOUS
 10
109.2448658866
 20
161.5526571572
 11
110.8448658866
 21
161.5928547263
  0
LINE
  5
2BB
100
AcDbEntity
  8
0
100
AcDbLine
 62
7
  6
CONTINUOUS
 10
81.5034475296
 20
161.0557592776
 11
91.2898427755
 21
161.3016275896
  0
LINE
  5
2BC
100
AcDbEntity
  8
0
100
AcDbLine
 62
7
  6
CONTINUOUS
 10
100.4192041087
 20
161.5309889229
 11
109.0399058645
 21
161.747570957
  0
LINE
  5
2BD
100
AcDbEntity
  8
0
100
AcDbLine
 62
9
  6
CONTINUOUS
 10
74.7398427755
 20
156.8387152262
 11
109.0399058645
 21
157.5850013361
  0
LINE
  5
2BE
100
AcDbEntity
  8
0
100
AcDbLine
 62
7
  6
CONTINUOUS
 10
109.4928715263
 20
155.8172420201
 11
109.2448658866
 21
155.8124127922
  0
LINE
  5
2BF
100
AcDbEntity
  8
0
100
AcDbLine
 62
7
  6
CONTINUOUS
 10
181.7238173717
 20
156.8024705874
 11
182.7398427755
 21
156.8024705874
  0
LINE
  5
2C0
100
AcDbEntity
  8
BEZUGSACHSEN
100
AcDbLine
 62
7
  6
CONTINUOUS
 10
181.7238173717
 20
156.8024705874
 11
182.7398427755
 21
156.8024705874
  0
LINE
  5
2C1
100
AcDbEntity
  8
0
100
AcDbLine
 62
7
  6
CONTINUOUS
 10
187.7398427755
 20
156.8024705874
 11
188.7558681793
 21
156.8024705874
  0
LINE
  5
2C2
100
AcDbEntity
  8
BEZUGSACHSEN
100
AcDbLine
 62
7
  6
CONTINUOUS
 10
187.7398427755
 20
156.8024705874
 11
188.7558681793
 21
156.8024705874
  0
LINE
  5
2C3
100
AcDbEntity
  8
0
100
AcDbLine
 62
7
  6
CONTINUOUS
 10
190.4150238308
 20
157.1024705874
 11
189.4898427755
 21
157.1024705874
  0
LINE
  5
2C4
100
AcDbEntity
  8
0
100
AcDbLine
 62
7
  6
CONTINUOUS
 10
142.2398427755
 20
157.1024705874
 11
180.9898427755
 21
157.1024705874
  0
LINE
  5
2C5
100
AcDbEntity
  8
RUNDUNGEN
100
AcDbLine
 62
7
  6
CONTINUOUS
 10
240.3183018712
 20
153.1749974295
 11
190.4150238308
 21
157.1024705874
  0
LINE
  5
2C6
100
AcDbEntity
  8
0
100
AcDbLine
 62
7
  6
CONTINUOUS
 10
190.4150238308
 20
157.1024705874
 11
240.3183018712
 21
153.1749974295
  0
LINE
  5
2C7
100
AcDbEntity
  8
BEZUGSACHSEN
100
AcDbLine
 62
7
  6
CENTER
 10
185.2398427755
 20
159.8024705874
 11
185.2398427755
 21
146.1024705874
  0
LINE
  5
2C8
100
AcDbEntity
  8
BEZUGSACHSEN
100
AcDbLine
 62
7
  6
CENTER
 10
185.2398427755
 20
122.4524705874
 11
185.2398427755
 21
136.1524705874
  0
LINE
  5
2C9
100
AcDbEntity
  8
RUNDUNGEN
100
AcDbLine
 62
9
  6
CONTINUOUS
 10
188.7558681793
 20
125.4524705874
 11
188.7558681793
 21
156.8024705874
  0
LINE
  5
2CA
100
AcDbEntity
  8
RUNDUNGEN
100
AcDbLine
 62
9
  6
CONTINUOUS
 10
189.1558681793
 20
125.3452909105
 11
189.1558681793
 21
156.9096502644
  0
LINE
  5
2CB
100
AcDbEntity
  8
0
100
AcDbLine
 62
7
  6
CONTINUOUS
 10
189.4898427755
 20
157.1024705874
 11
189.4898427755
 21
125.1524705874
  0
LINE
  5
2CC
100
AcDbEntity
  8
0
100
AcDbLine
 62
7
  6
CONTINUOUS
 10
190.4150238308
 20
125.1524705874
 11
190.4150238308
 21
157.1024705874
  0
LINE
  5
2CD
100
AcDbEntity
  8
0
100
AcDbLine
 62
7
  6
CONTINUOUS
 10
180.9898427755
 20
157.1024705874
 11
181.3238173717
 21
156.9096502644
  0
LINE
  5
2CE
100
AcDbEntity
  8
RUNDUNGEN
100
AcDbLine
 62
7
  6
CONTINUOUS
 10
180.9898427755
 20
157.1024705874
 11
181.3238173717
 21
156.9096502644
  0
LINE
  5
2CF
100
AcDbEntity
  8
0
100
AcDbLine
 62
7
  6
CONTINUOUS
 10
124.7011676409
 20
171.2080633478
 11
121.7785179101
 21
171.2080633478
  0
LINE
  5
2D0
100
AcDbEntity
  8
0
100
AcDbLine
 62
7
  6
CONTINUOUS
 10
133.2398427755
 20
172.6274705874
 11
128.4617538037
 21
172.6274705874
  0
LINE
  5
2D1
100
AcDbEntity
  8
0
100
AcDbLine
 62
7
  6
CONTINUOUS
 10
118.0179317472
 20
172.6274705874
 11
111.5398428479
 21
172.6274705874
  0
LINE
  5
2D2
100
AcDbEntity
  8
RUNDUNGEN
100
AcDbLine
 62
9
  6
CONTINUOUS
 10
198.789607659
 20
135.7877205874
 11
198.789607659
 21
146.4672205874
  0
LINE
  5
2D3
100
AcDbEntity
  8
RUNDUNGEN
100
AcDbLine
 62
9
  6
CONTINUOUS
 10
240.3183018712
 20
129.0799437454
 11
240.3183018712
 21
153.1749974295
  0
LINE
  5
2D4
100
AcDbEntity
  8
RUNDUNGEN
100
AcDbLine
 62
7
  6
CONTINUOUS
 10
241.2398427755
 20
152.1780800958
 11
241.2398427755
 21
130.0768610791
  0
ARC
  5
2D5
100
AcDbEntity
  8
0
100
AcDbCircle
 62
7
  6
CONTINUOUS
 10
2.4878315798
 20
121.8179817581
 40
110.4813700654
100
AcDbArc
 50
13.4640903998
 51
14.4111621352
  0
ARC
  5
2D6
100
AcDbEntity
  8
ACHSEN
100
AcDbCircle
 62
7
  6
CONTINUOUS
 10
86.5014143951
 20
125.5590674026
 40
35.8451025476
100
AcDbArc
 50
98.0149288422
 51
101.1172700805
  0
ARC
  5
2D7
100
AcDbEntity
  8
0
100
AcDbCircle
 62
7
  6
CONTINUOUS
 10
110.6398427755
 20
117.6774705874
 40
1.0
100
AcDbArc
 50
53.0400606802
 51
135.0
  0
ARC
  5
2D8
100
AcDbEntity
  8
0
100
AcDbCircle
 62
7
  6
CONTINUOUS
 10
110.6398427755
 20
164.5774705874
 40
1.0
100
AcDbArc
 50
293.5781784782
 51
306.9599393198
  0
ARC
  5
2D9
100
AcDbEntity
  8
0
100
AcDbCircle
 62
7
  6
CONTINUOUS
 10
110.8398427755
 20
161.7927916373
 40
0.2
100
AcDbArc
 50
271.439166666
 51
360.0
  0
ARC
  5
2DA
100
AcDbEntity
  8
0
100
AcDbCircle
 62
7
  6
CONTINUOUS
 10
109.2398427755
 20
161.7525940681
 40
0.2
100
AcDbArc
 50
181.439166666
 51
271.439166666
  0
ARC
  5
2DB
100
AcDbEntity
  8
ACHSEN
100
AcDbCircle
 62
7
  6
CONTINUOUS
 10
9.4816257974
 20
289.5234101402
 40
144.4768984252
100
AcDbArc
 50
296.187103939
 51
296.8519184685
  0
ARC
  5
2DC
100
AcDbEntity
  8
FASEN
100
AcDbCircle
 62
7
  6
CONTINUOUS
 10
123.5293196054
 20
205.455337187
 40
33.2873971375
100
AcDbArc
 50
260.5363441584
 51
261.5195290198
  0
ARC
  5
2DD
100
AcDbEntity
  8
FASEN
100
AcDbCircle
 62
7
  6
CONTINUOUS
 10
122.9512500737
 20
205.4442691291
 40
33.2763235105
100
AcDbArc
 50
278.4862153233
 51
278.9386019049
  0
ARC
  5
2DE
100
AcDbEntity
  8
FASEN
100
AcDbCircle
 62
7
  6
CONTINUOUS
 10
123.2002968376
 20
203.72485632
 40
31.5389845485
100
AcDbArc
 50
270.0718417527
 51
278.499688098
  0
ARC
  5
2DF
100
AcDbEntity
  8
FASEN
100
AcDbCircle
 62
7
  6
CONTINUOUS
 10
123.2529137753
 20
203.3709873303
 40
31.1850935052
100
AcDbArc
 50
261.4570610701
 51
269.9759848997
  0
ARC
  5
2E0
100
AcDbEntity
  8
0
100
AcDbCircle
 62
7
  6
CONTINUOUS
 10
255.474015549
 20
92.1532727166
 40
159.2595221569
100
AcDbArc
 50
156.0446773748
 51
156.4374589831
  0
ARC
  5
2E1
100
AcDbEntity
  8
BEZUGSACHSEN
100
AcDbCircle
 62
7
  6
CONTINUOUS
 10
185.2229297366
 20
109.7863644677
 40
15.8670013613
100
AcDbArc
 50
80.8728683007
 51
88.5281078963
  0
ARC
  5
2E2
100
AcDbEntity
  8
BEZUGSACHSEN
100
AcDbCircle
 62
7
  6
CONTINUOUS
 10
185.2567518875
 20
172.4685326288
 40
15.8669572182
100
AcDbArc
 50
260.8728570527
 51
268.5288263719
  0
ARC
  5
2E3
100
AcDbEntity
  8
BEZUGSACHSEN
100
AcDbCircle
 62
7
  6
CONTINUOUS
 10
185.2419870535
 20
172.075497511
 40
15.4736732891
100
AcDbArc
 50
268.5461153798
 51
271.2063019737
  0
ARC
  5
2E4
100
AcDbEntity
  8
BEZUGSACHSEN
100
AcDbCircle
 62
7
  6
CONTINUOUS
 10
185.2376953282
 20
110.1794457427
 40
15.4736712108
100
AcDbArc
 50
88.5453770592
 51
91.2069621322
  0
ARC
  5
2E5
100
AcDbEntity
  8
RUNDUNGEN
100
AcDbCircle
 62
7
  6
CONTINUOUS
 10
142.2398427755
 20
166.1024705874
 40
9.0
100
AcDbArc
 50
180.0000000004
 51
270.0
  0
ARC
  5
2E6
100
AcDbEntity
  8
RUNDUNGEN
100
AcDbCircle
 62
7
  6
CONTINUOUS
 10
142.2398427755
 20
116.1524705874
 40
9.0
100
AcDbArc
 50
90.0
 51
179.9999999988
  0
ARC
  5
2E7
100
AcDbEntity
  8
0
100
AcDbCircle
 62
2
  6
CONTINUOUS
 10
185.2409508083
 20
141.1353353749
 40
3.0078649916
100
AcDbArc
 50
255.0730591232
 51
269.9788934653
  0
ARC
  5
2E8
100
AcDbEntity
  8
0
100
AcDbCircle
 62
2
  6
CONTINUOUS
 10
185.2394694871
 20
141.1279420602
 40
2.9994647506
100
AcDbArc
 50
270.0
 51
195.0050250863
  0
CIRCLE
  5
2E9
100
AcDbEntity
  8
BEZUGSACHSEN
100
AcDbCircle
 62
7
  6
CONTINUOUS
 10
185.2398427755
 20
141.1274705874
 40
2.5
  0
ARC
  5
2EA
100
AcDbEntity
  8
RUNDUNGEN
100
AcDbCircle
 62
7
  6
CONTINUOUS
 10
240.2398427755
 20
152.1780800958
 40
1.0
100
AcDbArc
 50
0.0
 51
85.4999999947
  0
ARC
  5
2EB
100
AcDbEntity
  8
RUNDUNGEN
100
AcDbCircle
 62
7
  6
CONTINUOUS
 10
240.2398427755
 20
130.0768610791
 40
1.0
100
AcDbArc
 50
274.5000000042
 51
360.0
  0
ARC
  5
2EC
100
AcDbEntity
  8
RUNDUNGEN
100
AcDbCircle
 62
7
  6
CONTINUOUS
 10
188.7558681793
 20
157.6024705874
 40
0.8
100
AcDbArc
 50
270.0
 51
300.0000000034
  0
ARC
  5
2ED
100
AcDbEntity
  8
RUNDUNGEN
100
AcDbCircle
 62
7
  6
CONTINUOUS
 10
188.7558681793
 20
124.6524705874
 40
0.8
100
AcDbArc
 50
59.9999999631
 51
90.0
  0
ARC
  5
2EE
100
AcDbEntity
  8
RUNDUNGEN
100
AcDbCircle
 62
7
  6
CONTINUOUS
 10
181.7238173717
 20
157.6024705874
 40
0.8
100
AcDbArc
 50
239.9999999965
 51
270.0
  0
ARC
  5
2EF
100
AcDbEntity
  8
RUNDUNGEN
100
AcDbCircle
 62
7
  6
CONTINUOUS
 10
181.7238173717
 20
124.6524705874
 40
0.8
100
AcDbArc
 50
90.0
 51
120.000000036
  0
SPLINE
  5
2F0
100
AcDbEntity
  8
0
100
AcDbSpline
 62
2
  6
CONTINUOUS
 70
0
 71
3
 72
13
 73
9
 74
0
 42
0.0000001
 43
0.0000001
 44
0.0000000001
 40
0.0
 40
0.0
 40
0.0
 40
0.0
 40
0.1666666667
 40
0.3333333333
 40
0.5
 40
0.6666666667
 40
0.8333333333
 40
1.0
 40
1.0
 40
1.0
 40
1.0
 10
188.2398427755
 20
125.4524705874
 30
0.0
 10
188.2398427755
 20
125.4524705874
 30
0.0
 10
188.1685738566
 20
125.4663341571
 30
0.0
 10
187.8649747324
 20
125.5214344005
 30
0.0
 10
187.3844854706
 20
125.5967867213
 30
0.0
 10
186.7505966528
 20
125.6733043856
 30
0.0
 10
186.0210938249
 20
125.7286935564
 30
0.0
 10
185.4999418941
 20
125.7422300953
 30
0.0
 10
185.2398427755
 20
125.7422300953
 30
0.0
  0
SPLINE
  5
2F1
100
AcDbEntity
  8
0
100
AcDbSpline
 62
2
  6
CONTINUOUS
 70
0
 71
3
 72
13
 73
9
 74
0
 42
0.0000001
 43
0.0000001
 44
0.0000000001
 40
0.0
 40
0.0
 40
0.0
 40
0.0
 40
0.1666666667
 40
0.3333333333
 40
0.5
 40
0.6666666667
 40
0.8333333333
 40
1.0
 40
1.0
 40
1.0
 40
1.0
 10
185.2398427755
 20
125.7422300953
 30
0.0
 10
184.9798121733
 20
125.7422300953
 30
0.0
 10
184.4587797312
 20
125.7287000328
 30
0.0
 10
183.7294160232
 20
125.6733362713
 30
0.0
 10
183.0954698126
 20
125.5968234873
 30
0.0
 10
182.6151138738
 20
125.5215022795
 30
0.0
 10
182.3112658516
 20
125.46636458
 30
0.0
 10
182.2398427755
 20
125.4524705874
 30
0.0
 10
182.2398427755
 20
125.4524705874
 30
0.0
  0
SPLINE
  5
2F2
100
AcDbEntity
  8
0
100
AcDbSpline
 62
2
  6
CONTINUOUS
 70
0
 71
3
 72
13
 73
9
 74
0
 42
0.0000001
 43
0.0000001
 44
0.0000000001
 40
0.0
 40
0.0
 40
0.0
 40
0.0
 40
0.1666666667
 40
0.3333333333
 40
0.5
 40
0.6666666667
 40
0.8333333333
 40
1.0
 40
1.0
 40
1.0
 40
1.0
 10
185.2398427755
 20
156.5127110795
 30
0.0
 10
185.4995643063
 20
156.5127110795
 30
0.0
 10
186.0200873424
 20
156.5261981746
 30
0.0
 10
186.7499797164
 20
156.5815739545
 30
0.0
 10
187.3828537125
 20
156.6579616072
 30
0.0
 10
187.8613808071
 20
156.7328764571
 30
0.0
 10
188.1718883493
 20
156.7892103747
 30
0.0
 10
188.2398427755
 20
156.8024705874
 30
0.0
 10
188.2398427755
 20
156.8024705874
 30
0.0
  0
SPLINE
  5
2F3
100
AcDbEntity
  8
0
100
AcDbSpline
 62
2
  6
CONTINUOUS
 70
0
 71
3
 72
13
 73
9
 74
0
 42
0.0000001
 43
0.0000001
 44
0.0000000001
 40
0.0
 40
0.0
 40
0.0
 40
0.0
 40
0.1666666667
 40
0.3333333333
 40
0.5
 40
0.6666666667
 40
0.8333333333
 40
1.0
 40
1.0
 40
1.0
 40
1.0
 10
182.2398427755
 20
156.8024705874
 30
0.0
 10
182.2398427755
 20
156.8024705874
 30
0.0
 10
182.3078372595
 20
156.7892056395
 30
0.0
 10
182.617689217
 20
156.7329809963
 30
0.0
 10
183.0965137346
 20
156.658003714
 30
0.0
 10
183.7293045528
 20
156.5816131129
 30
0.0
 10
184.4594088617
 20
156.5262036373
 30
0.0
 10
184.980055181
 20
156.5127110795
 30
0.0
 10
185.2398427755
 20
156.5127110795
 30
0.0
  0
LINE
  5
2F4
100
AcDbEntity
  8
FASEN
100
AcDbLine
 62
7
  6
CONTINUOUS
 10
118.0561409622
 20
172.6209782968
 11
118.0173991746
 21
172.6274360759
  0
LINE
  5
2F5
100
AcDbEntity
  8
FASEN
100
AcDbLine
 62
7
  6
CONTINUOUS
 10
128.4235445888
 20
172.6209782968
 11
128.4622863764
 21
172.6274360759
  0
LINE
  5
2F6
100
AcDbEntity
  8
ACHSEN
100
AcDbLine
 62
7
  6
CONTINUOUS
 10
79.5898427755
 20
160.7315218861
 11
74.7398427755
 21
160.624460201
  0
LINE
  5
2F7
100
AcDbEntity
  8
ACHSEN
100
AcDbLine
 62
7
  6
CONTINUOUS
 10
81.380613807
 20
161.036510006
 11
81.5034621234
 21
161.0540226633
  0
LINE
  5
2F8
100
AcDbEntity
  8
ACHSEN
100
AcDbLine
 62
7
  6
CONTINUOUS
 10
81.5034621234
 20
161.0540226633
 11
81.5184130615
 21
161.0561283927
  0
SPLINE
  5
2F9
100
AcDbEntity
  8
BEZUGSACHSEN
100
AcDbSpline
 62
7
  6
CONTINUOUS
 70
0
 71
3
 72
9
 73
5
 74
0
 42
0.0000001
 43
0.0000001
 44
0.0000000001
 40
0.0
 40
0.0
 40
0.0
 40
0.0
 40
0.0744744974
 40
1.0
 40
1.0
 40
1.0
 40
1.0
 10
182.7398427755
 20
125.4524705874
 30
0.0
 10
182.7933873132
 20
125.4610176087
 30
0.0
 10
183.5130469326
 20
125.5722372758
 30
0.0
 10
184.2413219042
 20
125.6355407902
 30
0.0
 10
184.915126695
 20
125.6496835975
 30
0.0
  0
SPLINE
  5
2FA
100
AcDbEntity
  8
BEZUGSACHSEN
100
AcDbSpline
 62
7
  6
CONTINUOUS
 70
0
 71
3
 72
9
 73
5
 74
0
 42
0.0000001
 43
0.0000001
 44
0.0000000001
 40
0.0
 40
0.0
 40
0.0
 40
0.0
 40
0.0744765136
 40
1.0
 40
1.0
 40
1.0
 40
1.0
 10
187.7398427755
 20
156.8024705874
 30
0.0
 10
187.6862924676
 20
156.7939226645
 30
0.0
 10
186.9665746986
 20
156.6826946276
 30
0.0
 10
186.2382401822
 20
156.6193900573
 30
0.0
 10
185.5643823448
 20
156.6052538212
 30
0.0
  0
LINE
  5
2FB
100
AcDbEntity
  8
ACHSEN
100
AcDbLine
 62
7
  6
CONTINUOUS
 10
81.5184130611
 20
161.0561283927
 11
81.5034916736
 21
161.0540268351
  0
SPLINE
  5
2FC
100
AcDbEntity
  8
ACHSEN
100
AcDbSpline
 62
7
  6
CONTINUOUS
 70
0
 71
3
 72
11
 73
7
 74
0
 42
0.0000001
 43
0.0000001
 44
0.0000000001
 40
0.0
 40
0.0
 40
0.0
 40
0.0
 40
0.1537099379
 40
0.500508937
 40
0.8472910559
 40
1.0
 40
1.0
 40
1.0
 40
1.0
 10
100.4192041087
 20
161.5309889229
 30
0.0
 10
99.9556188396
 20
161.4597119681
 30
0.0
 10
98.4413865254
 20
161.2556541957
 30
0.0
 10
95.8586120979
 20
161.0701451638
 30
0.0
 10
93.272566068
 20
161.1230923825
 30
0.0
 10
91.7532768852
 20
161.2528588753
 30
0.0
 10
91.2898427755
 20
161.3016275896
 30
0.0
  0
LINE
  5
2FD
100
AcDbEntity
  8
FASEN
100
AcDbLine
 62
7
  6
CONTINUOUS
 10
118.0173991755
 20
172.6274360761
 11
118.3084823716
 21
172.5799092622
  0
SPLINE
  5
2FE
100
AcDbEntity
  8
FASEN
100
AcDbSpline
 62
7
  6
CONTINUOUS
 70
0
 71
3
 72
13
 73
9
 74
0
 42
0.0000001
 43
0.0000001
 44
0.0000000001
 40
0.0
 40
0.0
 40
0.0
 40
0.0
 40
0.0157913869
 40
0.0631394433
 40
0.1420410632
 40
0.2523476314
 40
0.5656688567
 40
1.0
 40
1.0
 40
1.0
 40
1.0
 10
128.4622863754
 20
172.6274360761
 30
0.0
 10
128.4604720144
 20
172.6275317343
 30
0.0
 10
128.4533599547
 20
172.6253800581
 30
0.0
 10
128.4371876322
 20
172.6236197077
 30
0.0
 10
128.4103704793
 20
172.6186206252
 30
0.0
 10
128.3533162393
 20
172.6094598627
 30
0.0
 10
128.2559116109
 20
172.5932841674
 30
0.0
 10
128.1709566783
 20
172.5798348183
 30
0.0
 10
128.1215911063
 20
172.5720729752
 30
0.0
  0
SPLINE
  5
2FF
100
AcDbEntity
  8
0
100
AcDbSpline
 62
7
  6
CONTINUOUS
 70
0
 71
3
 72
13
 73
9
 74
0
 42
0.0000001
 43
0.0000001
 44
0.0000000001
 40
0.0
 40
0.0
 40
0.0
 40
0.0
 40
0.1753307868
 40
0.3422637982
 40
0.4768046258
 40
0.5947351366
 40
0.8062611466
 40
1.0
 40
1.0
 40
1.0
 40
1.0
 10
110.8448658866
 20
119.6000418473
 30
0.0
 10
110.7809531417
 20
119.626982009
 30
0.0
 10
110.6431760984
 20
119.655719995
 30
0.0
 10
110.4555291001
 20
119.6069411771
 30
0.0
 10
110.3139444164
 20
119.5180992741
 30
0.0
 10
110.1774791937
 20
119.3944966622
 30
0.0
 10
110.0490605071
 20
119.2306200561
 30
0.0
 10
109.9680205101
 20
119.0919490638
 30
0.0
 10
109.9327359943
 20
119.0239139365
 30
0.0
  0
SPLINE
  5
300
100
AcDbEntity
  8
0
100
AcDbSpline
 62
7
  6
CONTINUOUS
 70
0
 71
3
 72
12
 73
8
 74
0
 42
0.0000001
 43
0.0000001
 44
0.0000000001
 40
0.0
 40
0.0
 40
0.0
 40
0.0
 40
0.2873076234
 40
0.4555854673
 40
0.6473090081
 40
0.8177551754
 40
1.0
 40
1.0
 40
1.0
 40
1.0
 10
110.8448658866
 20
119.6000418473
 30
0.0
 10
110.8702521705
 20
119.5893411554
 30
0.0
 10
110.9129192335
 20
119.5767652116
 30
0.0
 10
110.9767244263
 20
119.5809237139
 30
0.0
 10
111.0196569237
 20
119.6152762125
 30
0.0
 10
111.0364867942
 20
119.6660765133
 30
0.0
 10
111.0394331041
 20
119.6998393489
 30
0.0
 10
111.0397565688
 20
119.7173114623
 30
0.0
  0
SPLINE
  5
301
100
AcDbEntity
  8
0
100
AcDbSpline
 62
7
  6
CONTINUOUS
 70
0
 71
3
 72
16
 73
12
 74
0
 42
0.0000001
 43
0.0000001
 44
0.0000000001
 40
0.0
 40
0.0
 40
0.0
 40
0.0
 40
0.1251648965
 40
0.2503573139
 40
0.375568813
 40
0.5007901353
 40
0.6259923846
 40
0.7510481625
 40
0.8746362128
 40
0.9372915345
 40
1.0
 40
1.0
 40
1.0
 40
1.0
 10
109.9327359943
 20
147.5420103482
 30
0.0
 10
109.9498043379
 20
147.4706840396
 30
0.0
 10
109.9860762744
 20
147.3285106467
 30
0.0
 10
110.0480985567
 20
147.1173158376
 30
0.0
 10
110.1197684366
 20
146.9090829126
 30
0.0
 10
110.203777787
 20
146.7055625438
 30
0.0
 10
110.3071596606
 20
146.510274113
 30
0.0
 10
110.4351193345
 20
146.333447654
 30
0.0
 10
110.6021575248
 20
146.2260029176
 30
0.0
 10
110.7528628213
 20
146.24756684
 30
0.0
 10
110.8161407008
 20
146.2875086593
 30
0.0
 10
110.8448658866
 20
146.3104210406
 30
0.0
  0
SPLINE
  5
302
100
AcDbEntity
  8
0
100
AcDbSpline
 62
7
  6
CONTINUOUS
 70
0
 71
3
 72
13
 73
9
 74
0
 42
0.0000001
 43
0.0000001
 44
0.0000000001
 40
0.0
 40
0.0
 40
0.0
 40
0.0
 40
0.1670510693
 40
0.3289369806
 40
0.4609641718
 40
0.578209763
 40
0.7939442568
 40
1.0
 40
1.0
 40
1.0
 40
1.0
 10
110.8448658866
 20
157.4719488744
 30
0.0
 10
110.7804324358
 20
157.4961839794
 30
0.0
 10
110.6412314429
 20
157.5181183219
 30
0.0
 10
110.4546234546
 20
157.4616421496
 30
0.0
 10
110.3131624164
 20
157.366078695
 30
0.0
 10
110.1756338191
 20
157.231711226
 30
0.0
 10
110.0462141146
 20
157.0493389673
 30
0.0
 10
109.967214148
 20
156.8940867262
 30
0.0
 10
109.9327359943
 20
156.8164874776
 30
0.0
  0
SPLINE
  5
303
100
AcDbEntity
  8
0
100
AcDbSpline
 62
7
  6
CONTINUOUS
 70
0
 71
3
 72
15
 73
11
 74
0
 42
0.0000001
 43
0.0000001
 44
0.0000000001
 40
0.0
 40
0.0
 40
0.0
 40
0.0
 40
0.0735479282
 40
0.1546005725
 40
0.2292557381
 40
0.2979289731
 40
0.4260365971
 40
0.5473626904
 40
0.7785364517
 40
1.0
 40
1.0
 40
1.0
 40
1.0
 10
110.8448658866
 20
157.4719488744
 30
0.0
 10
110.8573177054
 20
157.4672654199
 30
0.0
 10
110.8864679591
 20
157.4631849074
 30
0.0
 10
110.9259374507
 20
157.4814269346
 30
0.0
 10
110.9534991257
 20
157.5118302282
 30
0.0
 10
110.9793941357
 20
157.553707911
 30
0.0
 10
111.0004800996
 20
157.6076381335
 30
0.0
 10
111.0221188101
 20
157.6919087932
 30
0.0
 10
111.0359889971
 20
157.7951196784
 30
0.0
 10
111.0394134867
 20
157.8769810286
 30
0.0
 10
111.0397565688
 20
157.9170382748
 30
0.0
  0
SPLINE
  5
304
100
AcDbEntity
  8
0
100
AcDbSpline
 62
7
  6
CONTINUOUS
 70
0
 71
3
 72
16
 73
12
 74
0
 42
0.0000001
 43
0.0000001
 44
0.0000000001
 40
0.0
 40
0.0
 40
0.0
 40
0.0
 40
0.2846406373
 40
0.4153418401
 40
0.5382258172
 40
0.6534042926
 40
0.7614765699
 40
0.8135102488
 40
0.8652468039
 40
0.9195357931
 40
1.0
 40
1.0
 40
1.0
 40
1.0
 10
109.0399058645
 20
119.4450687082
 30
0.0
 10
109.0399058645
 20
119.3254952709
 30
0.0
 10
109.039764181
 20
119.1510122736
 30
0.0
 10
109.0421413677
 20
118.9249230288
 30
0.0
 10
109.0467684243
 20
118.7700512887
 30
0.0
 10
109.056670472
 20
118.6249597967
 30
0.0
 10
109.0728582654
 20
118.5101763655
 30
0.0
 10
109.0946836618
 20
118.4238420064
 30
0.0
 10
109.1184229559
 20
118.3614123465
 30
0.0
 10
109.1572092932
 20
118.2938834112
 30
0.0
 10
109.2110734096
 20
118.2573814129
 30
0.0
 10
109.2448658866
 20
118.2565851959
 30
0.0
  0
SPLINE
  5
305
100
AcDbEntity
  8
0
100
AcDbSpline
 62
7
  6
CONTINUOUS
 70
0
 71
3
 72
9
 73
5
 74
0
 42
0.0000001
 43
0.0000001
 44
0.0000000001
 40
0.0
 40
0.0
 40
0.0
 40
0.0
 40
0.2573720101
 40
1.0
 40
1.0
 40
1.0
 40
1.0
 10
109.9327359943
 20
119.0239139365
 30
0.0
 10
109.8975966061
 20
118.9561586424
 30
0.0
 10
109.7586084706
 20
118.6941869914
 30
0.0
 10
109.60962498
 20
118.4374778413
 30
0.0
 10
109.4928715263
 20
118.2507417121
 30
0.0
  0
SPLINE
  5
306
100
AcDbEntity
  8
0
100
AcDbSpline
 62
7
  6
CONTINUOUS
 70
0
 71
3
 72
8
 73
4
 74
0
 42
0.0000001
 43
0.0000001
 44
0.0000000001
 40
0.0
 40
0.0
 40
0.0
 40
0.0
 40
1.0
 40
1.0
 40
1.0
 40
1.0
 10
111.0397208221
 20
145.7526932474
 30
0.0
 10
111.039389888
 20
145.8002219551
 30
0.0
 10
111.0382073728
 20
145.847762364
 30
0.0
 10
111.035703401
 20
145.8952262207
 30
0.0
  0
SPLINE
  5
307
100
AcDbEntity
  8
0
100
AcDbSpline
 62
7
  6
CONTINUOUS
 70
0
 71
3
 72
15
 73
11
 74
0
 42
0.0000001
 43
0.0000001
 44
0.0000000001
 40
0.0
 40
0.0
 40
0.0
 40
0.0
 40
0.2532162989
 40
0.3790219793
 40
0.5040739368
 40
0.6282014989
 40
0.7508575768
 40
0.8716570132
 40
0.9343432508
 40
1.0
 40
1.0
 40
1.0
 40
1.0
 10
111.035703401
 20
145.8952262207
 30
0.0
 10
111.0333399826
 20
145.9400258261
 30
0.0
 10
111.0281825379
 20
146.0070318162
 30
0.0
 10
111.0160102142
 20
146.0955560769
 30
0.0
 10
111.0034324165
 20
146.16076382
 30
0.0
 10
110.9855056051
 20
146.2245549158
 30
0.0
 10
110.9604168933
 20
146.2838301149
 30
0.0
 10
110.9211376042
 20
146.3287113281
 30
0.0
 10
110.8738772664
 20
146.330405393
 30
0.0
 10
110.8539596389
 20
146.3176745888
 30
0.0
 10
110.8448658866
 20
146.3104210406
 30
0.0
  0
SPLINE
  5
308
100
AcDbEntity
  8
0
100
AcDbSpline
 62
7
  6
CONTINUOUS
 70
0
 71
3
 72
12
 73
8
 74
0
 42
0.0000001
 43
0.0000001
 44
0.0000000001
 40
0.0
 40
0.0
 40
0.0
 40
0.0
 40
0.128679218
 40
0.2561331636
 40
0.5063352459
 40
0.7539715031
 40
1.0
 40
1.0
 40
1.0
 40
1.0
 10
124.7011676409
 20
131.7782492729
 30
0.0
 10
124.7320437664
 20
131.7782492729
 30
0.0
 10
124.793958393
 20
131.7659260465
 30
0.0
 10
124.9001793201
 20
131.7040112553
 30
0.0
 10
124.9995505934
 20
131.5872496903
 30
0.0
 10
125.0809268839
 20
131.4277548815
 30
0.0
 10
125.118603624
 20
131.3149995199
 30
0.0
 10
125.1341803428
 20
131.2580579685
 30
0.0
  0
SPLINE
  5
309
100
AcDbEntity
  8
0
100
AcDbSpline
 62
7
  6
CONTINUOUS
 70
0
 71
3
 72
9
 73
5
 74
0
 42
0.0000001
 43
0.0000001
 44
0.0000000001
 40
0.0
 40
0.0
 40
0.0
 40
0.0
 40
0.1680195226
 40
1.0
 40
1.0
 40
1.0
 40
1.0
 10
125.1341803428
 20
111.213515741
 30
0.0
 10
125.1173320697
 20
111.1931956251
 30
0.0
 10
125.0018787872
 20
111.0847146488
 30
0.0
 10
124.8318745522
 20
111.0468778271
 30
0.0
 10
124.7011676409
 20
111.0468778271
 30
0.0
  0
SPLINE
  5
30A
100
AcDbEntity
  8
0
100
AcDbSpline
 62
7
  6
CONTINUOUS
 70
0
 71
3
 72
12
 73
8
 74
0
 42
0.0000001
 43
0.0000001
 44
0.0000000001
 40
0.0
 40
0.0
 40
0.0
 40
0.0
 40
0.2460454262
 40
0.4936983158
 40
0.7439199328
 40
0.8713555617
 40
1.0
 40
1.0
 40
1.0
 40
1.0
 10
121.3455052082
 20
131.2580579685
 30
0.0
 10
121.3610830207
 20
131.3150035183
 30
0.0
 10
121.3987650404
 20
131.4277640237
 30
0.0
 10
121.4801407883
 20
131.5872806917
 30
0.0
 10
121.5795454001
 20
131.7040082245
 30
0.0
 10
121.6857412165
 20
131.7659560629
 30
0.0
 10
121.7476500863
 20
131.7782492729
 30
0.0
 10
121.7785179101
 20
131.7782492729
 30
0.0
  0
SPLINE
  5
30B
100
AcDbEntity
  8
0
100
AcDbSpline
 62
7
  6
CONTINUOUS
 70
0
 71
3
 72
9
 73
5
 74
0
 42
0.0000001
 43
0.0000001
 44
0.0000000001
 40
0.0
 40
0.0
 40
0.0
 40
0.0
 40
0.3641598889
 40
1.0
 40
1.0
 40
1.0
 40
1.0
 10
121.7785179101
 20
111.0468778271
 30
0.0
 10
121.7211414882
 20
111.0468778271
 30
0.0
 10
121.5649551552
 20
111.0629969211
 30
0.0
 10
121.4094491645
 20
111.13639516
 30
0.0
 10
121.3455052082
 20
111.213515741
 30
0.0
  0
SPLINE
  5
30C
100
AcDbEntity
  8
0
100
AcDbSpline
 62
7
  6
CONTINUOUS
 70
0
 71
3
 72
9
 73
5
 74
0
 42
0.0000001
 43
0.0000001
 44
0.0000000001
 40
0.0
 40
0.0
 40
0.0
 40
0.0
 40
0.3642526053
 40
1.0
 40
1.0
 40
1.0
 40
1.0
 10
124.7011676409
 20
171.2080633478
 30
0.0
 10
124.7585590474
 20
171.2080633478
 30
0.0
 10
124.9147485059
 20
171.1919487922
 30
0.0
 10
125.0702452912
 20
171.1185352751
 30
0.0
 10
125.1341803428
 20
171.0414254339
 30
0.0
  0
SPLINE
  5
30D
100
AcDbEntity
  8
0
100
AcDbSpline
 62
7
  6
CONTINUOUS
 70
0
 71
3
 72
21
 73
17
 74
0
 42
0.0000001
 43
0.0000001
 44
0.0000000001
 40
0.0
 40
0.0
 40
0.0
 40
0.0
 40
0.0152736556
 40
0.0307400416
 40
0.0615944727
 40
0.0924597446
 40
0.1233512662
 40
0.1852330485
 40
0.2472659363
 40
0.3094463907
 40
0.3717660941
 40
0.4967787028
 40
0.6222117836
 40
0.747963109
 40
0.8739278454
 40
1.0
 40
1.0
 40
1.0
 40
1.0
 10
109.2448658866
 20
149.3134137742
 30
0.0
 10
109.2296035714
 20
149.3133513549
 30
0.0
 10
109.2039154065
 20
149.2873542002
 30
0.0
 10
109.1781743139
 20
149.2336016643
 30
0.0
 10
109.154526784
 20
149.1588297713
 30
0.0
 10
109.1347284106
 20
149.0687349469
 30
0.0
 10
109.1137507356
 20
148.9468375828
 30
0.0
 10
109.0948473355
 20
148.7932887793
 30
0.0
 10
109.0786196954
 20
148.6080048271
 30
0.0
 10
109.0668505009
 20
148.4219707598
 30
0.0
 10
109.0553958609
 20
148.1728949075
 30
0.0
 10
109.0469820969
 20
147.8604493884
 30
0.0
 10
109.0422296487
 20
147.4845539084
 30
0.0
 10
109.040415226
 20
147.1076838522
 30
0.0
 10
109.0399418879
 20
146.7301732192
 30
0.0
 10
109.0399058645
 20
146.4783213203
 30
0.0
 10
109.0399058645
 20
146.352341718
 30
0.0
  0
SPLINE
  5
30E
100
AcDbEntity
  8
0
100
AcDbSpline
 62
7
  6
CONTINUOUS
 70
0
 71
3
 72
17
 73
13
 74
0
 42
0.0000001
 43
0.0000001
 44
0.0000000001
 40
0.0
 40
0.0
 40
0.0
 40
0.0
 40
0.2182009024
 40
0.3349220057
 40
0.456586696
 40
0.5831112211
 40
0.7144823146
 40
0.7820564401
 40
0.8510300181
 40
0.92186225
 40
0.958727904
 40
1.0
 40
1.0
 40
1.0
 40
1.0
 10
109.0399058645
 20
157.5850013361
 30
0.0
 10
109.0399058645
 20
157.4527223218
 30
0.0
 10
109.0398881771
 20
157.2496826605
 30
0.0
 10
109.042295286
 20
156.9728938902
 30
0.0
 10
109.0471204795
 20
156.7517214875
 30
0.0
 10
109.0574062176
 20
156.5218065066
 30
0.0
 10
109.073531241
 20
156.3251378115
 30
0.0
 10
109.0951053415
 20
156.1639369398
 30
0.0
 10
109.1177098121
 20
156.0407666478
 30
0.0
 10
109.1473056084
 20
155.9356159171
 30
0.0
 10
109.1817372831
 20
155.8561460629
 30
0.0
 10
109.2198504197
 20
155.8119256863
 30
0.0
 10
109.2448658866
 20
155.8124127922
 30
0.0
  0
LINE
  5
30F
100
AcDbEntity
  8
0
100
AcDbLine
 62
7
  6
CONTINUOUS
 10
109.2502444072
 20
117.7020857816
 11
109.4928715263
 21
118.2507417121
  0
SPLINE
  5
310
100
AcDbEntity
  8
0
100
AcDbSpline
 62
7
  6
CONTINUOUS
 70
0
 71
3
 72
10
 73
6
 74
0
 42
0.0000001
 43
0.0000001
 44
0.0000000001
 40
0.0
 40
0.0
 40
0.0
 40
0.0
 40
0.2163947382
 40
0.4583018846
 40
1.0
 40
1.0
 40
1.0
 40
1.0
 10
109.4928715263
 20
155.8172420201
 30
0.0
 10
109.4071701384
 20
155.3545204644
 30
0.0
 10
109.2848335461
 20
154.3632585732
 30
0.0
 10
109.2096548202
 20
152.1882453885
 30
0.0
 10
109.3401596553
 20
150.4825122706
 30
0.0
 10
109.4928715263
 20
149.3144280301
 30
0.0
  0
SPLINE
  5
311
100
AcDbEntity
  8
0
100
AcDbSpline
 62
7
  6
CONTINUOUS
 70
0
 71
3
 72
12
 73
8
 74
0
 42
0.0000001
 43
0.0000001
 44
0.0000000001
 40
0.0
 40
0.0
 40
0.0
 40
0.0
 40
0.2460280129
 40
0.4936634005
 40
0.7438647573
 40
0.8713194616
 40
1.0
 40
1.0
 40
1.0
 40
1.0
 10
125.1341803428
 20
150.9968832064
 30
0.0
 10
125.1186036558
 20
150.9399417711
 30
0.0
 10
125.0809271606
 20
150.8271865964
 30
0.0
 10
124.9995507066
 20
150.6676927557
 30
0.0
 10
124.9001809275
 20
150.5509296964
 30
0.0
 10
124.7939589034
 20
150.4890163882
 30
0.0
 10
124.732044081
 20
150.476691902
 30
0.0
 10
124.7011676409
 20
150.476691902
 30
0.0
  0
SPLINE
  5
312
100
AcDbEntity
  8
0
100
AcDbSpline
 62
7
  6
CONTINUOUS
 70
0
 71
3
 72
9
 73
5
 74
0
 42
0.0000001
 43
0.0000001
 44
0.0000000001
 40
0.0
 40
0.0
 40
0.0
 40
0.0
 40
0.1680322176
 40
1.0
 40
1.0
 40
1.0
 40
1.0
 10
121.3455052082
 20
171.0414254339
 30
0.0
 10
121.3623547671
 20
171.0617471007
 30
0.0
 10
121.4778093439
 20
171.1702271327
 30
0.0
 10
121.647812893
 20
171.2080633478
 30
0.0
 10
121.7785179101
 20
171.2080633478
 30
0.0
  0
SPLINE
  5
313
100
AcDbEntity
  8
0
100
AcDbSpline
 62
7
  6
CONTINUOUS
 70
0
 71
3
 72
12
 73
8
 74
0
 42
0.0000001
 43
0.0000001
 44
0.0000000001
 40
0.0
 40
0.0
 40
0.0
 40
0.0
 40
0.1286448926
 40
0.256081
 40
0.5063027424
 40
0.7539549585
 40
1.0
 40
1.0
 40
1.0
 40
1.0
 10
121.7785179101
 20
150.476691902
 30
0.0
 10
121.7476499786
 20
150.476691902
 30
0.0
 10
121.6857409843
 20
150.4889855258
 30
0.0
 10
121.579544687
 20
150.5509329894
 30
0.0
 10
121.480140705
 20
150.6676611914
 30
0.0
 10
121.3987648586
 20
150.8271774295
 30
0.0
 10
121.3610829957
 20
150.939937748
 30
0.0
 10
121.3455052082
 20
150.9968832064
 30
0.0
  0
ELLIPSE
  5
314
100
AcDbEntity
  8
0
100
AcDbEllipse
 62
7
  6
CONTINUOUS
 10
108.8926885861
 20
141.1274705874
 30
0.0
 11
14.7536831607
 21
31.0932549156
 31
0.0
 40
0.3419987131
 41
-1.0912395858
 42
-0.1578061866
  0
ELLIPSE
  5
315
100
AcDbEntity
  8
0
100
AcDbEllipse
 62
7
  6
CONTINUOUS
 10
137.5869969648
 20
141.1274705874
 30
0.0
 11
-14.7536831607
 21
31.0932549156
 31
0.0
 40
0.3419987131
 41
0.1578061866
 42
1.0912395858
  0
ELLIPSE
  5
316
100
AcDbEntity
  8
0
100
AcDbEllipse
 62
7
  6
CONTINUOUS
 10
137.5869969648
 20
141.1274705874
 30
0.0
 11
14.7536831607
 21
31.0932549156
 31
0.0
 40
0.3419987131
 41
-4.2328322393
 42
-3.2993988402
  0
ELLIPSE
  5
317
100
AcDbEntity
  8
0
100
AcDbEllipse
 62
7
  6
CONTINUOUS
 10
108.8926885861
 20
141.1274705874
 30
0.0
 11
-14.7536831607
 21
31.0932549156
 31
0.0
 40
0.3419987131
 41
-2.9837864669
 42
-2.0503530678
  0
ENDSEC
  0
SECTION
  2
OBJECTS
  0
DICTIONARY
  5
C
100
AcDbDictionary
280
0
281
1
  3
ACAD_GROUP
350
D
  3
ACAD_MLINESTYLE
350
17
  3
ACAD_LAYOUT
350
1A
  3
ACAD_PLOTSETTINGS
350
19
  3
ACAD_PLOTSTYLENAME
350
E
  0
DICTIONARY
  5
D
102
{ACAD_REACTORS
330
C
102
}
100
AcDbDictionary
280
0
281
1
  0
ACDBDICTIONARYWDFLT
  5
E
102
{ACAD_REACTORS
330
C
102
}
100
AcDbDictionary
281
1
  3
Normal
350
F
100
AcDbDictionaryWithDefault
340
F
  0
DICTIONARY
  5
17
102
{ACAD_REACTORS
330
C
102
}
100
AcDbDictionary
280
0
281
1
  3
Standard
350
18
  0
DICTIONARY
  5
19
102
{ACAD_REACTORS
330
C
102
}
100
AcDbDictionary
281
1
  0
DICTIONARY
  5
1A
102
{ACAD_REACTORS
330
C
102
}
100
AcDbDictionary
281
1
  3
Model
350
318
  3
Layout1
350
319
  0
ACDBPLACEHOLDER
  5
F
102
{ACAD_REACTORS
330
E
102
}
  0
MLINESTYLE
  5
18
102
{ACAD_REACTORS
330
17
102
}
100
AcDbMlineStyle
  2
STANDARD
 70
0
  3

 62
256
 51
90.0
 52
90.0
 71
2
 49
0.5
 62
256
  6
BYLAYER
 49
-0.5
 62
256
  6
BYLAYER
  0
LAYOUT
  5
318
102
{ACAD_REACTORS
330
1A
102
}
100
AcDbPlotSettings
  1

  2
none_device
  4
ISO_A4_(297.00_x_210.00_MM)
  6

 40
0.0
 41
0.0
 42
0.0
 43
0.0
 44
297.0
 45
210.0
 46
0.0
 47
0.0
 48
0.0
 49
0.0
140
0.0
141
0.0
142
1.0
143
1.0
 70
1024
 72
1
 73
0
 74
0
  7

 75
0
147
1.0
148
0.0
149
0.0
100
AcDbLayout
  1
Model
 70
0
 71
0
 10
0.0
 20
0.0
 11
297.0
 21
210.0
 12
0.0
 22
0.0
 32
0.0
 14
0.0
 24
0.0
 34
0.0
 15
0.0
 25
0.0
 35
0.0
146
0.0
 13
0.0
 23
0.0
 33
0.0
 16
1.0
 26
0.0
 36
0.0
 17
0.0
 27
1.0
 37
0.0
 76
0
330
217
345
0
346
0
  0
LAYOUT
  5
319
102
{ACAD_REACTORS
330
1A
102
}
100
AcDbPlotSettings
  1

  2
none_device
  4
ISO_A4_(297.00_x_210.00_MM)
  6

 40
0.0
 41
0.0
 42
0.0
 43
0.0
 44
297.0
 45
210.0
 46
0.0
 47
0.0
 48
0.0
 49
0.0
140
0.0
141
0.0
142
1.0
143
1.0
 70
0
 72
1
 73
0
 74
0
  7

 75
0
147
1.0
148
0.0
149
0.0
100
AcDbLayout
  1
Layout1
 70
0
 71
1
 10
0.0
 20
0.0
 11
297.0
 21
210.0
 12
0.0
 22
0.0
 32
0.0
 14
0.0
 24
0.0
 34
0.0
 15
0.0
 25
0.0
 35
0.0
146
0.0
 13
0.0
 23
0.0
 33
0.0
 16
1.0
 26
0.0
 36
0.0
 17
0.0
 27
1.0
 37
0.0
 76
0
330
218
345
0
346
0
  0
ENDSEC
  0
EOF
