999
DXF file: cc6-144-08.dxf
999
Pro/ENGINEER 2010430 by Parametric Technology Corporation
  0
SECTION
  2
HEADER
  9
$ACADVER
  1
AC1021
  9
$DWGCODEPAGE
  3
ANSI_1252
  9
$EXTMAX
 10
297.0
 20
210.0
 30
0.0
  9
$EXTMIN
 10
0.0
 20
0.0
 30
0.0
  9
$LIMMIN
 10
0.0
 20
0.0
  9
$LIMMAX
 10
297.0
 20
210.0
  9
$VIEWCTR
 10
148.5
 20
105.0
  9
$VIEWSIZE
 40
210.0
  9
$CLAYER
  8
0
  9
$LTSCALE
 40
16.335
  9
$CELTYPE
  6
BYLAYER
  9
$DIMSCALE
 40
1.0
  9
$DIMASZ
 40
3.5
  9
$DIMEXO
 40
1.85625
  9
$DIMDLI
 40
11.286
  9
$DIMEXE
 40
5.346
  9
$DIMCEN
 40
2.673
  9
$DIMLFAC
 40
1.0
  9
$DIMBLK
  1
_FILLED
  9
$DIMTXT
 40
3.5
  9
$DIMTOL
 70
1
  9
$DIMLIM
 70
0
  9
$DIMTFAC
 40
1.0
  9
$DIMTP
 40
0.005
  9
$DIMTM
 40
0.005
  9
$PDMODE
 70
3
  9
$PDSIZE
 40
0.3125
  9
$HANDSEED
  5
31A
  9
$TILEMODE
 70
1
  9
$MEASUREMENT
 70
1
  9
$INSUNITS
 70
4
  0
ENDSEC
  0
SECTION
  2
CLASSES
  0
CLASS
  1
ACDBDICTIONARYWDFLT
  2
AcDbDictionaryWithDefault
  3
AutoCAD 2000
 90
0
 91
1
280
0
281
0
  0
CLASS
  1
ACDBPLACEHOLDER
  2
AcDbPlaceHolder
  3
AutoCAD 2000
 90
0
 91
1
280
0
281
0
  0
CLASS
  1
LAYOUT
  2
AcDbLayout
  3
AutoCAD 2000
 90
0
 91
0
280
0
281
0
  0
ENDSEC
  0
SECTION
  2
TABLES
  0
TABLE
  2
VPORT
  5
8
100
AcDbSymbolTable
 70
2
  0
VPORT
  5
1F4
100
AcDbSymbolTableRecord
100
AcDbViewportTableRecord
  2
*ACTIVE
 70
0
 10
0.0
 20
0.0
 11
1.0
 21
1.0
 12
148.5
 22
105.0
 13
0.0
 23
0.0
 14
1.0
 24
1.0
 15
0.0
 25
0.0
 16
0.0
 26
0.0
 36
1.0
 17
0.0
 27
0.0
 37
0.0
 40
210.0
 41
1.4142857143
 42
50.0
 43
0.0
 44
0.0
 50
0.0
 51
0.0
 71
0
 72
100
 73
1
 74
1
 75
0
 76
0
 77
0
 78
0
  0
ENDTAB
  0
TABLE
  2
LTYPE
  5
5
100
AcDbSymbolTable
 70
6
  0
LTYPE
  5
14
100
AcDbSymbolTableRecord
100
AcDbLinetypeTableRecord
  2
BYBLOCK
 70
0
  3

 72
65
 73
0
 40
0.0
  0
LTYPE
  5
15
100
AcDbSymbolTableRecord
100
AcDbLinetypeTableRecord
  2
BYLAYER
 70
0
  3

 72
65
 73
0
 40
0.0
  0
LTYPE
  5
16
100
AcDbSymbolTableRecord
100
AcDbLinetypeTableRecord
  2
CONTINUOUS
 70
64
  3
Solid line
 72
65
 73
0
 40
0.0
  0
LTYPE
  5
1F5
100
AcDbSymbolTableRecord
100
AcDbLinetypeTableRecord
  2
CENTER
 70
64
  3
____ _ ____ _ ____ _ ____ _ ____ _ ____ _ ____
 72
65
 73
4
 40
0.6
 49
0.375
 74
0
 49
-0.075
 74
0
 49
0.075
 74
0
 49
-0.075
 74
0
  0
LTYPE
  5
1F6
100
AcDbSymbolTableRecord
100
AcDbLinetypeTableRecord
  2
HIDDEN
 70
64
  3
- - - - - - - - - - - - - - - - - - - -
 72
65
 73
2
 40
0.2
 49
0.1
 74
0
 49
-0.1
 74
0
  0
LTYPE
  5
1F7
100
AcDbSymbolTableRecord
100
AcDbLinetypeTableRecord
  2
PHANTOM
 70
64
  3
_____ _ _ _____ _ _ _____ _ _ _____
 72
65
 73
6
 40
0.8
 49
0.45
 74
0
 49
-0.05
 74
0
 49
0.1
 74
0
 49
-0.05
 74
0
 49
0.1
 74
0
 49
-0.05
 74
0
  0
LTYPE
  5
1F8
100
AcDbSymbolTableRecord
100
AcDbLinetypeTableRecord
  2
DOT
 70
64
  3
. . . . . . . . . . . . . . . . . . . .
 72
65
 73
2
 40
0.2
 49
0.1
 74
0
 49
-0.1
 74
0
  0
LTYPE
  5
1F9
100
AcDbSymbolTableRecord
100
AcDbLinetypeTableRecord
  2
DASHED
 70
64
  3
- - - - - - - - - - - - - - - - - - - -
 72
65
 73
2
 40
0.2
 49
0.1
 74
0
 49
-0.1
 74
0
  0
ENDTAB
  0
TABLE
  2
LAYER
  5
2
100
AcDbSymbolTable
 70
36
  0
LAYER
  5
10
100
AcDbSymbolTableRecord
100
AcDbLayerTableRecord
  2
0
 70
0
 62
7
  6
CONTINUOUS
370
-3
390
F
  0
LAYER
  5
1FA
100
AcDbSymbolTableRecord
100
AcDbLayerTableRecord
  2
DEFAULT_1
 70
0
 62
7
  6
CENTER
370
-3
390
F
  0
LAYER
  5
1FB
100
AcDbSymbolTableRecord
100
AcDbLayerTableRecord
  2
DEFAULT_2
 70
0
 62
8
  6
HIDDEN
370
-3
390
F
  0
LAYER
  5
1FC
100
AcDbSymbolTableRecord
100
AcDbLayerTableRecord
  2
DEFAULT_3
 70
0
 62
7
  6
PHANTOM
370
-3
390
F
  0
LAYER
  5
1FD
100
AcDbSymbolTableRecord
100
AcDbLayerTableRecord
  2
ACHSEN
 70
0
 62
7
  6
CONTINUOUS
370
-3
390
F
  0
LAYER
  5
1FE
100
AcDbSymbolTableRecord
100
AcDbLayerTableRecord
  2
BEZUGSACHSEN
 70
0
 62
7
  6
CONTINUOUS
370
-3
390
F
  0
LAYER
  5
1FF
100
AcDbSymbolTableRecord
100
AcDbLayerTableRecord
  2
BEZUGSEBENE_B
 70
0
 62
7
  6
CONTINUOUS
370
-3
390
F
  0
LAYER
  5
200
100
AcDbSymbolTableRecord
100
AcDbLayerTableRecord
  2
BOHRUNGEN
 70
0
 62
7
  6
CONTINUOUS
370
-3
390
F
  0
LAYER
  5
201
100
AcDbSymbolTableRecord
100
AcDbLayerTableRecord
  2
EBENEN
 70
0
 62
7
  6
CONTINUOUS
370
-3
390
F
  0
LAYER
  5
202
100
AcDbSymbolTableRecord
100
AcDbLayerTableRecord
  2
FASEN
 70
0
 62
7
  6
CONTINUOUS
370
-3
390
F
  0
LAYER
  5
203
100
AcDbSymbolTableRecord
100
AcDbLayerTableRecord
  2
FLAECHEN
 70
0
 62
7
  6
CONTINUOUS
370
-3
390
F
  0
LAYER
  5
204
100
AcDbSymbolTableRecord
100
AcDbLayerTableRecord
  2
GEWINDE
 70
0
 62
7
  6
CONTINUOUS
370
-3
390
F
  0
LAYER
  5
205
100
AcDbSymbolTableRecord
100
AcDbLayerTableRecord
  2
KOORDSYS
 70
0
 62
7
  6
CONTINUOUS
370
-3
390
F
  0
LAYER
  5
206
100
AcDbSymbolTableRecord
100
AcDbLayerTableRecord
  2
KURVEN
 70
0
 62
7
  6
CONTINUOUS
370
-3
390
F
  0
LAYER
  5
207
100
AcDbSymbolTableRecord
100
AcDbLayerTableRecord
  2
KURVE_FUER_GTOL_DETAILANSICHT
 70
0
 62
7
  6
CONTINUOUS
370
-3
390
F
  0
LAYER
  5
208
100
AcDbSymbolTableRecord
100
AcDbLayerTableRecord
  2
KURVE_GAUGE2_POLIGON_INNENEINST
 70
0
 62
7
  6
CONTINUOUS
370
-3
390
F
  0
LAYER
  5
209
100
AcDbSymbolTableRecord
100
AcDbLayerTableRecord
  2
KURVE_PHANTOM1_GAUGE_PIN_1
 70
0
 62
7
  6
CONTINUOUS
370
-3
390
F
  0
LAYER
  5
20A
100
AcDbSymbolTableRecord
100
AcDbLayerTableRecord
  2
KURVE_PHANTOM2_GAUGE_PIN1
 70
0
 62
7
  6
CONTINUOUS
370
-3
390
F
  0
LAYER
  5
20B
100
AcDbSymbolTableRecord
100
AcDbLayerTableRecord
  2
KURVE_POLIGON_BEMASUNG
 70
0
 62
7
  6
CONTINUOUS
370
-3
390
F
  0
LAYER
  5
20C
100
AcDbSymbolTableRecord
100
AcDbLayerTableRecord
  2
PUNKTE
 70
0
 62
7
  6
CONTINUOUS
370
-3
390
F
  0
LAYER
  5
20D
100
AcDbSymbolTableRecord
100
AcDbLayerTableRecord
  2
RUNDUNGEN
 70
0
 62
7
  6
CONTINUOUS
370
-3
390
F
  0
LAYER
  5
20E
100
AcDbSymbolTableRecord
100
AcDbLayerTableRecord
  2
S_ACHSEN
 70
0
 62
7
  6
CONTINUOUS
370
-3
390
F
  0
LAYER
  5
20F
100
AcDbSymbolTableRecord
100
AcDbLayerTableRecord
  2
S_EBENEN
 70
0
 62
7
  6
CONTINUOUS
370
-3
390
F
  0
LAYER
  5
210
100
AcDbSymbolTableRecord
100
AcDbLayerTableRecord
  2
S_KOORDSYS
 70
0
 62
7
  6
CONTINUOUS
370
-3
390
F
  0
LAYER
  5
211
100
AcDbSymbolTableRecord
100
AcDbLayerTableRecord
  2
TOL_BEZUEGE
 70
0
 62
7
  6
CONTINUOUS
370
-3
390
F
  0
LAYER
  5
212
100
AcDbSymbolTableRecord
100
AcDbLayerTableRecord
  2
VERBFLAECHE
 70
0
 62
7
  6
CONTINUOUS
370
-3
390
F
  0
LAYER
  5
213
100
AcDbSymbolTableRecord
100
AcDbLayerTableRecord
  2
ZEICHNUNGSBEMASSUNGEN
 70
0
 62
7
  6
CONTINUOUS
370
-3
390
F
  0
ENDTAB
  0
TABLE
  2
STYLE
  5
3
100
AcDbSymbolTable
 70
1
  0
STYLE
  5
11
100
AcDbSymbolTableRecord
100
AcDbTextStyleTableRecord
  2
STANDARD
 70
0
 40
0.0
 41
0.7
 50
0.0
 71
0
 42
0.2
  3
txt
  4

  0
STYLE
  5
214
100
AcDbSymbolTableRecord
100
AcDbTextStyleTableRecord
  2
TEXTSTYLE_1
 70
0
 40
0.0
 41
0.8
 50
0.0
 71
0
 42
0.2
  3
gdt
  4

  0
STYLE
  5
215
100
AcDbSymbolTableRecord
100
AcDbTextStyleTableRecord
  2
TEXTSTYLE_2
 70
0
 40
0.0
 41
0.7
 50
0.0
 71
0
 42
0.2
  3
gdt
  4

  0
ENDTAB
  0
TABLE
  2
VIEW
  5
6
100
AcDbSymbolTable
 70
0
  0
ENDTAB
  0
TABLE
  2
UCS
  5
7
100
AcDbSymbolTable
 70
0
  0
ENDTAB
  0
TABLE
  2
APPID
  5
9
100
AcDbSymbolTable
 70
1
  0
APPID
  5
216
100
AcDbSymbolTableRecord
100
AcDbRegAppTableRecord
  2
ACAD
 70
0
  0
ENDTAB
  0
TABLE
  2
BLOCK_RECORD
  5
1
100
AcDbSymbolTable
 70
0
  0
BLOCK_RECORD
  5
217
100
AcDbSymbolTableRecord
100
AcDbBlockTableRecord
  2
*Model_Space
  0
BLOCK_RECORD
  5
218
100
AcDbSymbolTableRecord
100
AcDbBlockTableRecord
  2
*Paper_Space
  0
BLOCK_RECORD
  5
219
100
AcDbSymbolTableRecord
100
AcDbBlockTableRecord
  2
_FILLED
  0
BLOCK_RECORD
  5
21A
100
AcDbSymbolTableRecord
100
AcDbBlockTableRecord
  2
*D0
  0
BLOCK_RECORD
  5
21B
100
AcDbSymbolTableRecord
100
AcDbBlockTableRecord
  2
*D1
  0
BLOCK_RECORD
  5
21C
100
AcDbSymbolTableRecord
100
AcDbBlockTableRecord
  2
*D2
  0
BLOCK_RECORD
  5
21D
100
AcDbSymbolTableRecord
100
AcDbBlockTableRecord
  2
*D3
  0
BLOCK_RECORD
  5
21E
100
AcDbSymbolTableRecord
100
AcDbBlockTableRecord
  2
*D4
  0
BLOCK_RECORD
  5
21F
100
AcDbSymbolTableRecord
100
AcDbBlockTableRecord
  2
*D5
  0
BLOCK_RECORD
  5
220
100
AcDbSymbolTableRecord
100
AcDbBlockTableRecord
  2
*D6
  0
ENDTAB
  0
TABLE
  2
DIMSTYLE
  5
A
100
AcDbSymbolTable
 70
1
100
AcDbDimStyleTable
 71
0
  0
DIMSTYLE
105
221
100
AcDbSymbolTableRecord
100
AcDbDimStyleTableRecord
  2
STANDARD
 70
0
  3

  4

 40
1.0
 41
3.5
 42
0.0625
 43
0.38
 44
0.18
 45
0.0
 46
0.0
 47
0.005
 48
0.005
140
3.5
141
0.09
142
0.0
143
25.4
144
1.0
145
0.0
146
1.0
147
0.09
 71
1.0
 72
0.0
 73
0
 74
0
 75
0
 76
0
 77
1
 78
8
170
0
171
2
172
0
173
0
174
0
175
0
176
0
177
0
178
5
270
2
271
3
272
3
273
2
274
2
275
0
280
0
281
0
282
0
283
1
284
8
285
0
286
0
287
3
288
0
340
11
341
219
342
219
343
219
344
219
  0
DIMSTYLE
105
222
100
AcDbSymbolTableRecord
100
AcDbDimStyleTableRecord
  2
DIMSTYLE_1
 70
0
  3

  4

 40
1.0
 41
3.5
 42
0.0625
 43
0.38
 44
0.18
 45
0.0
 46
0.0
 47
0.0
 48
0.1
140
3.5
141
0.09
142
0.0
143
25.4
144
1.0
145
0.0
146
1.0
147
0.09
 71
0.0
 72
0.0
 73
0
 74
0
 75
0
 76
0
 77
1
 78
8
170
0
171
2
172
0
173
0
174
0
175
0
176
0
177
0
178
5
270
2
271
2
272
2
273
2
274
2
275
0
280
0
281
0
282
0
283
1
284
8
285
0
286
0
287
3
288
0
340
11
341
219
342
219
343
219
344
219
  0
DIMSTYLE
105
223
100
AcDbSymbolTableRecord
100
AcDbDimStyleTableRecord
  2
DIMSTYLE_2
 70
0
  3

  4

 40
1.0
 41
3.5
 42
0.0625
 43
0.38
 44
0.18
 45
0.0
 46
0.0
 47
0.25
 48
0.25
140
3.5
141
0.09
142
0.0
143
25.4
144
1.0
145
0.0
146
1.0
147
0.09
 71
0.0
 72
0.0
 73
0
 74
0
 75
0
 76
0
 77
1
 78
8
170
0
171
2
172
0
173
0
174
0
175
0
176
0
177
0
178
5
270
2
271
2
272
2
273
2
274
2
275
0
280
0
281
0
282
0
283
1
284
8
285
0
286
0
287
3
288
0
340
11
341
219
342
219
343
219
344
219
  0
DIMSTYLE
105
224
100
AcDbSymbolTableRecord
100
AcDbDimStyleTableRecord
  2
DIMSTYLE_3
 70
0
  3

  4

 40
1.0
 41
3.5
 42
0.0625
 43
0.38
 44
0.18
 45
0.0
 46
0.0
 47
0.5
 48
0.5
140
3.5
141
0.09
142
0.0
143
25.4
144
1.0
145
0.0
146
1.0
147
0.09
 71
0.0
 72
0.0
 73
0
 74
0
 75
0
 76
0
 77
1
 78
8
170
0
171
2
172
0
173
0
174
0
175
0
176
0
177
0
178
5
270
2
271
2
272
2
273
2
274
2
275
0
280
0
281
0
282
0
283
1
284
8
285
0
286
0
287
3
288
0
340
11
341
219
342
219
343
219
344
219
  0
DIMSTYLE
105
225
100
AcDbSymbolTableRecord
100
AcDbDimStyleTableRecord
  2
DIMSTYLE_4
 70
0
  3

  4

 40
1.0
 41
3.5
 42
0.0625
 43
0.38
 44
0.18
 45
0.0
 46
0.0
 47
-0.015
 48
0.019
140
3.5
141
0.09
142
0.0
143
25.4
144
1.0
145
0.0
146
1.0
147
0.09
 71
0.0
 72
0.0
 73
0
 74
0
 75
0
 76
0
 77
1
 78
8
170
0
171
2
172
0
173
0
174
0
175
0
176
0
177
0
178
5
270
2
271
3
272
3
273
2
274
2
275
0
280
0
281
0
282
0
283
1
284
8
285
0
286
0
287
3
288
0
340
11
341
219
342
219
343
219
344
219
  0
DIMSTYLE
105
226
100
AcDbSymbolTableRecord
100
AcDbDimStyleTableRecord
  2
DIMSTYLE_5
 70
0
  3

  4

 40
1.0
 41
3.5
 42
0.0625
 43
0.38
 44
0.18
 45
0.0
 46
0.0
 47
0.3
 48
0.3
140
3.5
141
0.09
142
0.0
143
25.4
144
1.0
145
0.0
146
1.0
147
0.09
 71
0.0
 72
0.0
 73
0
 74
0
 75
0
 76
0
 77
1
 78
8
170
0
171
2
172
0
173
0
174
0
175
0
176
0
177
0
178
5
270
2
271
2
272
2
273
2
274
2
275
0
280
0
281
0
282
0
283
1
284
8
285
0
286
0
287
3
288
0
340
11
341
219
342
219
343
219
344
219
  0
ENDTAB
  0
ENDSEC
  0
SECTION
  2
BLOCKS
  0
BLOCK
  5
20
100
AcDbEntity
  8
0
100
AcDbBlockBegin
  2
*Model_Space
 70
0
 10
0.0
 20
0.0
 30
0.0
  3
*Model_Space
  1

  0
ENDBLK
  5
21
100
AcDbEntity
  8
0
100
AcDbBlockEnd
  0
BLOCK
  5
1C
100
AcDbEntity
  8
0
100
AcDbBlockBegin
  2
*Paper_Space
 70
0
 10
0.0
 20
0.0
 30
0.0
  3
*Paper_Space
  1

  0
ENDBLK
  5
1D
100
AcDbEntity
  8
0
100
AcDbBlockEnd
  0
BLOCK
  5
227
100
AcDbEntity
  8
0
100
AcDbBlockBegin
  2
_FILLED
 70
64
 10
0.0
 20
0.0
  3
_FILLED
  1

  0
SOLID
  5
228
100
AcDbEntity
  8
0
  6
BYBLOCK
 62
0
100
AcDbTrace
 10
0.0
 20
0.0
 11
-1.0
 21
0.125
 12
-1.0
 22
-0.125
 13
-1.0
 23
-0.125
  0
ENDBLK
  5
229
100
AcDbEntity
  8
0
  6
BYBLOCK
 62
0
100
AcDbBlockEnd
  0
BLOCK
  5
22A
100
AcDbEntity
  8
0
100
AcDbBlockBegin
 62
2
  6
CONTINUOUS
  2
*D0
 70
65
 10
0.0
 20
0.0
  3
*D0
  1

  0
MTEXT
  5
22B
100
AcDbEntity
  8
0
100
AcDbMText
 62
5
  6
CONTINUOUS
  7
TEXTSTYLE_2
 71
2
 72
1
 10
243.987008368
 20
124.8585321779
 30
0.0
 11
0.0
 21
1.0
 31
0.0
 44
0.9
  1
{\Fgdt;n}\Ftxt;21
 40
3.5
 41
9.4166666667
  0
LINE
  5
22C
100
AcDbEntity
  8
0
100
AcDbLine
 62
2
  6
CONTINUOUS
 10
231.4465735447
 20
135.3335321779
 11
236.6968380293
 21
135.3335321779
  0
LINE
  5
22D
100
AcDbEntity
  8
0
100
AcDbLine
 62
2
  6
CONTINUOUS
 10
240.8592706905
 20
135.3335321779
 11
249.862008368
 21
135.3335321779
  0
LINE
  5
22E
100
AcDbEntity
  8
0
100
AcDbLine
 62
2
  6
CONTINUOUS
 10
231.4465735447
 20
114.3835321779
 11
235.5800878031
 21
114.3835321779
  0
LINE
  5
22F
100
AcDbEntity
  8
0
100
AcDbLine
 62
2
  6
CONTINUOUS
 10
239.1333839773
 20
114.3835321779
 11
249.862008368
 21
114.3835321779
  0
LINE
  5
230
100
AcDbEntity
  8
0
100
AcDbLine
 62
2
  6
CONTINUOUS
 10
248.362008368
 20
135.3335321779
 11
248.362008368
 21
124.8585321779
  0
LINE
  5
231
100
AcDbEntity
  8
0
100
AcDbLine
 62
2
  6
CONTINUOUS
 10
248.362008368
 20
114.3835321779
 11
248.362008368
 21
124.8585321779
  0
INSERT
  5
232
100
AcDbEntity
  8
0
100
AcDbBlockReference
 62
2
  6
CONTINUOUS
  2
_FILLED
 10
248.362008368
 20
135.3335321779
 41
3.5
 42
3.5
 43
3.5
 50
90.0
  0
INSERT
  5
233
100
AcDbEntity
  8
0
100
AcDbBlockReference
 62
2
  6
CONTINUOUS
  2
_FILLED
 10
248.362008368
 20
114.3835321779
 41
3.5
 42
3.5
 43
3.5
 50
270.0
  0
ENDBLK
  5
234
100
AcDbEntity
  8
0
  6
BYBLOCK
 62
0
100
AcDbBlockEnd
  0
BLOCK
  5
235
100
AcDbEntity
  8
0
100
AcDbBlockBegin
 62
2
  6
CONTINUOUS
  2
*D1
 70
65
 10
0.0
 20
0.0
  3
*D1
  1

  0
MTEXT
  5
236
100
AcDbEntity
  8
0
100
AcDbMText
 62
5
  6
CONTINUOUS
  7
STANDARD
 71
2
 72
1
 10
209.5979185199
 20
98.6952870728
 30
0.0
 11
0.5810992054
 21
0.8138327307
 31
0.0
 44
0.9
  1
4\Fgdt;{\Fgdt;~}\Ftxt;30'
 40
3.5
 41
12.3333333333
  0
LINE
  5
237
100
AcDbEntity
  8
0
100
AcDbLine
 62
2
  6
CONTINUOUS
 10
219.0785985057
 20
113.5282039926
 11
221.3286461141
 21
113.7052865798
  0
LINE
  5
238
100
AcDbEntity
  8
0
100
AcDbLine
 62
2
  6
CONTINUOUS
 10
193.3279593362
 20
111.3835321779
 11
222.1628628908
 21
111.3835321779
  0
ARC
  5
239
100
AcDbEntity
  8
0
100
AcDbCircle
 62
2
  6
CONTINUOUS
 10
191.8279593362
 20
111.3835321779
 40
28.8349035546
100
AcDbArc
 50
4.5
 51
16.4221719063
  0
ARC
  5
23A
100
AcDbEntity
  8
0
100
AcDbCircle
 62
2
  6
CONTINUOUS
 10
191.8279593362
 20
111.3835321779
 40
28.8349035546
100
AcDbArc
 50
324.472107918
 51
0.0
  0
ARC
  5
23B
100
AcDbEntity
  8
0
100
AcDbCircle
 62
2
  6
CONTINUOUS
 10
191.8279593362
 20
111.3835321779
 40
28.8349035546
100
AcDbArc
 50
360.0
 51
4.5
  0
SOLID
  5
23C
100
AcDbEntity
  8
0
100
AcDbTrace
 62
2
  6
CONTINUOUS
 10
219.6549754826
 20
117.0513070081
 11
220.5739745063
 21
113.6458926362
 12
220.5215082211
 22
117.1727401717
 13
220.5215082211
 23
117.1727401717
  0
SOLID
  5
23D
100
AcDbEntity
  8
0
100
AcDbTrace
 62
2
  6
CONTINUOUS
 10
220.88727161
 20
107.863440279
 11
220.6628628908
 21
111.3835321779
 12
220.0138825666
 22
107.9165117296
 13
220.0138825666
 23
107.9165117296
  0
ENDBLK
  5
23E
100
AcDbEntity
  8
0
  6
BYBLOCK
 62
0
100
AcDbBlockEnd
  0
BLOCK
  5
23F
100
AcDbEntity
  8
0
100
AcDbBlockBegin
 62
2
  6
CONTINUOUS
  2
*D2
 70
65
 10
0.0
 20
0.0
  3
*D2
  1

  0
MTEXT
  5
240
100
AcDbEntity
  8
0
100
AcDbMText
 62
5
  6
CONTINUOUS
  7
STANDARD
 71
2
 72
1
 10
164.9465735447
 20
176.1611265666
 30
0.0
 11
1.0
 21
0.0
 31
0.0
 44
0.9
  1
130
 40
3.5
 41
7.25
  0
LINE
  5
241
100
AcDbEntity
  8
0
100
AcDbLine
 62
2
  6
CONTINUOUS
 10
99.9465735447
 20
152.3247068867
 11
99.9465735447
 21
173.2861265666
  0
LINE
  5
242
100
AcDbEntity
  8
0
100
AcDbLine
 62
2
  6
CONTINUOUS
 10
229.9465735447
 20
135.6591068867
 11
229.9465735447
 21
173.2861265666
  0
LINE
  5
243
100
AcDbEntity
  8
0
100
AcDbLine
 62
2
  6
CONTINUOUS
 10
99.9465735447
 20
171.7861265666
 11
164.9465735447
 21
171.7861265666
  0
LINE
  5
244
100
AcDbEntity
  8
0
100
AcDbLine
 62
2
  6
CONTINUOUS
 10
229.9465735447
 20
171.7861265666
 11
164.9465735447
 21
171.7861265666
  0
INSERT
  5
245
100
AcDbEntity
  8
0
100
AcDbBlockReference
 62
2
  6
CONTINUOUS
  2
_FILLED
 10
99.9465735447
 20
171.7861265666
 41
3.5
 42
3.5
 43
3.5
 50
180.0
  0
INSERT
  5
246
100
AcDbEntity
  8
0
100
AcDbBlockReference
 62
2
  6
CONTINUOUS
  2
_FILLED
 10
229.9465735447
 20
171.7861265666
 41
3.5
 42
3.5
 43
3.5
  0
ENDBLK
  5
247
100
AcDbEntity
  8
0
  6
BYBLOCK
 62
0
100
AcDbBlockEnd
  0
BLOCK
  5
248
100
AcDbEntity
  8
0
100
AcDbBlockBegin
 62
2
  6
CONTINUOUS
  2
*D3
 70
65
 10
0.0
 20
0.0
  3
*D3
  1

  0
MTEXT
  5
249
100
AcDbEntity
  8
0
100
AcDbMText
 62
5
  6
CONTINUOUS
  7
TEXTSTYLE_2
 71
2
 72
1
 10
235.4985871199
 20
124.8585321779
 30
0.0
 11
0.0
 21
1.0
 31
0.0
 44
0.9
  1
{\Fgdt;n}\Ftxt;8
 40
3.5
 41
7.4166666667
  0
LINE
  5
24A
100
AcDbEntity
  8
0
100
AcDbLine
 62
2
  6
CONTINUOUS
 10
224.2102776462
 20
120.8670321779
 11
241.3735871199
 21
120.8670321779
  0
LINE
  5
24B
100
AcDbEntity
  8
0
100
AcDbLine
 62
2
  6
CONTINUOUS
 10
224.0669176462
 20
128.8500321779
 11
241.3735871199
 21
128.8500321779
  0
LINE
  5
24C
100
AcDbEntity
  8
0
100
AcDbLine
 62
2
  6
CONTINUOUS
 10
239.8735871199
 20
120.8670321779
 11
239.8735871199
 21
124.8585321779
  0
LINE
  5
24D
100
AcDbEntity
  8
0
100
AcDbLine
 62
2
  6
CONTINUOUS
 10
239.8735871199
 20
128.8500321779
 11
239.8735871199
 21
124.8585321779
  0
INSERT
  5
24E
100
AcDbEntity
  8
0
100
AcDbBlockReference
 62
2
  6
CONTINUOUS
  2
_FILLED
 10
239.8735871199
 20
120.8670321779
 41
3.5
 42
3.5
 43
3.5
 50
270.0
  0
INSERT
  5
24F
100
AcDbEntity
  8
0
100
AcDbBlockReference
 62
2
  6
CONTINUOUS
  2
_FILLED
 10
239.8735871199
 20
128.8500321779
 41
3.5
 42
3.5
 43
3.5
 50
90.0
  0
ENDBLK
  5
250
100
AcDbEntity
  8
0
  6
BYBLOCK
 62
0
100
AcDbBlockEnd
  0
BLOCK
  5
251
100
AcDbEntity
  8
0
100
AcDbBlockBegin
 62
2
  6
CONTINUOUS
  2
*D4
 70
65
 10
0.0
 20
0.0
  3
*D4
  1

  0
MTEXT
  5
252
100
AcDbEntity
  8
0
100
AcDbMText
 62
5
  6
CONTINUOUS
  7
STANDARD
 71
2
 72
1
 10
175.9465735447
 20
168.8760471772
 30
0.0
 11
1.0
 21
0.0
 31
0.0
 44
0.9
  1
108
 40
3.5
 41
7.5
  0
LINE
  5
253
100
AcDbEntity
  8
0
100
AcDbLine
 62
2
  6
CONTINUOUS
 10
229.9465735447
 20
115.8835321779
 11
229.9465735447
 21
166.0010471772
  0
LINE
  5
254
100
AcDbEntity
  8
0
100
AcDbLine
 62
2
  6
CONTINUOUS
 10
121.9465735447
 20
150.7119068867
 11
121.9465735447
 21
166.0010471772
  0
LINE
  5
255
100
AcDbEntity
  8
0
100
AcDbLine
 62
2
  6
CONTINUOUS
 10
229.9465735447
 20
164.5010471772
 11
175.9465735447
 21
164.5010471772
  0
LINE
  5
256
100
AcDbEntity
  8
0
100
AcDbLine
 62
2
  6
CONTINUOUS
 10
121.9465735447
 20
164.5010471772
 11
175.9465735447
 21
164.5010471772
  0
INSERT
  5
257
100
AcDbEntity
  8
0
100
AcDbBlockReference
 62
2
  6
CONTINUOUS
  2
_FILLED
 10
229.9465735447
 20
164.5010471772
 41
3.5
 42
3.5
 43
3.5
  0
INSERT
  5
258
100
AcDbEntity
  8
0
100
AcDbBlockReference
 62
2
  6
CONTINUOUS
  2
_FILLED
 10
121.9465735447
 20
164.5010471772
 41
3.5
 42
3.5
 43
3.5
 50
180.0
  0
ENDBLK
  5
259
100
AcDbEntity
  8
0
  6
BYBLOCK
 62
0
100
AcDbBlockEnd
  0
BLOCK
  5
25A
100
AcDbEntity
  8
0
100
AcDbBlockBegin
 62
2
  6
CONTINUOUS
  2
*D5
 70
65
 10
0.0
 20
0.0
  3
*D5
  1

  0
MTEXT
  5
25B
100
AcDbEntity
  8
0
100
AcDbMText
 62
5
  6
CONTINUOUS
  7
STANDARD
 71
2
 72
1
 10
145.9465735447
 20
185.3829078573
 30
0.0
 11
1.0
 21
0.0
 31
0.0
 44
0.9
  1
168
 40
3.5
 41
7.5
  0
LINE
  5
25C
100
AcDbEntity
  8
0
100
AcDbLine
 62
2
  6
CONTINUOUS
 10
229.9465735447
 20
115.8835321779
 11
229.9465735447
 21
182.5079078573
  0
LINE
  5
25D
100
AcDbEntity
  8
0
100
AcDbLine
 62
2
  6
CONTINUOUS
 10
61.9465735447
 20
106.1724164086
 11
61.9465735447
 21
182.5079078573
  0
LINE
  5
25E
100
AcDbEntity
  8
0
100
AcDbLine
 62
2
  6
CONTINUOUS
 10
229.9465735447
 20
181.0079078573
 11
145.9465735447
 21
181.0079078573
  0
LINE
  5
25F
100
AcDbEntity
  8
0
100
AcDbLine
 62
2
  6
CONTINUOUS
 10
61.9465735447
 20
181.0079078573
 11
145.9465735447
 21
181.0079078573
  0
INSERT
  5
260
100
AcDbEntity
  8
0
100
AcDbBlockReference
 62
2
  6
CONTINUOUS
  2
_FILLED
 10
229.9465735447
 20
181.0079078573
 41
3.5
 42
3.5
 43
3.5
  0
INSERT
  5
261
100
AcDbEntity
  8
0
100
AcDbBlockReference
 62
2
  6
CONTINUOUS
  2
_FILLED
 10
61.9465735447
 20
181.0079078573
 41
3.5
 42
3.5
 43
3.5
 50
180.0
  0
ENDBLK
  5
262
100
AcDbEntity
  8
0
  6
BYBLOCK
 62
0
100
AcDbBlockEnd
  0
BLOCK
  5
263
100
AcDbEntity
  8
0
100
AcDbBlockBegin
 62
2
  6
CONTINUOUS
  2
*D6
 70
65
 10
0.0
 20
0.0
  3
*D6
  1

  0
MTEXT
  5
264
100
AcDbEntity
  8
0
100
AcDbMText
 62
5
  6
CONTINUOUS
  7
TEXTSTYLE_2
 71
2
 72
1
 10
251.9438690748
 20
124.8585321779
 30
0.0
 11
0.0
 21
1.0
 31
0.0
 44
0.9
  1
{\Fgdt;n}\Ftxt;27
 40
3.5
 41
10.1666666667
  0
LINE
  5
265
100
AcDbEntity
  8
0
100
AcDbLine
 62
2
  6
CONTINUOUS
 10
193.3279593362
 20
138.3335321779
 11
225.647516551
 21
138.3335321779
  0
LINE
  5
266
100
AcDbEntity
  8
0
100
AcDbLine
 62
2
  6
CONTINUOUS
 10
243.2233328349
 20
138.3335321779
 11
257.8188690748
 21
138.3335321779
  0
LINE
  5
267
100
AcDbEntity
  8
0
100
AcDbLine
 62
2
  6
CONTINUOUS
 10
193.3279593362
 20
111.3835321779
 11
227.3444919163
 21
111.3835321779
  0
LINE
  5
268
100
AcDbEntity
  8
0
100
AcDbLine
 62
2
  6
CONTINUOUS
 10
237.4051315823
 20
111.3835321779
 11
257.8188690748
 21
111.3835321779
  0
LINE
  5
269
100
AcDbEntity
  8
0
100
AcDbLine
 62
2
  6
CONTINUOUS
 10
256.3188690748
 20
138.3335321779
 11
256.3188690748
 21
124.8585321779
  0
LINE
  5
26A
100
AcDbEntity
  8
0
100
AcDbLine
 62
2
  6
CONTINUOUS
 10
256.3188690748
 20
111.3835321779
 11
256.3188690748
 21
124.8585321779
  0
INSERT
  5
26B
100
AcDbEntity
  8
0
100
AcDbBlockReference
 62
2
  6
CONTINUOUS
  2
_FILLED
 10
256.3188690748
 20
138.3335321779
 41
3.5
 42
3.5
 43
3.5
 50
90.0
  0
INSERT
  5
26C
100
AcDbEntity
  8
0
100
AcDbBlockReference
 62
2
  6
CONTINUOUS
  2
_FILLED
 10
256.3188690748
 20
111.3835321779
 41
3.5
 42
3.5
 43
3.5
 50
270.0
  0
ENDBLK
  5
26D
100
AcDbEntity
  8
0
  6
BYBLOCK
 62
0
100
AcDbBlockEnd
  0
ENDSEC
  0
SECTION
  2
ENTITIES
  0
DIMENSION
  5
26E
100
AcDbEntity
  8
0
100
AcDbDimension
 62
2
  6
CONTINUOUS
  2
*D0
 10
248.362008368
 20
114.3835321779
 11
246.7918483393
 21
122.7539150323
 70
160
 71
2
 42
20.95
  1
%%c<>
  3
DIMSTYLE_1
100
AcDbAlignedDimension
 13
231.4465735447
 23
135.3335321779
 14
231.4465735447
 24
114.3835321779
 50
270.0
100
AcDbRotatedDimension
  0
DIMENSION
  5
26F
100
AcDbEntity
  8
0
100
AcDbDimension
 62
2
  6
CONTINUOUS
  2
*D1
 10
222.1628628908
 20
111.3835321779
 11
212.2333145793
 21
99.8653755204
 70
162
 71
2
 42
0.0785398163
  3
DIMSTYLE_2
100
AcDb2LineAngularDimension
 13
221.3286461141
 23
113.7052865798
 14
219.0785985057
 24
113.5282039926
 15
193.3279593362
 25
111.3835321779
 16
220.6406322251
 26
112.5155851789
  0
DIMENSION
  5
270
100
AcDbEntity
  8
0
100
AcDbDimension
 62
2
  6
CONTINUOUS
  2
*D2
 10
229.9465735447
 20
171.7861265666
 11
161.3215735447
 21
174.4111265666
 70
160
 71
2
 42
130.0
  3
DIMSTYLE_3
100
AcDbAlignedDimension
 13
99.9465735447
 23
152.3247068867
 14
229.9465735447
 24
135.6591068867
100
AcDbRotatedDimension
  0
DIMENSION
  5
271
100
AcDbEntity
  8
0
100
AcDbDimension
 62
2
  6
CONTINUOUS
  2
*D3
 10
239.8735871199
 20
128.8500321779
 11
238.0793902831
 21
123.2009133641
 70
160
 71
2
 42
7.983
  1
%%c<>
  3
DIMSTYLE_4
100
AcDbAlignedDimension
 13
224.2102776462
 23
120.8670321779
 14
224.0669176462
 24
128.8500321779
 50
90.0
100
AcDbRotatedDimension
  0
DIMENSION
  5
272
100
AcDbEntity
  8
0
100
AcDbDimension
 62
2
  6
CONTINUOUS
  2
*D4
 10
121.9465735447
 20
164.5010471772
 11
172.1965735447
 21
167.1260471772
 70
160
 71
2
 42
108.0
  3
DIMSTYLE_5
100
AcDbAlignedDimension
 13
229.9465735447
 23
115.8835321779
 14
121.9465735447
 24
150.7119068867
 50
180.0
100
AcDbRotatedDimension
  0
DIMENSION
  5
273
100
AcDbEntity
  8
0
100
AcDbDimension
 62
2
  6
CONTINUOUS
  2
*D5
 10
61.9465735447
 20
181.0079078573
 11
142.1965735447
 21
183.6329078573
 70
160
 71
2
 42
168.0
  3
DIMSTYLE_3
100
AcDbAlignedDimension
 13
229.9465735447
 23
115.8835321779
 14
61.9465735447
 24
106.1724164086
 50
180.0
100
AcDbRotatedDimension
  0
DIMENSION
  5
274
100
AcDbEntity
  8
0
100
AcDbDimension
 62
2
  6
CONTINUOUS
  2
*D6
 10
256.3188690748
 20
111.3835321779
 11
254.8327228492
 21
122.5862906579
 70
160
 71
2
 42
26.95
  1
%%c<>
  3
DIMSTYLE_1
100
AcDbAlignedDimension
 13
193.3279593362
 23
138.3335321779
 14
193.3279593362
 24
111.3835321779
 50
270.0
100
AcDbRotatedDimension
  0
MTEXT
  5
275
100
AcDbEntity
  8
0
100
AcDbMText
 62
5
  6
CONTINUOUS
  7
STANDARD
 71
1
 72
1
 10
10.4745018711
 20
85.5181343035
 30
0.0
 11
1.0
 21
0.0
 31
0.0
 44
0.9
  3
Für diese Unterlage behalten wir das Ur-\Pheberrecht. Sie darf nur für den von uns \Pbestimmten Zweck benutzt und ohne unsere \PZustimmung weder vervielfältigt noch\PDritten zugänglich gemacht werden\P \PWe own the copyright of this document. It \Pde
  1
termined and may neither be copied or \Pmade accessible to outsiders without our\Ppermission.\P \PCe plan reste notre propriété. Il ne peut\Pêtre utilisé, copié ou reproduit sans notre\Paccord.\P 
 40
3.5
 41
104.8333333333
  0
LINE
  5
276
100
AcDbEntity
  8
0
100
AcDbLine
 62
7
  6
CONTINUOUS
 10
0.0
 20
0.0
 11
0.0
 21
210.0
  0
LINE
  5
277
100
AcDbEntity
  8
0
100
AcDbLine
 62
7
  6
CONTINUOUS
 10
0.0
 20
0.0
 11
297.0
 21
0.0
  0
LINE
  5
278
100
AcDbEntity
  8
0
100
AcDbLine
 62
7
  6
CONTINUOUS
 10
0.0
 20
210.0
 11
297.0
 21
210.0
  0
LINE
  5
279
100
AcDbEntity
  8
0
100
AcDbLine
 62
7
  6
CONTINUOUS
 10
297.0
 20
0.0
 11
297.0
 21
210.0
  0
LINE
  5
27A
100
AcDbEntity
  8
0
100
AcDbLine
 62
7
  6
CONTINUOUS
 10
61.9465735447
 20
103.166194185
 11
61.9465735447
 21
139.8197768166
  0
LINE
  5
27B
100
AcDbEntity
  8
KURVEN
100
AcDbLine
 62
4
  6
CONTINUOUS
 10
61.9465735447
 20
102.3378540022
 11
61.9465735447
 21
144.0701061648
  0
LINE
  5
27C
100
AcDbEntity
  8
ACHSEN
100
AcDbLine
 62
7
  6
CONTINUOUS
 10
61.9465735447
 20
139.8197768166
 11
61.9465735447
 21
143.6070114919
  0
LINE
  5
27D
100
AcDbEntity
  8
ACHSEN
100
AcDbLine
 62
7
  6
CONTINUOUS
 10
63.4465735447
 20
144.3555217914
 11
63.4465735447
 21
140.5697768166
  0
LINE
  5
27E
100
AcDbEntity
  8
0
100
AcDbLine
 62
7
  6
CONTINUOUS
 10
63.4465735447
 20
140.5697768166
 11
63.4465735447
 21
102.3001687812
  0
LINE
  5
27F
100
AcDbEntity
  8
ACHSEN
100
AcDbLine
 62
7
  6
CENTER
 10
84.4465735447
 20
101.9250466708
 11
84.4465735447
 21
149.0469027424
  0
LINE
  5
280
100
AcDbEntity
  8
0
100
AcDbLine
 62
7
  6
CONTINUOUS
 10
99.9465753807
 20
156.0585302705
 11
100.2465754705
 21
156.3585303244
  0
LINE
  5
281
100
AcDbEntity
  8
0
100
AcDbLine
 62
9
  6
CONTINUOUS
 10
63.4465735447
 20
140.5697768166
 11
61.9465735447
 21
139.8197768166
  0
LINE
  5
282
100
AcDbEntity
  8
0
100
AcDbLine
 62
7
  6
CONTINUOUS
 10
63.4465735447
 20
102.3001687812
 11
61.9465735447
 21
103.166194185
  0
LINE
  5
283
100
AcDbEntity
  8
0
100
AcDbLine
 62
7
  6
CONTINUOUS
 10
97.7466366338
 20
145.4786325475
 11
97.7466366338
 21
141.3160629265
  0
LINE
  5
284
100
AcDbEntity
  8
0
100
AcDbLine
 62
7
  6
CONTINUOUS
 10
97.7466366338
 20
130.0834033085
 11
97.7466366338
 21
103.1761302986
  0
LINE
  5
285
100
AcDbEntity
  8
0
100
AcDbLine
 62
9
  6
CONTINUOUS
 10
97.9515966558
 20
145.2837187476
 11
97.9515966558
 21
139.5434743826
  0
LINE
  5
286
100
AcDbEntity
  8
0
100
AcDbLine
 62
9
  6
CONTINUOUS
 10
97.9515966558
 20
133.0444753646
 11
97.9515966558
 21
101.9876467864
  0
LINE
  5
287
100
AcDbEntity
  8
0
100
AcDbLine
 62
9
  6
CONTINUOUS
 10
98.6394667635
 20
102.1156389591
 11
98.6394667635
 21
102.7549755269
  0
LINE
  5
288
100
AcDbEntity
  8
0
100
AcDbLine
 62
9
  6
CONTINUOUS
 10
98.6394667635
 20
131.2730719386
 11
98.6394667635
 21
140.5475490681
  0
LINE
  5
289
100
AcDbEntity
  8
0
100
AcDbLine
 62
9
  6
CONTINUOUS
 10
99.5515966558
 20
145.3239163168
 11
99.5515966558
 21
141.2030104648
  0
LINE
  5
28A
100
AcDbEntity
  8
0
100
AcDbLine
 62
9
  6
CONTINUOUS
 10
99.5515966558
 20
130.041482631
 11
99.5515966558
 21
103.3311034378
  0
LINE
  5
28B
100
AcDbEntity
  8
0
100
AcDbLine
 62
7
  6
CONTINUOUS
 10
99.9465735447
 20
93.6588078474
 11
99.9465735447
 21
156.0582565083
  0
LINE
  5
28C
100
AcDbEntity
  8
0
100
AcDbLine
 62
7
  6
CONTINUOUS
 10
100.2465736183
 20
93.3585321779
 11
100.2465736183
 21
156.3585321779
  0
LINE
  5
28D
100
AcDbEntity
  8
0
100
AcDbLine
 62
7
  6
CONTINUOUS
 10
99.7465086929
 20
141.6481067636
 11
99.7465735447
 21
147.3920170389
  0
LINE
  5
28E
100
AcDbEntity
  8
0
100
AcDbLine
 62
7
  6
CONTINUOUS
 10
99.7465086929
 20
103.4483640864
 11
99.7464775783
 21
129.483757392
  0
LINE
  5
28F
100
AcDbEntity
  8
0
100
AcDbLine
 62
9
  6
CONTINUOUS
 10
63.4465735447
 20
103.9224164086
 11
61.9465735447
 21
104.6724164086
  0
LINE
  5
290
100
AcDbEntity
  8
0
100
AcDbLine
 62
7
  6
CONTINUOUS
 10
99.9465753807
 20
93.6585340852
 11
100.2465754705
 21
93.3585340313
  0
LINE
  5
291
100
AcDbEntity
  8
0
100
AcDbLine
 62
9
  6
CONTINUOUS
 10
110.0522359774
 20
154.7724870243
 11
110.0522359774
 21
134.7279447968
  0
LINE
  5
292
100
AcDbEntity
  8
0
100
AcDbLine
 62
9
  6
CONTINUOUS
 10
110.0522359774
 20
114.9891195589
 11
110.0522359774
 21
94.9445773314
  0
LINE
  5
293
100
AcDbEntity
  8
0
100
AcDbLine
 62
9
  6
CONTINUOUS
 10
110.4852486793
 20
154.9391249382
 11
110.4852486793
 21
134.2077534924
  0
LINE
  5
294
100
AcDbEntity
  8
0
100
AcDbLine
 62
9
  6
CONTINUOUS
 10
110.4852486793
 20
115.5093108634
 11
110.4852486793
 21
94.7779394176
  0
LINE
  5
295
100
AcDbEntity
  8
ACHSEN
100
AcDbLine
 62
7
  6
CENTER
 10
111.9465735447
 20
147.2769769289
 11
111.9465735447
 21
159.3585321779
  0
LINE
  5
296
100
AcDbEntity
  8
0
100
AcDbLine
 62
9
  6
CONTINUOUS
 10
113.4078984101
 20
154.9391249382
 11
113.4078984101
 21
134.2077534924
  0
LINE
  5
297
100
AcDbEntity
  8
0
100
AcDbLine
 62
9
  6
CONTINUOUS
 10
113.4078984101
 20
115.5093108634
 11
113.4078984101
 21
94.7779394176
  0
LINE
  5
298
100
AcDbEntity
  8
0
100
AcDbLine
 62
9
  6
CONTINUOUS
 10
113.840911112
 20
154.7724870243
 11
113.840911112
 21
134.7279447968
  0
LINE
  5
299
100
AcDbEntity
  8
0
100
AcDbLine
 62
9
  6
CONTINUOUS
 10
113.840911112
 20
114.9891195589
 11
113.840911112
 21
94.9445773314
  0
LINE
  5
29A
100
AcDbEntity
  8
0
100
AcDbLine
 62
7
  6
CONTINUOUS
 10
121.9465735447
 20
93.3585321779
 11
100.2465736171
 21
93.3585321779
  0
LINE
  5
29B
100
AcDbEntity
  8
0
100
AcDbLine
 62
7
  6
CONTINUOUS
 10
121.9465735447
 20
93.3585321779
 11
121.9465735447
 21
156.3585321779
  0
LINE
  5
29C
100
AcDbEntity
  8
0
100
AcDbLine
 62
7
  6
CONTINUOUS
 10
98.6394667635
 20
102.1156389591
 11
97.9569763672
 21
101.4331485628
  0
LINE
  5
29D
100
AcDbEntity
  8
0
100
AcDbLine
 62
7
  6
CONTINUOUS
 10
113.4078984101
 20
94.7779394176
 11
110.4852486793
 21
94.7779394176
  0
LINE
  5
29E
100
AcDbEntity
  8
0
100
AcDbLine
 62
7
  6
CONTINUOUS
 10
98.1996022955
 20
101.9818033026
 11
97.9515966558
 21
101.9876467864
  0
LINE
  5
29F
100
AcDbEntity
  8
0
100
AcDbLine
 62
7
  6
CONTINUOUS
 10
63.4465735447
 20
102.3001687812
 11
97.9569763675
 21
101.4331473421
  0
LINE
  5
2A0
100
AcDbEntity
  8
0
100
AcDbLine
 62
9
  6
CONTINUOUS
 10
97.7466366338
 20
103.1761302986
 11
63.4465735447
 21
103.9224164086
  0
LINE
  5
2A1
100
AcDbEntity
  8
RUNDUNGEN
100
AcDbLine
 62
9
  6
CONTINUOUS
 10
133.9465735447
 20
138.3335321779
 11
133.9465735447
 21
111.3835321779
  0
LINE
  5
2A2
100
AcDbEntity
  8
RUNDUNGEN
100
AcDbLine
 62
7
  6
CONTINUOUS
 10
229.0250326404
 20
114.3110053358
 11
191.8279593362
 21
111.3835321779
  0
LINE
  5
2A3
100
AcDbEntity
  8
0
100
AcDbLine
 62
7
  6
CONTINUOUS
 10
191.8279593362
 20
111.3835321779
 11
229.0250326404
 21
114.3110053358
  0
LINE
  5
2A4
100
AcDbEntity
  8
0
100
AcDbLine
 62
7
  6
CONTINUOUS
 10
191.8279593362
 20
111.3835321779
 11
189.1965735447
 21
111.3835321779
  0
LINE
  5
2A5
100
AcDbEntity
  8
0
100
AcDbLine
 62
7
  6
CONTINUOUS
 10
180.6965735447
 20
111.3835321779
 11
133.9465735447
 21
111.3835321779
  0
LINE
  5
2A6
100
AcDbEntity
  8
0
100
AcDbLine
 62
7
  6
CONTINUOUS
 10
181.4305481409
 20
111.6835321779
 11
182.4465735447
 21
111.6835321779
  0
LINE
  5
2A7
100
AcDbEntity
  8
0
100
AcDbLine
 62
7
  6
CONTINUOUS
 10
187.4465735447
 20
111.6835321779
 11
188.4625989485
 21
111.6835321779
  0
LINE
  5
2A8
100
AcDbEntity
  8
0
100
AcDbLine
 62
7
  6
CONTINUOUS
 10
113.4078984101
 20
115.5093108634
 11
110.4852486793
 21
115.5093108634
  0
LINE
  5
2A9
100
AcDbEntity
  8
DEFAULT_2
100
AcDbLine
 62
8
  6
HIDDEN
 10
192.4963384283
 20
120.5170321779
 11
202.5613642635
 21
120.5170321779
  0
LINE
  5
2AA
100
AcDbEntity
  8
0
100
AcDbLine
 62
7
  6
CONTINUOUS
 10
188.8625989485
 20
138.1407118549
 11
189.1965735447
 21
138.3335321779
  0
LINE
  5
2AB
100
AcDbEntity
  8
RUNDUNGEN
100
AcDbLine
 62
7
  6
CONTINUOUS
 10
188.8625989485
 20
138.1407118549
 11
189.1965735447
 21
138.3335321779
  0
LINE
  5
2AC
100
AcDbEntity
  8
BOHRUNGEN
100
AcDbLine
 62
8
  6
HIDDEN
 10
203.9465735447
 20
120.8670321779
 11
227.6465735447
 21
120.8670321779
  0
LINE
  5
2AD
100
AcDbEntity
  8
S_ACHSEN
100
AcDbLine
 62
7
  6
CENTER
 10
58.9465735447
 20
124.8585321779
 11
232.9465735447
 21
124.8585321779
  0
LINE
  5
2AE
100
AcDbEntity
  8
0
100
AcDbLine
 62
7
  6
CONTINUOUS
 10
97.9515966558
 20
133.0444753646
 11
98.1996022955
 21
133.0454896205
  0
LINE
  5
2AF
100
AcDbEntity
  8
BOHRUNGEN
100
AcDbLine
 62
8
  6
HIDDEN
 10
203.9465735447
 20
128.8500321779
 11
227.6465735447
 21
128.8500321779
  0
LINE
  5
2B0
100
AcDbEntity
  8
RUNDUNGEN
100
AcDbLine
 62
8
  6
HIDDEN
 10
202.5613642635
 20
129.2000321779
 11
192.4963384283
 21
129.2000321779
  0
LINE
  5
2B1
100
AcDbEntity
  8
DEFAULT_2
100
AcDbLine
 62
8
  6
HIDDEN
 10
192.4963384283
 20
129.2000321779
 11
202.5613642635
 21
129.2000321779
  0
LINE
  5
2B2
100
AcDbEntity
  8
0
100
AcDbLine
 62
9
  6
CONTINUOUS
 10
61.9465735447
 20
130.0834033085
 11
97.7466366338
 21
130.0834033085
  0
LINE
  5
2B3
100
AcDbEntity
  8
0
100
AcDbLine
 62
7
  6
CONTINUOUS
 10
113.4078984101
 20
134.2077534924
 11
110.4852486793
 21
134.2077534924
  0
LINE
  5
2B4
100
AcDbEntity
  8
0
100
AcDbLine
 62
7
  6
CONTINUOUS
 10
181.4305481409
 20
138.0335321779
 11
182.4465735447
 21
138.0335321779
  0
LINE
  5
2B5
100
AcDbEntity
  8
BEZUGSACHSEN
100
AcDbLine
 62
7
  6
CONTINUOUS
 10
181.4305481409
 20
138.0335321779
 11
182.4465735447
 21
138.0335321779
  0
LINE
  5
2B6
100
AcDbEntity
  8
0
100
AcDbLine
 62
7
  6
CONTINUOUS
 10
187.4465735447
 20
138.0335321779
 11
188.4625989485
 21
138.0335321779
  0
LINE
  5
2B7
100
AcDbEntity
  8
BEZUGSACHSEN
100
AcDbLine
 62
7
  6
CONTINUOUS
 10
187.4465735447
 20
138.0335321779
 11
188.4625989485
 21
138.0335321779
  0
LINE
  5
2B8
100
AcDbEntity
  8
0
100
AcDbLine
 62
7
  6
CONTINUOUS
 10
191.8279593362
 20
138.3335321779
 11
189.1965735447
 21
138.3335321779
  0
LINE
  5
2B9
100
AcDbEntity
  8
0
100
AcDbLine
 62
7
  6
CONTINUOUS
 10
133.9465735447
 20
138.3335321779
 11
180.6965735447
 21
138.3335321779
  0
LINE
  5
2BA
100
AcDbEntity
  8
0
100
AcDbLine
 62
7
  6
CONTINUOUS
 10
188.8625989485
 20
111.5763525009
 11
189.1965735447
 21
111.3835321779
  0
LINE
  5
2BB
100
AcDbEntity
  8
RUNDUNGEN
100
AcDbLine
 62
7
  6
CONTINUOUS
 10
188.8625989485
 20
111.5763525009
 11
189.1965735447
 21
111.3835321779
  0
LINE
  5
2BC
100
AcDbEntity
  8
0
100
AcDbLine
 62
7
  6
CONTINUOUS
 10
180.6965735447
 20
111.3835321779
 11
181.0305481409
 21
111.5763525009
  0
LINE
  5
2BD
100
AcDbEntity
  8
RUNDUNGEN
100
AcDbLine
 62
7
  6
CONTINUOUS
 10
180.6965735447
 20
111.3835321779
 11
181.0305481409
 21
111.5763525009
  0
LINE
  5
2BE
100
AcDbEntity
  8
0
100
AcDbLine
 62
7
  6
CONTINUOUS
 10
97.9515966558
 20
145.2837187476
 11
99.5515966558
 21
145.3239163168
  0
LINE
  5
2BF
100
AcDbEntity
  8
0
100
AcDbLine
 62
7
  6
CONTINUOUS
 10
70.2101782988
 20
144.786820868
 11
79.9965735447
 21
145.0326891801
  0
LINE
  5
2C0
100
AcDbEntity
  8
0
100
AcDbLine
 62
7
  6
CONTINUOUS
 10
89.1259348779
 20
145.2620505133
 11
97.7466366338
 21
145.4786325475
  0
LINE
  5
2C1
100
AcDbEntity
  8
0
100
AcDbLine
 62
9
  6
CONTINUOUS
 10
63.4465735447
 20
140.5697768166
 11
97.7466366338
 21
141.3160629265
  0
LINE
  5
2C2
100
AcDbEntity
  8
0
100
AcDbLine
 62
7
  6
CONTINUOUS
 10
98.1996022955
 20
139.5483036106
 11
97.9515966558
 21
139.5434743826
  0
LINE
  5
2C3
100
AcDbEntity
  8
RUNDUNGEN
100
AcDbLine
 62
7
  6
CONTINUOUS
 10
229.0250326404
 20
135.40605902
 11
191.8279593362
 21
138.3335321779
  0
LINE
  5
2C4
100
AcDbEntity
  8
0
100
AcDbLine
 62
7
  6
CONTINUOUS
 10
191.8279593362
 20
138.3335321779
 11
229.0250326404
 21
135.40605902
  0
LINE
  5
2C5
100
AcDbEntity
  8
0
100
AcDbLine
 62
7
  6
CONTINUOUS
 10
180.6965735447
 20
138.3335321779
 11
181.0305481409
 21
138.1407118549
  0
LINE
  5
2C6
100
AcDbEntity
  8
RUNDUNGEN
100
AcDbLine
 62
7
  6
CONTINUOUS
 10
180.6965735447
 20
138.3335321779
 11
181.0305481409
 21
138.1407118549
  0
LINE
  5
2C7
100
AcDbEntity
  8
0
100
AcDbLine
 62
7
  6
CONTINUOUS
 10
180.6965735447
 20
138.3335321779
 11
180.6965735447
 21
111.3835321779
  0
LINE
  5
2C8
100
AcDbEntity
  8
RUNDUNGEN
100
AcDbLine
 62
9
  6
CONTINUOUS
 10
181.0305481409
 20
111.5763525009
 11
181.0305481409
 21
138.1407118549
  0
LINE
  5
2C9
100
AcDbEntity
  8
RUNDUNGEN
100
AcDbLine
 62
9
  6
CONTINUOUS
 10
181.4305481409
 20
111.6835321779
 11
181.4305481409
 21
138.0335321779
  0
LINE
  5
2CA
100
AcDbEntity
  8
BEZUGSACHSEN
100
AcDbLine
 62
7
  6
CENTER
 10
184.9465735447
 20
141.0335321779
 11
184.9465735447
 21
127.3335321779
  0
LINE
  5
2CB
100
AcDbEntity
  8
BEZUGSACHSEN
100
AcDbLine
 62
7
  6
CENTER
 10
184.9465735447
 20
108.6835321779
 11
184.9465735447
 21
122.3835321779
  0
LINE
  5
2CC
100
AcDbEntity
  8
0
100
AcDbLine
 62
7
  6
CONTINUOUS
 10
113.4078984101
 20
154.9391249382
 11
110.4852486793
 21
154.9391249382
  0
LINE
  5
2CD
100
AcDbEntity
  8
0
100
AcDbLine
 62
7
  6
CONTINUOUS
 10
121.9465735447
 20
156.3585321779
 11
117.1684845729
 21
156.3585321779
  0
LINE
  5
2CE
100
AcDbEntity
  8
0
100
AcDbLine
 62
7
  6
CONTINUOUS
 10
106.7246625165
 20
156.3585321779
 11
100.2465736171
 21
156.3585321779
  0
LINE
  5
2CF
100
AcDbEntity
  8
RUNDUNGEN
100
AcDbLine
 62
9
  6
CONTINUOUS
 10
188.4625989485
 20
111.6835321779
 11
188.4625989485
 21
138.0335321779
  0
LINE
  5
2D0
100
AcDbEntity
  8
RUNDUNGEN
100
AcDbLine
 62
9
  6
CONTINUOUS
 10
188.8625989485
 20
111.5763525009
 11
188.8625989485
 21
138.1407118549
  0
LINE
  5
2D1
100
AcDbEntity
  8
0
100
AcDbLine
 62
7
  6
CONTINUOUS
 10
189.1965735447
 20
138.3335321779
 11
189.1965735447
 21
111.3835321779
  0
LINE
  5
2D2
100
AcDbEntity
  8
0
100
AcDbLine
 62
7
  6
CONTINUOUS
 10
191.8279593362
 20
111.3835321779
 11
191.8279593362
 21
138.3335321779
  0
LINE
  5
2D3
100
AcDbEntity
  8
RUNDUNGEN
100
AcDbLine
 62
9
  6
CONTINUOUS
 10
192.4963384283
 20
120.5170321779
 11
192.4963384283
 21
129.2000321779
  0
LINE
  5
2D4
100
AcDbEntity
  8
RUNDUNGEN
100
AcDbLine
 62
9
  6
CONTINUOUS
 10
229.0250326404
 20
114.3110053358
 11
229.0250326404
 21
135.40605902
  0
LINE
  5
2D5
100
AcDbEntity
  8
RUNDUNGEN
100
AcDbLine
 62
7
  6
CONTINUOUS
 10
229.9465735447
 20
134.4091416862
 11
229.9465735447
 21
115.3079226695
  0
ARC
  5
2D6
100
AcDbEntity
  8
0
100
AcDbCircle
 62
7
  6
CONTINUOUS
 10
-8.8054376501
 20
105.5490433487
 40
110.4813700646
100
AcDbArc
 50
13.4640903998
 51
14.4111621352
  0
ARC
  5
2D7
100
AcDbEntity
  8
ACHSEN
100
AcDbCircle
 62
7
  6
CONTINUOUS
 10
75.2081451644
 20
109.2901289926
 40
35.8451025481
100
AcDbArc
 50
98.0149288422
 51
101.1172700805
  0
ARC
  5
2D8
100
AcDbEntity
  8
0
100
AcDbCircle
 62
7
  6
CONTINUOUS
 10
99.3465735447
 20
101.4085321779
 40
1.0
100
AcDbArc
 50
53.0400606802
 51
135.0
  0
ARC
  5
2D9
100
AcDbEntity
  8
0
100
AcDbCircle
 62
7
  6
CONTINUOUS
 10
99.3465735447
 20
148.3085321779
 40
1.0
100
AcDbArc
 50
293.5781784782
 51
306.9599393198
  0
ARC
  5
2DA
100
AcDbEntity
  8
0
100
AcDbCircle
 62
7
  6
CONTINUOUS
 10
99.5465735447
 20
145.5238532277
 40
0.2
100
AcDbArc
 50
271.439166666
 51
360.0
  0
ARC
  5
2DB
100
AcDbEntity
  8
0
100
AcDbCircle
 62
7
  6
CONTINUOUS
 10
97.9465735447
 20
145.4836556586
 40
0.2
100
AcDbArc
 50
181.439166666
 51
271.439166666
  0
ARC
  5
2DC
100
AcDbEntity
  8
ACHSEN
100
AcDbCircle
 62
7
  6
CONTINUOUS
 10
-1.8116434334
 20
273.2544717306
 40
144.4768984253
100
AcDbArc
 50
296.187103939
 51
296.8519184685
  0
ARC
  5
2DD
100
AcDbEntity
  8
FASEN
100
AcDbCircle
 62
7
  6
CONTINUOUS
 10
112.2360503746
 20
189.1863987771
 40
33.2873971372
100
AcDbArc
 50
260.5363441584
 51
261.5195290198
  0
ARC
  5
2DE
100
AcDbEntity
  8
FASEN
100
AcDbCircle
 62
7
  6
CONTINUOUS
 10
111.6579808439
 20
189.1753307137
 40
33.2763235045
100
AcDbArc
 50
278.4862153232
 51
278.938601905
  0
ARC
  5
2DF
100
AcDbEntity
  8
FASEN
100
AcDbCircle
 62
7
  6
CONTINUOUS
 10
111.9070276068
 20
187.4559179105
 40
31.5389845485
100
AcDbArc
 50
270.0718417527
 51
278.499688098
  0
ARC
  5
2E0
100
AcDbEntity
  8
FASEN
100
AcDbCircle
 62
7
  6
CONTINUOUS
 10
111.9596445446
 20
187.1020489207
 40
31.1850935053
100
AcDbArc
 50
261.4570610701
 51
269.9759848997
  0
ARC
  5
2E1
100
AcDbEntity
  8
0
100
AcDbCircle
 62
7
  6
CONTINUOUS
 10
244.1807463215
 20
75.8843343056
 40
159.2595221605
100
AcDbArc
 50
156.0446773748
 51
156.4374589831
  0
ARC
  5
2E2
100
AcDbEntity
  8
BEZUGSACHSEN
100
AcDbCircle
 62
7
  6
CONTINUOUS
 10
184.9220130917
 20
98.516169698
 40
13.4071935973
100
AcDbArc
 50
79.1464706198
 51
88.2265054717
  0
ARC
  5
2E3
100
AcDbEntity
  8
BEZUGSACHSEN
100
AcDbCircle
 62
7
  6
CONTINUOUS
 10
184.9711277152
 20
151.2008391257
 40
13.4071378757
100
AcDbArc
 50
259.1464523011
 51
268.2274182725
  0
ARC
  5
2E4
100
AcDbEntity
  8
BEZUGSACHSEN
100
AcDbCircle
 62
7
  6
CONTINUOUS
 10
184.9478406079
 20
98.9851115595
 40
12.937786757
100
AcDbArc
 50
88.2612108859
 51
91.4420868052
  0
ARC
  5
2E5
100
AcDbEntity
  8
BEZUGSACHSEN
100
AcDbCircle
 62
7
  6
CONTINUOUS
 10
184.9453085629
 20
150.7319436547
 40
12.9377776153
100
AcDbArc
 50
268.2621519168
 51
271.4412575567
  0
ARC
  5
2E6
100
AcDbEntity
  8
RUNDUNGEN
100
AcDbCircle
 62
7
  6
CONTINUOUS
 10
133.9465735447
 20
150.3335321779
 40
12.0
100
AcDbArc
 50
180.0000000006
 51
270.0
  0
ARC
  5
2E7
100
AcDbEntity
  8
RUNDUNGEN
100
AcDbCircle
 62
7
  6
CONTINUOUS
 10
133.9465735447
 20
99.3835321779
 40
12.0
100
AcDbArc
 50
90.0
 51
179.9999999985
  0
ARC
  5
2E8
100
AcDbEntity
  8
0
100
AcDbCircle
 62
2
  6
CONTINUOUS
 10
184.9462045241
 20
124.8589982659
 40
2.9994708908
100
AcDbArc
 50
255.091347268
 51
194.9961310771
  0
CIRCLE
  5
2E9
100
AcDbEntity
  8
BEZUGSACHSEN
100
AcDbCircle
 62
7
  6
CONTINUOUS
 10
184.9465735447
 20
124.8585321779
 40
2.5
  0
ARC
  5
2EA
100
AcDbEntity
  8
RUNDUNGEN
100
AcDbCircle
 62
7
  6
CONTINUOUS
 10
228.9465735447
 20
134.4091416862
 40
1.0
100
AcDbArc
 50
0.0
 51
85.4999999938
  0
ARC
  5
2EB
100
AcDbEntity
  8
RUNDUNGEN
100
AcDbCircle
 62
7
  6
CONTINUOUS
 10
228.9465735447
 20
115.3079226695
 40
1.0
100
AcDbArc
 50
274.5000000049
 51
360.0
  0
ARC
  5
2EC
100
AcDbEntity
  8
RUNDUNGEN
100
AcDbCircle
 62
7
  6
CONTINUOUS
 10
188.4625989485
 20
138.8335321779
 40
0.8
100
AcDbArc
 50
270.0
 51
300.0000000088
  0
ARC
  5
2ED
100
AcDbEntity
  8
RUNDUNGEN
100
AcDbCircle
 62
7
  6
CONTINUOUS
 10
188.4625989485
 20
110.8835321779
 40
0.8
100
AcDbArc
 50
59.9999999475
 51
90.0
  0
ARC
  5
2EE
100
AcDbEntity
  8
RUNDUNGEN
100
AcDbCircle
 62
7
  6
CONTINUOUS
 10
181.4305481409
 20
138.8335321779
 40
0.8
100
AcDbArc
 50
239.999999991
 51
270.0
  0
ARC
  5
2EF
100
AcDbEntity
  8
RUNDUNGEN
100
AcDbCircle
 62
7
  6
CONTINUOUS
 10
181.4305481409
 20
110.8835321779
 40
0.8
100
AcDbArc
 50
90.0
 51
120.000000051
  0
SPLINE
  5
2F0
100
AcDbEntity
  8
0
100
AcDbSpline
 62
2
  6
CONTINUOUS
 70
0
 71
3
 72
13
 73
9
 74
0
 42
0.0000001
 43
0.0000001
 44
0.0000000001
 40
0.0
 40
0.0
 40
0.0
 40
0.0
 40
0.1666666667
 40
0.3333333333
 40
0.5
 40
0.6666666667
 40
0.8333333333
 40
1.0
 40
1.0
 40
1.0
 40
1.0
 10
187.9465735447
 20
111.6835321779
 30
0.0
 10
187.9465735447
 20
111.6835321779
 30
0.0
 10
187.8755226102
 20
111.6999736146
 30
0.0
 10
187.571506136
 20
111.7656791141
 30
0.0
 10
187.0905063406
 20
111.8556515801
 30
0.0
 10
186.4563404295
 20
111.9471557135
 30
0.0
 10
185.7262123357
 20
112.013490524
 30
0.0
 10
185.2059948247
 20
112.0296341348
 30
0.0
 10
184.9465735447
 20
112.0296341348
 30
0.0
  0
SPLINE
  5
2F1
100
AcDbEntity
  8
0
100
AcDbSpline
 62
2
  6
CONTINUOUS
 70
0
 71
3
 72
13
 73
9
 74
0
 42
0.0000001
 43
0.0000001
 44
0.0000000001
 40
0.0
 40
0.0
 40
0.0
 40
0.0
 40
0.1666666667
 40
0.3333333333
 40
0.5
 40
0.6666666667
 40
0.8333333333
 40
1.0
 40
1.0
 40
1.0
 40
1.0
 10
184.9465735447
 20
112.0296341348
 30
0.0
 10
184.6872038788
 20
112.0296341348
 30
0.0
 10
184.167084447
 20
112.0134959673
 30
0.0
 10
183.4371160322
 20
111.9471913104
 30
0.0
 10
182.8029113447
 20
111.8556954651
 30
0.0
 10
182.322053292
 20
111.7657618822
 30
0.0
 10
182.0177814261
 20
111.7000104674
 30
0.0
 10
181.9465735447
 20
111.6835321779
 30
0.0
 10
181.9465735447
 20
111.6835321779
 30
0.0
  0
SPLINE
  5
2F2
100
AcDbEntity
  8
0
100
AcDbSpline
 62
2
  6
CONTINUOUS
 70
0
 71
3
 72
13
 73
9
 74
0
 42
0.0000001
 43
0.0000001
 44
0.0000000001
 40
0.0
 40
0.0
 40
0.0
 40
0.0
 40
0.1666666667
 40
0.3333333333
 40
0.5
 40
0.6666666667
 40
0.8333333333
 40
1.0
 40
1.0
 40
1.0
 40
1.0
 10
184.9465735447
 20
137.687430221
 30
0.0
 10
185.2056755776
 20
137.687430221
 30
0.0
 10
185.7253740979
 20
137.7035219677
 30
0.0
 10
186.4560092808
 20
137.7698655826
 30
0.0
 10
187.0891959475
 20
137.8612352532
 30
0.0
 10
187.5681724811
 20
137.9506878475
 30
0.0
 10
187.878909861
 20
138.0178262661
 30
0.0
 10
187.9465735447
 20
138.0335321779
 30
0.0
 10
187.9465735447
 20
138.0335321779
 30
0.0
  0
SPLINE
  5
2F3
100
AcDbEntity
  8
0
100
AcDbSpline
 62
2
  6
CONTINUOUS
 70
0
 71
3
 72
13
 73
9
 74
0
 42
0.0000001
 43
0.0000001
 44
0.0000000001
 40
0.0
 40
0.0
 40
0.0
 40
0.0
 40
0.1666666667
 40
0.3333333333
 40
0.5
 40
0.6666666667
 40
0.8333333333
 40
1.0
 40
1.0
 40
1.0
 40
1.0
 10
181.9465735447
 20
138.0335321779
 30
0.0
 10
181.9465735447
 20
138.0335321779
 30
0.0
 10
182.0142726605
 20
138.017821659
 30
0.0
 10
182.3243497836
 20
137.9508143057
 30
0.0
 10
182.8036322713
 20
137.8612854922
 30
0.0
 10
183.4367596325
 20
137.7699091609
 30
0.0
 10
184.1676295489
 20
137.703525777
 30
0.0
 10
184.6874256611
 20
137.687430221
 30
0.0
 10
184.9465735447
 20
137.687430221
 30
0.0
  0
LINE
  5
2F4
100
AcDbEntity
  8
FASEN
100
AcDbLine
 62
7
  6
CONTINUOUS
 10
106.7628717314
 20
156.3520398872
 11
106.7241299438
 21
156.3584976663
  0
LINE
  5
2F5
100
AcDbEntity
  8
FASEN
100
AcDbLine
 62
7
  6
CONTINUOUS
 10
117.130275358
 20
156.3520398872
 11
117.1690171456
 21
156.3584976663
  0
LINE
  5
2F6
100
AcDbEntity
  8
ACHSEN
100
AcDbLine
 62
7
  6
CONTINUOUS
 10
68.2965735447
 20
144.4625834765
 11
63.4465735447
 21
144.3555217914
  0
LINE
  5
2F7
100
AcDbEntity
  8
ACHSEN
100
AcDbLine
 62
7
  6
CONTINUOUS
 10
70.0873445764
 20
144.7675715965
 11
70.2101928926
 21
144.7850842537
  0
LINE
  5
2F8
100
AcDbEntity
  8
ACHSEN
100
AcDbLine
 62
7
  6
CONTINUOUS
 10
70.2101928926
 20
144.7850842537
 11
70.2251438307
 21
144.7871899832
  0
SPLINE
  5
2F9
100
AcDbEntity
  8
BEZUGSACHSEN
100
AcDbSpline
 62
7
  6
CONTINUOUS
 70
0
 71
3
 72
9
 73
5
 74
0
 42
0.0000001
 43
0.0000001
 44
0.0000000001
 40
0.0
 40
0.0
 40
0.0
 40
0.0
 40
0.2877284654
 40
1.0
 40
1.0
 40
1.0
 40
1.0
 10
182.4465735447
 20
111.6835321779
 30
0.0
 10
182.6527937607
 20
111.7227548083
 30
0.0
 10
183.3731148372
 20
111.8430559529
 30
0.0
 10
184.1024901164
 20
111.9057665203
 30
0.0
 10
184.6222417257
 20
111.9188005746
 30
0.0
  0
SPLINE
  5
2FA
100
AcDbEntity
  8
BEZUGSACHSEN
100
AcDbSpline
 62
7
  6
CONTINUOUS
 70
0
 71
3
 72
9
 73
5
 74
0
 42
0.0000001
 43
0.0000001
 44
0.0000000001
 40
0.0
 40
0.0
 40
0.0
 40
0.0
 40
0.2877332704
 40
1.0
 40
1.0
 40
1.0
 40
1.0
 10
187.4465735447
 20
138.0335321779
 30
0.0
 10
187.2403324692
 20
137.994305563
 30
0.0
 10
186.5199501381
 20
137.8739958568
 30
0.0
 10
185.7905122633
 20
137.8112866956
 30
0.0
 10
185.2707200243
 20
137.7982590674
 30
0.0
  0
LINE
  5
2FB
100
AcDbEntity
  8
ACHSEN
100
AcDbLine
 62
7
  6
CONTINUOUS
 10
70.2251438303
 20
144.7871899831
 11
70.2102224429
 21
144.7850884256
  0
SPLINE
  5
2FC
100
AcDbEntity
  8
ACHSEN
100
AcDbSpline
 62
7
  6
CONTINUOUS
 70
0
 71
3
 72
11
 73
7
 74
0
 42
0.0000001
 43
0.0000001
 44
0.0000000001
 40
0.0
 40
0.0
 40
0.0
 40
0.0
 40
0.1537099379
 40
0.500508937
 40
0.8472910559
 40
1.0
 40
1.0
 40
1.0
 40
1.0
 10
89.1259348779
 20
145.2620505133
 30
0.0
 10
88.6623496088
 20
145.1907735586
 30
0.0
 10
87.1481172946
 20
144.9867157862
 30
0.0
 10
84.5653428671
 20
144.8012067543
 30
0.0
 10
81.9792968372
 20
144.854153973
 30
0.0
 10
80.4600076544
 20
144.9839204657
 30
0.0
 10
79.9965735447
 20
145.0326891801
 30
0.0
  0
LINE
  5
2FD
100
AcDbEntity
  8
FASEN
100
AcDbLine
 62
7
  6
CONTINUOUS
 10
106.7241299447
 20
156.3584976666
 11
107.0152131406
 21
156.3109708527
  0
SPLINE
  5
2FE
100
AcDbEntity
  8
FASEN
100
AcDbSpline
 62
7
  6
CONTINUOUS
 70
0
 71
3
 72
13
 73
9
 74
0
 42
0.0000001
 43
0.0000001
 44
0.0000000001
 40
0.0
 40
0.0
 40
0.0
 40
0.0
 40
0.0157913869
 40
0.0631394433
 40
0.1420410632
 40
0.2523476314
 40
0.5656688567
 40
1.0
 40
1.0
 40
1.0
 40
1.0
 10
117.1690171447
 20
156.3584976666
 30
0.0
 10
117.1672027836
 20
156.3585933247
 30
0.0
 10
117.160090724
 20
156.3564416485
 30
0.0
 10
117.1439184014
 20
156.3546812981
 30
0.0
 10
117.1171012486
 20
156.3496822156
 30
0.0
 10
117.0600470085
 20
156.3405214532
 30
0.0
 10
116.9626423801
 20
156.3243457578
 30
0.0
 10
116.8776874476
 20
156.3108964087
 30
0.0
 10
116.8283218755
 20
156.3031345656
 30
0.0
  0
SPLINE
  5
2FF
100
AcDbEntity
  8
0
100
AcDbSpline
 62
7
  6
CONTINUOUS
 70
0
 71
3
 72
13
 73
9
 74
0
 42
0.0000001
 43
0.0000001
 44
0.0000000001
 40
0.0
 40
0.0
 40
0.0
 40
0.0
 40
0.1753307868
 40
0.3422637982
 40
0.4768046258
 40
0.5947351366
 40
0.8062611466
 40
1.0
 40
1.0
 40
1.0
 40
1.0
 10
99.5515966558
 20
103.3311034378
 30
0.0
 10
99.4876839109
 20
103.3580435994
 30
0.0
 10
99.3499068676
 20
103.3867815854
 30
0.0
 10
99.1622598694
 20
103.3380027675
 30
0.0
 10
99.0206751857
 20
103.2491608645
 30
0.0
 10
98.8842099629
 20
103.1255582526
 30
0.0
 10
98.7557912763
 20
102.9616816465
 30
0.0
 10
98.6747512794
 20
102.8230106542
 30
0.0
 10
98.6394667635
 20
102.7549755269
 30
0.0
  0
SPLINE
  5
300
100
AcDbEntity
  8
0
100
AcDbSpline
 62
7
  6
CONTINUOUS
 70
0
 71
3
 72
12
 73
8
 74
0
 42
0.0000001
 43
0.0000001
 44
0.0000000001
 40
0.0
 40
0.0
 40
0.0
 40
0.0
 40
0.2873076234
 40
0.4555854673
 40
0.6473090081
 40
0.8177551754
 40
1.0
 40
1.0
 40
1.0
 40
1.0
 10
99.5515966558
 20
103.3311034378
 30
0.0
 10
99.5769829397
 20
103.3204027459
 30
0.0
 10
99.6196500027
 20
103.3078268021
 30
0.0
 10
99.6834551956
 20
103.3119853043
 30
0.0
 10
99.7263876929
 20
103.3463378029
 30
0.0
 10
99.7432175635
 20
103.3971381037
 30
0.0
 10
99.7461638734
 20
103.4309009394
 30
0.0
 10
99.746487338
 20
103.4483730527
 30
0.0
  0
SPLINE
  5
301
100
AcDbEntity
  8
0
100
AcDbSpline
 62
7
  6
CONTINUOUS
 70
0
 71
3
 72
16
 73
12
 74
0
 42
0.0000001
 43
0.0000001
 44
0.0000000001
 40
0.0
 40
0.0
 40
0.0
 40
0.0
 40
0.1251648965
 40
0.2503573139
 40
0.375568813
 40
0.5007901353
 40
0.6259923846
 40
0.7510481625
 40
0.8746362128
 40
0.9372915345
 40
1.0
 40
1.0
 40
1.0
 40
1.0
 10
98.6394667635
 20
131.2730719386
 30
0.0
 10
98.6565351072
 20
131.20174563
 30
0.0
 10
98.6928070436
 20
131.0595722371
 30
0.0
 10
98.7548293259
 20
130.848377428
 30
0.0
 10
98.8264992058
 20
130.640144503
 30
0.0
 10
98.9105085562
 20
130.4366241342
 30
0.0
 10
99.0138904298
 20
130.2413357034
 30
0.0
 10
99.1418501037
 20
130.0645092445
 30
0.0
 10
99.3088882941
 20
129.957064508
 30
0.0
 10
99.4595935905
 20
129.9786284304
 30
0.0
 10
99.52287147
 20
130.0185702497
 30
0.0
 10
99.5515966558
 20
130.041482631
 30
0.0
  0
SPLINE
  5
302
100
AcDbEntity
  8
0
100
AcDbSpline
 62
7
  6
CONTINUOUS
 70
0
 71
3
 72
13
 73
9
 74
0
 42
0.0000001
 43
0.0000001
 44
0.0000000001
 40
0.0
 40
0.0
 40
0.0
 40
0.0
 40
0.1670510693
 40
0.3289369806
 40
0.4609641718
 40
0.578209763
 40
0.7939442568
 40
1.0
 40
1.0
 40
1.0
 40
1.0
 10
99.5515966558
 20
141.2030104648
 30
0.0
 10
99.487163205
 20
141.2272455699
 30
0.0
 10
99.3479622121
 20
141.2491799123
 30
0.0
 10
99.1613542238
 20
141.1927037401
 30
0.0
 10
99.0198931857
 20
141.0971402854
 30
0.0
 10
98.8823645883
 20
140.9627728164
 30
0.0
 10
98.7529448838
 20
140.7804005578
 30
0.0
 10
98.6739449172
 20
140.6251483167
 30
0.0
 10
98.6394667635
 20
140.5475490681
 30
0.0
  0
SPLINE
  5
303
100
AcDbEntity
  8
0
100
AcDbSpline
 62
7
  6
CONTINUOUS
 70
0
 71
3
 72
15
 73
11
 74
0
 42
0.0000001
 43
0.0000001
 44
0.0000000001
 40
0.0
 40
0.0
 40
0.0
 40
0.0
 40
0.0735479282
 40
0.1546005725
 40
0.2292557381
 40
0.2979289731
 40
0.4260365971
 40
0.5473626904
 40
0.7785364517
 40
1.0
 40
1.0
 40
1.0
 40
1.0
 10
99.5515966558
 20
141.2030104648
 30
0.0
 10
99.5640484746
 20
141.1983270103
 30
0.0
 10
99.5931987283
 20
141.1942464978
 30
0.0
 10
99.6326682199
 20
141.2124885251
 30
0.0
 10
99.6602298949
 20
141.2428918187
 30
0.0
 10
99.686124905
 20
141.2847695014
 30
0.0
 10
99.7072108688
 20
141.338699724
 30
0.0
 10
99.7288495793
 20
141.4229703836
 30
0.0
 10
99.7427197663
 20
141.5261812688
 30
0.0
 10
99.7461442559
 20
141.608042619
 30
0.0
 10
99.746487338
 20
141.6480998653
 30
0.0
  0
SPLINE
  5
304
100
AcDbEntity
  8
0
100
AcDbSpline
 62
7
  6
CONTINUOUS
 70
0
 71
3
 72
16
 73
12
 74
0
 42
0.0000001
 43
0.0000001
 44
0.0000000001
 40
0.0
 40
0.0
 40
0.0
 40
0.0
 40
0.2846406373
 40
0.4153418401
 40
0.5382258172
 40
0.6534042926
 40
0.7614765699
 40
0.8135102488
 40
0.8652468039
 40
0.9195357931
 40
1.0
 40
1.0
 40
1.0
 40
1.0
 10
97.7466366338
 20
103.1761302986
 30
0.0
 10
97.7466366338
 20
103.0565568613
 30
0.0
 10
97.7464949502
 20
102.882073864
 30
0.0
 10
97.7488721369
 20
102.6559846193
 30
0.0
 10
97.7534991935
 20
102.5011128791
 30
0.0
 10
97.7634012412
 20
102.3560213871
 30
0.0
 10
97.7795890346
 20
102.2412379559
 30
0.0
 10
97.801414431
 20
102.1549035969
 30
0.0
 10
97.8251537251
 20
102.092473937
 30
0.0
 10
97.8639400625
 20
102.0249450016
 30
0.0
 10
97.9178041789
 20
101.9884430033
 30
0.0
 10
97.9515966558
 20
101.9876467864
 30
0.0
  0
SPLINE
  5
305
100
AcDbEntity
  8
0
100
AcDbSpline
 62
7
  6
CONTINUOUS
 70
0
 71
3
 72
9
 73
5
 74
0
 42
0.0000001
 43
0.0000001
 44
0.0000000001
 40
0.0
 40
0.0
 40
0.0
 40
0.0
 40
0.2573720101
 40
1.0
 40
1.0
 40
1.0
 40
1.0
 10
98.6394667635
 20
102.7549755269
 30
0.0
 10
98.6043273753
 20
102.6872202328
 30
0.0
 10
98.4653392398
 20
102.4252485818
 30
0.0
 10
98.3163557492
 20
102.1685394318
 30
0.0
 10
98.1996022955
 20
101.9818033026
 30
0.0
  0
SPLINE
  5
306
100
AcDbEntity
  8
0
100
AcDbSpline
 62
7
  6
CONTINUOUS
 70
0
 71
3
 72
8
 73
4
 74
0
 42
0.0000001
 43
0.0000001
 44
0.0000000001
 40
0.0
 40
0.0
 40
0.0
 40
0.0
 40
1.0
 40
1.0
 40
1.0
 40
1.0
 10
99.7464515913
 20
129.4837548378
 30
0.0
 10
99.7461206572
 20
129.5312835455
 30
0.0
 10
99.744938142
 20
129.5788239544
 30
0.0
 10
99.7424341702
 20
129.6262878112
 30
0.0
  0
SPLINE
  5
307
100
AcDbEntity
  8
0
100
AcDbSpline
 62
7
  6
CONTINUOUS
 70
0
 71
3
 72
15
 73
11
 74
0
 42
0.0000001
 43
0.0000001
 44
0.0000000001
 40
0.0
 40
0.0
 40
0.0
 40
0.0
 40
0.2532162989
 40
0.3790219793
 40
0.5040739368
 40
0.6282014989
 40
0.7508575768
 40
0.8716570132
 40
0.9343432508
 40
1.0
 40
1.0
 40
1.0
 40
1.0
 10
99.7424341702
 20
129.6262878112
 30
0.0
 10
99.7400707518
 20
129.6710874165
 30
0.0
 10
99.7349133071
 20
129.7380934066
 30
0.0
 10
99.7227409835
 20
129.8266176673
 30
0.0
 10
99.7101631857
 20
129.8918254104
 30
0.0
 10
99.6922363743
 20
129.9556165063
 30
0.0
 10
99.6671476625
 20
130.0148917054
 30
0.0
 10
99.6278683734
 20
130.0597729185
 30
0.0
 10
99.5806080356
 20
130.0614669834
 30
0.0
 10
99.5606904081
 20
130.0487361792
 30
0.0
 10
99.5515966558
 20
130.041482631
 30
0.0
  0
SPLINE
  5
308
100
AcDbEntity
  8
0
100
AcDbSpline
 62
7
  6
CONTINUOUS
 70
0
 71
3
 72
12
 73
8
 74
0
 42
0.0000001
 43
0.0000001
 44
0.0000000001
 40
0.0
 40
0.0
 40
0.0
 40
0.0
 40
0.128679218
 40
0.2561331636
 40
0.5063352459
 40
0.7539715031
 40
1.0
 40
1.0
 40
1.0
 40
1.0
 10
113.4078984101
 20
115.5093108634
 30
0.0
 10
113.4387745357
 20
115.5093108634
 30
0.0
 10
113.5006891622
 20
115.4969876369
 30
0.0
 10
113.6069100893
 20
115.4350728458
 30
0.0
 10
113.7062813627
 20
115.3183112807
 30
0.0
 10
113.7876576532
 20
115.158816472
 30
0.0
 10
113.8253343932
 20
115.0460611103
 30
0.0
 10
113.840911112
 20
114.9891195589
 30
0.0
  0
SPLINE
  5
309
100
AcDbEntity
  8
0
100
AcDbSpline
 62
7
  6
CONTINUOUS
 70
0
 71
3
 72
9
 73
5
 74
0
 42
0.0000001
 43
0.0000001
 44
0.0000000001
 40
0.0
 40
0.0
 40
0.0
 40
0.0
 40
0.1680195226
 40
1.0
 40
1.0
 40
1.0
 40
1.0
 10
113.840911112
 20
94.9445773314
 30
0.0
 10
113.824062839
 20
94.9242572155
 30
0.0
 10
113.7086095564
 20
94.8157762393
 30
0.0
 10
113.5386053214
 20
94.7779394176
 30
0.0
 10
113.4078984101
 20
94.7779394176
 30
0.0
  0
SPLINE
  5
30A
100
AcDbEntity
  8
0
100
AcDbSpline
 62
7
  6
CONTINUOUS
 70
0
 71
3
 72
12
 73
8
 74
0
 42
0.0000001
 43
0.0000001
 44
0.0000000001
 40
0.0
 40
0.0
 40
0.0
 40
0.0
 40
0.2460454262
 40
0.4936983158
 40
0.7439199328
 40
0.8713555617
 40
1.0
 40
1.0
 40
1.0
 40
1.0
 10
110.0522359774
 20
114.9891195589
 30
0.0
 10
110.06781379
 20
115.0460651087
 30
0.0
 10
110.1054958096
 20
115.1588256141
 30
0.0
 10
110.1868715575
 20
115.3183422821
 30
0.0
 10
110.2862761693
 20
115.4350698149
 30
0.0
 10
110.3924719858
 20
115.4970176533
 30
0.0
 10
110.4543808555
 20
115.5093108634
 30
0.0
 10
110.4852486793
 20
115.5093108634
 30
0.0
  0
SPLINE
  5
30B
100
AcDbEntity
  8
0
100
AcDbSpline
 62
7
  6
CONTINUOUS
 70
0
 71
3
 72
9
 73
5
 74
0
 42
0.0000001
 43
0.0000001
 44
0.0000000001
 40
0.0
 40
0.0
 40
0.0
 40
0.0
 40
0.3641598889
 40
1.0
 40
1.0
 40
1.0
 40
1.0
 10
110.4852486793
 20
94.7779394176
 30
0.0
 10
110.4278722575
 20
94.7779394176
 30
0.0
 10
110.2716859244
 20
94.7940585116
 30
0.0
 10
110.1161799337
 20
94.8674567505
 30
0.0
 10
110.0522359774
 20
94.9445773314
 30
0.0
  0
SPLINE
  5
30C
100
AcDbEntity
  8
0
100
AcDbSpline
 62
7
  6
CONTINUOUS
 70
0
 71
3
 72
9
 73
5
 74
0
 42
0.0000001
 43
0.0000001
 44
0.0000000001
 40
0.0
 40
0.0
 40
0.0
 40
0.0
 40
0.3642526053
 40
1.0
 40
1.0
 40
1.0
 40
1.0
 10
113.4078984101
 20
154.9391249382
 30
0.0
 10
113.4652898166
 20
154.9391249382
 30
0.0
 10
113.6214792752
 20
154.9230103827
 30
0.0
 10
113.7769760604
 20
154.8495968656
 30
0.0
 10
113.840911112
 20
154.7724870243
 30
0.0
  0
SPLINE
  5
30D
100
AcDbEntity
  8
0
100
AcDbSpline
 62
7
  6
CONTINUOUS
 70
0
 71
3
 72
21
 73
17
 74
0
 42
0.0000001
 43
0.0000001
 44
0.0000000001
 40
0.0
 40
0.0
 40
0.0
 40
0.0
 40
0.0152736556
 40
0.0307400416
 40
0.0615944727
 40
0.0924597446
 40
0.1233512662
 40
0.1852330485
 40
0.2472659363
 40
0.3094463907
 40
0.3717660941
 40
0.4967787028
 40
0.6222117836
 40
0.747963109
 40
0.8739278454
 40
1.0
 40
1.0
 40
1.0
 40
1.0
 10
97.9515966558
 20
133.0444753646
 30
0.0
 10
97.9363343406
 20
133.0444129453
 30
0.0
 10
97.9106461757
 20
133.0184157906
 30
0.0
 10
97.8849050831
 20
132.9646632548
 30
0.0
 10
97.8612575532
 20
132.8898913617
 30
0.0
 10
97.8414591798
 20
132.7997965374
 30
0.0
 10
97.8204815049
 20
132.6778991732
 30
0.0
 10
97.8015781048
 20
132.5243503698
 30
0.0
 10
97.7853504647
 20
132.3390664176
 30
0.0
 10
97.7735812701
 20
132.1530323502
 30
0.0
 10
97.7621266302
 20
131.9039564979
 30
0.0
 10
97.7537128661
 20
131.5915109788
 30
0.0
 10
97.7489604179
 20
131.2156154988
 30
0.0
 10
97.7471459953
 20
130.8387454426
 30
0.0
 10
97.7466726571
 20
130.4612348097
 30
0.0
 10
97.7466366338
 20
130.2093829107
 30
0.0
 10
97.7466366338
 20
130.0834033085
 30
0.0
  0
SPLINE
  5
30E
100
AcDbEntity
  8
0
100
AcDbSpline
 62
7
  6
CONTINUOUS
 70
0
 71
3
 72
17
 73
13
 74
0
 42
0.0000001
 43
0.0000001
 44
0.0000000001
 40
0.0
 40
0.0
 40
0.0
 40
0.0
 40
0.2182009024
 40
0.3349220057
 40
0.456586696
 40
0.5831112211
 40
0.7144823146
 40
0.7820564401
 40
0.8510300181
 40
0.92186225
 40
0.958727904
 40
1.0
 40
1.0
 40
1.0
 40
1.0
 10
97.7466366338
 20
141.3160629265
 30
0.0
 10
97.7466366338
 20
141.1837839123
 30
0.0
 10
97.7466189464
 20
140.9807442509
 30
0.0
 10
97.7490260552
 20
140.7039554806
 30
0.0
 10
97.7538512487
 20
140.4827830779
 30
0.0
 10
97.7641369868
 20
140.252868097
 30
0.0
 10
97.7802620102
 20
140.0561994019
 30
0.0
 10
97.8018361108
 20
139.8949985303
 30
0.0
 10
97.8244405814
 20
139.7718282382
 30
0.0
 10
97.8540363776
 20
139.6666775075
 30
0.0
 10
97.8884680524
 20
139.5872076533
 30
0.0
 10
97.9265811889
 20
139.5429872767
 30
0.0
 10
97.9515966558
 20
139.5434743826
 30
0.0
  0
LINE
  5
30F
100
AcDbEntity
  8
0
100
AcDbLine
 62
7
  6
CONTINUOUS
 10
97.9569751764
 20
101.433147372
 11
98.1996022955
 21
101.9818033026
  0
SPLINE
  5
310
100
AcDbEntity
  8
0
100
AcDbSpline
 62
7
  6
CONTINUOUS
 70
0
 71
3
 72
10
 73
6
 74
0
 42
0.0000001
 43
0.0000001
 44
0.0000000001
 40
0.0
 40
0.0
 40
0.0
 40
0.0
 40
0.2163947382
 40
0.4583018846
 40
1.0
 40
1.0
 40
1.0
 40
1.0
 10
98.1996022955
 20
139.5483036106
 30
0.0
 10
98.1139009076
 20
139.0855820549
 30
0.0
 10
97.9915643153
 20
138.0943201636
 30
0.0
 10
97.9163855894
 20
135.9193069789
 30
0.0
 10
98.0468904246
 20
134.2135738611
 30
0.0
 10
98.1996022955
 20
133.0454896205
 30
0.0
  0
SPLINE
  5
311
100
AcDbEntity
  8
0
100
AcDbSpline
 62
7
  6
CONTINUOUS
 70
0
 71
3
 72
12
 73
8
 74
0
 42
0.0000001
 43
0.0000001
 44
0.0000000001
 40
0.0
 40
0.0
 40
0.0
 40
0.0
 40
0.2460280129
 40
0.4936634005
 40
0.7438647573
 40
0.8713194616
 40
1.0
 40
1.0
 40
1.0
 40
1.0
 10
113.840911112
 20
134.7279447968
 30
0.0
 10
113.825334425
 20
134.6710033616
 30
0.0
 10
113.7876579298
 20
134.5582481868
 30
0.0
 10
113.7062814759
 20
134.3987543461
 30
0.0
 10
113.6069116967
 20
134.2819912868
 30
0.0
 10
113.5006896726
 20
134.2200779786
 30
0.0
 10
113.4387748503
 20
134.2077534924
 30
0.0
 10
113.4078984101
 20
134.2077534924
 30
0.0
  0
SPLINE
  5
312
100
AcDbEntity
  8
0
100
AcDbSpline
 62
7
  6
CONTINUOUS
 70
0
 71
3
 72
9
 73
5
 74
0
 42
0.0000001
 43
0.0000001
 44
0.0000000001
 40
0.0
 40
0.0
 40
0.0
 40
0.0
 40
0.1680322176
 40
1.0
 40
1.0
 40
1.0
 40
1.0
 10
110.0522359774
 20
154.7724870243
 30
0.0
 10
110.0690855364
 20
154.7928086912
 30
0.0
 10
110.1845401132
 20
154.9012887232
 30
0.0
 10
110.3545436623
 20
154.9391249382
 30
0.0
 10
110.4852486793
 20
154.9391249382
 30
0.0
  0
SPLINE
  5
313
100
AcDbEntity
  8
0
100
AcDbSpline
 62
7
  6
CONTINUOUS
 70
0
 71
3
 72
12
 73
8
 74
0
 42
0.0000001
 43
0.0000001
 44
0.0000000001
 40
0.0
 40
0.0
 40
0.0
 40
0.0
 40
0.1286448926
 40
0.256081
 40
0.5063027424
 40
0.7539549585
 40
1.0
 40
1.0
 40
1.0
 40
1.0
 10
110.4852486793
 20
134.2077534924
 30
0.0
 10
110.4543807478
 20
134.2077534924
 30
0.0
 10
110.3924717535
 20
134.2200471162
 30
0.0
 10
110.2862754563
 20
134.2819945799
 30
0.0
 10
110.1868714742
 20
134.3987227819
 30
0.0
 10
110.1054956278
 20
134.5582390199
 30
0.0
 10
110.0678137649
 20
134.6709993385
 30
0.0
 10
110.0522359774
 20
134.7279447968
 30
0.0
  0
ELLIPSE
  5
314
100
AcDbEntity
  8
0
100
AcDbEllipse
 62
7
  6
CONTINUOUS
 10
97.5994193553
 20
124.8585321779
 30
0.0
 11
14.7536831607
 21
31.0932549156
 31
0.0
 40
0.3419987131
 41
-1.0912395858
 42
-0.1578061866
  0
ELLIPSE
  5
315
100
AcDbEntity
  8
0
100
AcDbEllipse
 62
7
  6
CONTINUOUS
 10
126.2937277341
 20
124.8585321779
 30
0.0
 11
-14.7536831607
 21
31.0932549156
 31
0.0
 40
0.3419987131
 41
0.1578061866
 42
1.0912395858
  0
ELLIPSE
  5
316
100
AcDbEntity
  8
0
100
AcDbEllipse
 62
7
  6
CONTINUOUS
 10
126.2937277341
 20
124.8585321779
 30
0.0
 11
14.7536831607
 21
31.0932549156
 31
0.0
 40
0.3419987131
 41
-4.2328322393
 42
-3.2993988402
  0
ELLIPSE
  5
317
100
AcDbEntity
  8
0
100
AcDbEllipse
 62
7
  6
CONTINUOUS
 10
97.5994193553
 20
124.8585321779
 30
0.0
 11
-14.7536831607
 21
31.0932549156
 31
0.0
 40
0.3419987131
 41
-2.9837864669
 42
-2.0503530678
  0
ENDSEC
  0
SECTION
  2
OBJECTS
  0
DICTIONARY
  5
C
100
AcDbDictionary
280
0
281
1
  3
ACAD_GROUP
350
D
  3
ACAD_MLINESTYLE
350
17
  3
ACAD_LAYOUT
350
1A
  3
ACAD_PLOTSETTINGS
350
19
  3
ACAD_PLOTSTYLENAME
350
E
  0
DICTIONARY
  5
D
102
{ACAD_REACTORS
330
C
102
}
100
AcDbDictionary
280
0
281
1
  0
ACDBDICTIONARYWDFLT
  5
E
102
{ACAD_REACTORS
330
C
102
}
100
AcDbDictionary
281
1
  3
Normal
350
F
100
AcDbDictionaryWithDefault
340
F
  0
DICTIONARY
  5
17
102
{ACAD_REACTORS
330
C
102
}
100
AcDbDictionary
280
0
281
1
  3
Standard
350
18
  0
DICTIONARY
  5
19
102
{ACAD_REACTORS
330
C
102
}
100
AcDbDictionary
281
1
  0
DICTIONARY
  5
1A
102
{ACAD_REACTORS
330
C
102
}
100
AcDbDictionary
281
1
  3
Model
350
318
  3
Layout1
350
319
  0
ACDBPLACEHOLDER
  5
F
102
{ACAD_REACTORS
330
E
102
}
  0
MLINESTYLE
  5
18
102
{ACAD_REACTORS
330
17
102
}
100
AcDbMlineStyle
  2
STANDARD
 70
0
  3

 62
256
 51
90.0
 52
90.0
 71
2
 49
0.5
 62
256
  6
BYLAYER
 49
-0.5
 62
256
  6
BYLAYER
  0
LAYOUT
  5
318
102
{ACAD_REACTORS
330
1A
102
}
100
AcDbPlotSettings
  1

  2
none_device
  4
ISO_A4_(297.00_x_210.00_MM)
  6

 40
0.0
 41
0.0
 42
0.0
 43
0.0
 44
297.0
 45
210.0
 46
0.0
 47
0.0
 48
0.0
 49
0.0
140
0.0
141
0.0
142
1.0
143
1.0
 70
1024
 72
1
 73
0
 74
0
  7

 75
0
147
1.0
148
0.0
149
0.0
100
AcDbLayout
  1
Model
 70
0
 71
0
 10
0.0
 20
0.0
 11
297.0
 21
210.0
 12
0.0
 22
0.0
 32
0.0
 14
0.0
 24
0.0
 34
0.0
 15
0.0
 25
0.0
 35
0.0
146
0.0
 13
0.0
 23
0.0
 33
0.0
 16
1.0
 26
0.0
 36
0.0
 17
0.0
 27
1.0
 37
0.0
 76
0
330
217
345
0
346
0
  0
LAYOUT
  5
319
102
{ACAD_REACTORS
330
1A
102
}
100
AcDbPlotSettings
  1

  2
none_device
  4
ISO_A4_(297.00_x_210.00_MM)
  6

 40
0.0
 41
0.0
 42
0.0
 43
0.0
 44
297.0
 45
210.0
 46
0.0
 47
0.0
 48
0.0
 49
0.0
140
0.0
141
0.0
142
1.0
143
1.0
 70
0
 72
1
 73
0
 74
0
  7

 75
0
147
1.0
148
0.0
149
0.0
100
AcDbLayout
  1
Layout1
 70
0
 71
1
 10
0.0
 20
0.0
 11
297.0
 21
210.0
 12
0.0
 22
0.0
 32
0.0
 14
0.0
 24
0.0
 34
0.0
 15
0.0
 25
0.0
 35
0.0
146
0.0
 13
0.0
 23
0.0
 33
0.0
 16
1.0
 26
0.0
 36
0.0
 17
0.0
 27
1.0
 37
0.0
 76
0
330
218
345
0
346
0
  0
ENDSEC
  0
EOF
