999
DXF file: cc6-144-06-anf.dxf
999
Pro/ENGINEER 2009220 by Parametric Technology Corporation
  0
SECTION
  2
HEADER
  9
$ACADVER
  1
AC1021
  9
$DWGCODEPAGE
  3
ANSI_1252
  9
$EXTMAX
 10
297.0
 20
210.0
 30
0.0
  9
$EXTMIN
 10
0.0
 20
0.0
 30
0.0
  9
$LIMMIN
 10
0.0
 20
0.0
  9
$LIMMAX
 10
297.0
 20
210.0
  9
$VIEWCTR
 10
148.5
 20
105.0
  9
$VIEWSIZE
 40
210.0
  9
$CLAYER
  8
0
  9
$LTSCALE
 40
16.335
  9
$CELTYPE
  6
BYLAYER
  9
$DIMSCALE
 40
1.0
  9
$DIMASZ
 40
3.5
  9
$DIMEXO
 40
1.85625
  9
$DIMDLI
 40
11.286
  9
$DIMEXE
 40
5.346
  9
$DIMCEN
 40
2.673
  9
$DIMLFAC
 40
1.0
  9
$DIMBLK
  1
_FILLED
  9
$DIMTXT
 40
3.5
  9
$DIMTOL
 70
1
  9
$DIMLIM
 70
0
  9
$DIMTFAC
 40
1.0
  9
$DIMTP
 40
0.005
  9
$DIMTM
 40
0.005
  9
$PDMODE
 70
3
  9
$PDSIZE
 40
0.3125
  9
$HANDSEED
  5
2EC
  9
$TILEMODE
 70
1
  9
$MEASUREMENT
 70
1
  9
$INSUNITS
 70
4
  0
ENDSEC
  0
SECTION
  2
CLASSES
  0
CLASS
  1
ACDBDICTIONARYWDFLT
  2
AcDbDictionaryWithDefault
  3
AutoCAD 2000
 90
0
 91
1
280
0
281
0
  0
CLASS
  1
ACDBPLACEHOLDER
  2
AcDbPlaceHolder
  3
AutoCAD 2000
 90
0
 91
1
280
0
281
0
  0
CLASS
  1
LAYOUT
  2
AcDbLayout
  3
AutoCAD 2000
 90
0
 91
0
280
0
281
0
  0
ENDSEC
  0
SECTION
  2
TABLES
  0
TABLE
  2
VPORT
  5
8
100
AcDbSymbolTable
 70
2
  0
VPORT
  5
1F4
100
AcDbSymbolTableRecord
100
AcDbViewportTableRecord
  2
*ACTIVE
 70
0
 10
0.0
 20
0.0
 11
1.0
 21
1.0
 12
148.5
 22
105.0
 13
0.0
 23
0.0
 14
1.0
 24
1.0
 15
0.0
 25
0.0
 16
0.0
 26
0.0
 36
1.0
 17
0.0
 27
0.0
 37
0.0
 40
210.0
 41
1.4142857143
 42
50.0
 43
0.0
 44
0.0
 50
0.0
 51
0.0
 71
0
 72
100
 73
1
 74
1
 75
0
 76
0
 77
0
 78
0
  0
ENDTAB
  0
TABLE
  2
LTYPE
  5
5
100
AcDbSymbolTable
 70
6
  0
LTYPE
  5
14
100
AcDbSymbolTableRecord
100
AcDbLinetypeTableRecord
  2
BYBLOCK
 70
0
  3

 72
65
 73
0
 40
0.0
  0
LTYPE
  5
15
100
AcDbSymbolTableRecord
100
AcDbLinetypeTableRecord
  2
BYLAYER
 70
0
  3

 72
65
 73
0
 40
0.0
  0
LTYPE
  5
16
100
AcDbSymbolTableRecord
100
AcDbLinetypeTableRecord
  2
CONTINUOUS
 70
64
  3
Solid line
 72
65
 73
0
 40
0.0
  0
LTYPE
  5
1F5
100
AcDbSymbolTableRecord
100
AcDbLinetypeTableRecord
  2
CENTER
 70
64
  3
____ _ ____ _ ____ _ ____ _ ____ _ ____ _ ____
 72
65
 73
4
 40
0.6
 49
0.375
 74
0
 49
-0.075
 74
0
 49
0.075
 74
0
 49
-0.075
 74
0
  0
LTYPE
  5
1F6
100
AcDbSymbolTableRecord
100
AcDbLinetypeTableRecord
  2
HIDDEN
 70
64
  3
- - - - - - - - - - - - - - - - - - - -
 72
65
 73
2
 40
0.2
 49
0.1
 74
0
 49
-0.1
 74
0
  0
LTYPE
  5
1F7
100
AcDbSymbolTableRecord
100
AcDbLinetypeTableRecord
  2
PHANTOM
 70
64
  3
_____ _ _ _____ _ _ _____ _ _ _____
 72
65
 73
6
 40
0.8
 49
0.45
 74
0
 49
-0.05
 74
0
 49
0.1
 74
0
 49
-0.05
 74
0
 49
0.1
 74
0
 49
-0.05
 74
0
  0
LTYPE
  5
1F8
100
AcDbSymbolTableRecord
100
AcDbLinetypeTableRecord
  2
DOT
 70
64
  3
. . . . . . . . . . . . . . . . . . . .
 72
65
 73
2
 40
0.2
 49
0.1
 74
0
 49
-0.1
 74
0
  0
LTYPE
  5
1F9
100
AcDbSymbolTableRecord
100
AcDbLinetypeTableRecord
  2
DASHED
 70
64
  3
- - - - - - - - - - - - - - - - - - - -
 72
65
 73
2
 40
0.2
 49
0.1
 74
0
 49
-0.1
 74
0
  0
ENDTAB
  0
TABLE
  2
LAYER
  5
2
100
AcDbSymbolTable
 70
36
  0
LAYER
  5
10
100
AcDbSymbolTableRecord
100
AcDbLayerTableRecord
  2
0
 70
0
 62
7
  6
CONTINUOUS
370
-3
390
F
  0
LAYER
  5
1FA
100
AcDbSymbolTableRecord
100
AcDbLayerTableRecord
  2
DEFAULT_1
 70
0
 62
7
  6
CENTER
370
-3
390
F
  0
LAYER
  5
1FB
100
AcDbSymbolTableRecord
100
AcDbLayerTableRecord
  2
DEFAULT_2
 70
0
 62
8
  6
HIDDEN
370
-3
390
F
  0
LAYER
  5
1FC
100
AcDbSymbolTableRecord
100
AcDbLayerTableRecord
  2
DEFAULT_3
 70
0
 62
7
  6
PHANTOM
370
-3
390
F
  0
LAYER
  5
1FD
100
AcDbSymbolTableRecord
100
AcDbLayerTableRecord
  2
ACHSEN
 70
0
 62
7
  6
CONTINUOUS
370
-3
390
F
  0
LAYER
  5
1FE
100
AcDbSymbolTableRecord
100
AcDbLayerTableRecord
  2
BEZUGSACHSEN
 70
0
 62
7
  6
CONTINUOUS
370
-3
390
F
  0
LAYER
  5
1FF
100
AcDbSymbolTableRecord
100
AcDbLayerTableRecord
  2
BEZUGSEBENE_B
 70
0
 62
7
  6
CONTINUOUS
370
-3
390
F
  0
LAYER
  5
200
100
AcDbSymbolTableRecord
100
AcDbLayerTableRecord
  2
BOHRUNGEN
 70
0
 62
7
  6
CONTINUOUS
370
-3
390
F
  0
LAYER
  5
201
100
AcDbSymbolTableRecord
100
AcDbLayerTableRecord
  2
EBENEN
 70
0
 62
7
  6
CONTINUOUS
370
-3
390
F
  0
LAYER
  5
202
100
AcDbSymbolTableRecord
100
AcDbLayerTableRecord
  2
FASEN
 70
0
 62
7
  6
CONTINUOUS
370
-3
390
F
  0
LAYER
  5
203
100
AcDbSymbolTableRecord
100
AcDbLayerTableRecord
  2
FLAECHEN
 70
0
 62
7
  6
CONTINUOUS
370
-3
390
F
  0
LAYER
  5
204
100
AcDbSymbolTableRecord
100
AcDbLayerTableRecord
  2
GEWINDE
 70
0
 62
7
  6
CONTINUOUS
370
-3
390
F
  0
LAYER
  5
205
100
AcDbSymbolTableRecord
100
AcDbLayerTableRecord
  2
KOORDSYS
 70
0
 62
7
  6
CONTINUOUS
370
-3
390
F
  0
LAYER
  5
206
100
AcDbSymbolTableRecord
100
AcDbLayerTableRecord
  2
KURVEN
 70
0
 62
7
  6
CONTINUOUS
370
-3
390
F
  0
LAYER
  5
207
100
AcDbSymbolTableRecord
100
AcDbLayerTableRecord
  2
KURVE_FUER_GTOL_DETAILANSICHT
 70
0
 62
7
  6
CONTINUOUS
370
-3
390
F
  0
LAYER
  5
208
100
AcDbSymbolTableRecord
100
AcDbLayerTableRecord
  2
KURVE_GAUGE2_POLIGON_INNENEINST
 70
0
 62
7
  6
CONTINUOUS
370
-3
390
F
  0
LAYER
  5
209
100
AcDbSymbolTableRecord
100
AcDbLayerTableRecord
  2
KURVE_PHANTOM1_GAUGE_PIN_1
 70
0
 62
7
  6
CONTINUOUS
370
-3
390
F
  0
LAYER
  5
20A
100
AcDbSymbolTableRecord
100
AcDbLayerTableRecord
  2
KURVE_PHANTOM2_GAUGE_PIN1
 70
0
 62
7
  6
CONTINUOUS
370
-3
390
F
  0
LAYER
  5
20B
100
AcDbSymbolTableRecord
100
AcDbLayerTableRecord
  2
KURVE_POLIGON_BEMASUNG
 70
0
 62
7
  6
CONTINUOUS
370
-3
390
F
  0
LAYER
  5
20C
100
AcDbSymbolTableRecord
100
AcDbLayerTableRecord
  2
PUNKTE
 70
0
 62
7
  6
CONTINUOUS
370
-3
390
F
  0
LAYER
  5
20D
100
AcDbSymbolTableRecord
100
AcDbLayerTableRecord
  2
RUNDUNGEN
 70
0
 62
7
  6
CONTINUOUS
370
-3
390
F
  0
LAYER
  5
20E
100
AcDbSymbolTableRecord
100
AcDbLayerTableRecord
  2
S_ACHSEN
 70
0
 62
7
  6
CONTINUOUS
370
-3
390
F
  0
LAYER
  5
20F
100
AcDbSymbolTableRecord
100
AcDbLayerTableRecord
  2
S_EBENEN
 70
0
 62
7
  6
CONTINUOUS
370
-3
390
F
  0
LAYER
  5
210
100
AcDbSymbolTableRecord
100
AcDbLayerTableRecord
  2
S_KOORDSYS
 70
0
 62
7
  6
CONTINUOUS
370
-3
390
F
  0
LAYER
  5
211
100
AcDbSymbolTableRecord
100
AcDbLayerTableRecord
  2
TOL_BEZUEGE
 70
0
 62
7
  6
CONTINUOUS
370
-3
390
F
  0
LAYER
  5
212
100
AcDbSymbolTableRecord
100
AcDbLayerTableRecord
  2
VERBFLAECHE
 70
0
 62
7
  6
CONTINUOUS
370
-3
390
F
  0
LAYER
  5
213
100
AcDbSymbolTableRecord
100
AcDbLayerTableRecord
  2
ZEICHNUNGSBEMASSUNGEN
 70
0
 62
7
  6
CONTINUOUS
370
-3
390
F
  0
ENDTAB
  0
TABLE
  2
STYLE
  5
3
100
AcDbSymbolTable
 70
1
  0
STYLE
  5
11
100
AcDbSymbolTableRecord
100
AcDbTextStyleTableRecord
  2
STANDARD
 70
0
 40
0.0
 41
0.7
 50
0.0
 71
0
 42
0.2
  3
txt
  4

  0
STYLE
  5
214
100
AcDbSymbolTableRecord
100
AcDbTextStyleTableRecord
  2
TEXTSTYLE_1
 70
0
 40
0.0
 41
0.8
 50
0.0
 71
0
 42
0.2
  3
gdt
  4

  0
STYLE
  5
215
100
AcDbSymbolTableRecord
100
AcDbTextStyleTableRecord
  2
TEXTSTYLE_2
 70
0
 40
0.0
 41
0.7
 50
0.0
 71
0
 42
0.2
  3
gdt
  4

  0
ENDTAB
  0
TABLE
  2
VIEW
  5
6
100
AcDbSymbolTable
 70
0
  0
ENDTAB
  0
TABLE
  2
UCS
  5
7
100
AcDbSymbolTable
 70
0
  0
ENDTAB
  0
TABLE
  2
APPID
  5
9
100
AcDbSymbolTable
 70
1
  0
APPID
  5
216
100
AcDbSymbolTableRecord
100
AcDbRegAppTableRecord
  2
ACAD
 70
0
  0
ENDTAB
  0
TABLE
  2
BLOCK_RECORD
  5
1
100
AcDbSymbolTable
 70
0
  0
BLOCK_RECORD
  5
217
100
AcDbSymbolTableRecord
100
AcDbBlockTableRecord
  2
*Model_Space
  0
BLOCK_RECORD
  5
218
100
AcDbSymbolTableRecord
100
AcDbBlockTableRecord
  2
*Paper_Space
  0
BLOCK_RECORD
  5
219
100
AcDbSymbolTableRecord
100
AcDbBlockTableRecord
  2
_FILLED
  0
BLOCK_RECORD
  5
21A
100
AcDbSymbolTableRecord
100
AcDbBlockTableRecord
  2
*D0
  0
BLOCK_RECORD
  5
21B
100
AcDbSymbolTableRecord
100
AcDbBlockTableRecord
  2
*D1
  0
BLOCK_RECORD
  5
21C
100
AcDbSymbolTableRecord
100
AcDbBlockTableRecord
  2
*D2
  0
BLOCK_RECORD
  5
21D
100
AcDbSymbolTableRecord
100
AcDbBlockTableRecord
  2
*D3
  0
BLOCK_RECORD
  5
21E
100
AcDbSymbolTableRecord
100
AcDbBlockTableRecord
  2
*D4
  0
BLOCK_RECORD
  5
21F
100
AcDbSymbolTableRecord
100
AcDbBlockTableRecord
  2
*D5
  0
BLOCK_RECORD
  5
220
100
AcDbSymbolTableRecord
100
AcDbBlockTableRecord
  2
*D6
  0
ENDTAB
  0
TABLE
  2
DIMSTYLE
  5
A
100
AcDbSymbolTable
 70
1
100
AcDbDimStyleTable
 71
0
  0
DIMSTYLE
105
221
100
AcDbSymbolTableRecord
100
AcDbDimStyleTableRecord
  2
STANDARD
 70
0
  3

  4

 40
1.0
 41
3.5
 42
0.0625
 43
0.38
 44
0.18
 45
0.0
 46
0.0
 47
0.005
 48
0.005
140
3.5
141
0.09
142
0.0
143
25.4
144
1.0
145
0.0
146
1.0
147
0.09
 71
1.0
 72
0.0
 73
0
 74
0
 75
0
 76
0
 77
1
 78
8
170
0
171
2
172
0
173
0
174
0
175
0
176
0
177
0
178
5
270
2
271
3
272
3
273
2
274
2
275
0
280
0
281
0
282
0
283
1
284
8
285
0
286
0
287
3
288
0
340
11
341
219
342
219
343
219
344
219
  0
DIMSTYLE
105
222
100
AcDbSymbolTableRecord
100
AcDbDimStyleTableRecord
  2
DIMSTYLE_1
 70
0
  3

  4

 40
1.0
 41
3.5
 42
0.0625
 43
0.38
 44
0.18
 45
0.0
 46
0.0
 47
0.0
 48
0.1
140
3.5
141
0.09
142
0.0
143
25.4
144
1.0
145
0.0
146
1.0
147
0.09
 71
0.0
 72
0.0
 73
0
 74
0
 75
0
 76
0
 77
1
 78
8
170
0
171
2
172
0
173
0
174
0
175
0
176
0
177
0
178
5
270
2
271
2
272
2
273
2
274
2
275
0
280
0
281
0
282
0
283
1
284
8
285
0
286
0
287
3
288
0
340
11
341
219
342
219
343
219
344
219
  0
DIMSTYLE
105
223
100
AcDbSymbolTableRecord
100
AcDbDimStyleTableRecord
  2
DIMSTYLE_2
 70
0
  3

  4

 40
1.0
 41
3.5
 42
0.0625
 43
0.38
 44
0.18
 45
0.0
 46
0.0
 47
0.25
 48
0.25
140
3.5
141
0.09
142
0.0
143
25.4
144
1.0
145
0.0
146
1.0
147
0.09
 71
0.0
 72
0.0
 73
0
 74
0
 75
0
 76
0
 77
1
 78
8
170
0
171
2
172
0
173
0
174
0
175
0
176
0
177
0
178
5
270
2
271
2
272
2
273
2
274
2
275
0
280
0
281
0
282
0
283
1
284
8
285
0
286
0
287
3
288
0
340
11
341
219
342
219
343
219
344
219
  0
DIMSTYLE
105
224
100
AcDbSymbolTableRecord
100
AcDbDimStyleTableRecord
  2
DIMSTYLE_3
 70
0
  3

  4

 40
1.0
 41
3.5
 42
0.0625
 43
0.38
 44
0.18
 45
0.0
 46
0.0
 47
0.5
 48
0.5
140
3.5
141
0.09
142
0.0
143
25.4
144
1.0
145
0.0
146
1.0
147
0.09
 71
0.0
 72
0.0
 73
0
 74
0
 75
0
 76
0
 77
1
 78
8
170
0
171
2
172
0
173
0
174
0
175
0
176
0
177
0
178
5
270
2
271
2
272
2
273
2
274
2
275
0
280
0
281
0
282
0
283
1
284
8
285
0
286
0
287
3
288
0
340
11
341
219
342
219
343
219
344
219
  0
DIMSTYLE
105
225
100
AcDbSymbolTableRecord
100
AcDbDimStyleTableRecord
  2
DIMSTYLE_4
 70
0
  3

  4

 40
1.0
 41
3.5
 42
0.0625
 43
0.38
 44
0.18
 45
0.0
 46
0.0
 47
-0.011
 48
0.015
140
3.5
141
0.09
142
0.0
143
25.4
144
1.0
145
0.0
146
1.0
147
0.09
 71
0.0
 72
0.0
 73
0
 74
0
 75
0
 76
0
 77
1
 78
8
170
0
171
2
172
0
173
0
174
0
175
0
176
0
177
0
178
5
270
2
271
3
272
3
273
2
274
2
275
0
280
0
281
0
282
0
283
1
284
8
285
0
286
0
287
3
288
0
340
11
341
219
342
219
343
219
344
219
  0
DIMSTYLE
105
226
100
AcDbSymbolTableRecord
100
AcDbDimStyleTableRecord
  2
DIMSTYLE_5
 70
0
  3

  4

 40
1.0
 41
3.5
 42
0.0625
 43
0.38
 44
0.18
 45
0.0
 46
0.0
 47
0.3
 48
0.3
140
3.5
141
0.09
142
0.0
143
25.4
144
1.0
145
0.0
146
1.0
147
0.09
 71
0.0
 72
0.0
 73
0
 74
0
 75
0
 76
0
 77
1
 78
8
170
0
171
2
172
0
173
0
174
0
175
0
176
0
177
0
178
5
270
2
271
2
272
2
273
2
274
2
275
0
280
0
281
0
282
0
283
1
284
8
285
0
286
0
287
3
288
0
340
11
341
219
342
219
343
219
344
219
  0
ENDTAB
  0
ENDSEC
  0
SECTION
  2
BLOCKS
  0
BLOCK
  5
20
100
AcDbEntity
  8
0
100
AcDbBlockBegin
  2
*Model_Space
 70
0
 10
0.0
 20
0.0
 30
0.0
  3
*Model_Space
  1

  0
ENDBLK
  5
21
100
AcDbEntity
  8
0
100
AcDbBlockEnd
  0
BLOCK
  5
1C
100
AcDbEntity
  8
0
100
AcDbBlockBegin
  2
*Paper_Space
 70
0
 10
0.0
 20
0.0
 30
0.0
  3
*Paper_Space
  1

  0
ENDBLK
  5
1D
100
AcDbEntity
  8
0
100
AcDbBlockEnd
  0
BLOCK
  5
227
100
AcDbEntity
  8
0
100
AcDbBlockBegin
  2
_FILLED
 70
64
 10
0.0
 20
0.0
  3
_FILLED
  1

  0
SOLID
  5
228
100
AcDbEntity
  8
0
  6
BYBLOCK
 62
0
100
AcDbTrace
 10
0.0
 20
0.0
 11
-1.0
 21
0.125
 12
-1.0
 22
-0.125
 13
-1.0
 23
-0.125
  0
ENDBLK
  5
229
100
AcDbEntity
  8
0
  6
BYBLOCK
 62
0
100
AcDbBlockEnd
  0
BLOCK
  5
22A
100
AcDbEntity
  8
0
100
AcDbBlockBegin
 62
2
  6
CONTINUOUS
  2
*D0
 70
65
 10
0.0
 20
0.0
  3
*D0
  1

  0
MTEXT
  5
22B
100
AcDbEntity
  8
0
100
AcDbMText
 62
5
  6
CONTINUOUS
  7
TEXTSTYLE_2
 71
2
 72
1
 10
281.7998756634
 20
141.6484555147
 30
0.0
 11
0.0
 21
1.0
 31
0.0
 44
0.9
  1
{\Fgdt;n}\Ftxt;21
 40
3.5
 41
9.4166666667
  0
LINE
  5
22C
100
AcDbEntity
  8
0
100
AcDbLine
 62
2
  6
CONTINUOUS
 10
249.0177111486
 20
152.1234555147
 11
287.6748756634
 21
152.1234555147
  0
LINE
  5
22D
100
AcDbEntity
  8
0
100
AcDbLine
 62
2
  6
CONTINUOUS
 10
249.0177111486
 20
131.1734555147
 11
287.6748756634
 21
131.1734555147
  0
LINE
  5
22E
100
AcDbEntity
  8
0
100
AcDbLine
 62
2
  6
CONTINUOUS
 10
286.1748756634
 20
152.1234555147
 11
286.1748756634
 21
141.6484555147
  0
LINE
  5
22F
100
AcDbEntity
  8
0
100
AcDbLine
 62
2
  6
CONTINUOUS
 10
286.1748756634
 20
131.1734555147
 11
286.1748756634
 21
141.6484555147
  0
INSERT
  5
230
100
AcDbEntity
  8
0
100
AcDbBlockReference
 62
2
  6
CONTINUOUS
  2
_FILLED
 10
286.1748756634
 20
152.1234555147
 41
3.5
 42
3.5
 43
3.5
 50
90.0
  0
INSERT
  5
231
100
AcDbEntity
  8
0
100
AcDbBlockReference
 62
2
  6
CONTINUOUS
  2
_FILLED
 10
286.1748756634
 20
131.1734555147
 41
3.5
 42
3.5
 43
3.5
 50
270.0
  0
ENDBLK
  5
232
100
AcDbEntity
  8
0
  6
BYBLOCK
 62
0
100
AcDbBlockEnd
  0
BLOCK
  5
233
100
AcDbEntity
  8
0
100
AcDbBlockBegin
 62
2
  6
CONTINUOUS
  2
*D1
 70
65
 10
0.0
 20
0.0
  3
*D1
  1

  0
MTEXT
  5
234
100
AcDbEntity
  8
0
100
AcDbMText
 62
5
  6
CONTINUOUS
  7
STANDARD
 71
2
 72
1
 10
224.6649059824
 20
119.0805299773
 30
0.0
 11
0.5117387562
 21
0.8591411091
 31
0.0
 44
0.9
  1
4\Fgdt;{\Fgdt;~}\Ftxt;30'
 40
3.5
 41
12.3333333333
  0
LINE
  5
235
100
AcDbEntity
  8
0
100
AcDbLine
 62
2
  6
CONTINUOUS
 10
232.5960538623
 20
129.9990956176
 11
238.8997837181
 21
130.4952099166
  0
LINE
  5
236
100
AcDbEntity
  8
0
100
AcDbLine
 62
2
  6
CONTINUOUS
 10
210.8990969401
 20
128.1734555147
 11
235.6677834573
 21
128.1734555147
  0
ARC
  5
237
100
AcDbEntity
  8
0
100
AcDbCircle
 62
2
  6
CONTINUOUS
 10
209.3990969401
 20
128.1734555147
 40
24.7686865171
100
AcDbArc
 50
4.5
 51
18.3794068406
  0
ARC
  5
238
100
AcDbEntity
  8
0
100
AcDbCircle
 62
2
  6
CONTINUOUS
 10
209.3990969401
 20
128.1734555147
 40
24.7686865171
100
AcDbArc
 50
329.2202830262
 51
0.0
  0
ARC
  5
239
100
AcDbEntity
  8
0
100
AcDbCircle
 62
2
  6
CONTINUOUS
 10
209.3990969401
 20
128.1734555147
 40
24.7686865171
100
AcDbArc
 50
360.0
 51
4.5
  0
SOLID
  5
23A
100
AcDbEntity
  8
0
100
AcDbTrace
 62
2
  6
CONTINUOUS
 10
233.1385475433
 20
133.5128734142
 11
234.0914298629
 21
130.1167842612
 12
234.0038274062
 22
133.6429340112
 13
234.0038274062
 23
133.6429340112
  0
SOLID
  5
23B
100
AcDbEntity
  8
0
100
AcDbTrace
 62
2
  6
CONTINUOUS
 10
234.3571095705
 20
124.651302498
 11
234.1677834573
 21
128.1734555147
 12
233.4842926398
 22
124.713073086
 13
233.4842926398
 23
124.713073086
  0
ENDBLK
  5
23C
100
AcDbEntity
  8
0
  6
BYBLOCK
 62
0
100
AcDbBlockEnd
  0
BLOCK
  5
23D
100
AcDbEntity
  8
0
100
AcDbBlockBegin
 62
2
  6
CONTINUOUS
  2
*D2
 70
65
 10
0.0
 20
0.0
  3
*D2
  1

  0
MTEXT
  5
23E
100
AcDbEntity
  8
0
100
AcDbMText
 62
5
  6
CONTINUOUS
  7
STANDARD
 71
2
 72
1
 10
182.5177111486
 20
199.4505499481
 30
0.0
 11
1.0
 21
0.0
 31
0.0
 44
0.9
  1
130
 40
3.5
 41
7.25
  0
LINE
  5
23F
100
AcDbEntity
  8
0
100
AcDbLine
 62
2
  6
CONTINUOUS
 10
117.5177111486
 20
169.1146302235
 11
117.5177111486
 21
196.5755499481
  0
LINE
  5
240
100
AcDbEntity
  8
0
100
AcDbLine
 62
2
  6
CONTINUOUS
 10
247.5177111486
 20
152.4490302235
 11
247.5177111486
 21
196.5755499481
  0
LINE
  5
241
100
AcDbEntity
  8
0
100
AcDbLine
 62
2
  6
CONTINUOUS
 10
117.5177111486
 20
195.0755499481
 11
182.5177111486
 21
195.0755499481
  0
LINE
  5
242
100
AcDbEntity
  8
0
100
AcDbLine
 62
2
  6
CONTINUOUS
 10
247.5177111486
 20
195.0755499481
 11
182.5177111486
 21
195.0755499481
  0
INSERT
  5
243
100
AcDbEntity
  8
0
100
AcDbBlockReference
 62
2
  6
CONTINUOUS
  2
_FILLED
 10
117.5177111486
 20
195.0755499481
 41
3.5
 42
3.5
 43
3.5
 50
180.0
  0
INSERT
  5
244
100
AcDbEntity
  8
0
100
AcDbBlockReference
 62
2
  6
CONTINUOUS
  2
_FILLED
 10
247.5177111486
 20
195.0755499481
 41
3.5
 42
3.5
 43
3.5
  0
ENDBLK
  5
245
100
AcDbEntity
  8
0
  6
BYBLOCK
 62
0
100
AcDbBlockEnd
  0
BLOCK
  5
246
100
AcDbEntity
  8
0
100
AcDbBlockBegin
 62
2
  6
CONTINUOUS
  2
*D3
 70
65
 10
0.0
 20
0.0
  3
*D3
  1

  0
MTEXT
  5
247
100
AcDbEntity
  8
0
100
AcDbMText
 62
5
  6
CONTINUOUS
  7
TEXTSTYLE_2
 71
1
 72
1
 10
272.1303614395
 20
156.5347210319
 30
0.0
 11
0.0
 21
1.0
 31
0.0
 44
0.9
  1
{\Fgdt;n}\Ftxt;6
 40
3.5
 41
7.4166666667
  0
LINE
  5
248
100
AcDbEntity
  8
0
100
AcDbLine
 62
2
  6
CONTINUOUS
 10
241.7814152501
 20
138.6549555147
 11
278.0053614395
 21
138.6549555147
  0
LINE
  5
249
100
AcDbEntity
  8
0
100
AcDbLine
 62
2
  6
CONTINUOUS
 10
241.6380552501
 20
144.6419555147
 11
278.0053614395
 21
144.6419555147
  0
LINE
  5
24A
100
AcDbEntity
  8
0
100
AcDbLine
 62
2
  6
CONTINUOUS
 10
276.5053614395
 20
138.6549555147
 11
276.5053614395
 21
132.6549555147
  0
LINE
  5
24B
100
AcDbEntity
  8
0
100
AcDbLine
 62
2
  6
CONTINUOUS
 10
276.5053614395
 20
132.6549555147
 11
276.5053614395
 21
141.6484555147
  0
LINE
  5
24C
100
AcDbEntity
  8
0
100
AcDbLine
 62
2
  6
CONTINUOUS
 10
276.5053614395
 20
144.6419555147
 11
276.5053614395
 21
163.9513876986
  0
LINE
  5
24D
100
AcDbEntity
  8
0
100
AcDbLine
 62
2
  6
CONTINUOUS
 10
276.5053614395
 20
163.9513876986
 11
276.5053614395
 21
141.6484555147
  0
INSERT
  5
24E
100
AcDbEntity
  8
0
100
AcDbBlockReference
 62
2
  6
CONTINUOUS
  2
_FILLED
 10
276.5053614395
 20
138.6549555147
 41
3.5
 42
3.5
 43
3.5
 50
90.0
  0
INSERT
  5
24F
100
AcDbEntity
  8
0
100
AcDbBlockReference
 62
2
  6
CONTINUOUS
  2
_FILLED
 10
276.5053614395
 20
144.6419555147
 41
3.5
 42
3.5
 43
3.5
 50
270.0
  0
ENDBLK
  5
250
100
AcDbEntity
  8
0
  6
BYBLOCK
 62
0
100
AcDbBlockEnd
  0
BLOCK
  5
251
100
AcDbEntity
  8
0
100
AcDbBlockBegin
 62
2
  6
CONTINUOUS
  2
*D4
 70
65
 10
0.0
 20
0.0
  3
*D4
  1

  0
MTEXT
  5
252
100
AcDbEntity
  8
0
100
AcDbMText
 62
5
  6
CONTINUOUS
  7
STANDARD
 71
2
 72
1
 10
193.5177111486
 20
190.4325089756
 30
0.0
 11
1.0
 21
0.0
 31
0.0
 44
0.9
  1
108
 40
3.5
 41
7.5
  0
LINE
  5
253
100
AcDbEntity
  8
0
100
AcDbLine
 62
2
  6
CONTINUOUS
 10
247.5177111486
 20
132.6734555147
 11
247.5177111486
 21
187.5575089756
  0
LINE
  5
254
100
AcDbEntity
  8
0
100
AcDbLine
 62
2
  6
CONTINUOUS
 10
139.5177111486
 20
167.5018302235
 11
139.5177111486
 21
187.5575089756
  0
LINE
  5
255
100
AcDbEntity
  8
0
100
AcDbLine
 62
2
  6
CONTINUOUS
 10
247.5177111486
 20
186.0575089756
 11
193.5177111486
 21
186.0575089756
  0
LINE
  5
256
100
AcDbEntity
  8
0
100
AcDbLine
 62
2
  6
CONTINUOUS
 10
139.5177111486
 20
186.0575089756
 11
193.5177111486
 21
186.0575089756
  0
INSERT
  5
257
100
AcDbEntity
  8
0
100
AcDbBlockReference
 62
2
  6
CONTINUOUS
  2
_FILLED
 10
247.5177111486
 20
186.0575089756
 41
3.5
 42
3.5
 43
3.5
  0
INSERT
  5
258
100
AcDbEntity
  8
0
100
AcDbBlockReference
 62
2
  6
CONTINUOUS
  2
_FILLED
 10
139.5177111486
 20
186.0575089756
 41
3.5
 42
3.5
 43
3.5
 50
180.0
  0
ENDBLK
  5
259
100
AcDbEntity
  8
0
  6
BYBLOCK
 62
0
100
AcDbBlockEnd
  0
BLOCK
  5
25A
100
AcDbEntity
  8
0
100
AcDbBlockBegin
 62
2
  6
CONTINUOUS
  2
*D5
 70
65
 10
0.0
 20
0.0
  3
*D5
  1

  0
MTEXT
  5
25B
100
AcDbEntity
  8
0
100
AcDbMText
 62
5
  6
CONTINUOUS
  7
STANDARD
 71
2
 72
1
 10
163.5177111486
 20
103.7833664607
 30
0.0
 11
1.0
 21
0.0
 31
0.0
 44
0.9
  1
168
 40
3.5
 41
7.5
  0
LINE
  5
25C
100
AcDbEntity
  8
0
100
AcDbLine
 62
2
  6
CONTINUOUS
 10
247.5177111486
 20
129.6734555147
 11
247.5177111486
 21
97.9083664607
  0
LINE
  5
25D
100
AcDbEntity
  8
0
100
AcDbLine
 62
2
  6
CONTINUOUS
 10
79.5177111486
 20
119.9623397454
 11
79.5177111486
 21
97.9083664607
  0
LINE
  5
25E
100
AcDbEntity
  8
0
100
AcDbLine
 62
2
  6
CONTINUOUS
 10
247.5177111486
 20
99.4083664607
 11
163.5177111486
 21
99.4083664607
  0
LINE
  5
25F
100
AcDbEntity
  8
0
100
AcDbLine
 62
2
  6
CONTINUOUS
 10
79.5177111486
 20
99.4083664607
 11
163.5177111486
 21
99.4083664607
  0
INSERT
  5
260
100
AcDbEntity
  8
0
100
AcDbBlockReference
 62
2
  6
CONTINUOUS
  2
_FILLED
 10
247.5177111486
 20
99.4083664607
 41
3.5
 42
3.5
 43
3.5
  0
INSERT
  5
261
100
AcDbEntity
  8
0
100
AcDbBlockReference
 62
2
  6
CONTINUOUS
  2
_FILLED
 10
79.5177111486
 20
99.4083664607
 41
3.5
 42
3.5
 43
3.5
 50
180.0
  0
ENDBLK
  5
262
100
AcDbEntity
  8
0
  6
BYBLOCK
 62
0
100
AcDbBlockEnd
  0
BLOCK
  5
263
100
AcDbEntity
  8
0
100
AcDbBlockBegin
 62
2
  6
CONTINUOUS
  2
*D6
 70
65
 10
0.0
 20
0.0
  3
*D6
  1

  0
MTEXT
  5
264
100
AcDbEntity
  8
0
100
AcDbMText
 62
5
  6
CONTINUOUS
  7
TEXTSTYLE_2
 71
2
 72
1
 10
288.6993565943
 20
141.6484555147
 30
0.0
 11
0.0
 21
1.0
 31
0.0
 44
0.9
  1
{\Fgdt;n}\Ftxt;27
 40
3.5
 41
10.1666666667
  0
LINE
  5
265
100
AcDbEntity
  8
0
100
AcDbLine
 62
2
  6
CONTINUOUS
 10
210.8990969401
 20
155.1234555147
 11
245.0827323512
 21
155.1234555147
  0
LINE
  5
266
100
AcDbEntity
  8
0
100
AcDbLine
 62
2
  6
CONTINUOUS
 10
249.6753186643
 20
155.1234555147
 11
294.5743565943
 21
155.1234555147
  0
LINE
  5
267
100
AcDbEntity
  8
0
100
AcDbLine
 62
2
  6
CONTINUOUS
 10
210.8990969401
 20
128.1734555147
 11
294.5743565943
 21
128.1734555147
  0
LINE
  5
268
100
AcDbEntity
  8
0
100
AcDbLine
 62
2
  6
CONTINUOUS
 10
293.0743565943
 20
155.1234555147
 11
293.0743565943
 21
141.6484555147
  0
LINE
  5
269
100
AcDbEntity
  8
0
100
AcDbLine
 62
2
  6
CONTINUOUS
 10
293.0743565943
 20
128.1734555147
 11
293.0743565943
 21
141.6484555147
  0
INSERT
  5
26A
100
AcDbEntity
  8
0
100
AcDbBlockReference
 62
2
  6
CONTINUOUS
  2
_FILLED
 10
293.0743565943
 20
155.1234555147
 41
3.5
 42
3.5
 43
3.5
 50
90.0
  0
INSERT
  5
26B
100
AcDbEntity
  8
0
100
AcDbBlockReference
 62
2
  6
CONTINUOUS
  2
_FILLED
 10
293.0743565943
 20
128.1734555147
 41
3.5
 42
3.5
 43
3.5
 50
270.0
  0
ENDBLK
  5
26C
100
AcDbEntity
  8
0
  6
BYBLOCK
 62
0
100
AcDbBlockEnd
  0
ENDSEC
  0
SECTION
  2
ENTITIES
  0
DIMENSION
  5
26D
100
AcDbEntity
  8
0
100
AcDbDimension
 62
2
  6
CONTINUOUS
  2
*D0
 10
286.1748756634
 20
131.1734555147
 11
284.6047156347
 21
139.5438383691
 70
160
 71
2
 42
20.95
  1
%%c<>
  3
DIMSTYLE_1
100
AcDbAlignedDimension
 13
249.0177111486
 23
152.1234555147
 14
249.0177111486
 24
131.1734555147
 50
270.0
100
AcDbRotatedDimension
  0
DIMENSION
  5
26E
100
AcDbEntity
  8
0
100
AcDbDimension
 62
2
  6
CONTINUOUS
  2
*D1
 10
235.6677834573
 20
128.1734555147
 11
228.3973492405
 21
117.0528218323
 70
162
 71
2
 42
0.0785398163
  3
DIMSTYLE_2
100
AcDb2LineAngularDimension
 13
238.8997837181
 23
130.4952099166
 14
232.5960538623
 24
129.9990956176
 15
210.8990969401
 25
128.1734555147
 16
234.1486876976
 26
129.1458695839
  0
DIMENSION
  5
26F
100
AcDbEntity
  8
0
100
AcDbDimension
 62
2
  6
CONTINUOUS
  2
*D2
 10
247.5177111486
 20
195.0755499481
 11
178.8927111486
 21
197.7005499481
 70
160
 71
2
 42
130.0
  3
DIMSTYLE_3
100
AcDbAlignedDimension
 13
117.5177111486
 23
169.1146302235
 14
247.5177111486
 24
152.4490302235
100
AcDbRotatedDimension
  0
DIMENSION
  5
270
100
AcDbEntity
  8
0
100
AcDbDimension
 62
2
  6
CONTINUOUS
  2
*D3
 10
276.5053614395
 20
144.6419555147
 11
273.8803614395
 21
160.2430543653
 70
160
 71
1
 42
5.987
  1
%%c<>
  3
DIMSTYLE_4
100
AcDbAlignedDimension
 13
241.7814152501
 23
138.6549555147
 14
241.6380552501
 24
144.6419555147
 50
90.0
100
AcDbRotatedDimension
  0
DIMENSION
  5
271
100
AcDbEntity
  8
0
100
AcDbDimension
 62
2
  6
CONTINUOUS
  2
*D4
 10
139.5177111486
 20
186.0575089756
 11
189.7677111486
 21
188.6825089756
 70
160
 71
2
 42
108.0
  3
DIMSTYLE_5
100
AcDbAlignedDimension
 13
247.5177111486
 23
132.6734555147
 14
139.5177111486
 24
167.5018302235
 50
180.0
100
AcDbRotatedDimension
  0
DIMENSION
  5
272
100
AcDbEntity
  8
0
100
AcDbDimension
 62
2
  6
CONTINUOUS
  2
*D5
 10
79.5177111486
 20
99.4083664607
 11
159.7677111486
 21
102.0333664607
 70
160
 71
2
 42
168.0
  3
DIMSTYLE_3
100
AcDbAlignedDimension
 13
247.5177111486
 23
129.6734555147
 14
79.5177111486
 24
119.9623397454
 50
180.0
100
AcDbRotatedDimension
  0
DIMENSION
  5
273
100
AcDbEntity
  8
0
100
AcDbDimension
 62
2
  6
CONTINUOUS
  2
*D6
 10
293.0743565943
 20
128.1734555147
 11
291.5882103686
 21
139.3762139947
 70
160
 71
2
 42
26.95
  1
%%c<>
  3
DIMSTYLE_1
100
AcDbAlignedDimension
 13
210.8990969401
 23
155.1234555147
 14
210.8990969401
 24
128.1734555147
 50
270.0
100
AcDbRotatedDimension
  0
MTEXT
  5
274
100
AcDbEntity
  8
0
100
AcDbMText
 62
5
  6
CONTINUOUS
  7
STANDARD
 71
1
 72
1
 10
11.0099917279
 20
82.7336124032
 30
0.0
 11
1.0
 21
0.0
 31
0.0
 44
0.9
  3
Für diese Unterlage behalten wir das Ur-\Pheberrecht. Sie darf nur für den von uns \Pbestimmten Zweck benutzt und ohne unsere \PZustimmung weder vervielfältigt noch\PDritten zugänglich gemacht werden\P \PWe own the copyright of this document. It \Pde
  1
termined and may neither be copied or \Pmade accessible to outsiders without our\Ppermission.\P \PCe plan reste notre propriété. Il ne peut\Pêtre utilisé, copié ou reproduit sans notre\Paccord.
 40
3.5
 41
104.8333333333
  0
LINE
  5
275
100
AcDbEntity
  8
0
100
AcDbLine
 62
7
  6
CONTINUOUS
 10
0.0
 20
0.0
 11
0.0
 21
210.0
  0
LINE
  5
276
100
AcDbEntity
  8
0
100
AcDbLine
 62
7
  6
CONTINUOUS
 10
0.0
 20
0.0
 11
297.0
 21
0.0
  0
LINE
  5
277
100
AcDbEntity
  8
0
100
AcDbLine
 62
7
  6
CONTINUOUS
 10
0.0
 20
210.0
 11
297.0
 21
210.0
  0
LINE
  5
278
100
AcDbEntity
  8
0
100
AcDbLine
 62
7
  6
CONTINUOUS
 10
297.0
 20
0.0
 11
297.0
 21
210.0
  0
LINE
  5
279
100
AcDbEntity
  8
0
100
AcDbLine
 62
7
  6
CONTINUOUS
 10
79.5177111486
 20
119.9561175218
 11
79.5177111486
 21
156.6097001534
  0
LINE
  5
27A
100
AcDbEntity
  8
KURVEN
100
AcDbLine
 62
4
  6
CONTINUOUS
 10
79.5177111486
 20
119.127777339
 11
79.5177111486
 21
160.8600295016
  0
LINE
  5
27B
100
AcDbEntity
  8
ACHSEN
100
AcDbLine
 62
7
  6
CONTINUOUS
 10
79.5177111486
 20
156.6097001534
 11
79.5177111486
 21
160.3969348287
  0
LINE
  5
27C
100
AcDbEntity
  8
ACHSEN
100
AcDbLine
 62
7
  6
CONTINUOUS
 10
81.0177111486
 20
161.1454451282
 11
81.0177111486
 21
157.3597001534
  0
LINE
  5
27D
100
AcDbEntity
  8
0
100
AcDbLine
 62
7
  6
CONTINUOUS
 10
81.0177111486
 20
157.3597001534
 11
81.0177111486
 21
119.090092118
  0
LINE
  5
27E
100
AcDbEntity
  8
ACHSEN
100
AcDbLine
 62
7
  6
CENTER
 10
102.0177111486
 20
118.7149700076
 11
102.0177111486
 21
165.8368260792
  0
LINE
  5
27F
100
AcDbEntity
  8
0
100
AcDbLine
 62
7
  6
CONTINUOUS
 10
117.5177129846
 20
172.8484536073
 11
117.8177130745
 21
173.1484536612
  0
LINE
  5
280
100
AcDbEntity
  8
0
100
AcDbLine
 62
9
  6
CONTINUOUS
 10
81.0177111486
 20
157.3597001534
 11
79.5177111486
 21
156.6097001534
  0
LINE
  5
281
100
AcDbEntity
  8
0
100
AcDbLine
 62
7
  6
CONTINUOUS
 10
81.0177111486
 20
119.090092118
 11
79.5177111486
 21
119.9561175218
  0
LINE
  5
282
100
AcDbEntity
  8
0
100
AcDbLine
 62
7
  6
CONTINUOUS
 10
115.3177742377
 20
162.2685558843
 11
115.3177742377
 21
158.1059862633
  0
LINE
  5
283
100
AcDbEntity
  8
0
100
AcDbLine
 62
7
  6
CONTINUOUS
 10
115.3177742377
 20
146.8733266453
 11
115.3177742377
 21
119.9660536354
  0
LINE
  5
284
100
AcDbEntity
  8
0
100
AcDbLine
 62
9
  6
CONTINUOUS
 10
115.5227342598
 20
162.0736420844
 11
115.5227342598
 21
156.3333977194
  0
LINE
  5
285
100
AcDbEntity
  8
0
100
AcDbLine
 62
9
  6
CONTINUOUS
 10
115.5227342598
 20
149.8343987014
 11
115.5227342598
 21
118.7775701232
  0
LINE
  5
286
100
AcDbEntity
  8
0
100
AcDbLine
 62
9
  6
CONTINUOUS
 10
116.2106043675
 20
118.9055622959
 11
116.2106043675
 21
119.5448988637
  0
LINE
  5
287
100
AcDbEntity
  8
0
100
AcDbLine
 62
9
  6
CONTINUOUS
 10
116.2106043675
 20
148.0629952754
 11
116.2106043675
 21
157.3374724049
  0
LINE
  5
288
100
AcDbEntity
  8
0
100
AcDbLine
 62
9
  6
CONTINUOUS
 10
117.1227342598
 20
162.1138396536
 11
117.1227342598
 21
157.9929338016
  0
LINE
  5
289
100
AcDbEntity
  8
0
100
AcDbLine
 62
9
  6
CONTINUOUS
 10
117.1227342598
 20
146.8314059678
 11
117.1227342598
 21
120.1210267746
  0
LINE
  5
28A
100
AcDbEntity
  8
0
100
AcDbLine
 62
7
  6
CONTINUOUS
 10
117.5177111486
 20
110.4487311842
 11
117.5177111486
 21
172.8481798451
  0
LINE
  5
28B
100
AcDbEntity
  8
0
100
AcDbLine
 62
7
  6
CONTINUOUS
 10
117.8177112222
 20
110.1484555147
 11
117.8177112222
 21
173.1484555147
  0
LINE
  5
28C
100
AcDbEntity
  8
0
100
AcDbLine
 62
7
  6
CONTINUOUS
 10
117.3176462968
 20
158.4380301004
 11
117.3177111486
 21
164.1819403757
  0
LINE
  5
28D
100
AcDbEntity
  8
0
100
AcDbLine
 62
7
  6
CONTINUOUS
 10
117.3176462968
 20
120.2382874232
 11
117.3176151823
 21
146.2736807288
  0
LINE
  5
28E
100
AcDbEntity
  8
0
100
AcDbLine
 62
9
  6
CONTINUOUS
 10
81.0177111486
 20
120.7123397454
 11
79.5177111486
 21
121.4623397454
  0
LINE
  5
28F
100
AcDbEntity
  8
0
100
AcDbLine
 62
7
  6
CONTINUOUS
 10
117.5177129846
 20
110.448457422
 11
117.8177130745
 21
110.1484573681
  0
LINE
  5
290
100
AcDbEntity
  8
0
100
AcDbLine
 62
9
  6
CONTINUOUS
 10
127.6233735814
 20
171.5624103611
 11
127.6233735814
 21
151.5178681336
  0
LINE
  5
291
100
AcDbEntity
  8
0
100
AcDbLine
 62
9
  6
CONTINUOUS
 10
127.6233735814
 20
131.7790428957
 11
127.6233735814
 21
111.7345006682
  0
LINE
  5
292
100
AcDbEntity
  8
0
100
AcDbLine
 62
9
  6
CONTINUOUS
 10
128.0563862832
 20
171.729048275
 11
128.0563862832
 21
150.9976768292
  0
LINE
  5
293
100
AcDbEntity
  8
0
100
AcDbLine
 62
9
  6
CONTINUOUS
 10
128.0563862832
 20
132.2992342002
 11
128.0563862832
 21
111.5678627544
  0
LINE
  5
294
100
AcDbEntity
  8
ACHSEN
100
AcDbLine
 62
7
  6
CENTER
 10
129.5177111486
 20
164.7124611342
 11
129.5177111486
 21
176.1484555147
  0
LINE
  5
295
100
AcDbEntity
  8
0
100
AcDbLine
 62
9
  6
CONTINUOUS
 10
130.9790360141
 20
171.729048275
 11
130.9790360141
 21
150.9976768292
  0
LINE
  5
296
100
AcDbEntity
  8
0
100
AcDbLine
 62
9
  6
CONTINUOUS
 10
130.9790360141
 20
132.2992342002
 11
130.9790360141
 21
111.5678627544
  0
LINE
  5
297
100
AcDbEntity
  8
0
100
AcDbLine
 62
9
  6
CONTINUOUS
 10
131.4120487159
 20
171.5624103611
 11
131.4120487159
 21
151.5178681336
  0
LINE
  5
298
100
AcDbEntity
  8
0
100
AcDbLine
 62
9
  6
CONTINUOUS
 10
131.4120487159
 20
131.7790428957
 11
131.4120487159
 21
111.7345006682
  0
LINE
  5
299
100
AcDbEntity
  8
0
100
AcDbLine
 62
7
  6
CONTINUOUS
 10
139.5177111486
 20
110.1484555147
 11
117.817711221
 21
110.1484555147
  0
LINE
  5
29A
100
AcDbEntity
  8
0
100
AcDbLine
 62
7
  6
CONTINUOUS
 10
139.5177111486
 20
110.1484555147
 11
139.5177111486
 21
173.1484555147
  0
LINE
  5
29B
100
AcDbEntity
  8
0
100
AcDbLine
 62
7
  6
CONTINUOUS
 10
116.2106043675
 20
118.9055622959
 11
115.5281139712
 21
118.2230718996
  0
LINE
  5
29C
100
AcDbEntity
  8
0
100
AcDbLine
 62
7
  6
CONTINUOUS
 10
130.9790360141
 20
111.5678627544
 11
128.0563862832
 21
111.5678627544
  0
LINE
  5
29D
100
AcDbEntity
  8
0
100
AcDbLine
 62
7
  6
CONTINUOUS
 10
115.7707398995
 20
118.7717266394
 11
115.5227342598
 21
118.7775701232
  0
LINE
  5
29E
100
AcDbEntity
  8
0
100
AcDbLine
 62
7
  6
CONTINUOUS
 10
81.0177111486
 20
119.090092118
 11
115.5281139715
 21
118.2230706789
  0
LINE
  5
29F
100
AcDbEntity
  8
0
100
AcDbLine
 62
9
  6
CONTINUOUS
 10
115.3177742377
 20
119.9660536354
 11
81.0177111486
 21
120.7123397454
  0
LINE
  5
2A0
100
AcDbEntity
  8
RUNDUNGEN
100
AcDbLine
 62
9
  6
CONTINUOUS
 10
151.5177111486
 20
155.1234555147
 11
151.5177111486
 21
128.1734555147
  0
LINE
  5
2A1
100
AcDbEntity
  8
RUNDUNGEN
100
AcDbLine
 62
7
  6
CONTINUOUS
 10
246.5961702444
 20
131.1009286726
 11
209.3990969401
 21
128.1734555147
  0
LINE
  5
2A2
100
AcDbEntity
  8
0
100
AcDbLine
 62
7
  6
CONTINUOUS
 10
209.3990969401
 20
128.1734555147
 11
246.5961702444
 21
131.1009286726
  0
LINE
  5
2A3
100
AcDbEntity
  8
RUNDUNGEN
100
AcDbLine
 62
7
  6
CONTINUOUS
 10
209.3990969401
 20
128.1734555147
 11
151.5177111486
 21
128.1734555147
  0
LINE
  5
2A4
100
AcDbEntity
  8
0
100
AcDbLine
 62
7
  6
CONTINUOUS
 10
151.5177111486
 20
128.1734555147
 11
209.3990969401
 21
128.1734555147
  0
LINE
  5
2A5
100
AcDbEntity
  8
0
100
AcDbLine
 62
7
  6
CONTINUOUS
 10
130.9790360141
 20
132.2992342002
 11
128.0563862832
 21
132.2992342002
  0
LINE
  5
2A6
100
AcDbEntity
  8
BOHRUNGEN
100
AcDbLine
 62
8
  6
HIDDEN
 10
209.5177111486
 20
138.6549555147
 11
244.9177111486
 21
138.6549555147
  0
LINE
  5
2A7
100
AcDbEntity
  8
S_ACHSEN
100
AcDbLine
 62
7
  6
CENTER
 10
76.5177111486
 20
141.6484555147
 11
250.5177111486
 21
141.6484555147
  0
LINE
  5
2A8
100
AcDbEntity
  8
0
100
AcDbLine
 62
7
  6
CONTINUOUS
 10
115.5227342598
 20
149.8343987014
 11
115.7707398995
 21
149.8354129573
  0
LINE
  5
2A9
100
AcDbEntity
  8
BOHRUNGEN
100
AcDbLine
 62
8
  6
HIDDEN
 10
209.5177111486
 20
144.6419555147
 11
244.9177111486
 21
144.6419555147
  0
LINE
  5
2AA
100
AcDbEntity
  8
0
100
AcDbLine
 62
9
  6
CONTINUOUS
 10
79.5177111486
 20
146.8733266453
 11
115.3177742377
 21
146.8733266453
  0
LINE
  5
2AB
100
AcDbEntity
  8
0
100
AcDbLine
 62
7
  6
CONTINUOUS
 10
130.9790360141
 20
150.9976768292
 11
128.0563862832
 21
150.9976768292
  0
LINE
  5
2AC
100
AcDbEntity
  8
RUNDUNGEN
100
AcDbLine
 62
7
  6
CONTINUOUS
 10
209.3990969401
 20
155.1234555147
 11
151.5177111486
 21
155.1234555147
  0
LINE
  5
2AD
100
AcDbEntity
  8
0
100
AcDbLine
 62
7
  6
CONTINUOUS
 10
151.5177111486
 20
155.1234555147
 11
209.3990969401
 21
155.1234555147
  0
LINE
  5
2AE
100
AcDbEntity
  8
0
100
AcDbLine
 62
7
  6
CONTINUOUS
 10
115.5227342598
 20
162.0736420844
 11
117.1227342598
 21
162.1138396536
  0
LINE
  5
2AF
100
AcDbEntity
  8
0
100
AcDbLine
 62
7
  6
CONTINUOUS
 10
87.7813159027
 20
161.5767442048
 11
97.5677111486
 21
161.8226125169
  0
LINE
  5
2B0
100
AcDbEntity
  8
0
100
AcDbLine
 62
7
  6
CONTINUOUS
 10
106.6970724819
 20
162.0519738501
 11
115.3177742377
 21
162.2685558843
  0
LINE
  5
2B1
100
AcDbEntity
  8
0
100
AcDbLine
 62
9
  6
CONTINUOUS
 10
81.0177111486
 20
157.3597001534
 11
115.3177742377
 21
158.1059862633
  0
LINE
  5
2B2
100
AcDbEntity
  8
0
100
AcDbLine
 62
7
  6
CONTINUOUS
 10
115.7707398995
 20
156.3382269474
 11
115.5227342598
 21
156.3333977194
  0
LINE
  5
2B3
100
AcDbEntity
  8
RUNDUNGEN
100
AcDbLine
 62
7
  6
CONTINUOUS
 10
246.5961702444
 20
152.1959823568
 11
209.3990969401
 21
155.1234555147
  0
LINE
  5
2B4
100
AcDbEntity
  8
0
100
AcDbLine
 62
7
  6
CONTINUOUS
 10
209.3990969401
 20
155.1234555147
 11
246.5961702444
 21
152.1959823568
  0
LINE
  5
2B5
100
AcDbEntity
  8
0
100
AcDbLine
 62
7
  6
CONTINUOUS
 10
130.9790360141
 20
171.729048275
 11
128.0563862832
 21
171.729048275
  0
LINE
  5
2B6
100
AcDbEntity
  8
0
100
AcDbLine
 62
7
  6
CONTINUOUS
 10
139.5177111486
 20
173.1484555147
 11
134.7396221769
 21
173.1484555147
  0
LINE
  5
2B7
100
AcDbEntity
  8
0
100
AcDbLine
 62
7
  6
CONTINUOUS
 10
124.2958001204
 20
173.1484555147
 11
117.817711221
 21
173.1484555147
  0
LINE
  5
2B8
100
AcDbEntity
  8
0
100
AcDbLine
 62
7
  6
CONTINUOUS
 10
209.3990969401
 20
128.1734555147
 11
209.3990969401
 21
155.1234555147
  0
LINE
  5
2B9
100
AcDbEntity
  8
BOHRUNGEN
100
AcDbLine
 62
8
  6
HIDDEN
 10
209.5177111486
 20
144.6419555147
 11
209.5177111486
 21
138.6549555147
  0
LINE
  5
2BA
100
AcDbEntity
  8
RUNDUNGEN
100
AcDbLine
 62
9
  6
CONTINUOUS
 10
246.5961702444
 20
131.1009286726
 11
246.5961702444
 21
152.1959823568
  0
LINE
  5
2BB
100
AcDbEntity
  8
RUNDUNGEN
100
AcDbLine
 62
7
  6
CONTINUOUS
 10
247.5177111486
 20
151.199065023
 11
247.5177111486
 21
132.0978460063
  0
ARC
  5
2BC
100
AcDbEntity
  8
0
100
AcDbCircle
 62
7
  6
CONTINUOUS
 10
262.3063088128
 20
92.4302016837
 40
159.8652828161
100
AcDbArc
 50
156.0454215406
 51
156.4367148172
  0
ARC
  5
2BD
100
AcDbEntity
  8
ACHSEN
100
AcDbCircle
 62
7
  6
CONTINUOUS
 10
15.9284047696
 20
289.7056725347
 40
144.0984017399
100
AcDbArc
 50
296.1862714672
 51
296.8528322492
  0
ARC
  5
2BE
100
AcDbEntity
  8
0
100
AcDbCircle
 62
7
  6
CONTINUOUS
 10
9.2280094892
 20
122.4536989746
 40
110.0050529017
100
AcDbArc
 50
13.4620399628
 51
14.4132125722
  0
ARC
  5
2BF
100
AcDbEntity
  8
RUNDUNGEN
100
AcDbCircle
 62
7
  6
CONTINUOUS
 10
151.5177111486
 20
167.1234555147
 40
12.0
100
AcDbArc
 50
180.0000000006
 51
270.0
  0
ARC
  5
2C0
100
AcDbEntity
  8
RUNDUNGEN
100
AcDbCircle
 62
7
  6
CONTINUOUS
 10
151.5177111486
 20
116.1734555147
 40
12.0
100
AcDbArc
 50
90.0
 51
179.9999999985
  0
ARC
  5
2C1
100
AcDbEntity
  8
0
100
AcDbCircle
 62
7
  6
CONTINUOUS
 10
106.3626869079
 20
124.6357580934
 40
11.0859517402
100
AcDbArc
 50
328.0647477759
 51
332.6633964605
  0
ARC
  5
2C2
100
AcDbEntity
  8
RUNDUNGEN
100
AcDbCircle
 62
7
  6
CONTINUOUS
 10
246.5177111486
 20
151.199065023
 40
1.0
100
AcDbArc
 50
0.0
 51
85.4999999938
  0
ARC
  5
2C3
100
AcDbEntity
  8
RUNDUNGEN
100
AcDbCircle
 62
7
  6
CONTINUOUS
 10
246.5177111486
 20
132.0978460063
 40
1.0
100
AcDbArc
 50
274.5000000049
 51
360.0
  0
ARC
  5
2C4
100
AcDbEntity
  8
0
100
AcDbCircle
 62
7
  6
CONTINUOUS
 10
116.9177111486
 20
118.1984555147
 40
1.0
100
AcDbArc
 50
53.0400606802
 51
135.0
  0
ARC
  5
2C5
100
AcDbEntity
  8
0
100
AcDbCircle
 62
7
  6
CONTINUOUS
 10
116.9177111486
 20
165.0984555147
 40
1.0
100
AcDbArc
 50
293.5781784782
 51
306.9599393198
  0
ARC
  5
2C6
100
AcDbEntity
  8
0
100
AcDbCircle
 62
7
  6
CONTINUOUS
 10
117.1177111486
 20
162.3137765645
 40
0.2
100
AcDbArc
 50
271.439166666
 51
360.0
  0
ARC
  5
2C7
100
AcDbEntity
  8
0
100
AcDbCircle
 62
7
  6
CONTINUOUS
 10
115.5177111486
 20
162.2735789954
 40
0.2
100
AcDbArc
 50
181.439166666
 51
271.439166666
  0
SPLINE
  5
2C8
100
AcDbEntity
  8
FASEN
100
AcDbSpline
 62
7
  6
CONTINUOUS
 70
0
 71
3
 72
12
 73
8
 74
6
 42
0.0000001
 43
0.0000001
 44
0.0000000001
 12
-4.6726194128
 22
-0.0009377462
 32
0.0
 13
-4.6420367478
 23
0.6972297608
 33
0.0
 40
0.0
 40
0.0
 40
0.0
 40
0.0
 40
0.2565619285
 40
0.5098787264
 40
0.7376791942
 40
0.9211408203
 40
1.0
 40
1.0
 40
1.0
 40
1.0
 10
129.5177111486
 20
172.7068814916
 30
0.0
 10
129.1181057328
 20
172.7068012949
 30
0.0
 10
128.325653775
 20
172.7222980143
 30
0.0
 10
127.1706685555
 20
172.7902861925
 30
0.0
 10
126.1637842
 20
172.8838521482
 30
0.0
 10
125.3480183583
 20
172.9883392646
 30
0.0
 10
125.0202241017
 20
173.0339601884
 30
0.0
 10
124.8982016983
 20
173.0522878441
 30
0.0
 11
129.5177111486
 21
172.7068814916
 31
0.0
 11
128.3191250297
 21
172.7303712505
 31
0.0
 11
127.1374704233
 21
172.7991232856
 31
0.0
 11
126.077763333
 21
172.8992295861
 31
0.0
 11
125.2271419737
 21
173.0055999128
 31
0.0
 11
124.8982016983
 21
173.0522878441
 31
0.0
  0
SPLINE
  5
2C9
100
AcDbEntity
  8
FASEN
100
AcDbSpline
 62
7
  6
CONTINUOUS
 70
0
 71
3
 72
9
 73
5
 74
3
 42
0.0000001
 43
0.0000001
 44
0.0000000001
 12
-0.5315209788
 22
0.0798339748
 32
0.0
 13
0.0015434676
 23
-0.0002535004
 33
0.0
 40
0.0
 40
0.0
 40
0.0
 40
0.0
 40
0.4247917215
 40
1.0
 40
1.0
 40
1.0
 40
1.0
 10
124.8982016983
 20
173.0522878441
 30
0.0
 10
124.8229397944
 20
173.0635921146
 30
0.0
 10
124.624737895
 20
173.0943346999
 30
0.0
 10
124.3337133969
 20
173.1420118292
 30
0.0
 10
124.3340093354
 20
173.141963224
 30
0.0
 11
124.8982016983
 21
173.0522878441
 31
0.0
 11
124.6378010894
 21
173.0927663108
 31
0.0
 11
124.3340093354
 21
173.141963224
 31
0.0
  0
LINE
  5
2CA
100
AcDbEntity
  8
ACHSEN
100
AcDbLine
 62
7
  6
CONTINUOUS
 10
85.8677111486
 20
161.2525068133
 11
81.0177111486
 21
161.1454451282
  0
LINE
  5
2CB
100
AcDbEntity
  8
ACHSEN
100
AcDbLine
 62
7
  6
CONTINUOUS
 10
87.6582043923
 20
161.5574569634
 11
87.7813864077
 21
161.575015465
  0
SPLINE
  5
2CC
100
AcDbEntity
  8
ACHSEN
100
AcDbSpline
 62
7
  6
CONTINUOUS
 70
0
 71
3
 72
12
 73
8
 74
6
 42
0.0000001
 43
0.0000001
 44
0.0000000001
 12
1.9045696234
 22
0.3738399063
 32
0.0
 13
0.0000002409
 23
-0.0000017401
 33
0.0
 40
0.0
 40
0.0
 40
0.0
 40
0.0
 40
0.3379744518
 40
0.6080817447
 40
0.8080144242
 40
0.9370301552
 40
1.0
 40
1.0
 40
1.0
 40
1.0
 10
85.8677111486
 20
161.2525068133
 30
0.0
 10
86.0822764401
 20
161.2946229258
 30
0.0
 10
86.4728015121
 20
161.3674622598
 30
0.0
 10
86.9750954616
 20
161.4532871943
 30
0.0
 10
87.3885350192
 20
161.5177152075
 30
0.0
 10
87.5791266837
 20
161.5463273864
 30
0.0
 10
87.7813864027
 20
161.5750155016
 30
0.0
 10
87.7813864077
 20
161.575015465
 30
0.0
 11
85.8677111486
 21
161.2525068133
 31
0.0
 11
86.5125206671
 21
161.3730429741
 31
0.0
 11
87.0293530311
 21
161.460947717
 31
0.0
 11
87.412707411
 21
161.5211445881
 31
0.0
 11
87.6604219912
 21
161.5577749372
 31
0.0
 11
87.7813864077
 21
161.575015465
 31
0.0
  0
SPLINE
  5
2CD
100
AcDbEntity
  8
ACHSEN
100
AcDbSpline
 62
7
  6
CONTINUOUS
 70
0
 71
3
 72
23
 73
19
 74
17
 42
0.0000001
 43
0.0000001
 44
0.0000000001
 12
-9.0517147342
 22
-1.3895012448
 32
0.0
 13
-9.1077322619
 23
0.9557572235
 33
0.0
 40
0.0
 40
0.0
 40
0.0
 40
0.0
 40
0.0101299298
 40
0.0412713507
 40
0.0900689516
 40
0.1542987596
 40
0.2327289669
 40
0.3220651868
 40
0.4165429356
 40
0.5128262614
 40
0.608109843
 40
0.6991734846
 40
0.7830139595
 40
0.8561264359
 40
0.9163262234
 40
0.9620223847
 40
0.9908111506
 40
1.0
 40
1.0
 40
1.0
 40
1.0
 10
106.6970724819
 20
162.0519738501
 30
0.0
 10
106.6665080704
 20
162.0472820001
 30
0.0
 10
106.5419595188
 20
162.0283161428
 30
0.0
 10
106.2699473494
 20
161.9882616389
 30
0.0
 10
105.8339486235
 20
161.9283377731
 30
0.0
 10
105.25388386
 20
161.8567587624
 30
0.0
 10
104.5495532561
 20
161.7825094515
 30
0.0
 10
103.7517675873
 20
161.7155343395
 30
0.0
 10
102.8982017099
 20
161.6642326583
 30
0.0
 10
102.025470646
 20
161.633607232
 30
0.0
 10
101.1626678369
 20
161.6251372785
 30
0.0
 10
100.3379085038
 20
161.6373527784
 30
0.0
 10
99.5812983849
 20
161.6660031943
 30
0.0
 10
98.9195106511
 20
161.7046732608
 30
0.0
 10
98.3746124578
 20
161.7459557273
 30
0.0
 10
97.9651006342
 20
161.7825705451
 30
0.0
 10
97.710918363
 20
161.8077191041
 30
0.0
 10
97.5956076754
 20
161.8196850805
 30
0.0
 10
97.5677111486
 20
161.8226125169
 30
0.0
 11
106.6970724819
 21
162.0519738501
 31
0.0
 11
106.605362344
 21
162.0380086497
 31
0.0
 11
106.3232190797
 21
161.9964660355
 31
0.0
 11
105.8805030624
 21
161.935632531
 31
0.0
 11
105.2967271339
 21
161.8636240962
 31
0.0
 11
104.5824364351
 21
161.788370432
 31
0.0
 11
103.7671812635
 21
161.7199838174
 31
0.0
 11
102.9035336785
 21
161.6681238142
 31
0.0
 11
102.0223367886
 21
161.6372311373
 31
0.0
 11
101.1497959204
 21
161.628673607
 31
0.0
 11
100.3159495184
 21
161.6410127539
 31
0.0
 11
99.5487088126
 21
161.6700442387
 31
0.0
 11
98.8803021932
 21
161.7090794131
 31
0.0
 11
98.3305820683
 21
161.7507117915
 31
0.0
 11
97.9137702808
 21
161.7879714789
 31
0.0
 11
97.6514108488
 21
161.8139269332
 31
0.0
 11
97.5677111486
 21
161.8226125169
 31
0.0
  0
LINE
  5
2CE
100
AcDbEntity
  8
FASEN
100
AcDbLine
 62
7
  6
CONTINUOUS
 10
124.3340089435
 20
173.1419632885
 11
124.5927898439
 21
173.0999725725
  0
SPLINE
  5
2CF
100
AcDbEntity
  8
FASEN
100
AcDbSpline
 62
7
  6
CONTINUOUS
 70
0
 71
3
 72
8
 73
4
 74
2
 42
0.0000001
 43
0.0000001
 44
0.0000000001
 12
0.0000000608
 22
-0.0000003578
 32
0.0
 13
-0.4074370859
 23
-0.0650590902
 33
0.0
 40
0.0
 40
0.0
 40
0.0
 40
0.0
 40
1.0
 40
1.0
 40
1.0
 40
1.0
 10
134.7014133538
 20
173.1419632885
 30
0.0
 10
134.701413374
 20
173.1419631693
 30
0.0
 10
134.5352718414
 20
173.1147442658
 30
0.0
 10
134.3994594795
 20
173.0930579024
 30
0.0
 11
134.7014133538
 21
173.1419632885
 31
0.0
 11
134.3994594795
 21
173.0930579024
 31
0.0
  0
SPLINE
  5
2D0
100
AcDbEntity
  8
FASEN
100
AcDbSpline
 62
7
  6
CONTINUOUS
 70
0
 71
3
 72
10
 73
6
 74
4
 42
0.0000001
 43
0.0000001
 44
0.0000000001
 12
0.835102552
 22
0.1255346023
 32
0.0
 13
-1.1156842677
 23
-0.1781511942
 33
0.0
 40
0.0
 40
0.0
 40
0.0
 40
0.0
 40
0.2680474604
 40
0.6351337846
 40
1.0
 40
1.0
 40
1.0
 40
1.0
 10
134.139760958
 20
173.0526695604
 30
0.0
 10
134.214376664
 20
173.0638859708
 30
0.0
 10
134.4120734705
 20
173.0945622642
 30
0.0
 10
134.8680961809
 20
173.1692702488
 30
0.0
 10
134.5351513116
 20
173.1147250198
 30
0.0
 10
134.3994594795
 20
173.0930579024
 30
0.0
 11
134.139760958
 21
173.0526695604
 31
0.0
 11
134.3976212079
 21
173.0927663108
 31
0.0
 11
134.7014129619
 21
173.141963224
 31
0.0
 11
134.3994594795
 21
173.0930579024
 31
0.0
  0
SPLINE
  5
2D1
100
AcDbEntity
  8
FASEN
100
AcDbSpline
 62
7
  6
CONTINUOUS
 70
0
 71
3
 72
12
 73
8
 74
6
 42
0.0000001
 43
0.0000001
 44
0.0000000001
 12
4.6751730915
 22
-0.0009382587
 32
0.0
 13
4.6570225134
 23
0.7000547031
 33
0.0
 40
0.0
 40
0.0
 40
0.0
 40
0.0
 40
0.2564217889
 40
0.5096002198
 40
0.7372762582
 40
0.9206376736
 40
1.0
 40
1.0
 40
1.0
 40
1.0
 10
129.5177111486
 20
172.7068814916
 30
0.0
 10
129.9173165645
 20
172.7068012949
 30
0.0
 10
130.7097685223
 20
172.7222980143
 30
0.0
 10
131.8647537418
 20
172.7902861925
 30
0.0
 10
132.8716380973
 20
172.8838521482
 30
0.0
 10
133.6883135754
 20
172.988455775
 30
0.0
 10
134.0165635778
 20
173.0341502371
 30
0.0
 10
134.139760958
 20
173.0526695604
 30
0.0
 11
129.5177111486
 21
172.7068814916
 31
0.0
 11
130.7162972676
 21
172.7303712505
 31
0.0
 11
131.897951874
 21
172.7991232856
 31
0.0
 11
132.9576589643
 21
172.8992295861
 31
0.0
 11
133.8082803236
 21
173.0055999128
 31
0.0
 11
134.139760958
 21
173.0526695604
 31
0.0
  0
SPLINE
  5
2D2
100
AcDbEntity
  8
0
100
AcDbSpline
 62
7
  6
CONTINUOUS
 70
0
 71
3
 72
19
 73
15
 74
13
 42
0.0000001
 43
0.0000001
 44
0.0000000001
 12
-1.0961908538
 22
0.4620605614
 32
0.0
 13
-0.5476767742
 23
-1.0560229645
 33
0.0
 40
0.0
 40
0.0
 40
0.0
 40
0.0
 40
0.0901748942
 40
0.1817517534
 40
0.2697694403
 40
0.3541012713
 40
0.4343518522
 40
0.5105616547
 40
0.5854463879
 40
0.661942341
 40
0.7410857312
 40
0.8236482801
 40
0.9099886797
 40
1.0
 40
1.0
 40
1.0
 40
1.0
 10
117.1227342598
 20
120.1210267746
 30
0.0
 10
117.0897846284
 20
120.1349155286
 30
0.0
 10
117.020415302
 20
120.156619775
 30
0.0
 10
116.9127370626
 20
120.1647024763
 30
0.0
 10
116.8085542196
 20
120.1478933693
 30
0.0
 10
116.714415555
 20
120.1120961527
 30
0.0
 10
116.631492486
 20
120.0641318393
 30
0.0
 10
116.558237864
 20
120.0086161833
 30
0.0
 10
116.4919052594
 20
119.9472532861
 30
0.0
 10
116.4300177533
 20
119.8798629904
 30
0.0
 10
116.3711347936
 20
119.8059218413
 30
0.0
 10
116.3147383926
 20
119.725267724
 30
0.0
 10
116.2607094975
 20
119.6379103879
 30
0.0
 10
116.2270367373
 20
119.5765835375
 30
0.0
 10
116.2106043675
 20
119.5448988637
 30
0.0
 11
117.1227342598
 21
120.1210267746
 31
0.0
 11
117.0201684135
 21
120.1524501493
 31
0.0
 11
116.9115222141
 21
120.1604360412
 31
0.0
 11
116.8080910079
 21
120.1441513366
 31
0.0
 11
116.7141175595
 21
120.109034031
 31
0.0
 11
116.6312423301
 21
120.0616485695
 31
0.0
 11
116.5587865865
 21
120.0071584592
 31
0.0
 11
116.4932265552
 21
119.9468462372
 31
0.0
 11
116.4315280677
 21
119.8799572213
 31
0.0
 11
116.3727483232
 21
119.8064120991
 31
0.0
 11
116.3163515232
 21
119.7260020894
 31
0.0
 11
116.2622251671
 21
119.6387112564
 31
0.0
 11
116.2106043675
 21
119.5448988637
 31
0.0
  0
SPLINE
  5
2D3
100
AcDbEntity
  8
0
100
AcDbSpline
 62
7
  6
CONTINUOUS
 70
0
 71
3
 72
19
 73
15
 74
13
 42
0.0000001
 43
0.0000001
 44
0.0000000001
 12
0.2666689898
 22
-0.1124048999
 32
0.0
 13
0.0053470947
 23
0.2894070153
 33
0.0
 40
0.0
 40
0.0
 40
0.0
 40
0.0
 40
0.1294694079
 40
0.261459199
 40
0.3676503415
 40
0.4491884837
 40
0.5177198844
 40
0.580778119
 40
0.6433305701
 40
0.7089047411
 40
0.7801393523
 40
0.8591319045
 40
0.9476445055
 40
1.0
 40
1.0
 40
1.0
 40
1.0
 10
117.1227342598
 20
120.1210267746
 30
0.0
 10
117.1342427518
 20
120.116175776
 30
0.0
 10
117.1580666072
 20
120.1076879439
 30
0.0
 10
117.1929584853
 20
120.1004968187
 30
0.0
 10
117.2240033697
 20
120.0998389611
 30
0.0
 10
117.2484605395
 20
120.1046405622
 30
0.0
 10
117.2673492903
 20
120.1132263846
 30
0.0
 10
117.2822380571
 20
120.1248562084
 30
0.0
 10
117.2940131793
 20
120.1392200078
 30
0.0
 10
117.3031964178
 20
120.156226878
 30
0.0
 10
117.3100973739
 20
120.175941666
 30
0.0
 10
117.3148509303
 20
120.1985256148
 30
0.0
 10
117.3170671501
 20
120.2196535702
 30
0.0
 10
117.3175349812
 20
120.2332370733
 30
0.0
 10
117.3176282978
 20
120.2382877558
 30
0.0
 11
117.1227342598
 21
120.1210267746
 31
0.0
 11
117.1580796909
 21
120.1085970243
 31
0.0
 11
117.1955674894
 21
120.1012723622
 31
0.0
 11
117.2262973628
 21
120.10103734
 31
0.0
 11
117.2494000862
 21
120.1058388899
 31
0.0
 11
117.2674083379
 21
120.1141470835
 31
0.0
 11
117.2817988451
 21
120.1253685259
 31
0.0
 11
117.2933528998
 21
120.1393037573
 31
0.0
 11
117.3024929793
 21
120.1559341393
 31
0.0
 11
117.3094416811
 21
120.1753423815
 31
0.0
 11
117.3142951592
 21
120.197680948
 31
0.0
 11
117.3170557081
 21
120.2231465183
 31
0.0
 11
117.3176282978
 21
120.2382877558
 31
0.0
  0
SPLINE
  5
2D4
100
AcDbEntity
  8
0
100
AcDbSpline
 62
7
  6
CONTINUOUS
 70
0
 71
3
 72
18
 73
14
 74
12
 42
0.0000001
 43
0.0000001
 44
0.0000000001
 12
0.409817534
 22
-1.712572262
 32
0.0
 13
1.3766336285
 23
1.0980592045
 33
0.0
 40
0.0
 40
0.0
 40
0.0
 40
0.0
 40
0.1396934559
 40
0.2655211325
 40
0.3787021202
 40
0.4808358179
 40
0.5726843533
 40
0.6549065309
 40
0.7306120742
 40
0.8013630679
 40
0.8661894971
 40
0.9296654616
 40
1.0
 40
1.0
 40
1.0
 40
1.0
 10
116.2106043675
 20
148.0629952754
 30
0.0
 10
116.22968731
 20
147.9832502295
 30
0.0
 10
116.2684818438
 20
147.8322587742
 30
0.0
 10
116.332195081
 20
147.6192320628
 30
0.0
 10
116.3981705583
 20
147.4300871131
 30
0.0
 10
116.4666253007
 20
147.2631784897
 30
0.0
 10
116.5380550458
 20
147.117468057
 30
0.0
 10
116.6138138166
 20
146.991673792
 30
0.0
 10
116.6966663975
 20
146.885468429
 30
0.0
 10
116.7902058539
 20
146.8025338124
 30
0.0
 10
116.9003214439
 20
146.7541781012
 30
0.0
 10
117.0213975612
 20
146.7636989524
 30
0.0
 10
117.0904592962
 20
146.8056621387
 30
0.0
 10
117.1227342598
 20
146.8314059678
 30
0.0
 11
116.2106043675
 21
148.0629952754
 31
0.0
 11
116.2721344459
 21
147.8248253175
 31
0.0
 11
116.3359890908
 21
147.612652791
 31
0.0
 11
116.4020600719
 21
147.4246198983
 31
0.0
 11
116.4708399419
 21
147.2584415443
 31
0.0
 11
116.5427106151
 21
147.1135488671
 31
0.0
 11
116.6183161428
 21
146.9900697722
 31
0.0
 11
116.7016082391
 21
146.8859811417
 31
0.0
 11
116.7969076728
 21
146.8057316978
 31
0.0
 11
116.9029138492
 21
146.7633769514
 31
0.0
 11
117.0144040668
 21
146.7713698837
 31
0.0
 11
117.1227342598
 21
146.8314059678
 31
0.0
  0
SPLINE
  5
2D5
100
AcDbEntity
  8
0
100
AcDbSpline
 62
7
  6
CONTINUOUS
 70
0
 71
3
 72
19
 73
15
 74
13
 42
0.0000001
 43
0.0000001
 44
0.0000000001
 12
-1.1598610472
 22
0.4362540565
 32
0.0
 13
-0.5031565261
 23
-1.132443712
 33
0.0
 40
0.0
 40
0.0
 40
0.0
 40
0.0
 40
0.0855327459
 40
0.1732456529
 40
0.2583507055
 40
0.3404724916
 40
0.4191113902
 40
0.494324253
 40
0.5688780006
 40
0.6458610678
 40
0.7265578249
 40
0.8120591365
 40
0.9031042408
 40
1.0
 40
1.0
 40
1.0
 40
1.0
 10
117.1227342598
 20
157.9929338016
 30
0.0
 10
117.0896655597
 20
158.0053718041
 30
0.0
 10
117.019875312
 20
158.0238911805
 30
0.0
 10
116.9122214058
 20
158.0270639408
 30
0.0
 10
116.8082078649
 20
158.0059060765
 30
0.0
 10
116.7141424523
 20
157.9662140618
 30
0.0
 10
116.6312171063
 20
157.9143797126
 30
0.0
 10
116.5579361181
 20
157.8546541349
 30
0.0
 10
116.4915613241
 20
157.7883874977
 30
0.0
 10
116.4296222082
 20
157.7150061278
 30
0.0
 10
116.3706859238
 20
157.6335621912
 30
0.0
 10
116.3142372383
 20
157.5434536704
 30
0.0
 10
116.2601623882
 20
157.4442206856
 30
0.0
 10
116.226855612
 20
157.374048736
 30
0.0
 10
116.2106043675
 20
157.3374724049
 30
0.0
 11
117.1227342598
 21
157.9929338016
 31
0.0
 11
117.0201684135
 21
158.0196626744
 31
0.0
 11
116.9115222141
 21
158.022854604
 31
0.0
 11
116.8080910079
 21
158.002260859
 31
0.0
 11
116.7141175595
 21
157.9632092704
 31
0.0
 11
116.6312423301
 21
157.9119458851
 31
0.0
 11
116.5587865865
 21
157.8533200484
 31
0.0
 11
116.4932265552
 21
157.7882268697
 31
0.0
 11
116.4315280677
 21
157.7154681105
 31
0.0
 11
116.3727483232
 21
157.634568873
 31
0.0
 11
116.3163515232
 21
157.5448731065
 31
0.0
 11
116.2622251671
 21
157.4458821441
 31
0.0
 11
116.2106043675
 21
157.3374724049
 31
0.0
  0
SPLINE
  5
2D6
100
AcDbEntity
  8
0
100
AcDbSpline
 62
7
  6
CONTINUOUS
 70
0
 71
3
 72
19
 73
15
 74
13
 42
0.0000001
 43
0.0000001
 44
0.0000000001
 12
0.5081900969
 22
-0.1911435786
 32
0.0
 13
0.0046541835
 23
0.5429547188
 33
0.0
 40
0.0
 40
0.0
 40
0.0
 40
0.0
 40
0.06584782
 40
0.1388437615
 40
0.2152584107
 40
0.2922214144
 40
0.3713155944
 40
0.4537429084
 40
0.5403016801
 40
0.6315879152
 40
0.7281101028
 40
0.8303501996
 40
0.9387438074
 40
1.0
 40
1.0
 40
1.0
 40
1.0
 10
117.1227342598
 20
157.9929338016
 30
0.0
 10
117.1338886631
 20
157.988738339
 30
0.0
 10
117.1596825376
 20
157.9842692863
 30
0.0
 10
117.1977776057
 20
157.9984204556
 30
0.0
 10
117.2276512633
 20
158.0274212074
 30
0.0
 10
117.2505042188
 20
158.0629693498
 30
0.0
 10
117.268327124
 20
158.1023994769
 30
0.0
 10
117.2825776686
 20
158.1450329277
 30
0.0
 10
117.294023191
 20
158.1907646038
 30
0.0
 10
117.3030771296
 20
158.2396140625
 30
0.0
 10
117.3099594547
 20
158.2916754835
 30
0.0
 10
117.3147438284
 20
158.3470747553
 30
0.0
 10
117.3170458878
 20
158.3962424964
 30
0.0
 10
117.3175286869
 20
158.4269438477
 30
0.0
 10
117.3176237194
 20
158.4380302939
 30
0.0
 11
117.1227342598
 21
157.9929338016
 31
0.0
 11
117.1580796909
 21
157.9875575499
 31
0.0
 11
117.1955674894
 21
158.0004199918
 31
0.0
 11
117.2262973628
 21
158.0282952497
 31
0.0
 11
117.2494000862
 21
158.0631149706
 31
0.0
 11
117.2674083379
 21
158.1021008079
 31
0.0
 11
117.2817988451
 21
158.1444778594
 31
0.0
 11
117.2933528998
 21
158.1900324134
 31
0.0
 11
117.3024929793
 21
158.2387460815
 31
0.0
 11
117.3094416811
 21
158.2906899412
 31
0.0
 11
117.3142951592
 21
158.3459884624
 31
0.0
 11
117.3170557081
 21
158.4047758265
 31
0.0
 11
117.3176237194
 21
158.4380302939
 31
0.0
  0
SPLINE
  5
2D7
100
AcDbEntity
  8
0
100
AcDbSpline
 62
7
  6
CONTINUOUS
 70
0
 71
3
 72
13
 73
9
 74
7
 42
0.0000001
 43
0.0000001
 44
0.0000000001
 12
0.7203275019
 22
0.0
 32
0.0
 13
0.1900667622
 23
-0.6947994934
 33
0.0
 40
0.0
 40
0.0
 40
0.0
 40
0.0
 40
0.1387763998
 40
0.288072023
 40
0.445122262
 40
0.6153059069
 40
0.8003085484
 40
1.0
 40
1.0
 40
1.0
 40
1.0
 10
130.9790360141
 20
132.2992342002
 30
0.0
 10
131.0123574998
 20
132.2992342002
 30
0.0
 10
131.0820733126
 20
132.2842036178
 30
0.0
 10
131.1729710032
 20
132.2249292208
 30
0.0
 10
131.2506671122
 20
132.1398287256
 30
0.0
 10
131.3162072255
 20
132.035170512
 30
0.0
 10
131.3709753936
 20
131.9133708388
 30
0.0
 10
131.3993971467
 20
131.8252914022
 30
0.0
 10
131.4120487159
 20
131.7790428957
 30
0.0
 11
130.9790360141
 21
132.2992342002
 31
0.0
 11
131.0770004826
 21
132.2793380789
 31
0.0
 11
131.1683925262
 21
132.2226572098
 31
0.0
 11
131.2458803946
 21
132.1402346063
 31
0.0
 11
131.3119264004
 21
132.0369595705
 31
0.0
 11
131.367317193
 21
131.9157541602
 31
0.0
 11
131.4120487159
 21
131.7790428957
 31
0.0
  0
SPLINE
  5
2D8
100
AcDbEntity
  8
0
100
AcDbSpline
 62
7
  6
CONTINUOUS
 70
0
 71
3
 72
13
 73
9
 74
7
 42
0.0000001
 43
0.0000001
 44
0.0000000001
 12
-0.3049982624
 22
-0.3678477926
 32
0.0
 13
-0.477845099
 23
0.0
 33
0.0
 40
0.0
 40
0.0
 40
0.0
 40
0.0
 40
0.1324623252
 40
0.2741987882
 40
0.4270001761
 40
0.5971482882
 40
0.7928154962
 40
1.0
 40
1.0
 40
1.0
 40
1.0
 10
131.4120487159
 20
111.7345006682
 30
0.0
 10
131.3985817896
 20
111.7182586769
 30
0.0
 10
131.367349941
 20
111.6873225306
 30
0.0
 10
131.3113578635
 20
111.6482341433
 30
0.0
 10
131.2447563272
 20
111.6153669226
 30
0.0
 10
131.1661499619
 20
111.5892009913
 30
0.0
 10
131.0762819461
 20
111.5718939005
 30
0.0
 10
131.012036714
 20
111.5678627544
 30
0.0
 10
130.9790360141
 20
111.5678627544
 30
0.0
 11
131.4120487159
 21
111.7345006682
 31
0.0
 11
131.3673039299
 21
111.6897307274
 31
0.0
 11
131.3119768896
 21
111.6506665411
 31
0.0
 11
131.2466465907
 21
111.6180597956
 31
0.0
 11
131.1696009288
 21
111.5920910032
 31
0.0
 11
131.0778375525
 21
111.5741613061
 31
0.0
 11
130.9790360141
 21
111.5678627544
 31
0.0
  0
SPLINE
  5
2D9
100
AcDbEntity
  8
0
100
AcDbSpline
 62
7
  6
CONTINUOUS
 70
0
 71
3
 72
13
 73
9
 74
7
 42
0.0000001
 43
0.0000001
 44
0.0000000001
 12
0.1900775463
 22
0.6948389151
 32
0.0
 13
0.7203683721
 23
0.0
 33
0.0
 40
0.0
 40
0.0
 40
0.0
 40
0.0
 40
0.2015287248
 40
0.3877112674
 40
0.5599901595
 40
0.7199029848
 40
0.8656779275
 40
1.0
 40
1.0
 40
1.0
 40
1.0
 10
127.6233735814
 20
131.7790428957
 30
0.0
 10
127.6361422765
 20
131.8257195625
 30
0.0
 10
127.664825608
 20
131.9144865654
 30
0.0
 10
127.7202950989
 20
132.0373372076
 30
0.0
 10
127.7870054162
 20
132.1430289883
 30
0.0
 10
127.865706454
 20
132.2277978606
 30
0.0
 10
127.9563572485
 20
132.2851324641
 30
0.0
 10
128.0241324923
 20
132.2992342002
 30
0.0
 10
128.0563862832
 20
132.2992342002
 30
0.0
 11
127.6233735814
 21
131.7790428957
 31
0.0
 11
127.6685874274
 21
131.9169974728
 31
0.0
 11
127.7245382752
 21
132.0388895607
 31
0.0
 11
127.7918102957
 21
132.143179272
 31
0.0
 11
127.871494474
 21
132.2263693121
 31
0.0
 11
127.9614442655
 21
132.2805586409
 31
0.0
 11
128.0563862832
 21
132.2992342002
 31
0.0
  0
SPLINE
  5
2DA
100
AcDbEntity
  8
0
100
AcDbSpline
 62
7
  6
CONTINUOUS
 70
0
 71
3
 72
13
 73
9
 74
7
 42
0.0000001
 43
0.0000001
 44
0.0000000001
 12
-0.4778450164
 22
0.0
 32
0.0
 13
-0.3049982097
 23
0.367847729
 33
0.0
 40
0.0
 40
0.0
 40
0.0
 40
0.0
 40
0.1998651161
 40
0.3922978148
 40
0.56815018
 40
0.7246192787
 40
0.867241436
 40
1.0
 40
1.0
 40
1.0
 40
1.0
 10
128.0563862832
 20
111.5678627544
 30
0.0
 10
128.0245514334
 20
111.5678627544
 30
0.0
 10
127.9619950508
 20
111.5716511015
 30
0.0
 10
127.872801445
 20
111.5882866186
 30
0.0
 10
127.793090972
 20
111.6142793379
 30
0.0
 10
127.7249101321
 20
111.6476751056
 30
0.0
 10
127.6682446901
 20
111.6871589611
 30
0.0
 10
127.6368706228
 20
111.7182223561
 30
0.0
 10
127.6233735814
 20
111.7345006682
 30
0.0
 11
128.0563862832
 21
111.5678627544
 31
0.0
 11
127.9610615775
 21
111.5737210371
 31
0.0
 11
127.8707101845
 21
111.5908084922
 31
0.0
 11
127.7909231787
 21
111.6171733217
 31
0.0
 11
127.7239324376
 21
111.6503771061
 31
0.0
 11
127.6682272557
 21
111.6896394372
 31
0.0
 11
127.6233735814
 21
111.7345006682
 31
0.0
  0
SPLINE
  5
2DB
100
AcDbEntity
  8
0
100
AcDbSpline
 62
7
  6
CONTINUOUS
 70
0
 71
3
 72
13
 73
9
 74
7
 42
0.0000001
 43
0.0000001
 44
0.0000000001
 12
0.477845099
 22
0.0
 32
0.0
 13
0.3049982624
 23
-0.3678477926
 33
0.0
 40
0.0
 40
0.0
 40
0.0
 40
0.0
 40
0.2071845038
 40
0.4028517118
 40
0.5729998239
 40
0.7258012118
 40
0.8675376748
 40
1.0
 40
1.0
 40
1.0
 40
1.0
 10
130.9790360141
 20
171.729048275
 30
0.0
 10
131.012036714
 20
171.729048275
 30
0.0
 10
131.0762819461
 20
171.7250171289
 30
0.0
 10
131.1661499619
 20
171.7077100381
 30
0.0
 10
131.2447563272
 20
171.6815441067
 30
0.0
 10
131.3113578635
 20
171.6486768861
 30
0.0
 10
131.367349941
 20
171.6095884987
 30
0.0
 10
131.3985817896
 20
171.5786523524
 30
0.0
 10
131.4120487159
 20
171.5624103611
 30
0.0
 11
130.9790360141
 21
171.729048275
 31
0.0
 11
131.0778375525
 21
171.7227497233
 31
0.0
 11
131.1696009288
 21
171.7048200262
 31
0.0
 11
131.2466465907
 21
171.6788512337
 31
0.0
 11
131.3119768896
 21
171.6462444882
 31
0.0
 11
131.3673039299
 21
171.607180302
 31
0.0
 11
131.4120487159
 21
171.5624103611
 31
0.0
  0
SPLINE
  5
2DC
100
AcDbEntity
  8
0
100
AcDbSpline
 62
7
  6
CONTINUOUS
 70
0
 71
3
 72
9
 73
5
 74
3
 42
0.0000001
 43
0.0000001
 44
0.0000000001
 12
-0.0009927506
 22
0.1425960838
 32
0.0
 13
-0.0075121609
 23
0.1424065908
 33
0.0
 40
0.0
 40
0.0
 40
0.0
 40
0.0
 40
0.3622621563
 40
1.0
 40
1.0
 40
1.0
 40
1.0
 10
117.3175894709
 20
146.2736805498
 30
0.0
 10
117.3174695922
 20
146.2908996047
 30
0.0
 10
117.3168769815
 20
146.3384291318
 30
0.0
 10
117.3151687039
 20
146.3859384572
 30
0.0
 10
117.3135717741
 20
146.416211148
 30
0.0
 11
117.3175894709
 21
146.2736805498
 31
0.0
 11
117.3168938181
 21
146.3253332515
 31
0.0
 11
117.3135717741
 21
146.416211148
 31
0.0
  0
SPLINE
  5
2DD
100
AcDbEntity
  8
0
100
AcDbSpline
 62
7
  6
CONTINUOUS
 70
0
 71
3
 72
16
 73
12
 74
10
 42
0.0000001
 43
0.0000001
 44
0.0000000001
 12
-0.0280261048
 22
0.531285487
 32
0.0
 13
-0.4158930061
 23
-0.3317332469
 33
0.0
 40
0.0
 40
0.0
 40
0.0
 40
0.0
 40
0.1565583934
 40
0.2997435873
 40
0.4304560331
 40
0.5494513631
 40
0.657341662
 40
0.7544983057
 40
0.841500836
 40
0.9194531027
 40
1.0
 40
1.0
 40
1.0
 40
1.0
 10
117.3135717741
 20
146.416211148
 30
0.0
 10
117.3121092002
 20
146.4439368821
 30
0.0
 10
117.3084939606
 20
146.4969785808
 30
0.0
 10
117.30031973
 20
146.5728932275
 30
0.0
 10
117.2895216547
 20
146.6417674627
 30
0.0
 10
117.2757362757
 20
146.7036898864
 30
0.0
 10
117.2583644884
 20
146.758671752
 30
0.0
 10
117.2359083106
 20
146.80532361
 30
0.0
 10
117.2061695173
 20
146.8429146263
 30
0.0
 10
117.1600903738
 20
146.8556120327
 30
0.0
 10
117.1339005569
 20
146.8403126624
 30
0.0
 10
117.1227342598
 20
146.8314059678
 30
0.0
 11
117.3135717741
 21
146.416211148
 31
0.0
 11
117.3077661025
 21
146.4992961405
 31
0.0
 11
117.2994470914
 21
146.5750136799
 31
0.0
 11
117.28844243
 21
146.6436751757
 31
0.0
 11
117.2743683041
 21
146.7053952277
 31
0.0
 11
117.2564673612
 21
146.7599289613
 31
0.0
 11
117.233253241
 21
146.8061089375
 31
0.0
 11
117.2017361846
 21
146.840004841
 31
0.0
 11
117.1614383468
 21
146.8497943401
 31
0.0
 11
117.1227342598
 21
146.8314059678
 31
0.0
  0
SPLINE
  5
2DE
100
AcDbEntity
  8
0
100
AcDbSpline
 62
7
  6
CONTINUOUS
 70
0
 71
3
 72
13
 73
9
 74
7
 42
0.0000001
 43
0.0000001
 44
0.0000000001
 12
-0.1900663585
 22
-0.6947980175
 32
0.0
 13
-0.7203259719
 23
0.0
 33
0.0
 40
0.0
 40
0.0
 40
0.0
 40
0.0
 40
0.199711992
 40
0.3847461209
 40
0.5546856245
 40
0.7116358843
 40
0.8610505792
 40
1.0
 40
1.0
 40
1.0
 40
1.0
 10
131.4120487159
 20
151.5178681336
 30
0.0
 10
131.3993958723
 20
151.4716149683
 30
0.0
 10
131.3709699349
 20
151.3835239645
 30
0.0
 10
131.3162181155
 20
151.2617675267
 30
0.0
 10
131.2507235946
 20
151.1571717611
 30
0.0
 10
131.1730922476
 20
151.0720898483
 30
0.0
 10
131.0821858814
 20
151.0127432165
 30
0.0
 10
131.0123989729
 20
150.9976768292
 30
0.0
 10
130.9790360141
 20
150.9976768292
 30
0.0
 11
131.4120487159
 21
151.5178681336
 31
0.0
 11
131.367311952
 21
151.3811433378
 31
0.0
 11
131.3119088735
 21
151.259918916
 31
0.0
 11
131.2459653509
 21
151.1567873983
 31
0.0
 11
131.1685551333
 21
151.0743909784
 31
0.0
 11
131.0771176652
 21
151.0176210746
 31
0.0
 11
130.9790360141
 21
150.9976768292
 31
0.0
  0
SPLINE
  5
2DF
100
AcDbEntity
  8
0
100
AcDbSpline
 62
7
  6
CONTINUOUS
 70
0
 71
3
 72
13
 73
9
 74
7
 42
0.0000001
 43
0.0000001
 44
0.0000000001
 12
0.3049982097
 22
0.367847729
 32
0.0
 13
0.4778450164
 23
0.0
 33
0.0
 40
0.0
 40
0.0
 40
0.0
 40
0.0
 40
0.132758564
 40
0.2753807213
 40
0.43184982
 40
0.6077021852
 40
0.8001348839
 40
1.0
 40
1.0
 40
1.0
 40
1.0
 10
127.6233735814
 20
171.5624103611
 30
0.0
 10
127.6368706228
 20
171.5786886732
 30
0.0
 10
127.6682446901
 20
171.6097520683
 30
0.0
 10
127.7249101321
 20
171.6492359238
 30
0.0
 10
127.793090972
 20
171.6826316915
 30
0.0
 10
127.872801445
 20
171.7086244107
 30
0.0
 10
127.9619950508
 20
171.7252599279
 30
0.0
 10
128.0245514334
 20
171.729048275
 30
0.0
 10
128.0563862832
 20
171.729048275
 30
0.0
 11
127.6233735814
 21
171.5624103611
 31
0.0
 11
127.6682272557
 21
171.6072715921
 31
0.0
 11
127.7239324376
 21
171.6465339232
 31
0.0
 11
127.7909231787
 21
171.6797377077
 31
0.0
 11
127.8707101845
 21
171.7061025371
 31
0.0
 11
127.9610615775
 21
171.7231899922
 31
0.0
 11
128.0563862832
 21
171.729048275
 31
0.0
  0
SPLINE
  5
2E0
100
AcDbEntity
  8
0
100
AcDbSpline
 62
7
  6
CONTINUOUS
 70
0
 71
3
 72
13
 73
9
 74
7
 42
0.0000001
 43
0.0000001
 44
0.0000000001
 12
-0.7203674192
 22
0.0
 32
0.0
 13
-0.1900772948
 23
0.694837996
 33
0.0
 40
0.0
 40
0.0
 40
0.0
 40
0.0
 40
0.1343868008
 40
0.2802786193
 40
0.4402396748
 40
0.6124129695
 40
0.7985154818
 40
1.0
 40
1.0
 40
1.0
 40
1.0
 10
128.0563862832
 20
150.9976768292
 30
0.0
 10
128.0241169923
 20
150.9976768292
 30
0.0
 10
127.9562977134
 20
151.0117951271
 30
0.0
 10
127.8656146417
 20
151.0691864236
 30
0.0
 10
127.7869286853
 20
151.1539876206
 30
0.0
 10
127.7202528186
 20
151.2596604559
 30
0.0
 10
127.6648126618
 20
151.3824631314
 30
0.0
 10
127.6361394587
 20
151.4712017674
 30
0.0
 10
127.6233735814
 20
151.5178681336
 30
0.0
 11
128.0563862832
 21
150.9976768292
 31
0.0
 11
127.9614003102
 21
151.0163698539
 31
0.0
 11
127.8713923347
 21
151.0706254821
 31
0.0
 11
127.7917082321
 21
151.1538634876
 31
0.0
 11
127.7244953906
 21
151.258100653
 31
0.0
 11
127.6685758079
 21
151.3799434621
 31
0.0
 11
127.6233735814
 21
151.5178681336
 31
0.0
  0
SPLINE
  5
2E1
100
AcDbEntity
  8
0
100
AcDbSpline
 62
7
  6
CONTINUOUS
 70
0
 71
3
 72
11
 73
7
 74
5
 42
0.0000001
 43
0.0000001
 44
0.0000000001
 12
-1.1884597782
 22
-6.4167683936
 32
0.0
 13
0.8459774805
 23
-6.4708326639
 33
0.0
 40
0.0
 40
0.0
 40
0.0
 40
0.0
 40
0.2171857043
 40
0.4581685493
 40
0.7201990008
 40
1.0
 40
1.0
 40
1.0
 40
1.0
 10
115.7707398995
 20
156.3382269474
 30
0.0
 10
115.6847010748
 20
155.8736834931
 30
0.0
 10
115.5626561554
 20
154.8824390733
 30
0.0
 10
115.5083316039
 20
153.3153124034
 30
0.0
 10
115.5726466048
 20
151.6123781313
 30
0.0
 10
115.691838118
 20
150.4389281056
 30
0.0
 10
115.7707398995
 20
149.8354129573
 30
0.0
 11
115.7707398995
 21
156.3382269474
 31
0.0
 11
115.5886534812
 21
154.9326401523
 31
0.0
 11
115.5281127804
 21
153.361176262
 31
0.0
 11
115.5886509474
 21
151.6522640359
 31
0.0
 11
115.7707398995
 21
149.8354129573
 31
0.0
  0
SPLINE
  5
2E2
100
AcDbEntity
  8
0
100
AcDbSpline
 62
7
  6
CONTINUOUS
 70
0
 71
3
 72
9
 73
5
 74
3
 42
0.0000001
 43
0.0000001
 44
0.0000000001
 12
-0.2436717594
 22
-0.5481911312
 32
0.0
 13
-0.0000000058
 23
0.0000000027
 33
0.0
 40
0.0
 40
0.0
 40
0.0
 40
0.0
 40
0.7496750828
 40
1.0
 40
1.0
 40
1.0
 40
1.0
 10
115.7707398995
 20
118.7717266394
 30
0.0
 10
115.7098483507
 20
118.6347382288
 30
0.0
 10
115.6590743042
 20
118.5205022609
 30
0.0
 10
115.5281127809
 20
118.2230707086
 30
0.0
 10
115.5281127804
 20
118.2230707088
 30
0.0
 11
115.7707398995
 21
118.7717266394
 31
0.0
 11
115.5886538929
 21
118.3605002609
 31
0.0
 11
115.5281127804
 21
118.2230707088
 31
0.0
  0
SPLINE
  5
2E3
100
AcDbEntity
  8
0
100
AcDbSpline
 62
7
  6
CONTINUOUS
 70
0
 71
3
 72
37
 73
33
 74
31
 42
0.0000001
 43
0.0000001
 44
0.0000000001
 12
0.0
 22
-1.2636009951
 32
0.0
 13
1.263250387
 23
-0.0297646533
 33
0.0
 40
0.0
 40
0.0
 40
0.0
 40
0.0
 40
0.0994383941
 40
0.1879658911
 40
0.2669223888
 40
0.3374839584
 40
0.4006584854
 40
0.4573224709
 40
0.5082394768
 40
0.5540768414
 40
0.5954186601
 40
0.6327774292
 40
0.6666040103
 40
0.6972960723
 40
0.7252053171
 40
0.7506436909
 40
0.7738888531
 40
0.7951890361
 40
0.8147671175
 40
0.8328244029
 40
0.8495443031
 40
0.8650959523
 40
0.8796380638
 40
0.8933233069
 40
0.9063037289
 40
0.9187396899
 40
0.9308137345
 40
0.9427534253
 40
0.954881614
 40
0.967733314
 40
0.9823409046
 40
1.0
 40
1.0
 40
1.0
 40
1.0
 10
115.3177742377
 20
119.9660536354
 30
0.0
 10
115.3177742377
 20
119.9241701509
 30
0.0
 10
115.31779303
 20
119.8449988521
 30
0.0
 10
115.3179331646
 20
119.7325711015
 30
0.0
 10
115.3182894631
 20
119.6323067076
 30
0.0
 10
115.3189777398
 20
119.5427227745
 30
0.0
 10
115.3200975134
 20
119.4625332902
 30
0.0
 10
115.3217222049
 20
119.3906282138
 30
0.0
 10
115.3238981864
 20
119.3260433706
 30
0.0
 10
115.3266479365
 20
119.2679401051
 30
0.0
 10
115.3299747171
 20
119.2155876214
 30
0.0
 10
115.3338673958
 20
119.1683480882
 30
0.0
 10
115.33830483
 20
119.1256636564
 30
0.0
 10
115.3432595967
 20
119.0870453948
 30
0.0
 10
115.3487010488
 20
119.052063901
 30
0.0
 10
115.3545977874
 20
119.020341285
 30
0.0
 10
115.3609196769
 20
118.9915442947
 30
0.0
 10
115.3676395212
 20
118.9653785135
 30
0.0
 10
115.3747345243
 20
118.9415834775
 30
0.0
 10
115.3821876689
 20
118.9199285567
 30
0.0
 10
115.3899892174
 20
118.9002093982
 30
0.0
 10
115.3981385718
 20
118.8822448836
 30
0.0
 10
115.4066468061
 20
118.8658746331
 30
0.0
 10
115.415540382
 20
118.8509571151
 30
0.0
 10
115.4248672331
 20
118.8373680492
 30
0.0
 10
115.4347073532
 20
118.824999383
 30
0.0
 10
115.4451916758
 20
118.8137599989
 30
0.0
 10
115.456540112
 20
118.8035792472
 30
0.0
 10
115.4691441801
 20
118.7944178384
 30
0.0
 10
115.4837757032
 20
118.7863136499
 30
0.0
 10
115.5016976237
 20
118.7797366291
 30
0.0
 10
115.5152983067
 20
118.7777453288
 30
0.0
 10
115.5227342598
 20
118.7775701232
 30
0.0
 11
115.3177742377
 21
119.9660536354
 31
0.0
 11
115.3178164794
 21
119.8404031888
 31
0.0
 11
115.3179836614
 21
119.7285398804
 31
0.0
 11
115.318374546
 21
119.6287711371
 31
0.0
 11
115.319100122
 21
119.5396124199
 31
0.0
 11
115.3202568127
 21
119.4597934053
 31
0.0
 11
115.3219162224
 21
119.3882119685
 31
0.0
 11
115.3241237289
 21
119.3239110709
 31
0.0
 11
115.3269013621
 21
119.2660575722
 31
0.0
 11
115.3302522521
 21
119.2139255906
 31
0.0
 11
115.3341653237
 21
119.1668814745
 31
0.0
 11
115.3386195998
 21
119.1243708963
 31
0.0
 11
115.3435878761
 21
119.0859079259
 31
0.0
 11
115.3490397436
 21
119.0510657325
 31
0.0
 11
115.3549440302
 21
119.0194686882
 31
0.0
 11
115.3612707959
 21
118.9907855527
 31
0.0
 11
115.3679930229
 21
118.9647236025
 31
0.0
 11
115.3750880285
 21
118.9410239562
 31
0.0
 11
115.3825388065
 21
118.919457531
 31
0.0
 11
115.3903354981
 21
118.8998215012
 31
0.0
 11
115.3984771712
 21
118.8819363654
 31
0.0
 11
115.4069742401
 21
118.8656435412
 31
0.0
 11
115.4158519716
 21
118.8508036322
 31
0.0
 11
115.4251558181
 21
118.8372956168
 31
0.0
 11
115.4349611499
 21
118.8250160331
 31
0.0
 11
115.4453903372
 21
118.8138804492
 31
0.0
 11
115.4566431936
 21
118.803831024
 31
0.0
 11
115.4690632759
 21
118.7948531041
 31
0.0
 11
115.48329286
 21
118.7870276504
 31
0.0
 11
115.5006461275
 21
118.7807373404
 31
0.0
 11
115.5227342598
 21
118.7775701232
 31
0.0
  0
SPLINE
  5
2E4
100
AcDbEntity
  8
0
100
AcDbSpline
 62
7
  6
CONTINUOUS
 70
0
 71
3
 72
37
 73
33
 74
31
 42
0.0000001
 43
0.0000001
 44
0.0000000001
 12
-2.9990774004
 22
-0.0122655304
 32
0.0
 13
0.0
 23
-2.9991024819
 33
0.0
 40
0.0
 40
0.0
 40
0.0
 40
0.0
 40
0.0079846225
 40
0.0167516411
 40
0.0263349816
 40
0.0367789046
 40
0.0481394116
 40
0.0604801785
 40
0.0738729537
 40
0.0883975469
 40
0.1041419259
 40
0.121202624
 40
0.1396852203
 40
0.1597046692
 40
0.1813861433
 40
0.2048661902
 40
0.2302935209
 40
0.2578300669
 40
0.2876520228
 40
0.3199507995
 40
0.354934683
 40
0.3928308339
 40
0.4338872223
 40
0.4783747507
 40
0.5265896044
 40
0.5788558343
 40
0.6355282813
 40
0.6969945872
 40
0.7636799807
 40
0.8360453454
 40
0.9146044341
 40
1.0
 40
1.0
 40
1.0
 40
1.0
 10
115.5227342598
 20
149.8343987014
 30
0.0
 10
115.5147520928
 20
149.8343660562
 30
0.0
 10
115.49844957
 20
149.8260768099
 30
0.0
 10
115.482199429
 20
149.805279621
 30
0.0
 10
115.4681790319
 20
149.7800188163
 30
0.0
 10
115.4559878987
 20
149.7510743684
 30
0.0
 10
115.4448374757
 20
149.7187922235
 30
0.0
 10
115.4344869416
 20
149.6831713465
 30
0.0
 10
115.4247325043
 20
149.6441173431
 30
0.0
 10
115.4154674146
 20
149.6014574756
 30
0.0
 10
115.4066190919
 20
149.5549721825
 30
0.0
 10
115.3981451799
 20
149.5044013059
 30
0.0
 10
115.3900219715
 20
149.4494493267
 30
0.0
 10
115.3822403023
 20
149.3897865446
 30
0.0
 10
115.3748019371
 20
149.3250487216
 30
0.0
 10
115.3677173776
 20
149.2548354593
 30
0.0
 10
115.3610041509
 20
149.1787079874
 30
0.0
 10
115.3546854509
 20
149.0961868026
 30
0.0
 10
115.3487888379
 20
149.0067489827
 30
0.0
 10
115.3433448194
 20
148.9098247847
 30
0.0
 10
115.3383851758
 20
148.8047931989
 30
0.0
 10
115.3339409383
 20
148.69097645
 30
0.0
 10
115.3300399216
 20
148.5676339701
 30
0.0
 10
115.3267036848
 20
148.4339559629
 30
0.0
 10
115.3239438189
 20
148.2890562687
 30
0.0
 10
115.3217575699
 20
148.131964384
 30
0.0
 10
115.320123022
 20
147.9616177935
 30
0.0
 10
115.3189943977
 20
147.7768521034
 30
0.0
 10
115.318298886
 20
147.5763960749
 30
0.0
 10
115.3179374279
 20
147.3588515624
 30
0.0
 10
115.3177943232
 20
147.1226022685
 30
0.0
 10
115.3177742377
 20
146.9586966632
 30
0.0
 10
115.3177742377
 20
146.8733266453
 30
0.0
 11
115.5227342598
 21
149.8343987014
 31
0.0
 11
115.5005663825
 21
149.8253416757
 31
0.0
 11
115.4832482343
 21
149.8055575044
 31
0.0
 11
115.469049817
 21
149.7805680229
 31
0.0
 11
115.4566532792
 21
149.7518031431
 31
0.0
 11
115.4454163729
 21
149.719638145
 31
0.0
 11
115.4349979066
 21
149.684123552
 31
0.0
 11
115.4252001031
 21
149.6451705658
 31
0.0
 11
115.4159022431
 21
149.6026136844
 31
0.0
 11
115.4070293601
 21
149.5562358179
 31
0.0
 11
115.3985359025
 21
149.505778898
 31
0.0
 11
115.3903966
 21
149.4509485256
 31
0.0
 11
115.3826010954
 21
149.391416373
 31
0.0
 11
115.3751503631
 21
149.3268196828
 31
0.0
 11
115.3680542259
 21
149.2567590674
 31
0.0
 11
115.3613296806
 21
149.1807969611
 31
0.0
 11
115.3549994535
 21
149.0984550046
 31
0.0
 11
115.3490906747
 21
149.0092112975
 31
0.0
 11
115.3436334895
 21
148.9124977979
 31
0.0
 11
115.3386593329
 21
148.8076955223
 31
0.0
 11
115.3341988795
 21
148.6941286427
 31
0.0
 11
115.3302795947
 21
148.5710587172
 31
0.0
 11
115.3269227103
 21
148.4376782964
 31
0.0
 11
115.3241395429
 21
148.2931037957
 31
0.0
 11
115.3219271813
 21
148.1363676289
 31
0.0
 11
115.3202637679
 21
147.9664092924
 31
0.0
 11
115.3191040368
 21
147.7820691898
 31
0.0
 11
115.3183763943
 21
147.5820741843
 31
0.0
 11
115.3179843388
 21
147.3650433936
 31
0.0
 11
115.3178166458
 21
147.1294366955
 31
0.0
 11
115.3177742377
 21
146.8733266453
 31
0.0
  0
SPLINE
  5
2E5
100
AcDbEntity
  8
0
100
AcDbSpline
 62
7
  6
CONTINUOUS
 70
0
 71
3
 72
37
 73
33
 74
31
 42
0.0000001
 43
0.0000001
 44
0.0000000001
 12
0.0
 22
-1.8218331039
 32
0.0
 13
1.8214878133
 23
0.0354683581
 33
0.0
 40
0.0
 40
0.0
 40
0.0
 40
0.0
 40
0.0713640368
 40
0.1392091869
 40
0.2035064112
 40
0.2642915734
 40
0.3216283169
 40
0.3756088326
 40
0.4263453488
 40
0.4739643876
 40
0.518601156
 40
0.5603957367
 40
0.5994902656
 40
0.6360267596
 40
0.6701454944
 40
0.7019837958
 40
0.7316752655
 40
0.7593493458
 40
0.785130747
 40
0.8091391416
 40
0.8314891754
 40
0.8522906239
 40
0.8716487797
 40
0.8896650121
 40
0.9064374868
 40
0.922063971
 40
0.9366458594
 40
0.9502932607
 40
0.9631416216
 40
0.9753956562
 40
0.987461384
 40
1.0
 40
1.0
 40
1.0
 40
1.0
 10
115.3177742377
 20
158.1059862633
 30
0.0
 10
115.3177742377
 20
158.0626484751
 30
0.0
 10
115.3177955092
 20
157.9781098371
 30
0.0
 10
115.3179402654
 20
157.8545249821
 30
0.0
 10
115.3183038713
 20
157.7373648345
 30
0.0
 10
115.3190012129
 20
157.6265876908
 30
0.0
 10
115.3201307863
 20
157.5220793719
 30
0.0
 10
115.3217650717
 20
157.4236806267
 30
0.0
 10
115.3239497328
 20
157.3311952427
 30
0.0
 10
115.3267067595
 20
157.2444018848
 30
0.0
 10
115.3300391045
 20
157.163063032
 30
0.0
 10
115.3339354569
 20
157.0869321613
 30
0.0
 10
115.338374582
 20
157.0157589056
 30
0.0
 10
115.3433290126
 20
156.9492929626
 30
0.0
 10
115.3487680755
 20
156.8872871086
 30
0.0
 10
115.3546603362
 20
156.8294994493
 30
0.0
 10
115.3609755893
 20
156.7756950398
 30
0.0
 10
115.3676865072
 20
156.7256472165
 30
0.0
 10
115.3747700651
 20
156.6791387633
 30
0.0
 10
115.3822088743
 20
156.6359629624
 30
0.0
 10
115.3899926124
 20
156.5959244243
 30
0.0
 10
115.3981197756
 20
156.5588398491
 30
0.0
 10
115.4066000096
 20
156.5245389922
 30
0.0
 10
115.4154575474
 20
156.4928662812
 30
0.0
 10
115.4247365208
 20
156.4636824876
 30
0.0
 10
115.4345108724
 20
156.4368682067
 30
0.0
 10
115.4448988981
 20
156.4123293332
 30
0.0
 10
115.4561018153
 20
156.3900166971
 30
0.0
 10
115.4684529284
 20
156.3699381238
 30
0.0
 10
115.4826788283
 20
156.3523047917
 30
0.0
 10
115.5000213907
 20
156.3378040164
 30
0.0
 10
115.515121281
 20
156.3332494781
 30
0.0
 10
115.5227342598
 20
156.3333977194
 30
0.0
 11
115.3177742377
 21
158.1059862633
 31
0.0
 11
115.3178164794
 21
157.9759729054
 31
0.0
 11
115.3179836614
 21
157.8523704782
 31
0.0
 11
115.318374546
 21
157.7352323187
 31
0.0
 11
115.319100122
 21
157.6244942749
 31
0.0
 11
115.3202568127
 21
157.5200427019
 31
0.0
 11
115.3219162224
 21
157.4217132125
 31
0.0
 11
115.3241237289
 21
157.3293061115
 31
0.0
 11
115.3269013621
 21
157.242596648
 31
0.0
 11
115.3302522521
 21
157.161344973
 31
0.0
 11
115.3341653237
 21
157.0853028376
 31
0.0
 11
115.3386195998
 21
157.0142185506
 31
0.0
 11
115.3435878761
 21
156.9478408309
 31
0.0
 11
115.3490397436
 21
156.8859217407
 31
0.0
 11
115.3549440302
 21
156.828218953
 31
0.0
 11
115.3612707959
 21
156.7744973175
 31
0.0
 11
115.3679930229
 21
156.7245299122
 31
0.0
 11
115.3750880285
 21
156.6780994655
 31
0.0
 11
115.3825388065
 21
156.6349994514
 31
0.0
 11
115.3903354981
 21
156.5950348458
 31
0.0
 11
115.3984771712
 21
156.558022981
 31
0.0
 11
115.4069742401
 21
156.5237945671
 31
0.0
 11
115.4158519716
 21
156.4921954073
 31
0.0
 11
115.4251558181
 21
156.4630896128
 31
0.0
 11
115.4349611499
 21
156.4363626475
 31
0.0
 11
115.4453903372
 21
156.4119296365
 31
0.0
 11
115.4566431936
 21
156.3897585677
 31
0.0
 11
115.4690632759
 21
156.3699178053
 31
0.0
 11
115.48329286
 21
156.3527155994
 31
0.0
 11
115.5006461275
 21
156.3392225974
 31
0.0
 11
115.5227342598
 21
156.3333977194
 31
0.0
  0
ELLIPSE
  5
2E6
100
AcDbEntity
  8
0
100
AcDbEllipse
 62
7
  6
CONTINUOUS
 10
115.1705569593
 20
141.6484555147
 30
0.0
 11
14.7536831607
 21
31.0932549156
 31
0.0
 40
0.3419987131
 41
-1.0912395858
 42
-0.1578061866
  0
ELLIPSE
  5
2E7
100
AcDbEntity
  8
0
100
AcDbEllipse
 62
7
  6
CONTINUOUS
 10
143.864865338
 20
141.6484555147
 30
0.0
 11
-14.7536831607
 21
31.0932549156
 31
0.0
 40
0.3419987131
 41
0.1578061866
 42
1.0912395858
  0
ELLIPSE
  5
2E8
100
AcDbEntity
  8
0
100
AcDbEllipse
 62
7
  6
CONTINUOUS
 10
143.864865338
 20
141.6484555147
 30
0.0
 11
14.7536831607
 21
31.0932549156
 31
0.0
 40
0.3419987131
 41
-4.2328322393
 42
-3.2993988402
  0
ELLIPSE
  5
2E9
100
AcDbEntity
  8
0
100
AcDbEllipse
 62
7
  6
CONTINUOUS
 10
115.1705569593
 20
141.6484555147
 30
0.0
 11
-14.7536831607
 21
31.0932549156
 31
0.0
 40
0.3419987131
 41
-2.9837864669
 42
-2.0503530678
  0
ENDSEC
  0
SECTION
  2
OBJECTS
  0
DICTIONARY
  5
C
100
AcDbDictionary
280
0
281
1
  3
ACAD_GROUP
350
D
  3
ACAD_MLINESTYLE
350
17
  3
ACAD_LAYOUT
350
1A
  3
ACAD_PLOTSETTINGS
350
19
  3
ACAD_PLOTSTYLENAME
350
E
  0
DICTIONARY
  5
D
102
{ACAD_REACTORS
330
C
102
}
100
AcDbDictionary
280
0
281
1
  0
ACDBDICTIONARYWDFLT
  5
E
102
{ACAD_REACTORS
330
C
102
}
100
AcDbDictionary
281
1
  3
Normal
350
F
100
AcDbDictionaryWithDefault
340
F
  0
DICTIONARY
  5
17
102
{ACAD_REACTORS
330
C
102
}
100
AcDbDictionary
280
0
281
1
  3
Standard
350
18
  0
DICTIONARY
  5
19
102
{ACAD_REACTORS
330
C
102
}
100
AcDbDictionary
281
1
  0
DICTIONARY
  5
1A
102
{ACAD_REACTORS
330
C
102
}
100
AcDbDictionary
281
1
  3
Model
350
2EA
  3
Layout1
350
2EB
  0
ACDBPLACEHOLDER
  5
F
102
{ACAD_REACTORS
330
E
102
}
  0
MLINESTYLE
  5
18
102
{ACAD_REACTORS
330
17
102
}
100
AcDbMlineStyle
  2
STANDARD
 70
0
  3

 62
256
 51
90.0
 52
90.0
 71
2
 49
0.5
 62
256
  6
BYLAYER
 49
-0.5
 62
256
  6
BYLAYER
  0
LAYOUT
  5
2EA
102
{ACAD_REACTORS
330
1A
102
}
100
AcDbPlotSettings
  1

  2
none_device
  4
ISO_A4_(297.00_x_210.00_MM)
  6

 40
0.0
 41
0.0
 42
0.0
 43
0.0
 44
297.0
 45
210.0
 46
0.0
 47
0.0
 48
0.0
 49
0.0
140
0.0
141
0.0
142
1.0
143
1.0
 70
1024
 72
1
 73
0
 74
0
  7

 75
0
147
1.0
148
0.0
149
0.0
100
AcDbLayout
  1
Model
 70
0
 71
0
 10
0.0
 20
0.0
 11
297.0
 21
210.0
 12
0.0
 22
0.0
 32
0.0
 14
0.0
 24
0.0
 34
0.0
 15
0.0
 25
0.0
 35
0.0
146
0.0
 13
0.0
 23
0.0
 33
0.0
 16
1.0
 26
0.0
 36
0.0
 17
0.0
 27
1.0
 37
0.0
 76
0
330
217
345
0
346
0
  0
LAYOUT
  5
2EB
102
{ACAD_REACTORS
330
1A
102
}
100
AcDbPlotSettings
  1

  2
none_device
  4
ISO_A4_(297.00_x_210.00_MM)
  6

 40
0.0
 41
0.0
 42
0.0
 43
0.0
 44
297.0
 45
210.0
 46
0.0
 47
0.0
 48
0.0
 49
0.0
140
0.0
141
0.0
142
1.0
143
1.0
 70
0
 72
1
 73
0
 74
0
  7

 75
0
147
1.0
148
0.0
149
0.0
100
AcDbLayout
  1
Layout1
 70
0
 71
1
 10
0.0
 20
0.0
 11
297.0
 21
210.0
 12
0.0
 22
0.0
 32
0.0
 14
0.0
 24
0.0
 34
0.0
 15
0.0
 25
0.0
 35
0.0
146
0.0
 13
0.0
 23
0.0
 33
0.0
 16
1.0
 26
0.0
 36
0.0
 17
0.0
 27
1.0
 37
0.0
 76
0
330
218
345
0
346
0
  0
ENDSEC
  0
EOF
