999
DXF file: cc6-141-20.dxf
999
Pro/ENGINEER 2010430 by Parametric Technology Corporation
  0
SECTION
  2
HEADER
  9
$ACADVER
  1
AC1021
  9
$DWGCODEPAGE
  3
ANSI_1252
  9
$EXTMAX
 10
297.0
 20
210.0
 30
0.0
  9
$EXTMIN
 10
0.0
 20
0.0
 30
0.0
  9
$LIMMIN
 10
0.0
 20
0.0
  9
$LIMMAX
 10
297.0
 20
210.0
  9
$VIEWCTR
 10
148.5
 20
105.0
  9
$VIEWSIZE
 40
210.0
  9
$CLAYER
  8
0
  9
$LTSCALE
 40
16.335
  9
$CELTYPE
  6
BYLAYER
  9
$DIMSCALE
 40
1.0
  9
$DIMASZ
 40
3.5
  9
$DIMEXO
 40
1.85625
  9
$DIMDLI
 40
11.286
  9
$DIMEXE
 40
5.346
  9
$DIMCEN
 40
2.673
  9
$DIMLFAC
 40
1.0
  9
$DIMBLK
  1
_FILLED
  9
$DIMTXT
 40
3.5
  9
$DIMTOL
 70
1
  9
$DIMLIM
 70
0
  9
$DIMTFAC
 40
1.0
  9
$DIMTP
 40
0.005
  9
$DIMTM
 40
0.005
  9
$PDMODE
 70
3
  9
$PDSIZE
 40
0.3125
  9
$HANDSEED
  5
319
  9
$TILEMODE
 70
1
  9
$MEASUREMENT
 70
1
  9
$INSUNITS
 70
4
  0
ENDSEC
  0
SECTION
  2
CLASSES
  0
CLASS
  1
ACDBDICTIONARYWDFLT
  2
AcDbDictionaryWithDefault
  3
AutoCAD 2000
 90
0
 91
1
280
0
281
0
  0
CLASS
  1
ACDBPLACEHOLDER
  2
AcDbPlaceHolder
  3
AutoCAD 2000
 90
0
 91
1
280
0
281
0
  0
CLASS
  1
LAYOUT
  2
AcDbLayout
  3
AutoCAD 2000
 90
0
 91
0
280
0
281
0
  0
ENDSEC
  0
SECTION
  2
TABLES
  0
TABLE
  2
VPORT
  5
8
100
AcDbSymbolTable
 70
2
  0
VPORT
  5
1F4
100
AcDbSymbolTableRecord
100
AcDbViewportTableRecord
  2
*ACTIVE
 70
0
 10
0.0
 20
0.0
 11
1.0
 21
1.0
 12
148.5
 22
105.0
 13
0.0
 23
0.0
 14
1.0
 24
1.0
 15
0.0
 25
0.0
 16
0.0
 26
0.0
 36
1.0
 17
0.0
 27
0.0
 37
0.0
 40
210.0
 41
1.4142857143
 42
50.0
 43
0.0
 44
0.0
 50
0.0
 51
0.0
 71
0
 72
100
 73
1
 74
1
 75
0
 76
0
 77
0
 78
0
  0
ENDTAB
  0
TABLE
  2
LTYPE
  5
5
100
AcDbSymbolTable
 70
6
  0
LTYPE
  5
14
100
AcDbSymbolTableRecord
100
AcDbLinetypeTableRecord
  2
BYBLOCK
 70
0
  3

 72
65
 73
0
 40
0.0
  0
LTYPE
  5
15
100
AcDbSymbolTableRecord
100
AcDbLinetypeTableRecord
  2
BYLAYER
 70
0
  3

 72
65
 73
0
 40
0.0
  0
LTYPE
  5
16
100
AcDbSymbolTableRecord
100
AcDbLinetypeTableRecord
  2
CONTINUOUS
 70
64
  3
Solid line
 72
65
 73
0
 40
0.0
  0
LTYPE
  5
1F5
100
AcDbSymbolTableRecord
100
AcDbLinetypeTableRecord
  2
CENTER
 70
64
  3
____ _ ____ _ ____ _ ____ _ ____ _ ____ _ ____
 72
65
 73
4
 40
0.6
 49
0.375
 74
0
 49
-0.075
 74
0
 49
0.075
 74
0
 49
-0.075
 74
0
  0
LTYPE
  5
1F6
100
AcDbSymbolTableRecord
100
AcDbLinetypeTableRecord
  2
HIDDEN
 70
64
  3
- - - - - - - - - - - - - - - - - - - -
 72
65
 73
2
 40
0.2
 49
0.1
 74
0
 49
-0.1
 74
0
  0
LTYPE
  5
1F7
100
AcDbSymbolTableRecord
100
AcDbLinetypeTableRecord
  2
PHANTOM
 70
64
  3
_____ _ _ _____ _ _ _____ _ _ _____
 72
65
 73
6
 40
0.8
 49
0.45
 74
0
 49
-0.05
 74
0
 49
0.1
 74
0
 49
-0.05
 74
0
 49
0.1
 74
0
 49
-0.05
 74
0
  0
LTYPE
  5
1F8
100
AcDbSymbolTableRecord
100
AcDbLinetypeTableRecord
  2
DOT
 70
64
  3
. . . . . . . . . . . . . . . . . . . .
 72
65
 73
2
 40
0.2
 49
0.1
 74
0
 49
-0.1
 74
0
  0
LTYPE
  5
1F9
100
AcDbSymbolTableRecord
100
AcDbLinetypeTableRecord
  2
DASHED
 70
64
  3
- - - - - - - - - - - - - - - - - - - -
 72
65
 73
2
 40
0.2
 49
0.1
 74
0
 49
-0.1
 74
0
  0
ENDTAB
  0
TABLE
  2
LAYER
  5
2
100
AcDbSymbolTable
 70
36
  0
LAYER
  5
10
100
AcDbSymbolTableRecord
100
AcDbLayerTableRecord
  2
0
 70
0
 62
7
  6
CONTINUOUS
370
-3
390
F
  0
LAYER
  5
1FA
100
AcDbSymbolTableRecord
100
AcDbLayerTableRecord
  2
DEFAULT_1
 70
0
 62
7
  6
CENTER
370
-3
390
F
  0
LAYER
  5
1FB
100
AcDbSymbolTableRecord
100
AcDbLayerTableRecord
  2
DEFAULT_2
 70
0
 62
8
  6
HIDDEN
370
-3
390
F
  0
LAYER
  5
1FC
100
AcDbSymbolTableRecord
100
AcDbLayerTableRecord
  2
DEFAULT_3
 70
0
 62
7
  6
PHANTOM
370
-3
390
F
  0
LAYER
  5
1FD
100
AcDbSymbolTableRecord
100
AcDbLayerTableRecord
  2
ACHSEN
 70
0
 62
7
  6
CONTINUOUS
370
-3
390
F
  0
LAYER
  5
1FE
100
AcDbSymbolTableRecord
100
AcDbLayerTableRecord
  2
BEZUGSACHSEN
 70
0
 62
7
  6
CONTINUOUS
370
-3
390
F
  0
LAYER
  5
1FF
100
AcDbSymbolTableRecord
100
AcDbLayerTableRecord
  2
BEZUGSEBENE_B
 70
0
 62
7
  6
CONTINUOUS
370
-3
390
F
  0
LAYER
  5
200
100
AcDbSymbolTableRecord
100
AcDbLayerTableRecord
  2
BOHRUNGEN
 70
0
 62
7
  6
CONTINUOUS
370
-3
390
F
  0
LAYER
  5
201
100
AcDbSymbolTableRecord
100
AcDbLayerTableRecord
  2
EBENEN
 70
0
 62
7
  6
CONTINUOUS
370
-3
390
F
  0
LAYER
  5
202
100
AcDbSymbolTableRecord
100
AcDbLayerTableRecord
  2
FASEN
 70
0
 62
7
  6
CONTINUOUS
370
-3
390
F
  0
LAYER
  5
203
100
AcDbSymbolTableRecord
100
AcDbLayerTableRecord
  2
FLAECHEN
 70
0
 62
7
  6
CONTINUOUS
370
-3
390
F
  0
LAYER
  5
204
100
AcDbSymbolTableRecord
100
AcDbLayerTableRecord
  2
GEWINDE
 70
0
 62
7
  6
CONTINUOUS
370
-3
390
F
  0
LAYER
  5
205
100
AcDbSymbolTableRecord
100
AcDbLayerTableRecord
  2
KOORDSYS
 70
0
 62
7
  6
CONTINUOUS
370
-3
390
F
  0
LAYER
  5
206
100
AcDbSymbolTableRecord
100
AcDbLayerTableRecord
  2
KURVEN
 70
0
 62
7
  6
CONTINUOUS
370
-3
390
F
  0
LAYER
  5
207
100
AcDbSymbolTableRecord
100
AcDbLayerTableRecord
  2
KURVE_FUER_GTOL_DETAILANSICHT
 70
0
 62
7
  6
CONTINUOUS
370
-3
390
F
  0
LAYER
  5
208
100
AcDbSymbolTableRecord
100
AcDbLayerTableRecord
  2
KURVE_GAUGE2_POLIGON_INNENEINST
 70
0
 62
7
  6
CONTINUOUS
370
-3
390
F
  0
LAYER
  5
209
100
AcDbSymbolTableRecord
100
AcDbLayerTableRecord
  2
KURVE_PHANTOM1_GAUGE_PIN_1
 70
0
 62
7
  6
CONTINUOUS
370
-3
390
F
  0
LAYER
  5
20A
100
AcDbSymbolTableRecord
100
AcDbLayerTableRecord
  2
KURVE_PHANTOM2_GAUGE_PIN1
 70
0
 62
7
  6
CONTINUOUS
370
-3
390
F
  0
LAYER
  5
20B
100
AcDbSymbolTableRecord
100
AcDbLayerTableRecord
  2
KURVE_POLIGON_BEMASUNG
 70
0
 62
7
  6
CONTINUOUS
370
-3
390
F
  0
LAYER
  5
20C
100
AcDbSymbolTableRecord
100
AcDbLayerTableRecord
  2
PUNKTE
 70
0
 62
7
  6
CONTINUOUS
370
-3
390
F
  0
LAYER
  5
20D
100
AcDbSymbolTableRecord
100
AcDbLayerTableRecord
  2
RUNDUNGEN
 70
0
 62
7
  6
CONTINUOUS
370
-3
390
F
  0
LAYER
  5
20E
100
AcDbSymbolTableRecord
100
AcDbLayerTableRecord
  2
S_ACHSEN
 70
0
 62
7
  6
CONTINUOUS
370
-3
390
F
  0
LAYER
  5
20F
100
AcDbSymbolTableRecord
100
AcDbLayerTableRecord
  2
S_EBENEN
 70
0
 62
7
  6
CONTINUOUS
370
-3
390
F
  0
LAYER
  5
210
100
AcDbSymbolTableRecord
100
AcDbLayerTableRecord
  2
S_KOORDSYS
 70
0
 62
7
  6
CONTINUOUS
370
-3
390
F
  0
LAYER
  5
211
100
AcDbSymbolTableRecord
100
AcDbLayerTableRecord
  2
TOL_BEZUEGE
 70
0
 62
7
  6
CONTINUOUS
370
-3
390
F
  0
LAYER
  5
212
100
AcDbSymbolTableRecord
100
AcDbLayerTableRecord
  2
VERBFLAECHE
 70
0
 62
7
  6
CONTINUOUS
370
-3
390
F
  0
LAYER
  5
213
100
AcDbSymbolTableRecord
100
AcDbLayerTableRecord
  2
ZEICHNUNGSBEMASSUNGEN
 70
0
 62
7
  6
CONTINUOUS
370
-3
390
F
  0
ENDTAB
  0
TABLE
  2
STYLE
  5
3
100
AcDbSymbolTable
 70
1
  0
STYLE
  5
11
100
AcDbSymbolTableRecord
100
AcDbTextStyleTableRecord
  2
STANDARD
 70
0
 40
0.0
 41
0.7
 50
0.0
 71
0
 42
0.2
  3
txt
  4

  0
STYLE
  5
214
100
AcDbSymbolTableRecord
100
AcDbTextStyleTableRecord
  2
TEXTSTYLE_1
 70
0
 40
0.0
 41
0.8
 50
0.0
 71
0
 42
0.2
  3
gdt
  4

  0
STYLE
  5
215
100
AcDbSymbolTableRecord
100
AcDbTextStyleTableRecord
  2
TEXTSTYLE_2
 70
0
 40
0.0
 41
0.7
 50
0.0
 71
0
 42
0.2
  3
gdt
  4

  0
ENDTAB
  0
TABLE
  2
VIEW
  5
6
100
AcDbSymbolTable
 70
0
  0
ENDTAB
  0
TABLE
  2
UCS
  5
7
100
AcDbSymbolTable
 70
0
  0
ENDTAB
  0
TABLE
  2
APPID
  5
9
100
AcDbSymbolTable
 70
1
  0
APPID
  5
216
100
AcDbSymbolTableRecord
100
AcDbRegAppTableRecord
  2
ACAD
 70
0
  0
ENDTAB
  0
TABLE
  2
BLOCK_RECORD
  5
1
100
AcDbSymbolTable
 70
0
  0
BLOCK_RECORD
  5
217
100
AcDbSymbolTableRecord
100
AcDbBlockTableRecord
  2
*Model_Space
  0
BLOCK_RECORD
  5
218
100
AcDbSymbolTableRecord
100
AcDbBlockTableRecord
  2
*Paper_Space
  0
BLOCK_RECORD
  5
219
100
AcDbSymbolTableRecord
100
AcDbBlockTableRecord
  2
_FILLED
  0
BLOCK_RECORD
  5
21A
100
AcDbSymbolTableRecord
100
AcDbBlockTableRecord
  2
*D0
  0
BLOCK_RECORD
  5
21B
100
AcDbSymbolTableRecord
100
AcDbBlockTableRecord
  2
*D1
  0
BLOCK_RECORD
  5
21C
100
AcDbSymbolTableRecord
100
AcDbBlockTableRecord
  2
*D2
  0
BLOCK_RECORD
  5
21D
100
AcDbSymbolTableRecord
100
AcDbBlockTableRecord
  2
*D3
  0
BLOCK_RECORD
  5
21E
100
AcDbSymbolTableRecord
100
AcDbBlockTableRecord
  2
*D4
  0
BLOCK_RECORD
  5
21F
100
AcDbSymbolTableRecord
100
AcDbBlockTableRecord
  2
*D5
  0
BLOCK_RECORD
  5
220
100
AcDbSymbolTableRecord
100
AcDbBlockTableRecord
  2
*D6
  0
ENDTAB
  0
TABLE
  2
DIMSTYLE
  5
A
100
AcDbSymbolTable
 70
1
100
AcDbDimStyleTable
 71
0
  0
DIMSTYLE
105
221
100
AcDbSymbolTableRecord
100
AcDbDimStyleTableRecord
  2
STANDARD
 70
0
  3

  4

 40
1.0
 41
3.5
 42
0.0625
 43
0.38
 44
0.18
 45
0.0
 46
0.0
 47
0.005
 48
0.005
140
3.5
141
0.09
142
0.0
143
25.4
144
1.0
145
0.0
146
1.0
147
0.09
 71
1.0
 72
0.0
 73
0
 74
0
 75
0
 76
0
 77
1
 78
8
170
0
171
2
172
0
173
0
174
0
175
0
176
0
177
0
178
5
270
2
271
3
272
3
273
2
274
2
275
0
280
0
281
0
282
0
283
1
284
8
285
0
286
0
287
3
288
0
340
11
341
219
342
219
343
219
344
219
  0
DIMSTYLE
105
222
100
AcDbSymbolTableRecord
100
AcDbDimStyleTableRecord
  2
DIMSTYLE_1
 70
0
  3

  4

 40
1.0
 41
3.5
 42
0.0625
 43
0.38
 44
0.18
 45
0.0
 46
0.0
 47
0.0
 48
0.1
140
3.5
141
0.09
142
0.0
143
25.4
144
1.0
145
0.0
146
1.0
147
0.09
 71
0.0
 72
0.0
 73
0
 74
0
 75
0
 76
0
 77
1
 78
8
170
0
171
2
172
0
173
0
174
0
175
0
176
0
177
0
178
5
270
2
271
2
272
2
273
2
274
2
275
0
280
0
281
0
282
0
283
1
284
8
285
0
286
0
287
3
288
0
340
11
341
219
342
219
343
219
344
219
  0
DIMSTYLE
105
223
100
AcDbSymbolTableRecord
100
AcDbDimStyleTableRecord
  2
DIMSTYLE_2
 70
0
  3

  4

 40
1.0
 41
3.5
 42
0.0625
 43
0.38
 44
0.18
 45
0.0
 46
0.0
 47
0.25
 48
0.25
140
3.5
141
0.09
142
0.0
143
25.4
144
1.0
145
0.0
146
1.0
147
0.09
 71
0.0
 72
0.0
 73
0
 74
0
 75
0
 76
0
 77
1
 78
8
170
0
171
2
172
0
173
0
174
0
175
0
176
0
177
0
178
5
270
2
271
2
272
2
273
2
274
2
275
0
280
0
281
0
282
0
283
1
284
8
285
0
286
0
287
3
288
0
340
11
341
219
342
219
343
219
344
219
  0
DIMSTYLE
105
224
100
AcDbSymbolTableRecord
100
AcDbDimStyleTableRecord
  2
DIMSTYLE_3
 70
0
  3

  4

 40
1.0
 41
3.5
 42
0.0625
 43
0.38
 44
0.18
 45
0.0
 46
0.0
 47
0.3
 48
0.3
140
3.5
141
0.09
142
0.0
143
25.4
144
1.0
145
0.0
146
1.0
147
0.09
 71
0.0
 72
0.0
 73
0
 74
0
 75
0
 76
0
 77
1
 78
8
170
0
171
2
172
0
173
0
174
0
175
0
176
0
177
0
178
5
270
2
271
2
272
2
273
2
274
2
275
0
280
0
281
0
282
0
283
1
284
8
285
0
286
0
287
3
288
0
340
11
341
219
342
219
343
219
344
219
  0
DIMSTYLE
105
225
100
AcDbSymbolTableRecord
100
AcDbDimStyleTableRecord
  2
DIMSTYLE_4
 70
0
  3

  4

 40
1.0
 41
3.5
 42
0.0625
 43
0.38
 44
0.18
 45
0.0
 46
0.0
 47
-0.037
 48
0.042
140
3.5
141
0.09
142
0.0
143
25.4
144
1.0
145
0.0
146
1.0
147
0.09
 71
0.0
 72
0.0
 73
0
 74
0
 75
0
 76
0
 77
1
 78
8
170
0
171
2
172
0
173
0
174
0
175
0
176
0
177
0
178
5
270
2
271
3
272
3
273
2
274
2
275
0
280
0
281
0
282
0
283
1
284
8
285
0
286
0
287
3
288
0
340
11
341
219
342
219
343
219
344
219
  0
DIMSTYLE
105
226
100
AcDbSymbolTableRecord
100
AcDbDimStyleTableRecord
  2
DIMSTYLE_5
 70
0
  3

  4

 40
1.0
 41
3.5
 42
0.0625
 43
0.38
 44
0.18
 45
0.0
 46
0.0
 47
0.5
 48
0.5
140
3.5
141
0.09
142
0.0
143
25.4
144
1.0
145
0.0
146
1.0
147
0.09
 71
0.0
 72
0.0
 73
0
 74
0
 75
0
 76
0
 77
1
 78
8
170
0
171
2
172
0
173
0
174
0
175
0
176
0
177
0
178
5
270
2
271
2
272
2
273
2
274
2
275
0
280
0
281
0
282
0
283
1
284
8
285
0
286
0
287
3
288
0
340
11
341
219
342
219
343
219
344
219
  0
ENDTAB
  0
ENDSEC
  0
SECTION
  2
BLOCKS
  0
BLOCK
  5
20
100
AcDbEntity
  8
0
100
AcDbBlockBegin
  2
*Model_Space
 70
0
 10
0.0
 20
0.0
 30
0.0
  3
*Model_Space
  1

  0
ENDBLK
  5
21
100
AcDbEntity
  8
0
100
AcDbBlockEnd
  0
BLOCK
  5
1C
100
AcDbEntity
  8
0
100
AcDbBlockBegin
  2
*Paper_Space
 70
0
 10
0.0
 20
0.0
 30
0.0
  3
*Paper_Space
  1

  0
ENDBLK
  5
1D
100
AcDbEntity
  8
0
100
AcDbBlockEnd
  0
BLOCK
  5
227
100
AcDbEntity
  8
0
100
AcDbBlockBegin
  2
_FILLED
 70
64
 10
0.0
 20
0.0
  3
_FILLED
  1

  0
SOLID
  5
228
100
AcDbEntity
  8
0
  6
BYBLOCK
 62
0
100
AcDbTrace
 10
0.0
 20
0.0
 11
-1.0
 21
0.125
 12
-1.0
 22
-0.125
 13
-1.0
 23
-0.125
  0
ENDBLK
  5
229
100
AcDbEntity
  8
0
  6
BYBLOCK
 62
0
100
AcDbBlockEnd
  0
BLOCK
  5
22A
100
AcDbEntity
  8
0
100
AcDbBlockBegin
 62
2
  6
CONTINUOUS
  2
*D0
 70
65
 10
0.0
 20
0.0
  3
*D0
  1

  0
MTEXT
  5
22B
100
AcDbEntity
  8
0
100
AcDbMText
 62
5
  6
CONTINUOUS
  7
TEXTSTYLE_2
 71
2
 72
1
 10
239.1524984822
 20
139.8197457953
 30
0.0
 11
0.0
 21
1.0
 31
0.0
 44
0.9
  1
{\Fgdt;n}\Ftxt;33
 40
3.5
 41
9.6666666667
  0
LINE
  5
22C
100
AcDbEntity
  8
0
100
AcDbLine
 62
2
  6
CONTINUOUS
 10
206.3690251725
 20
156.2947457953
 11
209.4141587154
 21
156.2947457953
  0
LINE
  5
22D
100
AcDbEntity
  8
0
100
AcDbLine
 62
2
  6
CONTINUOUS
 10
216.2567140638
 20
156.2947457953
 11
245.0274984822
 21
156.2947457953
  0
LINE
  5
22E
100
AcDbEntity
  8
0
100
AcDbLine
 62
2
  6
CONTINUOUS
 10
204.1638942308
 20
123.3447457953
 11
231.953045771
 21
123.3447457953
  0
LINE
  5
22F
100
AcDbEntity
  8
0
100
AcDbLine
 62
2
  6
CONTINUOUS
 10
236.5714937608
 20
123.3447457953
 11
245.0274984822
 21
123.3447457953
  0
LINE
  5
230
100
AcDbEntity
  8
0
100
AcDbLine
 62
2
  6
CONTINUOUS
 10
243.5274984822
 20
156.2947457953
 11
243.5274984822
 21
139.8197457953
  0
LINE
  5
231
100
AcDbEntity
  8
0
100
AcDbLine
 62
2
  6
CONTINUOUS
 10
243.5274984822
 20
123.3447457953
 11
243.5274984822
 21
139.8197457953
  0
INSERT
  5
232
100
AcDbEntity
  8
0
100
AcDbBlockReference
 62
2
  6
CONTINUOUS
  2
_FILLED
 10
243.5274984822
 20
156.2947457953
 41
3.5
 42
3.5
 43
3.5
 50
90.0
  0
INSERT
  5
233
100
AcDbEntity
  8
0
100
AcDbBlockReference
 62
2
  6
CONTINUOUS
  2
_FILLED
 10
243.5274984822
 20
123.3447457953
 41
3.5
 42
3.5
 43
3.5
 50
270.0
  0
ENDBLK
  5
234
100
AcDbEntity
  8
0
  6
BYBLOCK
 62
0
100
AcDbBlockEnd
  0
BLOCK
  5
235
100
AcDbEntity
  8
0
100
AcDbBlockBegin
 62
2
  6
CONTINUOUS
  2
*D1
 70
65
 10
0.0
 20
0.0
  3
*D1
  1

  0
MTEXT
  5
236
100
AcDbEntity
  8
0
100
AcDbMText
 62
5
  6
CONTINUOUS
  7
STANDARD
 71
2
 72
1
 10
225.8986073177
 20
106.2637888347
 30
0.0
 11
0.1545745654
 21
0.9879811252
 31
0.0
 44
0.9
  1
4\Fgdt;{\Fgdt;~}\Ftxt;30'
 40
3.5
 41
12.3333333333
  0
LINE
  5
237
100
AcDbEntity
  8
0
100
AcDbLine
 62
2
  6
CONTINUOUS
 10
174.9866596959
 20
121.1665001973
 11
235.0997303614
 21
125.8975014611
  0
LINE
  5
238
100
AcDbEntity
  8
0
100
AcDbLine
 62
2
  6
CONTINUOUS
 10
146.985972918
 20
118.8447457953
 11
181.1237180242
 21
118.8447457953
  0
LINE
  5
239
100
AcDbEntity
  8
0
100
AcDbLine
 62
2
  6
CONTINUOUS
 10
210.9233629155
 20
118.8447457953
 11
235.3768338862
 21
118.8447457953
  0
ARC
  5
23A
100
AcDbEntity
  8
0
100
AcDbCircle
 62
2
  6
CONTINUOUS
 10
145.485972918
 20
118.8447457953
 40
88.3908609682
100
AcDbArc
 50
4.5
 51
8.3892558949
  0
ARC
  5
23B
100
AcDbEntity
  8
0
100
AcDbCircle
 62
2
  6
CONTINUOUS
 10
145.485972918
 20
118.8447457953
 40
88.3908609682
100
AcDbArc
 50
351.107876718
 51
0.0
  0
ARC
  5
23C
100
AcDbEntity
  8
0
100
AcDbCircle
 62
2
  6
CONTINUOUS
 10
145.485972918
 20
118.8447457953
 40
88.3908609682
100
AcDbArc
 50
360.0
 51
4.5
  0
SOLID
  5
23D
100
AcDbEntity
  8
0
100
AcDbTrace
 62
2
  6
CONTINUOUS
 10
232.8253386724
 20
129.21994956
 11
233.6043543608
 21
125.7798128175
 12
233.6961112764
 22
129.3058569066
 13
233.6961112764
 23
129.3058569066
  0
SOLID
  5
23E
100
AcDbEntity
  8
0
100
AcDbTrace
 62
2
  6
CONTINUOUS
 10
234.2449581766
 20
115.336770488
 11
233.8768338862
 21
118.8447457953
 12
233.3701296612
 22
115.3540929798
 13
233.3701296612
 23
115.3540929798
  0
ENDBLK
  5
23F
100
AcDbEntity
  8
0
  6
BYBLOCK
 62
0
100
AcDbBlockEnd
  0
BLOCK
  5
240
100
AcDbEntity
  8
0
100
AcDbBlockBegin
 62
2
  6
CONTINUOUS
  2
*D2
 70
65
 10
0.0
 20
0.0
  3
*D2
  1

  0
MTEXT
  5
241
100
AcDbEntity
  8
0
100
AcDbMText
 62
5
  6
CONTINUOUS
  7
STANDARD
 71
2
 72
1
 10
152.6638942308
 20
189.0633280527
 30
0.0
 11
1.0
 21
0.0
 31
0.0
 44
0.9
  1
100
 40
3.5
 41
7.5
  0
LINE
  5
242
100
AcDbEntity
  8
0
100
AcDbLine
 62
2
  6
CONTINUOUS
 10
102.6638942308
 20
161.2859205041
 11
102.6638942308
 21
186.1883280527
  0
LINE
  5
243
100
AcDbEntity
  8
0
100
AcDbLine
 62
2
  6
CONTINUOUS
 10
202.6638942308
 20
144.6203205041
 11
202.6638942308
 21
186.1883280527
  0
LINE
  5
244
100
AcDbEntity
  8
0
100
AcDbLine
 62
2
  6
CONTINUOUS
 10
102.6638942308
 20
184.6883280527
 11
152.6638942308
 21
184.6883280527
  0
LINE
  5
245
100
AcDbEntity
  8
0
100
AcDbLine
 62
2
  6
CONTINUOUS
 10
202.6638942308
 20
184.6883280527
 11
152.6638942308
 21
184.6883280527
  0
INSERT
  5
246
100
AcDbEntity
  8
0
100
AcDbBlockReference
 62
2
  6
CONTINUOUS
  2
_FILLED
 10
102.6638942308
 20
184.6883280527
 41
3.5
 42
3.5
 43
3.5
 50
180.0
  0
INSERT
  5
247
100
AcDbEntity
  8
0
100
AcDbBlockReference
 62
2
  6
CONTINUOUS
  2
_FILLED
 10
202.6638942308
 20
184.6883280527
 41
3.5
 42
3.5
 43
3.5
  0
ENDBLK
  5
248
100
AcDbEntity
  8
0
  6
BYBLOCK
 62
0
100
AcDbBlockEnd
  0
BLOCK
  5
249
100
AcDbEntity
  8
0
100
AcDbBlockBegin
 62
2
  6
CONTINUOUS
  2
*D3
 70
65
 10
0.0
 20
0.0
  3
*D3
  1

  0
MTEXT
  5
24A
100
AcDbEntity
  8
0
100
AcDbMText
 62
5
  6
CONTINUOUS
  7
TEXTSTYLE_2
 71
2
 72
1
 10
216.64451045
 20
139.8197457953
 30
0.0
 11
0.0
 21
1.0
 31
0.0
 44
0.9
  1
{\Fgdt;n}\Ftxt;20
 40
3.5
 41
10.1666666667
  0
LINE
  5
24B
100
AcDbEntity
  8
0
100
AcDbLine
 62
2
  6
CONTINUOUS
 10
207.8922817048
 20
129.8394957953
 11
222.51951045
 21
129.8394957953
  0
LINE
  5
24C
100
AcDbEntity
  8
0
100
AcDbLine
 62
2
  6
CONTINUOUS
 10
208.413266632
 20
149.7999957953
 11
222.51951045
 21
149.7999957953
  0
LINE
  5
24D
100
AcDbEntity
  8
0
100
AcDbLine
 62
2
  6
CONTINUOUS
 10
221.01951045
 20
129.8394957953
 11
221.01951045
 21
139.8197457953
  0
LINE
  5
24E
100
AcDbEntity
  8
0
100
AcDbLine
 62
2
  6
CONTINUOUS
 10
221.01951045
 20
149.7999957953
 11
221.01951045
 21
139.8197457953
  0
INSERT
  5
24F
100
AcDbEntity
  8
0
100
AcDbBlockReference
 62
2
  6
CONTINUOUS
  2
_FILLED
 10
221.01951045
 20
129.8394957953
 41
3.5
 42
3.5
 43
3.5
 50
270.0
  0
INSERT
  5
250
100
AcDbEntity
  8
0
100
AcDbBlockReference
 62
2
  6
CONTINUOUS
  2
_FILLED
 10
221.01951045
 20
149.7999957953
 41
3.5
 42
3.5
 43
3.5
 50
90.0
  0
ENDBLK
  5
251
100
AcDbEntity
  8
0
  6
BYBLOCK
 62
0
100
AcDbBlockEnd
  0
BLOCK
  5
252
100
AcDbEntity
  8
0
100
AcDbBlockBegin
 62
2
  6
CONTINUOUS
  2
*D4
 70
65
 10
0.0
 20
0.0
  3
*D4
  1

  0
MTEXT
  5
253
100
AcDbEntity
  8
0
100
AcDbMText
 62
5
  6
CONTINUOUS
  7
STANDARD
 71
2
 72
1
 10
163.6638942308
 20
182.2327956362
 30
0.0
 11
1.0
 21
0.0
 31
0.0
 44
0.9
  1
78
 40
3.5
 41
5.5
  0
LINE
  5
254
100
AcDbEntity
  8
0
100
AcDbLine
 62
2
  6
CONTINUOUS
 10
202.6638942308
 20
124.8447457953
 11
202.6638942308
 21
179.3577956362
  0
LINE
  5
255
100
AcDbEntity
  8
0
100
AcDbLine
 62
2
  6
CONTINUOUS
 10
124.6638942308
 20
164.5844909973
 11
124.6638942308
 21
179.3577956362
  0
LINE
  5
256
100
AcDbEntity
  8
0
100
AcDbLine
 62
2
  6
CONTINUOUS
 10
202.6638942308
 20
177.8577956362
 11
163.6638942308
 21
177.8577956362
  0
LINE
  5
257
100
AcDbEntity
  8
0
100
AcDbLine
 62
2
  6
CONTINUOUS
 10
124.6638942308
 20
177.8577956362
 11
163.6638942308
 21
177.8577956362
  0
INSERT
  5
258
100
AcDbEntity
  8
0
100
AcDbBlockReference
 62
2
  6
CONTINUOUS
  2
_FILLED
 10
202.6638942308
 20
177.8577956362
 41
3.5
 42
3.5
 43
3.5
  0
INSERT
  5
259
100
AcDbEntity
  8
0
100
AcDbBlockReference
 62
2
  6
CONTINUOUS
  2
_FILLED
 10
124.6638942308
 20
177.8577956362
 41
3.5
 42
3.5
 43
3.5
 50
180.0
  0
ENDBLK
  5
25A
100
AcDbEntity
  8
0
  6
BYBLOCK
 62
0
100
AcDbBlockEnd
  0
BLOCK
  5
25B
100
AcDbEntity
  8
0
100
AcDbBlockBegin
 62
2
  6
CONTINUOUS
  2
*D5
 70
65
 10
0.0
 20
0.0
  3
*D5
  1

  0
MTEXT
  5
25C
100
AcDbEntity
  8
0
100
AcDbMText
 62
5
  6
CONTINUOUS
  7
STANDARD
 71
2
 72
1
 10
133.6638942308
 20
197.2244997401
 30
0.0
 11
1.0
 21
0.0
 31
0.0
 44
0.9
  1
138
 40
3.5
 41
7.25
  0
LINE
  5
25D
100
AcDbEntity
  8
0
100
AcDbLine
 62
2
  6
CONTINUOUS
 10
202.6638942308
 20
124.8447457953
 11
202.6638942308
 21
194.3494997401
  0
LINE
  5
25E
100
AcDbEntity
  8
0
100
AcDbLine
 62
2
  6
CONTINUOUS
 10
64.6638942308
 20
121.133630026
 11
64.6638942308
 21
194.3494997401
  0
LINE
  5
25F
100
AcDbEntity
  8
0
100
AcDbLine
 62
2
  6
CONTINUOUS
 10
202.6638942308
 20
192.8494997401
 11
133.6638942308
 21
192.8494997401
  0
LINE
  5
260
100
AcDbEntity
  8
0
100
AcDbLine
 62
2
  6
CONTINUOUS
 10
64.6638942308
 20
192.8494997401
 11
133.6638942308
 21
192.8494997401
  0
INSERT
  5
261
100
AcDbEntity
  8
0
100
AcDbBlockReference
 62
2
  6
CONTINUOUS
  2
_FILLED
 10
202.6638942308
 20
192.8494997401
 41
3.5
 42
3.5
 43
3.5
  0
INSERT
  5
262
100
AcDbEntity
  8
0
100
AcDbBlockReference
 62
2
  6
CONTINUOUS
  2
_FILLED
 10
64.6638942308
 20
192.8494997401
 41
3.5
 42
3.5
 43
3.5
 50
180.0
  0
ENDBLK
  5
263
100
AcDbEntity
  8
0
  6
BYBLOCK
 62
0
100
AcDbBlockEnd
  0
BLOCK
  5
264
100
AcDbEntity
  8
0
100
AcDbBlockBegin
 62
2
  6
CONTINUOUS
  2
*D6
 70
65
 10
0.0
 20
0.0
  3
*D6
  1

  0
MTEXT
  5
265
100
AcDbEntity
  8
0
100
AcDbMText
 62
5
  6
CONTINUOUS
  7
TEXTSTYLE_2
 71
2
 72
1
 10
252.870184006
 20
139.8197457953
 30
0.0
 11
0.0
 21
1.0
 31
0.0
 44
0.9
  1
{\Fgdt;n}\Ftxt;42
 40
3.5
 41
10.1666666667
  0
LINE
  5
266
100
AcDbEntity
  8
0
100
AcDbLine
 62
2
  6
CONTINUOUS
 10
146.985972918
 20
160.7947457953
 11
189.5899583226
 21
160.7947457953
  0
LINE
  5
267
100
AcDbEntity
  8
0
100
AcDbLine
 62
2
  6
CONTINUOUS
 10
218.390054523
 20
160.7947457953
 11
258.745184006
 21
160.7947457953
  0
LINE
  5
268
100
AcDbEntity
  8
0
100
AcDbLine
 62
2
  6
CONTINUOUS
 10
146.985972918
 20
118.8447457953
 11
198.4142302224
 21
118.8447457953
  0
LINE
  5
269
100
AcDbEntity
  8
0
100
AcDbLine
 62
2
  6
CONTINUOUS
 10
209.9536627068
 20
118.8447457953
 11
258.745184006
 21
118.8447457953
  0
LINE
  5
26A
100
AcDbEntity
  8
0
100
AcDbLine
 62
2
  6
CONTINUOUS
 10
257.245184006
 20
160.7947457953
 11
257.245184006
 21
139.8197457953
  0
LINE
  5
26B
100
AcDbEntity
  8
0
100
AcDbLine
 62
2
  6
CONTINUOUS
 10
257.245184006
 20
118.8447457953
 11
257.245184006
 21
139.8197457953
  0
INSERT
  5
26C
100
AcDbEntity
  8
0
100
AcDbBlockReference
 62
2
  6
CONTINUOUS
  2
_FILLED
 10
257.245184006
 20
160.7947457953
 41
3.5
 42
3.5
 43
3.5
 50
90.0
  0
INSERT
  5
26D
100
AcDbEntity
  8
0
100
AcDbBlockReference
 62
2
  6
CONTINUOUS
  2
_FILLED
 10
257.245184006
 20
118.8447457953
 41
3.5
 42
3.5
 43
3.5
 50
270.0
  0
ENDBLK
  5
26E
100
AcDbEntity
  8
0
  6
BYBLOCK
 62
0
100
AcDbBlockEnd
  0
ENDSEC
  0
SECTION
  2
ENTITIES
  0
DIMENSION
  5
26F
100
AcDbEntity
  8
0
100
AcDbDimension
 62
2
  6
CONTINUOUS
  2
*D0
 10
243.5274984822
 20
123.3447457953
 11
241.9853430545
 21
137.6592538583
 70
160
 71
2
 42
32.95
  1
%%c<>
  3
DIMSTYLE_1
100
AcDbAlignedDimension
 13
206.3690251725
 23
156.2947457953
 14
204.1638942308
 24
123.3447457953
 50
270.0
100
AcDbRotatedDimension
  0
DIMENSION
  5
270
100
AcDbEntity
  8
0
100
AcDbDimension
 62
2
  6
CONTINUOUS
  2
*D1
 10
235.3768338862
 20
118.8447457953
 11
225.4476434291
 21
107.3497896005
 70
162
 71
2
 42
0.0785398163
  3
DIMSTYLE_2
100
AcDb2LineAngularDimension
 13
235.0997303614
 23
125.8975014611
 14
174.9866596959
 24
121.1665001973
 15
146.985972918
 25
118.8447457953
 16
233.8086877357
 26
122.3149547117
  0
DIMENSION
  5
271
100
AcDbEntity
  8
0
100
AcDbDimension
 62
2
  6
CONTINUOUS
  2
*D2
 10
202.6638942308
 20
184.6883280527
 11
148.9138942308
 21
187.3133280527
 70
160
 71
2
 42
100.0
  3
DIMSTYLE_3
100
AcDbAlignedDimension
 13
102.6638942308
 23
161.2859205041
 14
202.6638942308
 24
144.6203205041
100
AcDbRotatedDimension
  0
DIMENSION
  5
272
100
AcDbEntity
  8
0
100
AcDbDimension
 62
2
  6
CONTINUOUS
  2
*D3
 10
221.01951045
 20
149.7999957953
 11
219.5333642243
 21
137.5475042754
 70
160
 71
2
 42
19.9605
  1
%%c<>
  3
DIMSTYLE_4
100
AcDbAlignedDimension
 13
207.8922817048
 23
129.8394957953
 14
208.413266632
 24
149.7999957953
 50
90.0
100
AcDbRotatedDimension
  0
DIMENSION
  5
273
100
AcDbEntity
  8
0
100
AcDbDimension
 62
2
  6
CONTINUOUS
  2
*D4
 10
124.6638942308
 20
177.8577956362
 11
160.9138942308
 21
180.4827956362
 70
160
 71
2
 42
78.0
  3
DIMSTYLE_3
100
AcDbAlignedDimension
 13
202.6638942308
 23
124.8447457953
 14
124.6638942308
 24
164.5844909973
 50
180.0
100
AcDbRotatedDimension
  0
DIMENSION
  5
274
100
AcDbEntity
  8
0
100
AcDbDimension
 62
2
  6
CONTINUOUS
  2
*D5
 10
64.6638942308
 20
192.8494997401
 11
130.0388942308
 21
195.4744997401
 70
160
 71
2
 42
138.0
  3
DIMSTYLE_5
100
AcDbAlignedDimension
 13
202.6638942308
 23
124.8447457953
 14
64.6638942308
 24
121.133630026
 50
180.0
100
AcDbRotatedDimension
  0
DIMENSION
  5
275
100
AcDbEntity
  8
0
100
AcDbDimension
 62
2
  6
CONTINUOUS
  2
*D6
 10
257.245184006
 20
118.8447457953
 11
255.7590377803
 21
137.5475042754
 70
160
 71
2
 42
41.95
  1
%%c<>
  3
DIMSTYLE_1
100
AcDbAlignedDimension
 13
146.985972918
 23
160.7947457953
 14
146.985972918
 24
118.8447457953
 50
270.0
100
AcDbRotatedDimension
  0
MTEXT
  5
276
100
AcDbEntity
  8
0
100
AcDbMText
 62
5
  6
CONTINUOUS
  7
STANDARD
 71
1
 72
1
 10
25.2870647089
 20
86.9525727651
 30
0.0
 11
1.0
 21
0.0
 31
0.0
 44
0.9
  3
Für diese Unterlage behalten wir das Ur-\Pheberrecht. Sie darf nur für den von uns \Pbestimmten Zweck benutzt und ohne unsere \PZustimmung weder vervielfältigt noch\PDritten zugänglich gemacht werden\P \PWe own the copyright of this document. It \Pde
  1
termined and may neither be copied or \Pmade accessible to outsiders without our\Ppermission.\P \PCe plan reste notre propriété. Il ne peut\Pêtre utilisé, copié ou reproduit sans notre\Paccord.\P 
 40
3.5
 41
104.8333333333
  0
LINE
  5
277
100
AcDbEntity
  8
0
100
AcDbLine
 62
7
  6
CONTINUOUS
 10
0.0
 20
0.0
 11
0.0
 21
210.0
  0
LINE
  5
278
100
AcDbEntity
  8
0
100
AcDbLine
 62
7
  6
CONTINUOUS
 10
0.0
 20
0.0
 11
297.0
 21
0.0
  0
LINE
  5
279
100
AcDbEntity
  8
0
100
AcDbLine
 62
7
  6
CONTINUOUS
 10
0.0
 20
210.0
 11
297.0
 21
210.0
  0
LINE
  5
27A
100
AcDbEntity
  8
0
100
AcDbLine
 62
7
  6
CONTINUOUS
 10
297.0
 20
0.0
 11
297.0
 21
210.0
  0
LINE
  5
27B
100
AcDbEntity
  8
0
100
AcDbLine
 62
7
  6
CONTINUOUS
 10
64.6638942308
 20
118.1274078025
 11
64.6638942308
 21
154.7809904341
  0
LINE
  5
27C
100
AcDbEntity
  8
KURVEN
100
AcDbLine
 62
4
  6
CONTINUOUS
 10
64.6638942308
 20
117.2990676197
 11
64.6638942308
 21
159.0313197823
  0
LINE
  5
27D
100
AcDbEntity
  8
ACHSEN
100
AcDbLine
 62
7
  6
CONTINUOUS
 10
64.6638942308
 20
154.7809904341
 11
64.6638942308
 21
158.5682251093
  0
LINE
  5
27E
100
AcDbEntity
  8
ACHSEN
100
AcDbLine
 62
7
  6
CONTINUOUS
 10
66.1638942308
 20
159.3167354089
 11
66.1638942308
 21
155.5309904341
  0
LINE
  5
27F
100
AcDbEntity
  8
0
100
AcDbLine
 62
7
  6
CONTINUOUS
 10
66.1638942308
 20
155.5309904341
 11
66.1638942308
 21
117.2613823987
  0
LINE
  5
280
100
AcDbEntity
  8
ACHSEN
100
AcDbLine
 62
7
  6
CENTER
 10
87.1638942308
 20
116.8862602883
 11
87.1638942308
 21
164.0081163599
  0
LINE
  5
281
100
AcDbEntity
  8
0
100
AcDbLine
 62
7
  6
CONTINUOUS
 10
102.6638960667
 20
171.019743888
 11
102.9638961566
 21
171.3197439419
  0
LINE
  5
282
100
AcDbEntity
  8
0
100
AcDbLine
 62
9
  6
CONTINUOUS
 10
66.1638942308
 20
155.5309904341
 11
64.6638942308
 21
154.7809904341
  0
LINE
  5
283
100
AcDbEntity
  8
0
100
AcDbLine
 62
7
  6
CONTINUOUS
 10
66.1638942308
 20
117.2613823987
 11
64.6638942308
 21
118.1274078025
  0
LINE
  5
284
100
AcDbEntity
  8
0
100
AcDbLine
 62
9
  6
CONTINUOUS
 10
66.1638942308
 20
118.883630026
 11
64.6638942308
 21
119.633630026
  0
LINE
  5
285
100
AcDbEntity
  8
0
100
AcDbLine
 62
7
  6
CONTINUOUS
 10
102.6638960667
 20
108.6197477027
 11
102.9638961566
 21
108.3197476488
  0
LINE
  5
286
100
AcDbEntity
  8
0
100
AcDbLine
 62
7
  6
CONTINUOUS
 10
100.4639573198
 20
160.4398461649
 11
100.4639573198
 21
156.277276544
  0
LINE
  5
287
100
AcDbEntity
  8
0
100
AcDbLine
 62
7
  6
CONTINUOUS
 10
100.4639573198
 20
145.0446169259
 11
100.4639573198
 21
118.1373439161
  0
LINE
  5
288
100
AcDbEntity
  8
0
100
AcDbLine
 62
9
  6
CONTINUOUS
 10
100.6689173419
 20
160.2449323651
 11
100.6689173419
 21
154.5046880001
  0
LINE
  5
289
100
AcDbEntity
  8
0
100
AcDbLine
 62
9
  6
CONTINUOUS
 10
100.6689173419
 20
148.0056889821
 11
100.6689173419
 21
116.9488604038
  0
LINE
  5
28A
100
AcDbEntity
  8
0
100
AcDbLine
 62
9
  6
CONTINUOUS
 10
101.3567874496
 20
117.0768525765
 11
101.3567874496
 21
117.7161891444
  0
LINE
  5
28B
100
AcDbEntity
  8
0
100
AcDbLine
 62
9
  6
CONTINUOUS
 10
101.3567874496
 20
146.2342855561
 11
101.3567874496
 21
155.5087626855
  0
LINE
  5
28C
100
AcDbEntity
  8
0
100
AcDbLine
 62
9
  6
CONTINUOUS
 10
102.2689173419
 20
160.2851299342
 11
102.2689173419
 21
156.1642240823
  0
LINE
  5
28D
100
AcDbEntity
  8
0
100
AcDbLine
 62
9
  6
CONTINUOUS
 10
102.2689173419
 20
145.0026962485
 11
102.2689173419
 21
118.2923170552
  0
LINE
  5
28E
100
AcDbEntity
  8
0
100
AcDbLine
 62
7
  6
CONTINUOUS
 10
102.4638942308
 20
118.4203307787
 11
102.4637982644
 21
144.4449710094
  0
LINE
  5
28F
100
AcDbEntity
  8
0
100
AcDbLine
 62
7
  6
CONTINUOUS
 10
102.6638942308
 20
108.6200214649
 11
102.6638942308
 21
171.0194701258
  0
LINE
  5
290
100
AcDbEntity
  8
0
100
AcDbLine
 62
7
  6
CONTINUOUS
 10
102.9638943043
 20
108.3197457953
 11
102.9638943043
 21
171.3197457953
  0
LINE
  5
291
100
AcDbEntity
  8
0
100
AcDbLine
 62
7
  6
CONTINUOUS
 10
102.463829379
 20
156.6093203811
 11
102.4638942308
 21
162.3532306564
  0
LINE
  5
292
100
AcDbEntity
  8
0
100
AcDbLine
 62
7
  6
CONTINUOUS
 10
102.463829379
 20
118.4095777039
 11
102.4638942308
 21
118.4263593382
  0
LINE
  5
293
100
AcDbEntity
  8
0
100
AcDbLine
 62
7
  6
CONTINUOUS
 10
124.6638942308
 20
108.3197457953
 11
102.9638943032
 21
108.3197457953
  0
LINE
  5
294
100
AcDbEntity
  8
0
100
AcDbLine
 62
7
  6
CONTINUOUS
 10
116.1252190962
 20
109.739153035
 11
113.2025693654
 21
109.739153035
  0
LINE
  5
295
100
AcDbEntity
  8
0
100
AcDbLine
 62
9
  6
CONTINUOUS
 10
112.7695566635
 20
169.7337006418
 11
112.7695566635
 21
149.6891584143
  0
LINE
  5
296
100
AcDbEntity
  8
0
100
AcDbLine
 62
9
  6
CONTINUOUS
 10
112.7695566635
 20
129.9503331764
 11
112.7695566635
 21
109.9057909489
  0
LINE
  5
297
100
AcDbEntity
  8
0
100
AcDbLine
 62
9
  6
CONTINUOUS
 10
113.2025693654
 20
169.9003385557
 11
113.2025693654
 21
149.1689671099
  0
LINE
  5
298
100
AcDbEntity
  8
0
100
AcDbLine
 62
9
  6
CONTINUOUS
 10
113.2025693654
 20
130.4705244808
 11
113.2025693654
 21
109.739153035
  0
LINE
  5
299
100
AcDbEntity
  8
ACHSEN
100
AcDbLine
 62
7
  6
CENTER
 10
114.6638942308
 20
167.1180245573
 11
114.6638942308
 21
174.3197457953
  0
LINE
  5
29A
100
AcDbEntity
  8
0
100
AcDbLine
 62
9
  6
CONTINUOUS
 10
116.1252190962
 20
169.9003385557
 11
116.1252190962
 21
149.1689671099
  0
LINE
  5
29B
100
AcDbEntity
  8
0
100
AcDbLine
 62
9
  6
CONTINUOUS
 10
116.1252190962
 20
130.4705244808
 11
116.1252190962
 21
109.739153035
  0
LINE
  5
29C
100
AcDbEntity
  8
0
100
AcDbLine
 62
9
  6
CONTINUOUS
 10
116.5582317981
 20
169.7337006418
 11
116.5582317981
 21
149.6891584143
  0
LINE
  5
29D
100
AcDbEntity
  8
0
100
AcDbLine
 62
9
  6
CONTINUOUS
 10
116.5582317981
 20
129.9503331764
 11
116.5582317981
 21
109.9057909489
  0
LINE
  5
29E
100
AcDbEntity
  8
0
100
AcDbLine
 62
7
  6
CONTINUOUS
 10
141.5799196346
 20
160.6019254723
 11
141.9138942308
 21
160.7947457953
  0
LINE
  5
29F
100
AcDbEntity
  8
RUNDUNGEN
100
AcDbLine
 62
7
  6
CONTINUOUS
 10
141.5799196346
 20
160.6019254723
 11
141.9138942308
 21
160.7947457953
  0
LINE
  5
2A0
100
AcDbEntity
  8
RUNDUNGEN
100
AcDbLine
 62
7
  6
CONTINUOUS
 10
201.7423533265
 20
123.2722189533
 11
145.485972918
 21
118.8447457953
  0
LINE
  5
2A1
100
AcDbEntity
  8
0
100
AcDbLine
 62
7
  6
CONTINUOUS
 10
145.485972918
 20
118.8447457953
 11
201.7423533265
 21
123.2722189533
  0
LINE
  5
2A2
100
AcDbEntity
  8
0
100
AcDbLine
 62
9
  6
CONTINUOUS
 10
100.4639573198
 20
118.1373439161
 11
66.1638942308
 21
118.883630026
  0
LINE
  5
2A3
100
AcDbEntity
  8
0
100
AcDbLine
 62
7
  6
CONTINUOUS
 10
100.9169229816
 20
116.94301692
 11
100.6689173419
 21
116.9488604038
  0
LINE
  5
2A4
100
AcDbEntity
  8
0
100
AcDbLine
 62
7
  6
CONTINUOUS
 10
66.1638942308
 20
117.2613823987
 11
100.6742970536
 21
116.3943609595
  0
LINE
  5
2A5
100
AcDbEntity
  8
0
100
AcDbLine
 62
7
  6
CONTINUOUS
 10
101.3567874496
 20
117.0768525765
 11
100.6742970533
 21
116.3943621803
  0
LINE
  5
2A6
100
AcDbEntity
  8
0
100
AcDbLine
 62
7
  6
CONTINUOUS
 10
145.485972918
 20
118.8447457953
 11
141.9138942308
 21
118.8447457953
  0
LINE
  5
2A7
100
AcDbEntity
  8
0
100
AcDbLine
 62
7
  6
CONTINUOUS
 10
133.4138942308
 20
118.8447457953
 11
129.1638942308
 21
118.8447457953
  0
LINE
  5
2A8
100
AcDbEntity
  8
0
100
AcDbLine
 62
7
  6
CONTINUOUS
 10
134.147868827
 20
119.1447457953
 11
135.1638942308
 21
119.1447457953
  0
LINE
  5
2A9
100
AcDbEntity
  8
0
100
AcDbLine
 62
7
  6
CONTINUOUS
 10
140.1638942308
 20
119.1447457953
 11
141.1799196346
 21
119.1447457953
  0
LINE
  5
2AA
100
AcDbEntity
  8
0
100
AcDbLine
 62
7
  6
CONTINUOUS
 10
124.6638942308
 20
108.3197457953
 11
124.6638942308
 21
171.3197457953
  0
LINE
  5
2AB
100
AcDbEntity
  8
RUNDUNGEN
100
AcDbLine
 62
9
  6
CONTINUOUS
 10
129.1638942308
 20
160.7947457953
 11
129.1638942308
 21
118.8447457953
  0
LINE
  5
2AC
100
AcDbEntity
  8
DEFAULT_2
100
AcDbLine
 62
8
  6
HIDDEN
 10
150.2136591143
 20
129.4894957953
 11
160.2786849496
 21
129.4894957953
  0
LINE
  5
2AD
100
AcDbEntity
  8
0
100
AcDbLine
 62
7
  6
CONTINUOUS
 10
141.5799196346
 20
119.0375661184
 11
141.9138942308
 21
118.8447457953
  0
LINE
  5
2AE
100
AcDbEntity
  8
RUNDUNGEN
100
AcDbLine
 62
7
  6
CONTINUOUS
 10
141.5799196346
 20
119.0375661184
 11
141.9138942308
 21
118.8447457953
  0
LINE
  5
2AF
100
AcDbEntity
  8
0
100
AcDbLine
 62
7
  6
CONTINUOUS
 10
133.4138942308
 20
160.7947457953
 11
133.4138942308
 21
118.8447457953
  0
LINE
  5
2B0
100
AcDbEntity
  8
RUNDUNGEN
100
AcDbLine
 62
9
  6
CONTINUOUS
 10
133.747868827
 20
119.0375661184
 11
133.747868827
 21
160.6019254723
  0
LINE
  5
2B1
100
AcDbEntity
  8
RUNDUNGEN
100
AcDbLine
 62
9
  6
CONTINUOUS
 10
134.147868827
 20
119.1447457953
 11
134.147868827
 21
160.4947457953
  0
LINE
  5
2B2
100
AcDbEntity
  8
BOHRUNGEN
100
AcDbLine
 62
8
  6
HIDDEN
 10
161.6638942308
 20
129.8394957953
 11
200.3638942308
 21
129.8394957953
  0
LINE
  5
2B3
100
AcDbEntity
  8
0
100
AcDbLine
 62
7
  6
CONTINUOUS
 10
116.1252190962
 20
130.4705244808
 11
113.2025693654
 21
130.4705244808
  0
LINE
  5
2B4
100
AcDbEntity
  8
BEZUGSACHSEN
100
AcDbLine
 62
7
  6
CENTER
 10
137.6638942308
 20
163.4947457953
 11
137.6638942308
 21
149.7947457953
  0
LINE
  5
2B5
100
AcDbEntity
  8
BEZUGSACHSEN
100
AcDbLine
 62
7
  6
CENTER
 10
137.6638942308
 20
116.1447457953
 11
137.6638942308
 21
129.8447457953
  0
LINE
  5
2B6
100
AcDbEntity
  8
S_ACHSEN
100
AcDbLine
 62
7
  6
CENTER
 10
61.6638942308
 20
139.8197457953
 11
206.6638942308
 21
139.8197457953
  0
LINE
  5
2B7
100
AcDbEntity
  8
RUNDUNGEN
100
AcDbLine
 62
9
  6
CONTINUOUS
 10
141.1799196346
 20
119.1447457953
 11
141.1799196346
 21
160.4947457953
  0
LINE
  5
2B8
100
AcDbEntity
  8
RUNDUNGEN
100
AcDbLine
 62
9
  6
CONTINUOUS
 10
141.5799196346
 20
119.0375661184
 11
141.5799196346
 21
160.6019254723
  0
LINE
  5
2B9
100
AcDbEntity
  8
0
100
AcDbLine
 62
7
  6
CONTINUOUS
 10
141.9138942308
 20
160.7947457953
 11
141.9138942308
 21
118.8447457953
  0
LINE
  5
2BA
100
AcDbEntity
  8
0
100
AcDbLine
 62
7
  6
CONTINUOUS
 10
145.485972918
 20
118.8447457953
 11
145.485972918
 21
160.7947457953
  0
LINE
  5
2BB
100
AcDbEntity
  8
0
100
AcDbLine
 62
9
  6
CONTINUOUS
 10
64.6638942308
 20
145.0446169259
 11
100.4639573198
 21
145.0446169259
  0
LINE
  5
2BC
100
AcDbEntity
  8
RUNDUNGEN
100
AcDbLine
 62
9
  6
CONTINUOUS
 10
150.2136591143
 20
129.4894957953
 11
150.2136591143
 21
150.1499957953
  0
LINE
  5
2BD
100
AcDbEntity
  8
0
100
AcDbLine
 62
7
  6
CONTINUOUS
 10
133.4138942308
 20
118.8447457953
 11
133.747868827
 21
119.0375661184
  0
LINE
  5
2BE
100
AcDbEntity
  8
RUNDUNGEN
100
AcDbLine
 62
7
  6
CONTINUOUS
 10
133.4138942308
 20
118.8447457953
 11
133.747868827
 21
119.0375661184
  0
LINE
  5
2BF
100
AcDbEntity
  8
0
100
AcDbLine
 62
7
  6
CONTINUOUS
 10
100.6689173419
 20
148.0056889821
 11
100.9169229816
 21
148.006703238
  0
LINE
  5
2C0
100
AcDbEntity
  8
0
100
AcDbLine
 62
7
  6
CONTINUOUS
 10
116.1252190962
 20
149.1689671099
 11
113.2025693654
 21
149.1689671099
  0
LINE
  5
2C1
100
AcDbEntity
  8
BOHRUNGEN
100
AcDbLine
 62
8
  6
HIDDEN
 10
161.6638942308
 20
149.7999957953
 11
200.3638942308
 21
149.7999957953
  0
LINE
  5
2C2
100
AcDbEntity
  8
RUNDUNGEN
100
AcDbLine
 62
8
  6
HIDDEN
 10
160.2786849496
 20
150.1499957953
 11
150.2136591143
 21
150.1499957953
  0
LINE
  5
2C3
100
AcDbEntity
  8
DEFAULT_2
100
AcDbLine
 62
8
  6
HIDDEN
 10
150.2136591143
 20
150.1499957953
 11
160.2786849496
 21
150.1499957953
  0
LINE
  5
2C4
100
AcDbEntity
  8
0
100
AcDbLine
 62
9
  6
CONTINUOUS
 10
66.1638942308
 20
155.5309904341
 11
100.4639573198
 21
156.277276544
  0
LINE
  5
2C5
100
AcDbEntity
  8
0
100
AcDbLine
 62
7
  6
CONTINUOUS
 10
100.9169229816
 20
154.509517228
 11
100.6689173419
 21
154.5046880001
  0
LINE
  5
2C6
100
AcDbEntity
  8
0
100
AcDbLine
 62
7
  6
CONTINUOUS
 10
133.4138942308
 20
160.7947457953
 11
133.747868827
 21
160.6019254723
  0
LINE
  5
2C7
100
AcDbEntity
  8
RUNDUNGEN
100
AcDbLine
 62
7
  6
CONTINUOUS
 10
133.4138942308
 20
160.7947457953
 11
133.747868827
 21
160.6019254723
  0
LINE
  5
2C8
100
AcDbEntity
  8
0
100
AcDbLine
 62
7
  6
CONTINUOUS
 10
100.6689173419
 20
160.2449323651
 11
102.2689173419
 21
160.2851299342
  0
LINE
  5
2C9
100
AcDbEntity
  8
0
100
AcDbLine
 62
7
  6
CONTINUOUS
 10
72.9274989849
 20
159.7480344855
 11
82.7138942308
 21
159.9939027975
  0
LINE
  5
2CA
100
AcDbEntity
  8
0
100
AcDbLine
 62
7
  6
CONTINUOUS
 10
91.843255564
 20
160.2232641308
 11
100.4639573198
 21
160.4398461649
  0
LINE
  5
2CB
100
AcDbEntity
  8
0
100
AcDbLine
 62
7
  6
CONTINUOUS
 10
134.147868827
 20
160.4947457953
 11
135.1638942308
 21
160.4947457953
  0
LINE
  5
2CC
100
AcDbEntity
  8
BEZUGSACHSEN
100
AcDbLine
 62
7
  6
CONTINUOUS
 10
134.147868827
 20
160.4947457953
 11
135.1638942308
 21
160.4947457953
  0
LINE
  5
2CD
100
AcDbEntity
  8
BEZUGSACHSEN
100
AcDbLine
 62
7
  6
CONTINUOUS
 10
140.1638942308
 20
160.4947457953
 11
141.1799196346
 21
160.4947457953
  0
LINE
  5
2CE
100
AcDbEntity
  8
0
100
AcDbLine
 62
7
  6
CONTINUOUS
 10
145.485972918
 20
160.7947457953
 11
141.9138942308
 21
160.7947457953
  0
LINE
  5
2CF
100
AcDbEntity
  8
0
100
AcDbLine
 62
7
  6
CONTINUOUS
 10
129.1638942308
 20
160.7947457953
 11
133.4138942308
 21
160.7947457953
  0
LINE
  5
2D0
100
AcDbEntity
  8
RUNDUNGEN
100
AcDbLine
 62
7
  6
CONTINUOUS
 10
201.7423533265
 20
156.3672726374
 11
145.485972918
 21
160.7947457953
  0
LINE
  5
2D1
100
AcDbEntity
  8
0
100
AcDbLine
 62
7
  6
CONTINUOUS
 10
145.485972918
 20
160.7947457953
 11
201.7423533265
 21
156.3672726374
  0
LINE
  5
2D2
100
AcDbEntity
  8
0
100
AcDbLine
 62
7
  6
CONTINUOUS
 10
116.1252190962
 20
169.9003385557
 11
113.2025693654
 21
169.9003385557
  0
LINE
  5
2D3
100
AcDbEntity
  8
0
100
AcDbLine
 62
7
  6
CONTINUOUS
 10
124.6638942308
 20
171.3197457953
 11
119.8856549327
 21
171.3197457953
  0
LINE
  5
2D4
100
AcDbEntity
  8
0
100
AcDbLine
 62
7
  6
CONTINUOUS
 10
109.4421330437
 20
171.3197457953
 11
102.9638943032
 21
171.3197457953
  0
LINE
  5
2D5
100
AcDbEntity
  8
RUNDUNGEN
100
AcDbLine
 62
9
  6
CONTINUOUS
 10
201.7423533265
 20
123.2722189533
 11
201.7423533265
 21
156.3672726374
  0
LINE
  5
2D6
100
AcDbEntity
  8
RUNDUNGEN
100
AcDbLine
 62
7
  6
CONTINUOUS
 10
202.6638942308
 20
124.269136287
 11
202.6638942308
 21
155.3703553037
  0
ARC
  5
2D7
100
AcDbEntity
  8
0
100
AcDbCircle
 62
7
  6
CONTINUOUS
 10
-6.0881169649
 20
120.510256966
 40
110.4813700654
100
AcDbArc
 50
13.4640903998
 51
14.4111621352
  0
ARC
  5
2D8
100
AcDbEntity
  8
0
100
AcDbCircle
 62
7
  6
CONTINUOUS
 10
102.0638942308
 20
116.3697457953
 40
1.0
100
AcDbArc
 50
53.0400606802
 51
135.0
  0
ARC
  5
2D9
100
AcDbEntity
  8
0
100
AcDbCircle
 62
7
  6
CONTINUOUS
 10
102.0638942308
 20
163.2697457953
 40
1.0
100
AcDbArc
 50
293.5781784782
 51
306.9599393198
  0
ARC
  5
2DA
100
AcDbEntity
  8
0
100
AcDbCircle
 62
7
  6
CONTINUOUS
 10
102.2638942308
 20
160.4850668452
 40
0.2
100
AcDbArc
 50
271.439166666
 51
360.0
  0
ARC
  5
2DB
100
AcDbEntity
  8
0
100
AcDbCircle
 62
7
  6
CONTINUOUS
 10
100.6638942308
 20
160.444869276
 40
0.2
100
AcDbArc
 50
181.439166666
 51
271.439166666
  0
ARC
  5
2DC
100
AcDbEntity
  8
ACHSEN
100
AcDbCircle
 62
7
  6
CONTINUOUS
 10
0.9056772529
 20
288.2156853478
 40
144.4768984249
100
AcDbArc
 50
296.187103939
 51
296.8519184685
  0
ARC
  5
2DD
100
AcDbEntity
  8
FASEN
100
AcDbCircle
 62
7
  6
CONTINUOUS
 10
114.9521937817
 20
204.1406433052
 40
33.2803296427
100
AcDbArc
 50
260.5371419897
 51
261.5260699511
  0
ARC
  5
2DE
100
AcDbEntity
  8
FASEN
100
AcDbCircle
 62
7
  6
CONTINUOUS
 10
114.3749047451
 20
204.1391923683
 40
33.2790000507
100
AcDbArc
 50
278.4788021285
 51
278.9330655273
  0
ARC
  5
2DF
100
AcDbEntity
  8
FASEN
100
AcDbCircle
 62
7
  6
CONTINUOUS
 10
114.624521674
 20
202.4146288276
 40
31.5364816332
100
AcDbArc
 50
270.0715324539
 51
278.4922227823
  0
ARC
  5
2E0
100
AcDbEntity
  8
FASEN
100
AcDbCircle
 62
7
  6
CONTINUOUS
 10
114.6767450521
 20
202.059870834
 40
31.1817017098
100
AcDbArc
 50
261.4632654014
 51
269.9763868614
  0
ARC
  5
2E1
100
AcDbEntity
  8
0
100
AcDbCircle
 62
7
  6
CONTINUOUS
 10
246.8980670076
 20
90.8455479231
 40
159.2595221605
100
AcDbArc
 50
156.0446773748
 51
156.4374589831
  0
ARC
  5
2E2
100
AcDbEntity
  8
BEZUGSACHSEN
100
AcDbCircle
 62
7
  6
CONTINUOUS
 10
137.644004386
 20
181.3134622227
 40
20.97066519
100
AcDbArc
 50
270.9427333891
 51
276.9014873044
  0
ARC
  5
2E3
100
AcDbEntity
  8
BEZUGSACHSEN
100
AcDbCircle
 62
7
  6
CONTINUOUS
 10
137.6837810163
 20
98.3260814364
 40
20.9706131313
100
AcDbArc
 50
90.9430983024
 51
96.9014961009
  0
ARC
  5
2E4
100
AcDbEntity
  8
BEZUGSACHSEN
100
AcDbCircle
 62
7
  6
CONTINUOUS
 10
137.6553737343
 20
98.491851334
 40
20.8046803559
100
AcDbArc
 50
83.0747220322
 51
89.0801916411
  0
ARC
  5
2E5
100
AcDbEntity
  8
BEZUGSACHSEN
100
AcDbCircle
 62
7
  6
CONTINUOUS
 10
137.6724127118
 20
181.1476105494
 40
20.8046506224
100
AcDbArc
 50
263.0747176776
 51
269.0805292192
  0
ARC
  5
2E6
100
AcDbEntity
  8
BEZUGSACHSEN
100
AcDbCircle
 62
7
  6
CONTINUOUS
 10
137.6650938144
 20
98.7768167019
 40
20.5196344369
100
AcDbArc
 50
89.0878457363
 51
90.9116413911
  0
ARC
  5
2E7
100
AcDbEntity
  8
BEZUGSACHSEN
100
AcDbCircle
 62
7
  6
CONTINUOUS
 10
137.662696065
 20
180.8626679874
 40
20.5196275354
100
AcDbArc
 50
269.0881868259
 51
270.9112586569
  0
ARC
  5
2E8
100
AcDbEntity
  8
RUNDUNGEN
100
AcDbCircle
 62
7
  6
CONTINUOUS
 10
129.1638942308
 20
165.2947457953
 40
4.5
100
AcDbArc
 50
180.0
 51
270.0
  0
ARC
  5
2E9
100
AcDbEntity
  8
RUNDUNGEN
100
AcDbCircle
 62
7
  6
CONTINUOUS
 10
129.1638942308
 20
114.3447457953
 40
4.5
100
AcDbArc
 50
90.0
 51
179.9999999999
  0
ARC
  5
2EA
100
AcDbEntity
  8
0
100
AcDbCircle
 62
2
  6
CONTINUOUS
 10
137.6652046842
 20
139.8289301823
 40
3.0091846723
100
AcDbArc
 50
255.055101456
 51
269.9750485728
  0
ARC
  5
2EB
100
AcDbEntity
  8
0
100
AcDbCircle
 62
2
  6
CONTINUOUS
 10
137.6635152004
 20
139.8202245275
 40
2.9994564855
100
AcDbArc
 50
270.0
 51
195.0107792154
  0
CIRCLE
  5
2EC
100
AcDbEntity
  8
BEZUGSACHSEN
100
AcDbCircle
 62
7
  6
CONTINUOUS
 10
137.6638942308
 20
139.8197457953
 40
2.5
  0
ARC
  5
2ED
100
AcDbEntity
  8
RUNDUNGEN
100
AcDbCircle
 62
7
  6
CONTINUOUS
 10
201.6638942308
 20
124.269136287
 40
1.0
100
AcDbArc
 50
274.5
 51
360.0
  0
ARC
  5
2EE
100
AcDbEntity
  8
RUNDUNGEN
100
AcDbCircle
 62
7
  6
CONTINUOUS
 10
201.6638942308
 20
155.3703553037
 40
1.0
100
AcDbArc
 50
0.0
 51
85.5
  0
ARC
  5
2EF
100
AcDbEntity
  8
RUNDUNGEN
100
AcDbCircle
 62
7
  6
CONTINUOUS
 10
141.1799196346
 20
161.2947457953
 40
0.8
100
AcDbArc
 50
270.0
 51
300.0000000044
  0
ARC
  5
2F0
100
AcDbEntity
  8
RUNDUNGEN
100
AcDbCircle
 62
7
  6
CONTINUOUS
 10
141.1799196346
 20
118.3447457953
 40
0.8
100
AcDbArc
 50
59.9999999949
 51
90.0
  0
ARC
  5
2F1
100
AcDbEntity
  8
RUNDUNGEN
100
AcDbCircle
 62
7
  6
CONTINUOUS
 10
134.147868827
 20
161.2947457953
 40
0.8
100
AcDbArc
 50
239.9999999955
 51
270.0
  0
ARC
  5
2F2
100
AcDbEntity
  8
RUNDUNGEN
100
AcDbCircle
 62
7
  6
CONTINUOUS
 10
134.147868827
 20
118.3447457953
 40
0.8
100
AcDbArc
 50
90.0
 51
120.000000005
  0
SPLINE
  5
2F3
100
AcDbEntity
  8
0
100
AcDbSpline
 62
2
  6
CONTINUOUS
 70
0
 71
3
 72
13
 73
9
 74
0
 42
0.0000001
 43
0.0000001
 44
0.0000000001
 40
0.0
 40
0.0
 40
0.0
 40
0.0
 40
0.1666666667
 40
0.3333333333
 40
0.5
 40
0.6666666667
 40
0.8333333333
 40
1.0
 40
1.0
 40
1.0
 40
1.0
 10
140.6638942308
 20
119.1447457953
 30
0.0
 10
140.6638942308
 20
119.1447457953
 30
0.0
 10
140.5950249214
 20
119.1549372055
 30
0.0
 10
140.2839711248
 20
119.1976571295
 30
0.0
 10
139.8062427666
 20
119.2541845809
 30
0.0
 10
139.172906594
 20
119.3118024916
 30
0.0
 10
138.4452468211
 20
119.3533583958
 30
0.0
 10
137.9241545629
 20
119.3635578562
 30
0.0
 10
137.6638942308
 20
119.3635578562
 30
0.0
  0
SPLINE
  5
2F4
100
AcDbEntity
  8
0
100
AcDbSpline
 62
2
  6
CONTINUOUS
 70
0
 71
3
 72
13
 73
9
 74
0
 42
0.0000001
 43
0.0000001
 44
0.0000000001
 40
0.0
 40
0.0
 40
0.0
 40
0.0
 40
0.1666666667
 40
0.3333333333
 40
0.5
 40
0.6666666667
 40
0.8333333333
 40
1.0
 40
1.0
 40
1.0
 40
1.0
 10
137.6638942308
 20
119.3635578562
 30
0.0
 10
137.4037219522
 20
119.3635578562
 30
0.0
 10
136.8827819267
 20
119.353364445
 30
0.0
 10
136.1553099336
 20
119.3118341762
 30
0.0
 10
135.5218744621
 20
119.2542178653
 30
0.0
 10
135.0443832415
 20
119.1977299126
 30
0.0
 10
134.7327356573
 20
119.1549351691
 30
0.0
 10
134.6638942308
 20
119.1447457953
 30
0.0
 10
134.6638942308
 20
119.1447457953
 30
0.0
  0
SPLINE
  5
2F5
100
AcDbEntity
  8
0
100
AcDbSpline
 62
2
  6
CONTINUOUS
 70
0
 71
3
 72
13
 73
9
 74
0
 42
0.0000001
 43
0.0000001
 44
0.0000000001
 40
0.0
 40
0.0
 40
0.0
 40
0.0
 40
0.1666666667
 40
0.3333333333
 40
0.5
 40
0.6666666667
 40
0.8333333333
 40
1.0
 40
1.0
 40
1.0
 40
1.0
 10
137.6638942308
 20
160.2759337344
 30
0.0
 10
137.9243193469
 20
160.2759337344
 30
0.0
 10
138.4458196109
 20
160.2861341847
 30
0.0
 10
139.1752780734
 20
160.327860162
 30
0.0
 10
139.8076361816
 20
160.3854560791
 30
0.0
 10
140.2861020449
 20
160.4421044706
 30
0.0
 10
140.5957067961
 20
160.4846582163
 30
0.0
 10
140.6638942308
 20
160.4947457953
 30
0.0
 10
140.6638942308
 20
160.4947457953
 30
0.0
  0
SPLINE
  5
2F6
100
AcDbEntity
  8
0
100
AcDbSpline
 62
2
  6
CONTINUOUS
 70
0
 71
3
 72
13
 73
9
 74
0
 42
0.0000001
 43
0.0000001
 44
0.0000000001
 40
0.0
 40
0.0
 40
0.0
 40
0.0
 40
0.1666666667
 40
0.3333333333
 40
0.5
 40
0.6666666667
 40
0.8333333333
 40
1.0
 40
1.0
 40
1.0
 40
1.0
 10
134.6638942308
 20
160.4947457953
 30
0.0
 10
134.6638942308
 20
160.4947457953
 30
0.0
 10
134.7321239138
 20
160.4846541306
 30
0.0
 10
135.041146416
 20
160.4421737611
 30
0.0
 10
135.5198920713
 20
160.3854821809
 30
0.0
 10
136.1521288919
 20
160.3278885846
 30
0.0
 10
136.8817787179
 20
160.2861384792
 30
0.0
 10
137.4034001448
 20
160.2759337344
 30
0.0
 10
137.6638942308
 20
160.2759337344
 30
0.0
  0
LINE
  5
2F7
100
AcDbEntity
  8
FASEN
100
AcDbLine
 62
7
  6
CONTINUOUS
 10
109.4806343045
 20
171.3131795284
 11
109.4414532495
 21
171.3197102265
  0
LINE
  5
2F8
100
AcDbEntity
  8
FASEN
100
AcDbLine
 62
7
  6
CONTINUOUS
 10
119.8471547482
 20
171.3131796396
 11
119.886335118
 21
171.3197102235
  0
LINE
  5
2F9
100
AcDbEntity
  8
ACHSEN
100
AcDbLine
 62
7
  6
CONTINUOUS
 10
71.0138942308
 20
159.423797094
 11
66.1638942308
 21
159.3167354089
  0
LINE
  5
2FA
100
AcDbEntity
  8
ACHSEN
100
AcDbLine
 62
7
  6
CONTINUOUS
 10
72.9275135787
 20
159.7462978712
 11
72.9424645168
 21
159.7484036006
  0
SPLINE
  5
2FB
100
AcDbEntity
  8
ACHSEN
100
AcDbSpline
 62
7
  6
CONTINUOUS
 70
0
 71
3
 72
10
 73
6
 74
0
 42
0.0000001
 43
0.0000001
 44
0.0000000001
 40
0.0
 40
0.0
 40
0.0
 40
0.0
 40
0.0929965444
 40
0.3287693884
 40
1.0
 40
1.0
 40
1.0
 40
1.0
 10
72.9424645164
 20
159.7484036006
 30
0.0
 10
72.8823629414
 20
159.7404201032
 30
0.0
 10
72.6703105111
 20
159.7091034357
 30
0.0
 10
72.0256129987
 20
159.612155934
 30
0.0
 10
71.4433117515
 20
159.5080856407
 30
0.0
 10
71.0138942308
 20
159.423797094
 30
0.0
  0
SPLINE
  5
2FC
100
AcDbEntity
  8
ACHSEN
100
AcDbSpline
 62
7
  6
CONTINUOUS
 70
0
 71
3
 72
11
 73
7
 74
0
 42
0.0000001
 43
0.0000001
 44
0.0000000001
 40
0.0
 40
0.0
 40
0.0
 40
0.0
 40
0.1537099379
 40
0.500508937
 40
0.8472910559
 40
1.0
 40
1.0
 40
1.0
 40
1.0
 10
91.843255564
 20
160.2232641308
 30
0.0
 10
91.3796702949
 20
160.151987176
 30
0.0
 10
89.8654379807
 20
159.9479294036
 30
0.0
 10
87.2826635532
 20
159.7624203717
 30
0.0
 10
84.6966175233
 20
159.8153675904
 30
0.0
 10
83.1773283405
 20
159.9451340832
 30
0.0
 10
82.7138942308
 20
159.9939027975
 30
0.0
  0
SPLINE
  5
2FD
100
AcDbEntity
  8
FASEN
100
AcDbSpline
 62
7
  6
CONTINUOUS
 70
0
 71
3
 72
14
 73
10
 74
0
 42
0.0000001
 43
0.0000001
 44
0.0000000001
 40
0.0
 40
0.0
 40
0.0
 40
0.0
 40
0.0157913008
 40
0.0631428111
 40
0.1420511197
 40
0.2523669563
 40
0.3937144672
 40
0.5656986818
 40
1.0
 40
1.0
 40
1.0
 40
1.0
 10
119.8863351173
 20
171.3197102238
 30
0.0
 10
119.8845192708
 20
171.3199653419
 30
0.0
 10
119.8773036936
 20
171.3174082699
 30
0.0
 10
119.8610165033
 20
171.3160049444
 30
0.0
 10
119.8339286105
 20
171.310743653
 30
0.0
 10
119.79605779
 20
171.3047802298
 30
0.0
 10
119.7475187799
 20
171.2966631721
 30
0.0
 10
119.6618301297
 20
171.2827809402
 30
0.0
 10
119.5923046179
 20
171.271681003
 30
0.0
 10
119.5424849929
 20
171.2638526931
 30
0.0
  0
SPLINE
  5
2FE
100
AcDbEntity
  8
0
100
AcDbSpline
 62
7
  6
CONTINUOUS
 70
0
 71
3
 72
13
 73
9
 74
0
 42
0.0000001
 43
0.0000001
 44
0.0000000001
 40
0.0
 40
0.0
 40
0.0
 40
0.0
 40
0.1753307868
 40
0.3422637982
 40
0.4768046258
 40
0.5947351366
 40
0.8062611466
 40
1.0
 40
1.0
 40
1.0
 40
1.0
 10
102.2689173419
 20
118.2923170552
 30
0.0
 10
102.205004597
 20
118.3192572169
 30
0.0
 10
102.0672275537
 20
118.3479952029
 30
0.0
 10
101.8795805554
 20
118.299216385
 30
0.0
 10
101.7379958717
 20
118.210374482
 30
0.0
 10
101.601530649
 20
118.0867718701
 30
0.0
 10
101.4731119624
 20
117.922895264
 30
0.0
 10
101.3920719654
 20
117.7842242717
 30
0.0
 10
101.3567874496
 20
117.7161891444
 30
0.0
  0
SPLINE
  5
2FF
100
AcDbEntity
  8
0
100
AcDbSpline
 62
7
  6
CONTINUOUS
 70
0
 71
3
 72
13
 73
9
 74
0
 42
0.0000001
 43
0.0000001
 44
0.0000000001
 40
0.0
 40
0.0
 40
0.0
 40
0.0
 40
0.286526882
 40
0.4543474408
 40
0.5599589325
 40
0.648267425
 40
0.8182504149
 40
1.0
 40
1.0
 40
1.0
 40
1.0
 10
102.2689173419
 20
118.2923170552
 30
0.0
 10
102.2943036258
 20
118.2816163633
 30
0.0
 10
102.3370288351
 20
118.2688174408
 30
0.0
 10
102.3922187284
 20
118.2730213072
 30
0.0
 10
102.4234037891
 20
118.290307383
 30
0.0
 10
102.4464660938
 20
118.3173190236
 30
0.0
 10
102.4607048854
 20
118.3582976105
 30
0.0
 10
102.4634845594
 20
118.3921145568
 30
0.0
 10
102.4638080241
 20
118.4095866702
 30
0.0
  0
SPLINE
  5
300
100
AcDbEntity
  8
0
100
AcDbSpline
 62
7
  6
CONTINUOUS
 70
0
 71
3
 72
17
 73
13
 74
0
 42
0.0000001
 43
0.0000001
 44
0.0000000001
 40
0.0
 40
0.0
 40
0.0
 40
0.0
 40
0.125135549
 40
0.2502986125
 40
0.3754807531
 40
0.5006727147
 40
0.6258456077
 40
0.6884746641
 40
0.7511065344
 40
0.8746656069
 40
0.9373062378
 40
1.0
 40
1.0
 40
1.0
 40
1.0
 10
101.3567874496
 20
146.2342855561
 30
0.0
 10
101.3738557932
 20
146.1629592475
 30
0.0
 10
101.4101223551
 20
146.020785566
 30
0.0
 10
101.4721688287
 20
145.809592056
 30
0.0
 10
101.5437499878
 20
145.6013543662
 30
0.0
 10
101.6280900428
 20
145.3978517581
 30
0.0
 10
101.7132593964
 20
145.2349688633
 30
0.0
 10
101.7969138027
 20
145.1136573156
 30
0.0
 10
101.8917489231
 20
145.0043301631
 30
0.0
 10
102.0263573053
 20
144.9182540244
 30
0.0
 10
102.1768843369
 20
144.9398469127
 30
0.0
 10
102.2401921561
 20
144.9797838672
 30
0.0
 10
102.2689173419
 20
145.0026962485
 30
0.0
  0
SPLINE
  5
301
100
AcDbEntity
  8
0
100
AcDbSpline
 62
7
  6
CONTINUOUS
 70
0
 71
3
 72
13
 73
9
 74
0
 42
0.0000001
 43
0.0000001
 44
0.0000000001
 40
0.0
 40
0.0
 40
0.0
 40
0.0
 40
0.1670510693
 40
0.3289369806
 40
0.4609641718
 40
0.578209763
 40
0.7939442568
 40
1.0
 40
1.0
 40
1.0
 40
1.0
 10
102.2689173419
 20
156.1642240823
 30
0.0
 10
102.2044838911
 20
156.1884591873
 30
0.0
 10
102.0652828982
 20
156.2103935298
 30
0.0
 10
101.8786749099
 20
156.1539173575
 30
0.0
 10
101.7372138717
 20
156.0583539029
 30
0.0
 10
101.5996852744
 20
155.9239864339
 30
0.0
 10
101.4702655699
 20
155.7416141752
 30
0.0
 10
101.3912656033
 20
155.5863619341
 30
0.0
 10
101.3567874496
 20
155.5087626855
 30
0.0
  0
SPLINE
  5
302
100
AcDbEntity
  8
0
100
AcDbSpline
 62
7
  6
CONTINUOUS
 70
0
 71
3
 72
16
 73
12
 74
0
 42
0.0000001
 43
0.0000001
 44
0.0000000001
 40
0.0
 40
0.0
 40
0.0
 40
0.0
 40
0.0735401093
 40
0.1545841369
 40
0.2292313659
 40
0.2978973002
 40
0.4259913051
 40
0.5473045002
 40
0.6644420892
 40
0.7785599955
 40
1.0
 40
1.0
 40
1.0
 40
1.0
 10
102.2689173419
 20
156.1642240823
 30
0.0
 10
102.2813691607
 20
156.1595406278
 30
0.0
 10
102.3105194013
 20
156.1554601189
 30
0.0
 10
102.3499889549
 20
156.1737021289
 30
0.0
 10
102.377550421
 20
156.2041054805
 30
0.0
 10
102.4034463339
 20
156.2459829129
 30
0.0
 10
102.4245261197
 20
156.2999148485
 30
0.0
 10
102.4410549612
 20
156.3641857394
 30
0.0
 10
102.4518709082
 20
156.4271042523
 30
0.0
 10
102.4609590749
 20
156.5085193819
 30
0.0
 10
102.463464942
 20
156.5692562365
 30
0.0
 10
102.4638080241
 20
156.6093134827
 30
0.0
  0
SPLINE
  5
303
100
AcDbEntity
  8
0
100
AcDbSpline
 62
7
  6
CONTINUOUS
 70
0
 71
3
 72
17
 73
13
 74
0
 42
0.0000001
 43
0.0000001
 44
0.0000000001
 40
0.0
 40
0.0
 40
0.0
 40
0.0
 40
0.2841775711
 40
0.4146661432
 40
0.5373502072
 40
0.652341305
 40
0.7602377654
 40
0.8121867936
 40
0.8638391814
 40
0.9180398508
 40
0.9497831112
 40
1.0
 40
1.0
 40
1.0
 40
1.0
 10
100.4639573198
 20
118.1373439161
 30
0.0
 10
100.4639573198
 20
118.0177704788
 30
0.0
 10
100.4638145065
 20
117.8432878191
 30
0.0
 10
100.4661945017
 20
117.6171977351
 30
0.0
 10
100.4708140695
 20
117.4623282328
 30
0.0
 10
100.4807416467
 20
117.3172291118
 30
0.0
 10
100.4968559621
 20
117.2024676381
 30
0.0
 10
100.518824364
 20
117.1160905447
 30
0.0
 10
100.5421284912
 20
117.0537909258
 30
0.0
 10
100.5722631907
 20
117.0034459041
 30
0.0
 10
100.6133527387
 20
116.9631986387
 30
0.0
 10
100.6477934372
 20
116.9493581244
 30
0.0
 10
100.6689173419
 20
116.9488604038
 30
0.0
  0
SPLINE
  5
304
100
AcDbEntity
  8
0
100
AcDbSpline
 62
7
  6
CONTINUOUS
 70
0
 71
3
 72
9
 73
5
 74
0
 42
0.0000001
 43
0.0000001
 44
0.0000000001
 40
0.0
 40
0.0
 40
0.0
 40
0.0
 40
0.2573720101
 40
1.0
 40
1.0
 40
1.0
 40
1.0
 10
101.3567874496
 20
117.7161891444
 30
0.0
 10
101.3216480614
 20
117.6484338503
 30
0.0
 10
101.1826599259
 20
117.3864621993
 30
0.0
 10
101.0336764353
 20
117.1297530492
 30
0.0
 10
100.9169229816
 20
116.94301692
 30
0.0
  0
SPLINE
  5
305
100
AcDbEntity
  8
0
100
AcDbSpline
 62
7
  6
CONTINUOUS
 70
0
 71
3
 72
8
 73
4
 74
0
 42
0.0000001
 43
0.0000001
 44
0.0000000001
 40
0.0
 40
0.0
 40
0.0
 40
0.0
 40
1.0
 40
1.0
 40
1.0
 40
1.0
 10
102.4637722774
 20
144.4449684553
 30
0.0
 10
102.4634413433
 20
144.492497163
 30
0.0
 10
102.4622588281
 20
144.5400375719
 30
0.0
 10
102.4597548563
 20
144.5875014286
 30
0.0
  0
SPLINE
  5
306
100
AcDbEntity
  8
0
100
AcDbSpline
 62
7
  6
CONTINUOUS
 70
0
 71
3
 72
15
 73
11
 74
0
 42
0.0000001
 43
0.0000001
 44
0.0000000001
 40
0.0
 40
0.0
 40
0.0
 40
0.0
 40
0.2532162989
 40
0.3790219793
 40
0.5040739368
 40
0.6282014989
 40
0.7508575768
 40
0.8716570132
 40
0.9343432508
 40
1.0
 40
1.0
 40
1.0
 40
1.0
 10
102.4597548563
 20
144.5875014286
 30
0.0
 10
102.4573914379
 20
144.632301034
 30
0.0
 10
102.4522339932
 20
144.6993070241
 30
0.0
 10
102.4400616695
 20
144.7878312848
 30
0.0
 10
102.4274838718
 20
144.8530390279
 30
0.0
 10
102.4095570604
 20
144.9168301237
 30
0.0
 10
102.3844683486
 20
144.9761053228
 30
0.0
 10
102.3451890595
 20
145.020986536
 30
0.0
 10
102.2979287217
 20
145.0226806009
 30
0.0
 10
102.2780110942
 20
145.0099497967
 30
0.0
 10
102.2689173419
 20
145.0026962485
 30
0.0
  0
SPLINE
  5
307
100
AcDbEntity
  8
0
100
AcDbSpline
 62
7
  6
CONTINUOUS
 70
0
 71
3
 72
12
 73
8
 74
0
 42
0.0000001
 43
0.0000001
 44
0.0000000001
 40
0.0
 40
0.0
 40
0.0
 40
0.0
 40
0.128679218
 40
0.2561331636
 40
0.5063352459
 40
0.7539715031
 40
1.0
 40
1.0
 40
1.0
 40
1.0
 10
116.1252190962
 20
130.4705244808
 30
0.0
 10
116.1560952217
 20
130.4705244808
 30
0.0
 10
116.2180098483
 20
130.4582012544
 30
0.0
 10
116.3242307754
 20
130.3962864632
 30
0.0
 10
116.4236020487
 20
130.2795248982
 30
0.0
 10
116.5049783392
 20
130.1200300894
 30
0.0
 10
116.5426550793
 20
130.0072747278
 30
0.0
 10
116.5582317981
 20
129.9503331764
 30
0.0
  0
SPLINE
  5
308
100
AcDbEntity
  8
0
100
AcDbSpline
 62
7
  6
CONTINUOUS
 70
0
 71
3
 72
9
 73
5
 74
0
 42
0.0000001
 43
0.0000001
 44
0.0000000001
 40
0.0
 40
0.0
 40
0.0
 40
0.0
 40
0.1680195226
 40
1.0
 40
1.0
 40
1.0
 40
1.0
 10
116.5582317981
 20
109.9057909489
 30
0.0
 10
116.541383525
 20
109.885470833
 30
0.0
 10
116.4259302425
 20
109.7769898567
 30
0.0
 10
116.2559260075
 20
109.739153035
 30
0.0
 10
116.1252190962
 20
109.739153035
 30
0.0
  0
SPLINE
  5
309
100
AcDbEntity
  8
0
100
AcDbSpline
 62
7
  6
CONTINUOUS
 70
0
 71
3
 72
12
 73
8
 74
0
 42
0.0000001
 43
0.0000001
 44
0.0000000001
 40
0.0
 40
0.0
 40
0.0
 40
0.0
 40
0.2460454262
 40
0.4936983158
 40
0.7439199328
 40
0.8713555617
 40
1.0
 40
1.0
 40
1.0
 40
1.0
 10
112.7695566635
 20
129.9503331764
 30
0.0
 10
112.785134476
 20
130.0072787262
 30
0.0
 10
112.8228164957
 20
130.1200392316
 30
0.0
 10
112.9041922436
 20
130.2795558996
 30
0.0
 10
113.0035968554
 20
130.3962834324
 30
0.0
 10
113.1097926718
 20
130.4582312708
 30
0.0
 10
113.1717015416
 20
130.4705244808
 30
0.0
 10
113.2025693654
 20
130.4705244808
 30
0.0
  0
SPLINE
  5
30A
100
AcDbEntity
  8
0
100
AcDbSpline
 62
7
  6
CONTINUOUS
 70
0
 71
3
 72
9
 73
5
 74
0
 42
0.0000001
 43
0.0000001
 44
0.0000000001
 40
0.0
 40
0.0
 40
0.0
 40
0.0
 40
0.3641598889
 40
1.0
 40
1.0
 40
1.0
 40
1.0
 10
113.2025693654
 20
109.739153035
 30
0.0
 10
113.1451929435
 20
109.739153035
 30
0.0
 10
112.9890066105
 20
109.755272129
 30
0.0
 10
112.8335006198
 20
109.8286703679
 30
0.0
 10
112.7695566635
 20
109.9057909489
 30
0.0
  0
SPLINE
  5
30B
100
AcDbEntity
  8
0
100
AcDbSpline
 62
7
  6
CONTINUOUS
 70
0
 71
3
 72
9
 73
5
 74
0
 42
0.0000001
 43
0.0000001
 44
0.0000000001
 40
0.0
 40
0.0
 40
0.0
 40
0.0
 40
0.3642526053
 40
1.0
 40
1.0
 40
1.0
 40
1.0
 10
116.1252190962
 20
169.9003385557
 30
0.0
 10
116.1826105027
 20
169.9003385557
 30
0.0
 10
116.3387999612
 20
169.8842240001
 30
0.0
 10
116.4942967465
 20
169.810810483
 30
0.0
 10
116.5582317981
 20
169.7337006418
 30
0.0
  0
SPLINE
  5
30C
100
AcDbEntity
  8
0
100
AcDbSpline
 62
7
  6
CONTINUOUS
 70
0
 71
3
 72
21
 73
17
 74
0
 42
0.0000001
 43
0.0000001
 44
0.0000000001
 40
0.0
 40
0.0
 40
0.0
 40
0.0
 40
0.0152736556
 40
0.0307400416
 40
0.0615944727
 40
0.0924597446
 40
0.1233512662
 40
0.1852330485
 40
0.2472659363
 40
0.3094463907
 40
0.3717660941
 40
0.4967787028
 40
0.6222117836
 40
0.747963109
 40
0.8739278454
 40
1.0
 40
1.0
 40
1.0
 40
1.0
 10
100.6689173419
 20
148.0056889821
 30
0.0
 10
100.6536550267
 20
148.0056265628
 30
0.0
 10
100.6279668618
 20
147.9796294081
 30
0.0
 10
100.6022257692
 20
147.9258768722
 30
0.0
 10
100.5785782393
 20
147.8511049792
 30
0.0
 10
100.5587798659
 20
147.7610101548
 30
0.0
 10
100.5378021909
 20
147.6391127907
 30
0.0
 10
100.5188987908
 20
147.4855639872
 30
0.0
 10
100.5026711507
 20
147.300280035
 30
0.0
 10
100.4909019562
 20
147.1142459677
 30
0.0
 10
100.4794473162
 20
146.8651701154
 30
0.0
 10
100.4710335522
 20
146.5527245963
 30
0.0
 10
100.466281104
 20
146.1768291163
 30
0.0
 10
100.4644666813
 20
145.7999590601
 30
0.0
 10
100.4639933432
 20
145.4224484271
 30
0.0
 10
100.4639573198
 20
145.1705965282
 30
0.0
 10
100.4639573198
 20
145.0446169259
 30
0.0
  0
LINE
  5
30D
100
AcDbEntity
  8
0
100
AcDbLine
 62
7
  6
CONTINUOUS
 10
100.6742958625
 20
116.3943609895
 11
100.9169229816
 21
116.94301692
  0
SPLINE
  5
30E
100
AcDbEntity
  8
0
100
AcDbSpline
 62
7
  6
CONTINUOUS
 70
0
 71
3
 72
17
 73
13
 74
0
 42
0.0000001
 43
0.0000001
 44
0.0000000001
 40
0.0
 40
0.0
 40
0.0
 40
0.0
 40
0.2182009024
 40
0.3349220057
 40
0.456586696
 40
0.5831112211
 40
0.7144823146
 40
0.7820564401
 40
0.8510300181
 40
0.92186225
 40
0.958727904
 40
1.0
 40
1.0
 40
1.0
 40
1.0
 10
100.4639573198
 20
156.277276544
 30
0.0
 10
100.4639573198
 20
156.1449975297
 30
0.0
 10
100.4639396324
 20
155.9419578684
 30
0.0
 10
100.4663467413
 20
155.6651690981
 30
0.0
 10
100.4711719348
 20
155.4439966954
 30
0.0
 10
100.4814576729
 20
155.2140817145
 30
0.0
 10
100.4975826963
 20
155.0174130194
 30
0.0
 10
100.5191567968
 20
154.8562121477
 30
0.0
 10
100.5417612674
 20
154.7330418557
 30
0.0
 10
100.5713570637
 20
154.627891125
 30
0.0
 10
100.6057887384
 20
154.5484212708
 30
0.0
 10
100.643901875
 20
154.5042008942
 30
0.0
 10
100.6689173419
 20
154.5046880001
 30
0.0
  0
SPLINE
  5
30F
100
AcDbEntity
  8
0
100
AcDbSpline
 62
7
  6
CONTINUOUS
 70
0
 71
3
 72
11
 73
7
 74
0
 42
0.0000001
 43
0.0000001
 44
0.0000000001
 40
0.0
 40
0.0
 40
0.0
 40
0.0
 40
0.2163338898
 40
0.4581730139
 40
0.72121324
 40
1.0
 40
1.0
 40
1.0
 40
1.0
 10
100.9169229816
 20
154.509517228
 30
0.0
 10
100.8312215937
 20
154.0467956723
 30
0.0
 10
100.7089531076
 20
153.055584275
 30
0.0
 10
100.6543710665
 20
151.4862375641
 30
0.0
 10
100.7189985789
 20
149.7814511327
 30
0.0
 10
100.8383071966
 20
148.6080308158
 30
0.0
 10
100.9169229816
 20
148.006703238
 30
0.0
  0
SPLINE
  5
310
100
AcDbEntity
  8
0
100
AcDbSpline
 62
7
  6
CONTINUOUS
 70
0
 71
3
 72
12
 73
8
 74
0
 42
0.0000001
 43
0.0000001
 44
0.0000000001
 40
0.0
 40
0.0
 40
0.0
 40
0.0
 40
0.2460280129
 40
0.4936634005
 40
0.7438647573
 40
0.8713194616
 40
1.0
 40
1.0
 40
1.0
 40
1.0
 10
116.5582317981
 20
149.6891584143
 30
0.0
 10
116.5426551111
 20
149.632216979
 30
0.0
 10
116.5049786159
 20
149.5194618043
 30
0.0
 10
116.4236021619
 20
149.3599679636
 30
0.0
 10
116.3242323828
 20
149.2432049043
 30
0.0
 10
116.2180103587
 20
149.1812915961
 30
0.0
 10
116.1560955364
 20
149.1689671099
 30
0.0
 10
116.1252190962
 20
149.1689671099
 30
0.0
  0
SPLINE
  5
311
100
AcDbEntity
  8
0
100
AcDbSpline
 62
7
  6
CONTINUOUS
 70
0
 71
3
 72
9
 73
5
 74
0
 42
0.0000001
 43
0.0000001
 44
0.0000000001
 40
0.0
 40
0.0
 40
0.0
 40
0.0
 40
0.1680322176
 40
1.0
 40
1.0
 40
1.0
 40
1.0
 10
112.7695566635
 20
169.7337006418
 30
0.0
 10
112.7864062224
 20
169.7540223086
 30
0.0
 10
112.9018607992
 20
169.8625023406
 30
0.0
 10
113.0718643483
 20
169.9003385557
 30
0.0
 10
113.2025693654
 20
169.9003385557
 30
0.0
  0
SPLINE
  5
312
100
AcDbEntity
  8
0
100
AcDbSpline
 62
7
  6
CONTINUOUS
 70
0
 71
3
 72
12
 73
8
 74
0
 42
0.0000001
 43
0.0000001
 44
0.0000000001
 40
0.0
 40
0.0
 40
0.0
 40
0.0
 40
0.1286448926
 40
0.256081
 40
0.5063027424
 40
0.7539549585
 40
1.0
 40
1.0
 40
1.0
 40
1.0
 10
113.2025693654
 20
149.1689671099
 30
0.0
 10
113.1717014339
 20
149.1689671099
 30
0.0
 10
113.1097924396
 20
149.1812607337
 30
0.0
 10
113.0035961423
 20
149.2432081973
 30
0.0
 10
112.9041921603
 20
149.3599363993
 30
0.0
 10
112.8228163139
 20
149.5194526374
 30
0.0
 10
112.785134451
 20
149.6322129559
 30
0.0
 10
112.7695566635
 20
149.6891584143
 30
0.0
  0
ELLIPSE
  5
313
100
AcDbEntity
  8
0
100
AcDbEllipse
 62
7
  6
CONTINUOUS
 10
100.3167400414
 20
139.8197457953
 30
0.0
 11
14.7536831607
 21
31.0932549156
 31
0.0
 40
0.3419987131
 41
-1.0912395858
 42
-0.1578061866
  0
ELLIPSE
  5
314
100
AcDbEntity
  8
0
100
AcDbEllipse
 62
7
  6
CONTINUOUS
 10
100.3167400414
 20
139.8197457953
 30
0.0
 11
-14.7536831607
 21
31.0932549156
 31
0.0
 40
0.3419987131
 41
-2.9837864669
 42
-2.0503530678
  0
ELLIPSE
  5
315
100
AcDbEntity
  8
0
100
AcDbEllipse
 62
7
  6
CONTINUOUS
 10
129.0110484201
 20
139.8197457953
 30
0.0
 11
-14.7536831607
 21
31.0932549156
 31
0.0
 40
0.3419987131
 41
0.1578061866
 42
1.0912395858
  0
ELLIPSE
  5
316
100
AcDbEntity
  8
0
100
AcDbEllipse
 62
7
  6
CONTINUOUS
 10
129.0110484201
 20
139.8197457953
 30
0.0
 11
14.7536831607
 21
31.0932549156
 31
0.0
 40
0.3419987131
 41
-4.2328322393
 42
-3.2993988402
  0
ENDSEC
  0
SECTION
  2
OBJECTS
  0
DICTIONARY
  5
C
100
AcDbDictionary
280
0
281
1
  3
ACAD_GROUP
350
D
  3
ACAD_MLINESTYLE
350
17
  3
ACAD_LAYOUT
350
1A
  3
ACAD_PLOTSETTINGS
350
19
  3
ACAD_PLOTSTYLENAME
350
E
  0
DICTIONARY
  5
D
102
{ACAD_REACTORS
330
C
102
}
100
AcDbDictionary
280
0
281
1
  0
ACDBDICTIONARYWDFLT
  5
E
102
{ACAD_REACTORS
330
C
102
}
100
AcDbDictionary
281
1
  3
Normal
350
F
100
AcDbDictionaryWithDefault
340
F
  0
DICTIONARY
  5
17
102
{ACAD_REACTORS
330
C
102
}
100
AcDbDictionary
280
0
281
1
  3
Standard
350
18
  0
DICTIONARY
  5
19
102
{ACAD_REACTORS
330
C
102
}
100
AcDbDictionary
281
1
  0
DICTIONARY
  5
1A
102
{ACAD_REACTORS
330
C
102
}
100
AcDbDictionary
281
1
  3
Model
350
317
  3
Layout1
350
318
  0
ACDBPLACEHOLDER
  5
F
102
{ACAD_REACTORS
330
E
102
}
  0
MLINESTYLE
  5
18
102
{ACAD_REACTORS
330
17
102
}
100
AcDbMlineStyle
  2
STANDARD
 70
0
  3

 62
256
 51
90.0
 52
90.0
 71
2
 49
0.5
 62
256
  6
BYLAYER
 49
-0.5
 62
256
  6
BYLAYER
  0
LAYOUT
  5
317
102
{ACAD_REACTORS
330
1A
102
}
100
AcDbPlotSettings
  1

  2
none_device
  4
ISO_A4_(297.00_x_210.00_MM)
  6

 40
0.0
 41
0.0
 42
0.0
 43
0.0
 44
297.0
 45
210.0
 46
0.0
 47
0.0
 48
0.0
 49
0.0
140
0.0
141
0.0
142
1.0
143
1.0
 70
1024
 72
1
 73
0
 74
0
  7

 75
0
147
1.0
148
0.0
149
0.0
100
AcDbLayout
  1
Model
 70
0
 71
0
 10
0.0
 20
0.0
 11
297.0
 21
210.0
 12
0.0
 22
0.0
 32
0.0
 14
0.0
 24
0.0
 34
0.0
 15
0.0
 25
0.0
 35
0.0
146
0.0
 13
0.0
 23
0.0
 33
0.0
 16
1.0
 26
0.0
 36
0.0
 17
0.0
 27
1.0
 37
0.0
 76
0
330
217
345
0
346
0
  0
LAYOUT
  5
318
102
{ACAD_REACTORS
330
1A
102
}
100
AcDbPlotSettings
  1

  2
none_device
  4
ISO_A4_(297.00_x_210.00_MM)
  6

 40
0.0
 41
0.0
 42
0.0
 43
0.0
 44
297.0
 45
210.0
 46
0.0
 47
0.0
 48
0.0
 49
0.0
140
0.0
141
0.0
142
1.0
143
1.0
 70
0
 72
1
 73
0
 74
0
  7

 75
0
147
1.0
148
0.0
149
0.0
100
AcDbLayout
  1
Layout1
 70
0
 71
1
 10
0.0
 20
0.0
 11
297.0
 21
210.0
 12
0.0
 22
0.0
 32
0.0
 14
0.0
 24
0.0
 34
0.0
 15
0.0
 25
0.0
 35
0.0
146
0.0
 13
0.0
 23
0.0
 33
0.0
 16
1.0
 26
0.0
 36
0.0
 17
0.0
 27
1.0
 37
0.0
 76
0
330
218
345
0
346
0
  0
ENDSEC
  0
EOF
