999
DXF file: cc6-141-14.dxf
999
Pro/ENGINEER 2010430 by Parametric Technology Corporation
  0
SECTION
  2
HEADER
  9
$ACADVER
  1
AC1021
  9
$DWGCODEPAGE
  3
ANSI_1252
  9
$EXTMAX
 10
297.0
 20
210.0
 30
0.0
  9
$EXTMIN
 10
0.0
 20
0.0
 30
0.0
  9
$LIMMIN
 10
0.0
 20
0.0
  9
$LIMMAX
 10
297.0
 20
210.0
  9
$VIEWCTR
 10
148.5
 20
105.0
  9
$VIEWSIZE
 40
210.0
  9
$CLAYER
  8
0
  9
$LTSCALE
 40
16.335
  9
$CELTYPE
  6
BYLAYER
  9
$DIMSCALE
 40
1.0
  9
$DIMASZ
 40
3.5
  9
$DIMEXO
 40
1.85625
  9
$DIMDLI
 40
11.286
  9
$DIMEXE
 40
5.346
  9
$DIMCEN
 40
2.673
  9
$DIMLFAC
 40
1.0
  9
$DIMBLK
  1
_FILLED
  9
$DIMTXT
 40
3.5
  9
$DIMTOL
 70
1
  9
$DIMLIM
 70
0
  9
$DIMTFAC
 40
1.0
  9
$DIMTP
 40
0.005
  9
$DIMTM
 40
0.005
  9
$PDMODE
 70
3
  9
$PDSIZE
 40
0.3125
  9
$HANDSEED
  5
31A
  9
$TILEMODE
 70
1
  9
$MEASUREMENT
 70
1
  9
$INSUNITS
 70
4
  0
ENDSEC
  0
SECTION
  2
CLASSES
  0
CLASS
  1
ACDBDICTIONARYWDFLT
  2
AcDbDictionaryWithDefault
  3
AutoCAD 2000
 90
0
 91
1
280
0
281
0
  0
CLASS
  1
ACDBPLACEHOLDER
  2
AcDbPlaceHolder
  3
AutoCAD 2000
 90
0
 91
1
280
0
281
0
  0
CLASS
  1
LAYOUT
  2
AcDbLayout
  3
AutoCAD 2000
 90
0
 91
0
280
0
281
0
  0
ENDSEC
  0
SECTION
  2
TABLES
  0
TABLE
  2
VPORT
  5
8
100
AcDbSymbolTable
 70
2
  0
VPORT
  5
1F4
100
AcDbSymbolTableRecord
100
AcDbViewportTableRecord
  2
*ACTIVE
 70
0
 10
0.0
 20
0.0
 11
1.0
 21
1.0
 12
148.5
 22
105.0
 13
0.0
 23
0.0
 14
1.0
 24
1.0
 15
0.0
 25
0.0
 16
0.0
 26
0.0
 36
1.0
 17
0.0
 27
0.0
 37
0.0
 40
210.0
 41
1.4142857143
 42
50.0
 43
0.0
 44
0.0
 50
0.0
 51
0.0
 71
0
 72
100
 73
1
 74
1
 75
0
 76
0
 77
0
 78
0
  0
ENDTAB
  0
TABLE
  2
LTYPE
  5
5
100
AcDbSymbolTable
 70
6
  0
LTYPE
  5
14
100
AcDbSymbolTableRecord
100
AcDbLinetypeTableRecord
  2
BYBLOCK
 70
0
  3

 72
65
 73
0
 40
0.0
  0
LTYPE
  5
15
100
AcDbSymbolTableRecord
100
AcDbLinetypeTableRecord
  2
BYLAYER
 70
0
  3

 72
65
 73
0
 40
0.0
  0
LTYPE
  5
16
100
AcDbSymbolTableRecord
100
AcDbLinetypeTableRecord
  2
CONTINUOUS
 70
64
  3
Solid line
 72
65
 73
0
 40
0.0
  0
LTYPE
  5
1F5
100
AcDbSymbolTableRecord
100
AcDbLinetypeTableRecord
  2
CENTER
 70
64
  3
____ _ ____ _ ____ _ ____ _ ____ _ ____ _ ____
 72
65
 73
4
 40
0.6
 49
0.375
 74
0
 49
-0.075
 74
0
 49
0.075
 74
0
 49
-0.075
 74
0
  0
LTYPE
  5
1F6
100
AcDbSymbolTableRecord
100
AcDbLinetypeTableRecord
  2
HIDDEN
 70
64
  3
- - - - - - - - - - - - - - - - - - - -
 72
65
 73
2
 40
0.2
 49
0.1
 74
0
 49
-0.1
 74
0
  0
LTYPE
  5
1F7
100
AcDbSymbolTableRecord
100
AcDbLinetypeTableRecord
  2
PHANTOM
 70
64
  3
_____ _ _ _____ _ _ _____ _ _ _____
 72
65
 73
6
 40
0.8
 49
0.45
 74
0
 49
-0.05
 74
0
 49
0.1
 74
0
 49
-0.05
 74
0
 49
0.1
 74
0
 49
-0.05
 74
0
  0
LTYPE
  5
1F8
100
AcDbSymbolTableRecord
100
AcDbLinetypeTableRecord
  2
DOT
 70
64
  3
. . . . . . . . . . . . . . . . . . . .
 72
65
 73
2
 40
0.2
 49
0.1
 74
0
 49
-0.1
 74
0
  0
LTYPE
  5
1F9
100
AcDbSymbolTableRecord
100
AcDbLinetypeTableRecord
  2
DASHED
 70
64
  3
- - - - - - - - - - - - - - - - - - - -
 72
65
 73
2
 40
0.2
 49
0.1
 74
0
 49
-0.1
 74
0
  0
ENDTAB
  0
TABLE
  2
LAYER
  5
2
100
AcDbSymbolTable
 70
36
  0
LAYER
  5
10
100
AcDbSymbolTableRecord
100
AcDbLayerTableRecord
  2
0
 70
0
 62
7
  6
CONTINUOUS
370
-3
390
F
  0
LAYER
  5
1FA
100
AcDbSymbolTableRecord
100
AcDbLayerTableRecord
  2
DEFAULT_1
 70
0
 62
7
  6
CENTER
370
-3
390
F
  0
LAYER
  5
1FB
100
AcDbSymbolTableRecord
100
AcDbLayerTableRecord
  2
DEFAULT_2
 70
0
 62
8
  6
HIDDEN
370
-3
390
F
  0
LAYER
  5
1FC
100
AcDbSymbolTableRecord
100
AcDbLayerTableRecord
  2
DEFAULT_3
 70
0
 62
7
  6
PHANTOM
370
-3
390
F
  0
LAYER
  5
1FD
100
AcDbSymbolTableRecord
100
AcDbLayerTableRecord
  2
ACHSEN
 70
0
 62
7
  6
CONTINUOUS
370
-3
390
F
  0
LAYER
  5
1FE
100
AcDbSymbolTableRecord
100
AcDbLayerTableRecord
  2
BEZUGSACHSEN
 70
0
 62
7
  6
CONTINUOUS
370
-3
390
F
  0
LAYER
  5
1FF
100
AcDbSymbolTableRecord
100
AcDbLayerTableRecord
  2
BEZUGSEBENE_B
 70
0
 62
7
  6
CONTINUOUS
370
-3
390
F
  0
LAYER
  5
200
100
AcDbSymbolTableRecord
100
AcDbLayerTableRecord
  2
BOHRUNGEN
 70
0
 62
7
  6
CONTINUOUS
370
-3
390
F
  0
LAYER
  5
201
100
AcDbSymbolTableRecord
100
AcDbLayerTableRecord
  2
EBENEN
 70
0
 62
7
  6
CONTINUOUS
370
-3
390
F
  0
LAYER
  5
202
100
AcDbSymbolTableRecord
100
AcDbLayerTableRecord
  2
FASEN
 70
0
 62
7
  6
CONTINUOUS
370
-3
390
F
  0
LAYER
  5
203
100
AcDbSymbolTableRecord
100
AcDbLayerTableRecord
  2
FLAECHEN
 70
0
 62
7
  6
CONTINUOUS
370
-3
390
F
  0
LAYER
  5
204
100
AcDbSymbolTableRecord
100
AcDbLayerTableRecord
  2
GEWINDE
 70
0
 62
7
  6
CONTINUOUS
370
-3
390
F
  0
LAYER
  5
205
100
AcDbSymbolTableRecord
100
AcDbLayerTableRecord
  2
KOORDSYS
 70
0
 62
7
  6
CONTINUOUS
370
-3
390
F
  0
LAYER
  5
206
100
AcDbSymbolTableRecord
100
AcDbLayerTableRecord
  2
KURVEN
 70
0
 62
7
  6
CONTINUOUS
370
-3
390
F
  0
LAYER
  5
207
100
AcDbSymbolTableRecord
100
AcDbLayerTableRecord
  2
KURVE_FUER_GTOL_DETAILANSICHT
 70
0
 62
7
  6
CONTINUOUS
370
-3
390
F
  0
LAYER
  5
208
100
AcDbSymbolTableRecord
100
AcDbLayerTableRecord
  2
KURVE_GAUGE2_POLIGON_INNENEINST
 70
0
 62
7
  6
CONTINUOUS
370
-3
390
F
  0
LAYER
  5
209
100
AcDbSymbolTableRecord
100
AcDbLayerTableRecord
  2
KURVE_PHANTOM1_GAUGE_PIN_1
 70
0
 62
7
  6
CONTINUOUS
370
-3
390
F
  0
LAYER
  5
20A
100
AcDbSymbolTableRecord
100
AcDbLayerTableRecord
  2
KURVE_PHANTOM2_GAUGE_PIN1
 70
0
 62
7
  6
CONTINUOUS
370
-3
390
F
  0
LAYER
  5
20B
100
AcDbSymbolTableRecord
100
AcDbLayerTableRecord
  2
KURVE_POLIGON_BEMASUNG
 70
0
 62
7
  6
CONTINUOUS
370
-3
390
F
  0
LAYER
  5
20C
100
AcDbSymbolTableRecord
100
AcDbLayerTableRecord
  2
PUNKTE
 70
0
 62
7
  6
CONTINUOUS
370
-3
390
F
  0
LAYER
  5
20D
100
AcDbSymbolTableRecord
100
AcDbLayerTableRecord
  2
RUNDUNGEN
 70
0
 62
7
  6
CONTINUOUS
370
-3
390
F
  0
LAYER
  5
20E
100
AcDbSymbolTableRecord
100
AcDbLayerTableRecord
  2
S_ACHSEN
 70
0
 62
7
  6
CONTINUOUS
370
-3
390
F
  0
LAYER
  5
20F
100
AcDbSymbolTableRecord
100
AcDbLayerTableRecord
  2
S_EBENEN
 70
0
 62
7
  6
CONTINUOUS
370
-3
390
F
  0
LAYER
  5
210
100
AcDbSymbolTableRecord
100
AcDbLayerTableRecord
  2
S_KOORDSYS
 70
0
 62
7
  6
CONTINUOUS
370
-3
390
F
  0
LAYER
  5
211
100
AcDbSymbolTableRecord
100
AcDbLayerTableRecord
  2
TOL_BEZUEGE
 70
0
 62
7
  6
CONTINUOUS
370
-3
390
F
  0
LAYER
  5
212
100
AcDbSymbolTableRecord
100
AcDbLayerTableRecord
  2
VERBFLAECHE
 70
0
 62
7
  6
CONTINUOUS
370
-3
390
F
  0
LAYER
  5
213
100
AcDbSymbolTableRecord
100
AcDbLayerTableRecord
  2
ZEICHNUNGSBEMASSUNGEN
 70
0
 62
7
  6
CONTINUOUS
370
-3
390
F
  0
ENDTAB
  0
TABLE
  2
STYLE
  5
3
100
AcDbSymbolTable
 70
1
  0
STYLE
  5
11
100
AcDbSymbolTableRecord
100
AcDbTextStyleTableRecord
  2
STANDARD
 70
0
 40
0.0
 41
0.7
 50
0.0
 71
0
 42
0.2
  3
txt
  4

  0
STYLE
  5
214
100
AcDbSymbolTableRecord
100
AcDbTextStyleTableRecord
  2
TEXTSTYLE_1
 70
0
 40
0.0
 41
0.8
 50
0.0
 71
0
 42
0.2
  3
gdt
  4

  0
STYLE
  5
215
100
AcDbSymbolTableRecord
100
AcDbTextStyleTableRecord
  2
TEXTSTYLE_2
 70
0
 40
0.0
 41
0.7
 50
0.0
 71
0
 42
0.2
  3
gdt
  4

  0
ENDTAB
  0
TABLE
  2
VIEW
  5
6
100
AcDbSymbolTable
 70
0
  0
ENDTAB
  0
TABLE
  2
UCS
  5
7
100
AcDbSymbolTable
 70
0
  0
ENDTAB
  0
TABLE
  2
APPID
  5
9
100
AcDbSymbolTable
 70
1
  0
APPID
  5
216
100
AcDbSymbolTableRecord
100
AcDbRegAppTableRecord
  2
ACAD
 70
0
  0
ENDTAB
  0
TABLE
  2
BLOCK_RECORD
  5
1
100
AcDbSymbolTable
 70
0
  0
BLOCK_RECORD
  5
217
100
AcDbSymbolTableRecord
100
AcDbBlockTableRecord
  2
*Model_Space
  0
BLOCK_RECORD
  5
218
100
AcDbSymbolTableRecord
100
AcDbBlockTableRecord
  2
*Paper_Space
  0
BLOCK_RECORD
  5
219
100
AcDbSymbolTableRecord
100
AcDbBlockTableRecord
  2
_FILLED
  0
BLOCK_RECORD
  5
21A
100
AcDbSymbolTableRecord
100
AcDbBlockTableRecord
  2
*D0
  0
BLOCK_RECORD
  5
21B
100
AcDbSymbolTableRecord
100
AcDbBlockTableRecord
  2
*D1
  0
BLOCK_RECORD
  5
21C
100
AcDbSymbolTableRecord
100
AcDbBlockTableRecord
  2
*D2
  0
BLOCK_RECORD
  5
21D
100
AcDbSymbolTableRecord
100
AcDbBlockTableRecord
  2
*D3
  0
BLOCK_RECORD
  5
21E
100
AcDbSymbolTableRecord
100
AcDbBlockTableRecord
  2
*D4
  0
BLOCK_RECORD
  5
21F
100
AcDbSymbolTableRecord
100
AcDbBlockTableRecord
  2
*D5
  0
BLOCK_RECORD
  5
220
100
AcDbSymbolTableRecord
100
AcDbBlockTableRecord
  2
*D6
  0
ENDTAB
  0
TABLE
  2
DIMSTYLE
  5
A
100
AcDbSymbolTable
 70
1
100
AcDbDimStyleTable
 71
0
  0
DIMSTYLE
105
221
100
AcDbSymbolTableRecord
100
AcDbDimStyleTableRecord
  2
STANDARD
 70
0
  3

  4

 40
1.0
 41
3.5
 42
0.0625
 43
0.38
 44
0.18
 45
0.0
 46
0.0
 47
0.005
 48
0.005
140
3.5
141
0.09
142
0.0
143
25.4
144
1.0
145
0.0
146
1.0
147
0.09
 71
1.0
 72
0.0
 73
0
 74
0
 75
0
 76
0
 77
1
 78
8
170
0
171
2
172
0
173
0
174
0
175
0
176
0
177
0
178
5
270
2
271
3
272
3
273
2
274
2
275
0
280
0
281
0
282
0
283
1
284
8
285
0
286
0
287
3
288
0
340
11
341
219
342
219
343
219
344
219
  0
DIMSTYLE
105
222
100
AcDbSymbolTableRecord
100
AcDbDimStyleTableRecord
  2
DIMSTYLE_1
 70
0
  3

  4

 40
1.0
 41
3.5
 42
0.0625
 43
0.38
 44
0.18
 45
0.0
 46
0.0
 47
0.0
 48
0.1
140
3.5
141
0.09
142
0.0
143
25.4
144
1.0
145
0.0
146
1.0
147
0.09
 71
0.0
 72
0.0
 73
0
 74
0
 75
0
 76
0
 77
1
 78
8
170
0
171
2
172
0
173
0
174
0
175
0
176
0
177
0
178
5
270
2
271
2
272
2
273
2
274
2
275
0
280
0
281
0
282
0
283
1
284
8
285
0
286
0
287
3
288
0
340
11
341
219
342
219
343
219
344
219
  0
DIMSTYLE
105
223
100
AcDbSymbolTableRecord
100
AcDbDimStyleTableRecord
  2
DIMSTYLE_2
 70
0
  3

  4

 40
1.0
 41
3.5
 42
0.0625
 43
0.38
 44
0.18
 45
0.0
 46
0.0
 47
0.25
 48
0.25
140
3.5
141
0.09
142
0.0
143
25.4
144
1.0
145
0.0
146
1.0
147
0.09
 71
0.0
 72
0.0
 73
0
 74
0
 75
0
 76
0
 77
1
 78
8
170
0
171
2
172
0
173
0
174
0
175
0
176
0
177
0
178
5
270
2
271
2
272
2
273
2
274
2
275
0
280
0
281
0
282
0
283
1
284
8
285
0
286
0
287
3
288
0
340
11
341
219
342
219
343
219
344
219
  0
DIMSTYLE
105
224
100
AcDbSymbolTableRecord
100
AcDbDimStyleTableRecord
  2
DIMSTYLE_3
 70
0
  3

  4

 40
1.0
 41
3.5
 42
0.0625
 43
0.38
 44
0.18
 45
0.0
 46
0.0
 47
0.3
 48
0.3
140
3.5
141
0.09
142
0.0
143
25.4
144
1.0
145
0.0
146
1.0
147
0.09
 71
0.0
 72
0.0
 73
0
 74
0
 75
0
 76
0
 77
1
 78
8
170
0
171
2
172
0
173
0
174
0
175
0
176
0
177
0
178
5
270
2
271
2
272
2
273
2
274
2
275
0
280
0
281
0
282
0
283
1
284
8
285
0
286
0
287
3
288
0
340
11
341
219
342
219
343
219
344
219
  0
DIMSTYLE
105
225
100
AcDbSymbolTableRecord
100
AcDbDimStyleTableRecord
  2
DIMSTYLE_4
 70
0
  3

  4

 40
1.0
 41
3.5
 42
0.0625
 43
0.38
 44
0.18
 45
0.0
 46
0.0
 47
-0.025
 48
0.03
140
3.5
141
0.09
142
0.0
143
25.4
144
1.0
145
0.0
146
1.0
147
0.09
 71
0.0
 72
0.0
 73
0
 74
0
 75
0
 76
0
 77
1
 78
8
170
0
171
2
172
0
173
0
174
0
175
0
176
0
177
0
178
5
270
2
271
3
272
3
273
2
274
2
275
0
280
0
281
0
282
0
283
1
284
8
285
0
286
0
287
3
288
0
340
11
341
219
342
219
343
219
344
219
  0
DIMSTYLE
105
226
100
AcDbSymbolTableRecord
100
AcDbDimStyleTableRecord
  2
DIMSTYLE_5
 70
0
  3

  4

 40
1.0
 41
3.5
 42
0.0625
 43
0.38
 44
0.18
 45
0.0
 46
0.0
 47
0.5
 48
0.5
140
3.5
141
0.09
142
0.0
143
25.4
144
1.0
145
0.0
146
1.0
147
0.09
 71
0.0
 72
0.0
 73
0
 74
0
 75
0
 76
0
 77
1
 78
8
170
0
171
2
172
0
173
0
174
0
175
0
176
0
177
0
178
5
270
2
271
2
272
2
273
2
274
2
275
0
280
0
281
0
282
0
283
1
284
8
285
0
286
0
287
3
288
0
340
11
341
219
342
219
343
219
344
219
  0
ENDTAB
  0
ENDSEC
  0
SECTION
  2
BLOCKS
  0
BLOCK
  5
20
100
AcDbEntity
  8
0
100
AcDbBlockBegin
  2
*Model_Space
 70
0
 10
0.0
 20
0.0
 30
0.0
  3
*Model_Space
  1

  0
ENDBLK
  5
21
100
AcDbEntity
  8
0
100
AcDbBlockEnd
  0
BLOCK
  5
1C
100
AcDbEntity
  8
0
100
AcDbBlockBegin
  2
*Paper_Space
 70
0
 10
0.0
 20
0.0
 30
0.0
  3
*Paper_Space
  1

  0
ENDBLK
  5
1D
100
AcDbEntity
  8
0
100
AcDbBlockEnd
  0
BLOCK
  5
227
100
AcDbEntity
  8
0
100
AcDbBlockBegin
  2
_FILLED
 70
64
 10
0.0
 20
0.0
  3
_FILLED
  1

  0
SOLID
  5
228
100
AcDbEntity
  8
0
  6
BYBLOCK
 62
0
100
AcDbTrace
 10
0.0
 20
0.0
 11
-1.0
 21
0.125
 12
-1.0
 22
-0.125
 13
-1.0
 23
-0.125
  0
ENDBLK
  5
229
100
AcDbEntity
  8
0
  6
BYBLOCK
 62
0
100
AcDbBlockEnd
  0
BLOCK
  5
22A
100
AcDbEntity
  8
0
100
AcDbBlockBegin
 62
2
  6
CONTINUOUS
  2
*D0
 70
65
 10
0.0
 20
0.0
  3
*D0
  1

  0
MTEXT
  5
22B
100
AcDbEntity
  8
0
100
AcDbMText
 62
5
  6
CONTINUOUS
  7
TEXTSTYLE_2
 71
2
 72
1
 10
246.8405787623
 20
138.2120599845
 30
0.0
 11
0.0
 21
1.0
 31
0.0
 44
0.9
  1
{\Fgdt;n}\Ftxt;27
 40
3.5
 41
10.1666666667
  0
LINE
  5
22C
100
AcDbEntity
  8
0
100
AcDbLine
 62
2
  6
CONTINUOUS
 10
214.9363328648
 20
151.6870599845
 11
217.9814664077
 21
151.6870599845
  0
LINE
  5
22D
100
AcDbEntity
  8
0
100
AcDbLine
 62
2
  6
CONTINUOUS
 10
222.1438990688
 20
151.6870599845
 11
252.7155787623
 21
151.6870599845
  0
LINE
  5
22E
100
AcDbEntity
  8
0
100
AcDbLine
 62
2
  6
CONTINUOUS
 10
212.7312019231
 20
124.7370599845
 11
239.8594900233
 21
124.7370599845
  0
LINE
  5
22F
100
AcDbEntity
  8
0
100
AcDbLine
 62
2
  6
CONTINUOUS
 10
245.1388014531
 20
124.7370599845
 11
252.7155787623
 21
124.7370599845
  0
LINE
  5
230
100
AcDbEntity
  8
0
100
AcDbLine
 62
2
  6
CONTINUOUS
 10
251.2155787623
 20
151.6870599845
 11
251.2155787623
 21
138.2120599845
  0
LINE
  5
231
100
AcDbEntity
  8
0
100
AcDbLine
 62
2
  6
CONTINUOUS
 10
251.2155787623
 20
124.7370599845
 11
251.2155787623
 21
138.2120599845
  0
INSERT
  5
232
100
AcDbEntity
  8
0
100
AcDbBlockReference
 62
2
  6
CONTINUOUS
  2
_FILLED
 10
251.2155787623
 20
151.6870599845
 41
3.5
 42
3.5
 43
3.5
 50
90.0
  0
INSERT
  5
233
100
AcDbEntity
  8
0
100
AcDbBlockReference
 62
2
  6
CONTINUOUS
  2
_FILLED
 10
251.2155787623
 20
124.7370599845
 41
3.5
 42
3.5
 43
3.5
 50
270.0
  0
ENDBLK
  5
234
100
AcDbEntity
  8
0
  6
BYBLOCK
 62
0
100
AcDbBlockEnd
  0
BLOCK
  5
235
100
AcDbEntity
  8
0
100
AcDbBlockBegin
 62
2
  6
CONTINUOUS
  2
*D1
 70
65
 10
0.0
 20
0.0
  3
*D1
  1

  0
MTEXT
  5
236
100
AcDbEntity
  8
0
100
AcDbMText
 62
5
  6
CONTINUOUS
  7
STANDARD
 71
2
 72
1
 10
233.8341780258
 20
108.228088105
 30
0.0
 11
0.1903995978
 21
0.9817066737
 31
0.0
 44
0.9
  1
4\Fgdt;{\Fgdt;~}\Ftxt;30'
 40
3.5
 41
12.3333333333
  0
LINE
  5
237
100
AcDbEntity
  8
0
100
AcDbLine
 62
2
  6
CONTINUOUS
 10
196.2601721244
 20
123.5588143865
 11
243.3472372685
 21
127.2646467827
  0
LINE
  5
238
100
AcDbEntity
  8
0
100
AcDbLine
 62
2
  6
CONTINUOUS
 10
168.2594853465
 20
121.2370599845
 11
202.3972304527
 21
121.2370599845
  0
LINE
  5
239
100
AcDbEntity
  8
0
100
AcDbLine
 62
2
  6
CONTINUOUS
 10
218.0408456893
 20
121.2370599845
 11
243.5840617988
 21
121.2370599845
  0
ARC
  5
23A
100
AcDbEntity
  8
0
100
AcDbCircle
 62
2
  6
CONTINUOUS
 10
166.7594853465
 20
121.2370599845
 40
75.3245764523
100
AcDbArc
 50
4.5
 51
9.0639111864
  0
ARC
  5
23B
100
AcDbEntity
  8
0
100
AcDbCircle
 62
2
  6
CONTINUOUS
 10
166.7594853465
 20
121.2370599845
 40
75.3245764523
100
AcDbArc
 50
349.0238948156
 51
0.0
  0
ARC
  5
23C
100
AcDbEntity
  8
0
100
AcDbCircle
 62
2
  6
CONTINUOUS
 10
166.7594853465
 20
121.2370599845
 40
75.3245764523
100
AcDbArc
 50
360.0
 51
4.5
  0
SOLID
  5
23D
100
AcDbEntity
  8
0
100
AcDbTrace
 62
2
  6
CONTINUOUS
 10
241.0610355213
 20
130.5843991769
 11
241.8518612679
 21
127.1469581391
 12
241.9315079536
 22
130.6732965595
 13
241.9315079536
 23
130.6732965595
  0
SOLID
  5
23E
100
AcDbEntity
  8
0
100
AcDbTrace
 62
2
  6
CONTINUOUS
 10
242.440136284
 20
117.7278410955
 11
242.0840617988
 21
121.2370599845
 12
241.5653724195
 22
117.7481679573
 13
241.5653724195
 23
117.7481679573
  0
ENDBLK
  5
23F
100
AcDbEntity
  8
0
  6
BYBLOCK
 62
0
100
AcDbBlockEnd
  0
BLOCK
  5
240
100
AcDbEntity
  8
0
100
AcDbBlockBegin
 62
2
  6
CONTINUOUS
  2
*D2
 70
65
 10
0.0
 20
0.0
  3
*D2
  1

  0
MTEXT
  5
241
100
AcDbEntity
  8
0
100
AcDbMText
 62
5
  6
CONTINUOUS
  7
STANDARD
 71
2
 72
1
 10
161.2312019231
 20
185.7012552048
 30
0.0
 11
1.0
 21
0.0
 31
0.0
 44
0.9
  1
100
 40
3.5
 41
7.5
  0
LINE
  5
242
100
AcDbEntity
  8
0
100
AcDbLine
 62
2
  6
CONTINUOUS
 10
111.2312019231
 20
162.6782346933
 11
111.2312019231
 21
182.8262552048
  0
LINE
  5
243
100
AcDbEntity
  8
0
100
AcDbLine
 62
2
  6
CONTINUOUS
 10
211.2312019231
 20
146.0126346933
 11
211.2312019231
 21
182.8262552048
  0
LINE
  5
244
100
AcDbEntity
  8
0
100
AcDbLine
 62
2
  6
CONTINUOUS
 10
111.2312019231
 20
181.3262552048
 11
161.2312019231
 21
181.3262552048
  0
LINE
  5
245
100
AcDbEntity
  8
0
100
AcDbLine
 62
2
  6
CONTINUOUS
 10
211.2312019231
 20
181.3262552048
 11
161.2312019231
 21
181.3262552048
  0
INSERT
  5
246
100
AcDbEntity
  8
0
100
AcDbBlockReference
 62
2
  6
CONTINUOUS
  2
_FILLED
 10
111.2312019231
 20
181.3262552048
 41
3.5
 42
3.5
 43
3.5
 50
180.0
  0
INSERT
  5
247
100
AcDbEntity
  8
0
100
AcDbBlockReference
 62
2
  6
CONTINUOUS
  2
_FILLED
 10
211.2312019231
 20
181.3262552048
 41
3.5
 42
3.5
 43
3.5
  0
ENDBLK
  5
248
100
AcDbEntity
  8
0
  6
BYBLOCK
 62
0
100
AcDbBlockEnd
  0
BLOCK
  5
249
100
AcDbEntity
  8
0
100
AcDbBlockBegin
 62
2
  6
CONTINUOUS
  2
*D3
 70
65
 10
0.0
 20
0.0
  3
*D3
  1

  0
MTEXT
  5
24A
100
AcDbEntity
  8
0
100
AcDbMText
 62
5
  6
CONTINUOUS
  7
TEXTSTYLE_2
 71
2
 72
1
 10
231.1974256534
 20
138.2120599845
 30
0.0
 11
0.0
 21
1.0
 31
0.0
 44
0.9
  1
{\Fgdt;n}\Ftxt;14
 40
3.5
 41
9.4166666667
  0
LINE
  5
24B
100
AcDbEntity
  8
0
100
AcDbLine
 62
2
  6
CONTINUOUS
 10
195.4949060245
 20
131.2258099845
 11
237.0724256534
 21
131.2258099845
  0
LINE
  5
24C
100
AcDbEntity
  8
0
100
AcDbLine
 62
2
  6
CONTINUOUS
 10
195.3515460245
 20
145.1983099845
 11
237.0724256534
 21
145.1983099845
  0
LINE
  5
24D
100
AcDbEntity
  8
0
100
AcDbLine
 62
2
  6
CONTINUOUS
 10
235.5724256534
 20
131.2258099845
 11
235.5724256534
 21
138.2120599845
  0
LINE
  5
24E
100
AcDbEntity
  8
0
100
AcDbLine
 62
2
  6
CONTINUOUS
 10
235.5724256534
 20
145.1983099845
 11
235.5724256534
 21
138.2120599845
  0
INSERT
  5
24F
100
AcDbEntity
  8
0
100
AcDbBlockReference
 62
2
  6
CONTINUOUS
  2
_FILLED
 10
235.5724256534
 20
131.2258099845
 41
3.5
 42
3.5
 43
3.5
 50
270.0
  0
INSERT
  5
250
100
AcDbEntity
  8
0
100
AcDbBlockReference
 62
2
  6
CONTINUOUS
  2
_FILLED
 10
235.5724256534
 20
145.1983099845
 41
3.5
 42
3.5
 43
3.5
 50
90.0
  0
ENDBLK
  5
251
100
AcDbEntity
  8
0
  6
BYBLOCK
 62
0
100
AcDbBlockEnd
  0
BLOCK
  5
252
100
AcDbEntity
  8
0
100
AcDbBlockBegin
 62
2
  6
CONTINUOUS
  2
*D4
 70
65
 10
0.0
 20
0.0
  3
*D4
  1

  0
MTEXT
  5
253
100
AcDbEntity
  8
0
100
AcDbMText
 62
5
  6
CONTINUOUS
  7
STANDARD
 71
2
 72
1
 10
172.2312019231
 20
178.4161758155
 30
0.0
 11
1.0
 21
0.0
 31
0.0
 44
0.9
  1
78
 40
3.5
 41
5.5
  0
LINE
  5
254
100
AcDbEntity
  8
0
100
AcDbLine
 62
2
  6
CONTINUOUS
 10
211.2312019231
 20
126.2370599845
 11
211.2312019231
 21
175.5411758155
  0
LINE
  5
255
100
AcDbEntity
  8
0
100
AcDbLine
 62
2
  6
CONTINUOUS
 10
133.2312019231
 20
166.6909918353
 11
133.2312019231
 21
175.5411758155
  0
LINE
  5
256
100
AcDbEntity
  8
0
100
AcDbLine
 62
2
  6
CONTINUOUS
 10
211.2312019231
 20
174.0411758155
 11
172.2312019231
 21
174.0411758155
  0
LINE
  5
257
100
AcDbEntity
  8
0
100
AcDbLine
 62
2
  6
CONTINUOUS
 10
133.2312019231
 20
174.0411758155
 11
172.2312019231
 21
174.0411758155
  0
INSERT
  5
258
100
AcDbEntity
  8
0
100
AcDbBlockReference
 62
2
  6
CONTINUOUS
  2
_FILLED
 10
211.2312019231
 20
174.0411758155
 41
3.5
 42
3.5
 43
3.5
  0
INSERT
  5
259
100
AcDbEntity
  8
0
100
AcDbBlockReference
 62
2
  6
CONTINUOUS
  2
_FILLED
 10
133.2312019231
 20
174.0411758155
 41
3.5
 42
3.5
 43
3.5
 50
180.0
  0
ENDBLK
  5
25A
100
AcDbEntity
  8
0
  6
BYBLOCK
 62
0
100
AcDbBlockEnd
  0
BLOCK
  5
25B
100
AcDbEntity
  8
0
100
AcDbBlockBegin
 62
2
  6
CONTINUOUS
  2
*D5
 70
65
 10
0.0
 20
0.0
  3
*D5
  1

  0
MTEXT
  5
25C
100
AcDbEntity
  8
0
100
AcDbMText
 62
5
  6
CONTINUOUS
  7
STANDARD
 71
2
 72
1
 10
142.2312019231
 20
194.9230364956
 30
0.0
 11
1.0
 21
0.0
 31
0.0
 44
0.9
  1
138
 40
3.5
 41
7.25
  0
LINE
  5
25D
100
AcDbEntity
  8
0
100
AcDbLine
 62
2
  6
CONTINUOUS
 10
211.2312019231
 20
126.2370599845
 11
211.2312019231
 21
192.0480364956
  0
LINE
  5
25E
100
AcDbEntity
  8
0
100
AcDbLine
 62
2
  6
CONTINUOUS
 10
73.2312019231
 20
119.5259442152
 11
73.2312019231
 21
192.0480364956
  0
LINE
  5
25F
100
AcDbEntity
  8
0
100
AcDbLine
 62
2
  6
CONTINUOUS
 10
211.2312019231
 20
190.5480364956
 11
142.2312019231
 21
190.5480364956
  0
LINE
  5
260
100
AcDbEntity
  8
0
100
AcDbLine
 62
2
  6
CONTINUOUS
 10
73.2312019231
 20
190.5480364956
 11
142.2312019231
 21
190.5480364956
  0
INSERT
  5
261
100
AcDbEntity
  8
0
100
AcDbBlockReference
 62
2
  6
CONTINUOUS
  2
_FILLED
 10
211.2312019231
 20
190.5480364956
 41
3.5
 42
3.5
 43
3.5
  0
INSERT
  5
262
100
AcDbEntity
  8
0
100
AcDbBlockReference
 62
2
  6
CONTINUOUS
  2
_FILLED
 10
73.2312019231
 20
190.5480364956
 41
3.5
 42
3.5
 43
3.5
 50
180.0
  0
ENDBLK
  5
263
100
AcDbEntity
  8
0
  6
BYBLOCK
 62
0
100
AcDbBlockEnd
  0
BLOCK
  5
264
100
AcDbEntity
  8
0
100
AcDbBlockBegin
 62
2
  6
CONTINUOUS
  2
*D6
 70
65
 10
0.0
 20
0.0
  3
*D6
  1

  0
MTEXT
  5
265
100
AcDbEntity
  8
0
100
AcDbMText
 62
5
  6
CONTINUOUS
  7
TEXTSTYLE_2
 71
2
 72
1
 10
260.315839234
 20
138.2120599845
 30
0.0
 11
0.0
 21
1.0
 31
0.0
 44
0.9
  1
{\Fgdt;n}\Ftxt;34
 40
3.5
 41
9.9166666667
  0
LINE
  5
266
100
AcDbEntity
  8
0
100
AcDbLine
 62
2
  6
CONTINUOUS
 10
168.2594853465
 20
155.1870599845
 11
203.4294029435
 21
155.1870599845
  0
LINE
  5
267
100
AcDbEntity
  8
0
100
AcDbLine
 62
2
  6
CONTINUOUS
 10
225.1506876199
 20
155.1870599845
 11
266.190839234
 21
155.1870599845
  0
LINE
  5
268
100
AcDbEntity
  8
0
100
AcDbLine
 62
2
  6
CONTINUOUS
 10
168.2594853465
 20
121.2370599845
 11
208.3593588049
 21
121.2370599845
  0
LINE
  5
269
100
AcDbEntity
  8
0
100
AcDbLine
 62
2
  6
CONTINUOUS
 10
217.7305416225
 20
121.2370599845
 11
266.190839234
 21
121.2370599845
  0
LINE
  5
26A
100
AcDbEntity
  8
0
100
AcDbLine
 62
2
  6
CONTINUOUS
 10
264.690839234
 20
155.1870599845
 11
264.690839234
 21
138.2120599845
  0
LINE
  5
26B
100
AcDbEntity
  8
0
100
AcDbLine
 62
2
  6
CONTINUOUS
 10
264.690839234
 20
121.2370599845
 11
264.690839234
 21
138.2120599845
  0
INSERT
  5
26C
100
AcDbEntity
  8
0
100
AcDbBlockReference
 62
2
  6
CONTINUOUS
  2
_FILLED
 10
264.690839234
 20
155.1870599845
 41
3.5
 42
3.5
 43
3.5
 50
90.0
  0
INSERT
  5
26D
100
AcDbEntity
  8
0
100
AcDbBlockReference
 62
2
  6
CONTINUOUS
  2
_FILLED
 10
264.690839234
 20
121.2370599845
 41
3.5
 42
3.5
 43
3.5
 50
270.0
  0
ENDBLK
  5
26E
100
AcDbEntity
  8
0
  6
BYBLOCK
 62
0
100
AcDbBlockEnd
  0
ENDSEC
  0
SECTION
  2
ENTITIES
  0
DIMENSION
  5
26F
100
AcDbEntity
  8
0
100
AcDbDimension
 62
2
  6
CONTINUOUS
  2
*D0
 10
251.2155787623
 20
124.7370599845
 11
249.7294325367
 21
135.9398184645
 70
160
 71
2
 42
26.95
  1
%%c<>
  3
DIMSTYLE_1
100
AcDbAlignedDimension
 13
214.9363328648
 23
151.6870599845
 14
212.7312019231
 24
124.7370599845
 50
270.0
100
AcDbRotatedDimension
  0
DIMENSION
  5
270
100
AcDbEntity
  8
0
100
AcDbDimension
 62
2
  6
CONTINUOUS
  2
*D1
 10
243.5840617988
 20
121.2370599845
 11
237.7649251939
 21
109.0583710895
 70
162
 71
2
 42
0.0785398163
  3
DIMSTYLE_2
100
AcDb2LineAngularDimension
 13
243.3472372685
 23
127.2646467827
 14
196.2601721244
 24
123.5588143865
 15
168.2594853465
 25
121.2370599845
 16
242.0259892801
 26
124.1942889782
  0
DIMENSION
  5
271
100
AcDbEntity
  8
0
100
AcDbDimension
 62
2
  6
CONTINUOUS
  2
*D2
 10
211.2312019231
 20
181.3262552048
 11
157.4812019231
 21
183.9512552048
 70
160
 71
2
 42
100.0
  3
DIMSTYLE_3
100
AcDbAlignedDimension
 13
111.2312019231
 23
162.6782346933
 14
211.2312019231
 24
146.0126346933
100
AcDbRotatedDimension
  0
DIMENSION
  5
272
100
AcDbEntity
  8
0
100
AcDbDimension
 62
2
  6
CONTINUOUS
  2
*D3
 10
235.5724256534
 20
145.1983099845
 11
234.0022656247
 21
136.107442839
 70
160
 71
2
 42
13.9725
  1
%%c<>
  3
DIMSTYLE_4
100
AcDbAlignedDimension
 13
195.4949060245
 23
131.2258099845
 14
195.3515460245
 24
145.1983099845
 50
90.0
100
AcDbRotatedDimension
  0
DIMENSION
  5
273
100
AcDbEntity
  8
0
100
AcDbDimension
 62
2
  6
CONTINUOUS
  2
*D4
 10
133.2312019231
 20
174.0411758155
 11
169.4812019231
 21
176.6661758155
 70
160
 71
2
 42
78.0
  3
DIMSTYLE_3
100
AcDbAlignedDimension
 13
211.2312019231
 23
126.2370599845
 14
133.2312019231
 24
166.6909918353
 50
180.0
100
AcDbRotatedDimension
  0
DIMENSION
  5
274
100
AcDbEntity
  8
0
100
AcDbDimension
 62
2
  6
CONTINUOUS
  2
*D5
 10
73.2312019231
 20
190.5480364956
 11
138.6062019231
 21
193.1730364956
 70
160
 71
2
 42
138.0
  3
DIMSTYLE_5
100
AcDbAlignedDimension
 13
211.2312019231
 23
126.2370599845
 14
73.2312019231
 24
119.5259442152
 50
180.0
100
AcDbRotatedDimension
  0
DIMENSION
  5
275
100
AcDbEntity
  8
0
100
AcDbDimension
 62
2
  6
CONTINUOUS
  2
*D6
 10
264.690839234
 20
121.2370599845
 11
263.1766884073
 21
135.995693256
 70
160
 71
2
 42
33.95
  1
%%c<>
  3
DIMSTYLE_1
100
AcDbAlignedDimension
 13
168.2594853465
 23
155.1870599845
 14
168.2594853465
 24
121.2370599845
 50
270.0
100
AcDbRotatedDimension
  0
MTEXT
  5
276
100
AcDbEntity
  8
0
100
AcDbMText
 62
5
  6
CONTINUOUS
  7
STANDARD
 71
1
 72
1
 10
29.4549441268
 20
89.2970049376
 30
0.0
 11
1.0
 21
0.0
 31
0.0
 44
0.9
  3
Für diese Unterlage behalten wir das Ur-\Pheberrecht. Sie darf nur für den von uns \Pbestimmten Zweck benutzt und ohne unsere \PZustimmung weder vervielfältigt noch\PDritten zugänglich gemacht werden\P \PWe own the copyright of this document. It \Pde
  1
termined and may neither be copied or \Pmade accessible to outsiders without our\Ppermission.\P \PCe plan reste notre propriété. Il ne peut\Pêtre utilisé, copié ou reproduit sans notre\Paccord.\P 
 40
3.5
 41
104.8333333333
  0
LINE
  5
277
100
AcDbEntity
  8
0
100
AcDbLine
 62
7
  6
CONTINUOUS
 10
0.0
 20
0.0
 11
0.0
 21
210.0
  0
LINE
  5
278
100
AcDbEntity
  8
0
100
AcDbLine
 62
7
  6
CONTINUOUS
 10
0.0
 20
0.0
 11
297.0
 21
0.0
  0
LINE
  5
279
100
AcDbEntity
  8
0
100
AcDbLine
 62
7
  6
CONTINUOUS
 10
0.0
 20
210.0
 11
297.0
 21
210.0
  0
LINE
  5
27A
100
AcDbEntity
  8
0
100
AcDbLine
 62
7
  6
CONTINUOUS
 10
297.0
 20
0.0
 11
297.0
 21
210.0
  0
LINE
  5
27B
100
AcDbEntity
  8
0
100
AcDbLine
 62
7
  6
CONTINUOUS
 10
73.2312019231
 20
116.5197219916
 11
73.2312019231
 21
153.1733046233
  0
LINE
  5
27C
100
AcDbEntity
  8
KURVEN
100
AcDbLine
 62
4
  6
CONTINUOUS
 10
73.2312019231
 20
115.6913818089
 11
73.2312019231
 21
157.4236339715
  0
LINE
  5
27D
100
AcDbEntity
  8
ACHSEN
100
AcDbLine
 62
7
  6
CONTINUOUS
 10
73.2312019231
 20
153.1733046233
 11
73.2312019231
 21
156.9605392985
  0
LINE
  5
27E
100
AcDbEntity
  8
ACHSEN
100
AcDbLine
 62
7
  6
CONTINUOUS
 10
74.7312019231
 20
157.7090495981
 11
74.7312019231
 21
153.9233046233
  0
LINE
  5
27F
100
AcDbEntity
  8
0
100
AcDbLine
 62
7
  6
CONTINUOUS
 10
74.7312019231
 20
153.9233046233
 11
74.7312019231
 21
115.6536965879
  0
LINE
  5
280
100
AcDbEntity
  8
ACHSEN
100
AcDbLine
 62
7
  6
CENTER
 10
95.7312019231
 20
115.2785744775
 11
95.7312019231
 21
162.4004305491
  0
LINE
  5
281
100
AcDbEntity
  8
0
100
AcDbLine
 62
7
  6
CONTINUOUS
 10
111.231203759
 20
169.4120580772
 11
111.5312038489
 21
169.7120581311
  0
LINE
  5
282
100
AcDbEntity
  8
0
100
AcDbLine
 62
9
  6
CONTINUOUS
 10
74.7312019231
 20
153.9233046233
 11
73.2312019231
 21
153.1733046233
  0
LINE
  5
283
100
AcDbEntity
  8
0
100
AcDbLine
 62
7
  6
CONTINUOUS
 10
74.7312019231
 20
115.6536965879
 11
73.2312019231
 21
116.5197219916
  0
LINE
  5
284
100
AcDbEntity
  8
0
100
AcDbLine
 62
9
  6
CONTINUOUS
 10
74.7312019231
 20
117.2759442152
 11
73.2312019231
 21
118.0259442152
  0
LINE
  5
285
100
AcDbEntity
  8
0
100
AcDbLine
 62
7
  6
CONTINUOUS
 10
111.231203759
 20
107.0120618919
 11
111.5312038489
 21
106.712061838
  0
LINE
  5
286
100
AcDbEntity
  8
0
100
AcDbLine
 62
7
  6
CONTINUOUS
 10
109.0312650121
 20
158.8321603541
 11
109.0312650121
 21
154.6695907332
  0
LINE
  5
287
100
AcDbEntity
  8
0
100
AcDbLine
 62
7
  6
CONTINUOUS
 10
109.0312650121
 20
143.4369311151
 11
109.0312650121
 21
116.5296581053
  0
LINE
  5
288
100
AcDbEntity
  8
0
100
AcDbLine
 62
9
  6
CONTINUOUS
 10
109.2362250342
 20
158.6372465543
 11
109.2362250342
 21
152.8970021893
  0
LINE
  5
289
100
AcDbEntity
  8
0
100
AcDbLine
 62
9
  6
CONTINUOUS
 10
109.2362250342
 20
146.3980031713
 11
109.2362250342
 21
115.341174593
  0
LINE
  5
28A
100
AcDbEntity
  8
0
100
AcDbLine
 62
9
  6
CONTINUOUS
 10
109.9240951419
 20
115.4691667657
 11
109.9240951419
 21
116.1085033336
  0
LINE
  5
28B
100
AcDbEntity
  8
0
100
AcDbLine
 62
9
  6
CONTINUOUS
 10
109.9240951419
 20
144.6265997453
 11
109.9240951419
 21
153.9010768747
  0
LINE
  5
28C
100
AcDbEntity
  8
0
100
AcDbLine
 62
9
  6
CONTINUOUS
 10
110.8362250342
 20
158.6774441234
 11
110.8362250342
 21
154.5565382715
  0
LINE
  5
28D
100
AcDbEntity
  8
0
100
AcDbLine
 62
9
  6
CONTINUOUS
 10
110.8362250342
 20
143.3950104377
 11
110.8362250342
 21
116.6846312444
  0
LINE
  5
28E
100
AcDbEntity
  8
0
100
AcDbLine
 62
7
  6
CONTINUOUS
 10
111.0312019231
 20
116.8126449679
 11
111.0311059567
 21
142.8372851986
  0
LINE
  5
28F
100
AcDbEntity
  8
0
100
AcDbLine
 62
7
  6
CONTINUOUS
 10
111.2312019231
 20
107.0123356541
 11
111.2312019231
 21
169.411784315
  0
LINE
  5
290
100
AcDbEntity
  8
0
100
AcDbLine
 62
7
  6
CONTINUOUS
 10
111.5312019966
 20
106.7120599845
 11
111.5312019966
 21
169.7120599845
  0
LINE
  5
291
100
AcDbEntity
  8
0
100
AcDbLine
 62
7
  6
CONTINUOUS
 10
111.0311370713
 20
155.0016345703
 11
111.0312019231
 21
160.7455448455
  0
LINE
  5
292
100
AcDbEntity
  8
0
100
AcDbLine
 62
7
  6
CONTINUOUS
 10
111.0311370713
 20
116.8018918931
 11
111.0312019231
 21
116.8186735274
  0
LINE
  5
293
100
AcDbEntity
  8
0
100
AcDbLine
 62
7
  6
CONTINUOUS
 10
133.2312019231
 20
106.7120599845
 11
111.5312019955
 21
106.7120599845
  0
LINE
  5
294
100
AcDbEntity
  8
0
100
AcDbLine
 62
7
  6
CONTINUOUS
 10
124.6925267885
 20
108.1314672242
 11
121.7698770577
 21
108.1314672242
  0
LINE
  5
295
100
AcDbEntity
  8
0
100
AcDbLine
 62
9
  6
CONTINUOUS
 10
121.3368643558
 20
168.126014831
 11
121.3368643558
 21
148.0814726035
  0
LINE
  5
296
100
AcDbEntity
  8
0
100
AcDbLine
 62
9
  6
CONTINUOUS
 10
121.3368643558
 20
128.3426473656
 11
121.3368643558
 21
108.2981051381
  0
LINE
  5
297
100
AcDbEntity
  8
0
100
AcDbLine
 62
9
  6
CONTINUOUS
 10
121.7698770577
 20
168.2926527448
 11
121.7698770577
 21
147.5612812991
  0
LINE
  5
298
100
AcDbEntity
  8
0
100
AcDbLine
 62
9
  6
CONTINUOUS
 10
121.7698770577
 20
128.86283867
 11
121.7698770577
 21
108.1314672242
  0
LINE
  5
299
100
AcDbEntity
  8
ACHSEN
100
AcDbLine
 62
7
  6
CENTER
 10
123.2312019231
 20
162.2718785894
 11
123.2312019231
 21
172.7120599845
  0
LINE
  5
29A
100
AcDbEntity
  8
0
100
AcDbLine
 62
9
  6
CONTINUOUS
 10
124.6925267885
 20
168.2926527448
 11
124.6925267885
 21
147.5612812991
  0
LINE
  5
29B
100
AcDbEntity
  8
0
100
AcDbLine
 62
9
  6
CONTINUOUS
 10
124.6925267885
 20
128.86283867
 11
124.6925267885
 21
108.1314672242
  0
LINE
  5
29C
100
AcDbEntity
  8
0
100
AcDbLine
 62
9
  6
CONTINUOUS
 10
125.1255394904
 20
168.126014831
 11
125.1255394904
 21
148.0814726035
  0
LINE
  5
29D
100
AcDbEntity
  8
0
100
AcDbLine
 62
9
  6
CONTINUOUS
 10
125.1255394904
 20
128.3426473656
 11
125.1255394904
 21
108.2981051381
  0
LINE
  5
29E
100
AcDbEntity
  8
0
100
AcDbLine
 62
9
  6
CONTINUOUS
 10
109.0312650121
 20
116.5296581053
 11
74.7312019231
 21
117.2759442152
  0
LINE
  5
29F
100
AcDbEntity
  8
0
100
AcDbLine
 62
7
  6
CONTINUOUS
 10
109.4842306739
 20
115.3353311092
 11
109.2362250342
 21
115.341174593
  0
LINE
  5
2A0
100
AcDbEntity
  8
0
100
AcDbLine
 62
7
  6
CONTINUOUS
 10
74.7312019231
 20
115.6536965879
 11
109.2416047459
 21
114.7866751487
  0
LINE
  5
2A1
100
AcDbEntity
  8
0
100
AcDbLine
 62
7
  6
CONTINUOUS
 10
109.9240951419
 20
115.4691667657
 11
109.2416047456
 21
114.7866763694
  0
LINE
  5
2A2
100
AcDbEntity
  8
RUNDUNGEN
100
AcDbLine
 62
7
  6
CONTINUOUS
 10
210.3096610188
 20
124.6645331425
 11
166.7594853465
 21
121.2370599845
  0
LINE
  5
2A3
100
AcDbEntity
  8
0
100
AcDbLine
 62
7
  6
CONTINUOUS
 10
166.7594853465
 20
121.2370599845
 11
210.3096610188
 21
124.6645331425
  0
LINE
  5
2A4
100
AcDbEntity
  8
0
100
AcDbLine
 62
7
  6
CONTINUOUS
 10
166.7594853465
 20
121.2370599845
 11
160.4812019231
 21
121.2370599845
  0
LINE
  5
2A5
100
AcDbEntity
  8
0
100
AcDbLine
 62
7
  6
CONTINUOUS
 10
151.9812019231
 20
121.2370599845
 11
141.7312019231
 21
121.2370599845
  0
LINE
  5
2A6
100
AcDbEntity
  8
0
100
AcDbLine
 62
7
  6
CONTINUOUS
 10
152.7151765193
 20
121.5370599845
 11
153.7312019231
 21
121.5370599845
  0
LINE
  5
2A7
100
AcDbEntity
  8
0
100
AcDbLine
 62
7
  6
CONTINUOUS
 10
158.7312019231
 20
121.5370599845
 11
159.7472273269
 21
121.5370599845
  0
LINE
  5
2A8
100
AcDbEntity
  8
0
100
AcDbLine
 62
7
  6
CONTINUOUS
 10
133.2312019231
 20
106.7120599845
 11
133.2312019231
 21
169.7120599845
  0
LINE
  5
2A9
100
AcDbEntity
  8
0
100
AcDbLine
 62
7
  6
CONTINUOUS
 10
160.1472273269
 20
154.9942396615
 11
160.4812019231
 21
155.1870599845
  0
LINE
  5
2AA
100
AcDbEntity
  8
RUNDUNGEN
100
AcDbLine
 62
7
  6
CONTINUOUS
 10
160.1472273269
 20
154.9942396615
 11
160.4812019231
 21
155.1870599845
  0
LINE
  5
2AB
100
AcDbEntity
  8
RUNDUNGEN
100
AcDbLine
 62
9
  6
CONTINUOUS
 10
141.7312019231
 20
155.1870599845
 11
141.7312019231
 21
121.2370599845
  0
LINE
  5
2AC
100
AcDbEntity
  8
0
100
AcDbLine
 62
7
  6
CONTINUOUS
 10
124.6925267885
 20
128.86283867
 11
121.7698770577
 21
128.86283867
  0
LINE
  5
2AD
100
AcDbEntity
  8
DEFAULT_2
100
AcDbLine
 62
8
  6
HIDDEN
 10
163.7809668067
 20
130.8758099845
 11
173.8459926419
 21
130.8758099845
  0
LINE
  5
2AE
100
AcDbEntity
  8
BOHRUNGEN
100
AcDbLine
 62
8
  6
HIDDEN
 10
175.2312019231
 20
131.2258099845
 11
208.9312019231
 21
131.2258099845
  0
LINE
  5
2AF
100
AcDbEntity
  8
0
100
AcDbLine
 62
7
  6
CONTINUOUS
 10
160.1472273269
 20
121.4298803076
 11
160.4812019231
 21
121.2370599845
  0
LINE
  5
2B0
100
AcDbEntity
  8
RUNDUNGEN
100
AcDbLine
 62
7
  6
CONTINUOUS
 10
160.1472273269
 20
121.4298803076
 11
160.4812019231
 21
121.2370599845
  0
LINE
  5
2B1
100
AcDbEntity
  8
S_ACHSEN
100
AcDbLine
 62
7
  6
CENTER
 10
70.2312019231
 20
138.2120599845
 11
215.2312019231
 21
138.2120599845
  0
LINE
  5
2B2
100
AcDbEntity
  8
0
100
AcDbLine
 62
7
  6
CONTINUOUS
 10
151.9812019231
 20
155.1870599845
 11
151.9812019231
 21
121.2370599845
  0
LINE
  5
2B3
100
AcDbEntity
  8
RUNDUNGEN
100
AcDbLine
 62
9
  6
CONTINUOUS
 10
152.3151765193
 20
121.4298803076
 11
152.3151765193
 21
154.9942396615
  0
LINE
  5
2B4
100
AcDbEntity
  8
RUNDUNGEN
100
AcDbLine
 62
9
  6
CONTINUOUS
 10
152.7151765193
 20
121.5370599845
 11
152.7151765193
 21
154.8870599845
  0
LINE
  5
2B5
100
AcDbEntity
  8
0
100
AcDbLine
 62
9
  6
CONTINUOUS
 10
73.2312019231
 20
143.4369311151
 11
109.0312650121
 21
143.4369311151
  0
LINE
  5
2B6
100
AcDbEntity
  8
BOHRUNGEN
100
AcDbLine
 62
8
  6
HIDDEN
 10
175.2312019231
 20
145.1983099845
 11
208.9312019231
 21
145.1983099845
  0
LINE
  5
2B7
100
AcDbEntity
  8
BEZUGSACHSEN
100
AcDbLine
 62
7
  6
CENTER
 10
156.2312019231
 20
157.8870599845
 11
156.2312019231
 21
144.1870599845
  0
LINE
  5
2B8
100
AcDbEntity
  8
BEZUGSACHSEN
100
AcDbLine
 62
7
  6
CENTER
 10
156.2312019231
 20
118.5370599845
 11
156.2312019231
 21
132.2370599845
  0
LINE
  5
2B9
100
AcDbEntity
  8
RUNDUNGEN
100
AcDbLine
 62
9
  6
CONTINUOUS
 10
159.7472273269
 20
121.5370599845
 11
159.7472273269
 21
154.8870599845
  0
LINE
  5
2BA
100
AcDbEntity
  8
RUNDUNGEN
100
AcDbLine
 62
9
  6
CONTINUOUS
 10
160.1472273269
 20
121.4298803076
 11
160.1472273269
 21
154.9942396615
  0
LINE
  5
2BB
100
AcDbEntity
  8
0
100
AcDbLine
 62
7
  6
CONTINUOUS
 10
160.4812019231
 20
155.1870599845
 11
160.4812019231
 21
121.2370599845
  0
LINE
  5
2BC
100
AcDbEntity
  8
0
100
AcDbLine
 62
7
  6
CONTINUOUS
 10
151.9812019231
 20
121.2370599845
 11
152.3151765193
 21
121.4298803076
  0
LINE
  5
2BD
100
AcDbEntity
  8
RUNDUNGEN
100
AcDbLine
 62
7
  6
CONTINUOUS
 10
151.9812019231
 20
121.2370599845
 11
152.3151765193
 21
121.4298803076
  0
LINE
  5
2BE
100
AcDbEntity
  8
0
100
AcDbLine
 62
7
  6
CONTINUOUS
 10
109.2362250342
 20
146.3980031713
 11
109.4842306739
 21
146.3990174272
  0
LINE
  5
2BF
100
AcDbEntity
  8
RUNDUNGEN
100
AcDbLine
 62
8
  6
HIDDEN
 10
173.8459926419
 20
145.5483099845
 11
163.7809668067
 21
145.5483099845
  0
LINE
  5
2C0
100
AcDbEntity
  8
DEFAULT_2
100
AcDbLine
 62
8
  6
HIDDEN
 10
163.7809668067
 20
145.5483099845
 11
173.8459926419
 21
145.5483099845
  0
LINE
  5
2C1
100
AcDbEntity
  8
0
100
AcDbLine
 62
7
  6
CONTINUOUS
 10
124.6925267885
 20
147.5612812991
 11
121.7698770577
 21
147.5612812991
  0
LINE
  5
2C2
100
AcDbEntity
  8
RUNDUNGEN
100
AcDbLine
 62
9
  6
CONTINUOUS
 10
163.7809668067
 20
130.8758099845
 11
163.7809668067
 21
145.5483099845
  0
LINE
  5
2C3
100
AcDbEntity
  8
0
100
AcDbLine
 62
9
  6
CONTINUOUS
 10
74.7312019231
 20
153.9233046233
 11
109.0312650121
 21
154.6695907332
  0
LINE
  5
2C4
100
AcDbEntity
  8
0
100
AcDbLine
 62
7
  6
CONTINUOUS
 10
109.4842306739
 20
152.9018314172
 11
109.2362250342
 21
152.8970021893
  0
LINE
  5
2C5
100
AcDbEntity
  8
0
100
AcDbLine
 62
7
  6
CONTINUOUS
 10
152.7151765193
 20
154.8870599845
 11
153.7312019231
 21
154.8870599845
  0
LINE
  5
2C6
100
AcDbEntity
  8
BEZUGSACHSEN
100
AcDbLine
 62
7
  6
CONTINUOUS
 10
152.7151765193
 20
154.8870599845
 11
153.7312019231
 21
154.8870599845
  0
LINE
  5
2C7
100
AcDbEntity
  8
0
100
AcDbLine
 62
7
  6
CONTINUOUS
 10
158.7312019231
 20
154.8870599845
 11
159.7472273269
 21
154.8870599845
  0
LINE
  5
2C8
100
AcDbEntity
  8
BEZUGSACHSEN
100
AcDbLine
 62
7
  6
CONTINUOUS
 10
158.7312019231
 20
154.8870599845
 11
159.7472273269
 21
154.8870599845
  0
LINE
  5
2C9
100
AcDbEntity
  8
0
100
AcDbLine
 62
7
  6
CONTINUOUS
 10
166.7594853465
 20
155.1870599845
 11
160.4812019231
 21
155.1870599845
  0
LINE
  5
2CA
100
AcDbEntity
  8
0
100
AcDbLine
 62
7
  6
CONTINUOUS
 10
141.7312019231
 20
155.1870599845
 11
151.9812019231
 21
155.1870599845
  0
LINE
  5
2CB
100
AcDbEntity
  8
0
100
AcDbLine
 62
7
  6
CONTINUOUS
 10
166.7594853465
 20
121.2370599845
 11
166.7594853465
 21
155.1870599845
  0
LINE
  5
2CC
100
AcDbEntity
  8
0
100
AcDbLine
 62
7
  6
CONTINUOUS
 10
109.2362250342
 20
158.6372465543
 11
110.8362250342
 21
158.6774441234
  0
LINE
  5
2CD
100
AcDbEntity
  8
0
100
AcDbLine
 62
7
  6
CONTINUOUS
 10
81.4948066772
 20
158.1403486747
 11
91.2812019231
 21
158.3862169867
  0
LINE
  5
2CE
100
AcDbEntity
  8
0
100
AcDbLine
 62
7
  6
CONTINUOUS
 10
100.4105632563
 20
158.61557832
 11
109.0312650121
 21
158.8321603541
  0
LINE
  5
2CF
100
AcDbEntity
  8
RUNDUNGEN
100
AcDbLine
 62
7
  6
CONTINUOUS
 10
210.3096610188
 20
151.7595868266
 11
166.7594853465
 21
155.1870599845
  0
LINE
  5
2D0
100
AcDbEntity
  8
0
100
AcDbLine
 62
7
  6
CONTINUOUS
 10
166.7594853465
 20
155.1870599845
 11
210.3096610188
 21
151.7595868266
  0
LINE
  5
2D1
100
AcDbEntity
  8
0
100
AcDbLine
 62
7
  6
CONTINUOUS
 10
151.9812019231
 20
155.1870599845
 11
152.3151765193
 21
154.9942396615
  0
LINE
  5
2D2
100
AcDbEntity
  8
RUNDUNGEN
100
AcDbLine
 62
7
  6
CONTINUOUS
 10
151.9812019231
 20
155.1870599845
 11
152.3151765193
 21
154.9942396615
  0
LINE
  5
2D3
100
AcDbEntity
  8
0
100
AcDbLine
 62
7
  6
CONTINUOUS
 10
124.6925267885
 20
168.2926527448
 11
121.7698770577
 21
168.2926527448
  0
LINE
  5
2D4
100
AcDbEntity
  8
0
100
AcDbLine
 62
7
  6
CONTINUOUS
 10
133.2312019231
 20
169.7120599845
 11
128.452962625
 21
169.7120599845
  0
LINE
  5
2D5
100
AcDbEntity
  8
0
100
AcDbLine
 62
7
  6
CONTINUOUS
 10
118.009440736
 20
169.7120599845
 11
111.5312019955
 21
169.7120599845
  0
LINE
  5
2D6
100
AcDbEntity
  8
RUNDUNGEN
100
AcDbLine
 62
9
  6
CONTINUOUS
 10
210.3096610188
 20
124.6645331425
 11
210.3096610188
 21
151.7595868266
  0
LINE
  5
2D7
100
AcDbEntity
  8
RUNDUNGEN
100
AcDbLine
 62
7
  6
CONTINUOUS
 10
211.2312019231
 20
150.7626694929
 11
211.2312019231
 21
125.6614504762
  0
ARC
  5
2D8
100
AcDbEntity
  8
0
100
AcDbCircle
 62
7
  6
CONTINUOUS
 10
2.4791907281
 20
118.9025711553
 40
110.4813700648
100
AcDbArc
 50
13.4640903998
 51
14.4111621352
  0
ARC
  5
2D9
100
AcDbEntity
  8
0
100
AcDbCircle
 62
7
  6
CONTINUOUS
 10
110.6312019231
 20
114.7620599845
 40
1.0
100
AcDbArc
 50
53.0400606802
 51
135.0
  0
ARC
  5
2DA
100
AcDbEntity
  8
0
100
AcDbCircle
 62
7
  6
CONTINUOUS
 10
110.6312019231
 20
161.6620599845
 40
1.0
100
AcDbArc
 50
293.5781784782
 51
306.9599393198
  0
ARC
  5
2DB
100
AcDbEntity
  8
0
100
AcDbCircle
 62
7
  6
CONTINUOUS
 10
110.8312019231
 20
158.8773810343
 40
0.2
100
AcDbArc
 50
271.439166666
 51
360.0
  0
ARC
  5
2DC
100
AcDbEntity
  8
0
100
AcDbCircle
 62
7
  6
CONTINUOUS
 10
109.2312019231
 20
158.8371834652
 40
0.2
100
AcDbArc
 50
181.439166666
 51
271.439166666
  0
ARC
  5
2DD
100
AcDbEntity
  8
ACHSEN
100
AcDbCircle
 62
7
  6
CONTINUOUS
 10
9.4729849452
 20
286.607999537
 40
144.4768984249
100
AcDbArc
 50
296.187103939
 51
296.8519184685
  0
ARC
  5
2DE
100
AcDbEntity
  8
FASEN
100
AcDbCircle
 62
7
  6
CONTINUOUS
 10
123.5195014741
 20
202.5329574954
 40
33.2803296437
100
AcDbArc
 50
260.5371419898
 51
261.5260699511
  0
ARC
  5
2DF
100
AcDbEntity
  8
FASEN
100
AcDbCircle
 62
7
  6
CONTINUOUS
 10
122.9422124372
 20
202.531506559
 40
33.2790000522
100
AcDbArc
 50
278.4788021285
 51
278.9330655273
  0
ARC
  5
2E0
100
AcDbEntity
  8
FASEN
100
AcDbCircle
 62
7
  6
CONTINUOUS
 10
123.1918293663
 20
200.8069430168
 40
31.5364816332
100
AcDbArc
 50
270.0715324539
 51
278.4922227823
  0
ARC
  5
2E1
100
AcDbEntity
  8
FASEN
100
AcDbCircle
 62
7
  6
CONTINUOUS
 10
123.2440527444
 20
200.4521850232
 40
31.1817017098
100
AcDbArc
 50
261.4632654014
 51
269.9763868614
  0
ARC
  5
2E2
100
AcDbEntity
  8
0
100
AcDbCircle
 62
7
  6
CONTINUOUS
 10
255.4653746937
 20
89.237862115
 40
159.2595221537
100
AcDbArc
 50
156.0446773748
 51
156.4374589831
  0
ARC
  5
2E3
100
AcDbEntity
  8
BEZUGSACHSEN
100
AcDbCircle
 62
7
  6
CONTINUOUS
 10
156.1995334018
 20
171.7508806883
 40
17.0527943232
100
AcDbArc
 50
271.1979121802
 51
278.5377281164
  0
ARC
  5
2E4
100
AcDbEntity
  8
BEZUGSACHSEN
100
AcDbCircle
 62
7
  6
CONTINUOUS
 10
156.2628684936
 20
104.6732742382
 40
17.0527594635
100
AcDbArc
 50
91.1983831188
 51
98.5377390722
  0
ARC
  5
2E5
100
AcDbEntity
  8
BEZUGSACHSEN
100
AcDbCircle
 62
7
  6
CONTINUOUS
 10
156.2176294985
 20
104.8857231858
 40
16.8399840712
100
AcDbArc
 50
81.4158298216
 51
88.8472195809
  0
ARC
  5
2E6
100
AcDbEntity
  8
BEZUGSACHSEN
100
AcDbCircle
 62
7
  6
CONTINUOUS
 10
156.2447712173
 20
171.5383614437
 40
16.8399486603
100
AcDbArc
 50
261.4158224059
 51
268.8476620905
  0
ARC
  5
2E7
100
AcDbEntity
  8
BEZUGSACHSEN
100
AcDbCircle
 62
7
  6
CONTINUOUS
 10
156.2324265606
 20
105.2398705296
 40
16.4856609089
100
AcDbArc
 50
88.865347001
 51
91.1337898285
  0
ARC
  5
2E8
100
AcDbEntity
  8
BEZUGSACHSEN
100
AcDbCircle
 62
7
  6
CONTINUOUS
 10
156.2299788
 20
171.1842424889
 40
16.4856539582
100
AcDbArc
 50
268.865794802
 51
271.1332936666
  0
ARC
  5
2E9
100
AcDbEntity
  8
RUNDUNGEN
100
AcDbCircle
 62
7
  6
CONTINUOUS
 10
141.7312019231
 20
163.6870599845
 40
8.5
100
AcDbArc
 50
180.0000000003
 51
270.0
  0
ARC
  5
2EA
100
AcDbEntity
  8
RUNDUNGEN
100
AcDbCircle
 62
7
  6
CONTINUOUS
 10
141.7312019231
 20
112.7370599845
 40
8.5
100
AcDbArc
 50
90.0
 51
179.9999999992
  0
ARC
  5
2EB
100
AcDbEntity
  8
0
100
AcDbCircle
 62
2
  6
CONTINUOUS
 10
156.232387335
 20
138.2204301135
 40
3.0083703625
100
AcDbArc
 50
255.0695121433
 51
269.9774232902
  0
ARC
  5
2EC
100
AcDbEntity
  8
0
100
AcDbCircle
 62
2
  6
CONTINUOUS
 10
156.2308260817
 20
138.212534694
 40
2.9994610748
100
AcDbArc
 50
270.0
 51
195.003516058
  0
CIRCLE
  5
2ED
100
AcDbEntity
  8
BEZUGSACHSEN
100
AcDbCircle
 62
7
  6
CONTINUOUS
 10
156.2312019231
 20
138.2120599845
 40
2.5
  0
ARC
  5
2EE
100
AcDbEntity
  8
RUNDUNGEN
100
AcDbCircle
 62
7
  6
CONTINUOUS
 10
210.2312019231
 20
150.7626694929
 40
1.0
100
AcDbArc
 50
0.0
 51
85.4999999972
  0
ARC
  5
2EF
100
AcDbEntity
  8
RUNDUNGEN
100
AcDbCircle
 62
7
  6
CONTINUOUS
 10
210.2312019231
 20
125.6614504762
 40
1.0
100
AcDbArc
 50
274.5000000022
 51
360.0
  0
ARC
  5
2F0
100
AcDbEntity
  8
RUNDUNGEN
100
AcDbCircle
 62
7
  6
CONTINUOUS
 10
159.7472273269
 20
155.6870599845
 40
0.8
100
AcDbArc
 50
270.0
 51
300.0000000023
  0
ARC
  5
2F1
100
AcDbEntity
  8
RUNDUNGEN
100
AcDbCircle
 62
7
  6
CONTINUOUS
 10
159.7472273269
 20
120.7370599845
 40
0.8
100
AcDbArc
 50
59.9999999731
 51
90.0
  0
ARC
  5
2F2
100
AcDbEntity
  8
RUNDUNGEN
100
AcDbCircle
 62
7
  6
CONTINUOUS
 10
152.7151765193
 20
155.6870599845
 40
0.8
100
AcDbArc
 50
239.9999999976
 51
270.0
  0
ARC
  5
2F3
100
AcDbEntity
  8
RUNDUNGEN
100
AcDbCircle
 62
7
  6
CONTINUOUS
 10
152.7151765193
 20
120.7370599845
 40
0.8
100
AcDbArc
 50
90.0
 51
120.0000000263
  0
SPLINE
  5
2F4
100
AcDbEntity
  8
0
100
AcDbSpline
 62
2
  6
CONTINUOUS
 70
0
 71
3
 72
13
 73
9
 74
0
 42
0.0000001
 43
0.0000001
 44
0.0000000001
 40
0.0
 40
0.0
 40
0.0
 40
0.0
 40
0.1666666667
 40
0.3333333333
 40
0.5
 40
0.6666666667
 40
0.8333333333
 40
1.0
 40
1.0
 40
1.0
 40
1.0
 10
159.2312019231
 20
121.5370599845
 30
0.0
 10
159.2312019231
 20
121.5370599845
 30
0.0
 10
159.1625047269
 20
121.5496627861
 30
0.0
 10
158.8512081589
 20
121.6027089541
 30
0.0
 10
158.373101428
 20
121.6729864717
 30
0.0
 10
157.7395164924
 20
121.7447022153
 30
0.0
 10
157.0113518955
 20
121.7964782542
 30
0.0
 10
156.4909528766
 20
121.8091448473
 30
0.0
 10
156.2312019231
 20
121.8091448473
 30
0.0
  0
SPLINE
  5
2F5
100
AcDbEntity
  8
0
100
AcDbSpline
 62
2
  6
CONTINUOUS
 70
0
 71
3
 72
13
 73
9
 74
0
 42
0.0000001
 43
0.0000001
 44
0.0000000001
 40
0.0
 40
0.0
 40
0.0
 40
0.0
 40
0.1666666667
 40
0.3333333333
 40
0.5
 40
0.6666666667
 40
0.8333333333
 40
1.0
 40
1.0
 40
1.0
 40
1.0
 10
156.2312019231
 20
121.8091448473
 30
0.0
 10
155.9715288393
 20
121.8091448473
 30
0.0
 10
155.45126917
 20
121.7964847088
 30
0.0
 10
154.7233041278
 20
121.7447403965
 30
0.0
 10
154.0896321213
 20
121.6730278993
 30
0.0
 10
153.6117675096
 20
121.6028002473
 30
0.0
 10
153.2998733803
 20
121.5496606374
 30
0.0
 10
153.2312019231
 20
121.5370599845
 30
0.0
 10
153.2312019231
 20
121.5370599845
 30
0.0
  0
SPLINE
  5
2F6
100
AcDbEntity
  8
0
100
AcDbSpline
 62
2
  6
CONTINUOUS
 70
0
 71
3
 72
13
 73
9
 74
0
 42
0.0000001
 43
0.0000001
 44
0.0000000001
 40
0.0
 40
0.0
 40
0.0
 40
0.0
 40
0.1666666667
 40
0.3333333333
 40
0.5
 40
0.6666666667
 40
0.8333333333
 40
1.0
 40
1.0
 40
1.0
 40
1.0
 10
156.2312019231
 20
154.6149751218
 30
0.0
 10
156.491153089
 20
154.6149751218
 30
0.0
 10
157.0120291559
 20
154.627646415
 30
0.0
 10
157.7420759171
 20
154.6796471387
 30
0.0
 10
158.3747107334
 20
154.7513469767
 30
0.0
 10
158.8535082947
 20
154.821773661
 30
0.0
 10
159.1632495281
 20
154.8745974074
 30
0.0
 10
159.2312019231
 20
154.8870599845
 30
0.0
 10
159.2312019231
 20
154.8870599845
 30
0.0
  0
SPLINE
  5
2F7
100
AcDbEntity
  8
0
100
AcDbSpline
 62
2
  6
CONTINUOUS
 70
0
 71
3
 72
13
 73
9
 74
0
 42
0.0000001
 43
0.0000001
 44
0.0000000001
 40
0.0
 40
0.0
 40
0.0
 40
0.0
 40
0.1666666667
 40
0.3333333333
 40
0.5
 40
0.6666666667
 40
0.8333333333
 40
1.0
 40
1.0
 40
1.0
 40
1.0
 10
153.2312019231
 20
154.8870599845
 30
0.0
 10
153.2312019231
 20
154.8870599845
 30
0.0
 10
153.2991935617
 20
154.8745928661
 30
0.0
 10
153.6083495746
 20
154.8218606353
 30
0.0
 10
154.0874319561
 20
154.75137946
 30
0.0
 10
154.7199611743
 20
154.6796808945
 30
0.0
 10
155.4502123984
 20
154.6276504756
 30
0.0
 10
155.9711940552
 20
154.6149751218
 30
0.0
 10
156.2312019231
 20
154.6149751218
 30
0.0
  0
LINE
  5
2F8
100
AcDbEntity
  8
FASEN
100
AcDbLine
 62
7
  6
CONTINUOUS
 10
118.0479419968
 20
169.7054937176
 11
118.0087609418
 21
169.7120244156
  0
LINE
  5
2F9
100
AcDbEntity
  8
FASEN
100
AcDbLine
 62
7
  6
CONTINUOUS
 10
128.4144624405
 20
169.7054938288
 11
128.4536428103
 21
169.7120244127
  0
LINE
  5
2FA
100
AcDbEntity
  8
ACHSEN
100
AcDbLine
 62
7
  6
CONTINUOUS
 10
79.5812019231
 20
157.8161112832
 11
74.7312019231
 21
157.7090495981
  0
LINE
  5
2FB
100
AcDbEntity
  8
ACHSEN
100
AcDbLine
 62
7
  6
CONTINUOUS
 10
81.494821271
 20
158.1386120604
 11
81.5097722091
 21
158.1407177898
  0
SPLINE
  5
2FC
100
AcDbEntity
  8
ACHSEN
100
AcDbSpline
 62
7
  6
CONTINUOUS
 70
0
 71
3
 72
10
 73
6
 74
0
 42
0.0000001
 43
0.0000001
 44
0.0000000001
 40
0.0
 40
0.0
 40
0.0
 40
0.0
 40
0.0929965444
 40
0.3287693884
 40
1.0
 40
1.0
 40
1.0
 40
1.0
 10
81.5097722087
 20
158.1407177898
 30
0.0
 10
81.4496706337
 20
158.1327342926
 30
0.0
 10
81.2376182034
 20
158.1014176247
 30
0.0
 10
80.592920691
 20
158.0044701234
 30
0.0
 10
80.0106194438
 20
157.9003998299
 30
0.0
 10
79.5812019231
 20
157.8161112832
 30
0.0
  0
SPLINE
  5
2FD
100
AcDbEntity
  8
ACHSEN
100
AcDbSpline
 62
7
  6
CONTINUOUS
 70
0
 71
3
 72
11
 73
7
 74
0
 42
0.0000001
 43
0.0000001
 44
0.0000000001
 40
0.0
 40
0.0
 40
0.0
 40
0.0
 40
0.1537099379
 40
0.500508937
 40
0.8472910559
 40
1.0
 40
1.0
 40
1.0
 40
1.0
 10
100.4105632563
 20
158.61557832
 30
0.0
 10
99.9469779872
 20
158.5443013652
 30
0.0
 10
98.432745673
 20
158.3402435928
 30
0.0
 10
95.8499712455
 20
158.1547345609
 30
0.0
 10
93.2639252156
 20
158.2076817796
 30
0.0
 10
91.7446360328
 20
158.3374482724
 30
0.0
 10
91.2812019231
 20
158.3862169867
 30
0.0
  0
SPLINE
  5
2FE
100
AcDbEntity
  8
FASEN
100
AcDbSpline
 62
7
  6
CONTINUOUS
 70
0
 71
3
 72
14
 73
10
 74
0
 42
0.0000001
 43
0.0000001
 44
0.0000000001
 40
0.0
 40
0.0
 40
0.0
 40
0.0
 40
0.0157913008
 40
0.0631428111
 40
0.1420511197
 40
0.2523669563
 40
0.3937144672
 40
0.5656986818
 40
1.0
 40
1.0
 40
1.0
 40
1.0
 10
128.4536428096
 20
169.712024413
 30
0.0
 10
128.4518269631
 20
169.712279531
 30
0.0
 10
128.4446113859
 20
169.7097224591
 30
0.0
 10
128.4283241956
 20
169.7083191336
 30
0.0
 10
128.4012363028
 20
169.7030578422
 30
0.0
 10
128.3633654823
 20
169.697094419
 30
0.0
 10
128.3148264723
 20
169.6889773613
 30
0.0
 10
128.229137822
 20
169.6750951294
 30
0.0
 10
128.1596123102
 20
169.6639951922
 30
0.0
 10
128.1097926852
 20
169.6561668823
 30
0.0
  0
SPLINE
  5
2FF
100
AcDbEntity
  8
0
100
AcDbSpline
 62
7
  6
CONTINUOUS
 70
0
 71
3
 72
13
 73
9
 74
0
 42
0.0000001
 43
0.0000001
 44
0.0000000001
 40
0.0
 40
0.0
 40
0.0
 40
0.0
 40
0.1753307868
 40
0.3422637982
 40
0.4768046258
 40
0.5947351366
 40
0.8062611466
 40
1.0
 40
1.0
 40
1.0
 40
1.0
 10
110.8362250342
 20
116.6846312444
 30
0.0
 10
110.7723122893
 20
116.7115714061
 30
0.0
 10
110.634535246
 20
116.7403093921
 30
0.0
 10
110.4468882477
 20
116.6915305742
 30
0.0
 10
110.3053035641
 20
116.6026886712
 30
0.0
 10
110.1688383413
 20
116.4790860593
 30
0.0
 10
110.0404196547
 20
116.3152094532
 30
0.0
 10
109.9593796578
 20
116.1765384609
 30
0.0
 10
109.9240951419
 20
116.1085033336
 30
0.0
  0
SPLINE
  5
300
100
AcDbEntity
  8
0
100
AcDbSpline
 62
7
  6
CONTINUOUS
 70
0
 71
3
 72
13
 73
9
 74
0
 42
0.0000001
 43
0.0000001
 44
0.0000000001
 40
0.0
 40
0.0
 40
0.0
 40
0.0
 40
0.286526882
 40
0.4543474408
 40
0.5599589325
 40
0.648267425
 40
0.8182504149
 40
1.0
 40
1.0
 40
1.0
 40
1.0
 10
110.8362250342
 20
116.6846312444
 30
0.0
 10
110.8616113181
 20
116.6739305525
 30
0.0
 10
110.9043365275
 20
116.66113163
 30
0.0
 10
110.9595264207
 20
116.6653354964
 30
0.0
 10
110.9907114814
 20
116.6826215722
 30
0.0
 10
111.0137737862
 20
116.7096332128
 30
0.0
 10
111.0280125777
 20
116.7506117997
 30
0.0
 10
111.0307922517
 20
116.784428746
 30
0.0
 10
111.0311157164
 20
116.8019008593
 30
0.0
  0
SPLINE
  5
301
100
AcDbEntity
  8
0
100
AcDbSpline
 62
7
  6
CONTINUOUS
 70
0
 71
3
 72
17
 73
13
 74
0
 42
0.0000001
 43
0.0000001
 44
0.0000000001
 40
0.0
 40
0.0
 40
0.0
 40
0.0
 40
0.125135549
 40
0.2502986125
 40
0.3754807531
 40
0.5006727147
 40
0.6258456077
 40
0.6884746641
 40
0.7511065344
 40
0.8746656069
 40
0.9373062378
 40
1.0
 40
1.0
 40
1.0
 40
1.0
 10
109.9240951419
 20
144.6265997453
 30
0.0
 10
109.9411634855
 20
144.5552734367
 30
0.0
 10
109.9774300474
 20
144.4130997551
 30
0.0
 10
110.039476521
 20
144.2019062452
 30
0.0
 10
110.1110576801
 20
143.9936685554
 30
0.0
 10
110.1953977351
 20
143.7901659473
 30
0.0
 10
110.2805670887
 20
143.6272830525
 30
0.0
 10
110.3642214951
 20
143.5059715047
 30
0.0
 10
110.4590566155
 20
143.3966443523
 30
0.0
 10
110.5936649976
 20
143.3105682136
 30
0.0
 10
110.7441920292
 20
143.3321611019
 30
0.0
 10
110.8074998484
 20
143.3720980563
 30
0.0
 10
110.8362250342
 20
143.3950104377
 30
0.0
  0
SPLINE
  5
302
100
AcDbEntity
  8
0
100
AcDbSpline
 62
7
  6
CONTINUOUS
 70
0
 71
3
 72
13
 73
9
 74
0
 42
0.0000001
 43
0.0000001
 44
0.0000000001
 40
0.0
 40
0.0
 40
0.0
 40
0.0
 40
0.1670510693
 40
0.3289369806
 40
0.4609641718
 40
0.578209763
 40
0.7939442568
 40
1.0
 40
1.0
 40
1.0
 40
1.0
 10
110.8362250342
 20
154.5565382715
 30
0.0
 10
110.7717915834
 20
154.5807733765
 30
0.0
 10
110.6325905905
 20
154.6027077189
 30
0.0
 10
110.4459826022
 20
154.5462315467
 30
0.0
 10
110.304521564
 20
154.4506680921
 30
0.0
 10
110.1669929667
 20
154.3163006231
 30
0.0
 10
110.0375732622
 20
154.1339283644
 30
0.0
 10
109.9585732956
 20
153.9786761233
 30
0.0
 10
109.9240951419
 20
153.9010768747
 30
0.0
  0
SPLINE
  5
303
100
AcDbEntity
  8
0
100
AcDbSpline
 62
7
  6
CONTINUOUS
 70
0
 71
3
 72
16
 73
12
 74
0
 42
0.0000001
 43
0.0000001
 44
0.0000000001
 40
0.0
 40
0.0
 40
0.0
 40
0.0
 40
0.0735401093
 40
0.1545841369
 40
0.2292313659
 40
0.2978973002
 40
0.4259913051
 40
0.5473045002
 40
0.6644420892
 40
0.7785599955
 40
1.0
 40
1.0
 40
1.0
 40
1.0
 10
110.8362250342
 20
154.5565382715
 30
0.0
 10
110.848676853
 20
154.551854817
 30
0.0
 10
110.8778270936
 20
154.5477743081
 30
0.0
 10
110.9172966472
 20
154.5660163181
 30
0.0
 10
110.9448581133
 20
154.5964196697
 30
0.0
 10
110.9707540262
 20
154.6382971021
 30
0.0
 10
110.991833812
 20
154.6922290376
 30
0.0
 10
111.0083626535
 20
154.7564999286
 30
0.0
 10
111.0191786005
 20
154.8194184415
 30
0.0
 10
111.0282667672
 20
154.9008335711
 30
0.0
 10
111.0307726343
 20
154.9615704257
 30
0.0
 10
111.0311157164
 20
155.0016276719
 30
0.0
  0
SPLINE
  5
304
100
AcDbEntity
  8
0
100
AcDbSpline
 62
7
  6
CONTINUOUS
 70
0
 71
3
 72
17
 73
13
 74
0
 42
0.0000001
 43
0.0000001
 44
0.0000000001
 40
0.0
 40
0.0
 40
0.0
 40
0.0
 40
0.2841775711
 40
0.4146661432
 40
0.5373502072
 40
0.652341305
 40
0.7602377654
 40
0.8121867936
 40
0.8638391814
 40
0.9180398508
 40
0.9497831112
 40
1.0
 40
1.0
 40
1.0
 40
1.0
 10
109.0312650121
 20
116.5296581053
 30
0.0
 10
109.0312650121
 20
116.410084668
 30
0.0
 10
109.0311221988
 20
116.2356020083
 30
0.0
 10
109.033502194
 20
116.0095119243
 30
0.0
 10
109.0381217618
 20
115.854642422
 30
0.0
 10
109.048049339
 20
115.709543301
 30
0.0
 10
109.0641636544
 20
115.5947818273
 30
0.0
 10
109.0861320563
 20
115.5084047339
 30
0.0
 10
109.1094361835
 20
115.446105115
 30
0.0
 10
109.139570883
 20
115.3957600933
 30
0.0
 10
109.180660431
 20
115.3555128279
 30
0.0
 10
109.2151011295
 20
115.3416723136
 30
0.0
 10
109.2362250342
 20
115.341174593
 30
0.0
  0
SPLINE
  5
305
100
AcDbEntity
  8
0
100
AcDbSpline
 62
7
  6
CONTINUOUS
 70
0
 71
3
 72
9
 73
5
 74
0
 42
0.0000001
 43
0.0000001
 44
0.0000000001
 40
0.0
 40
0.0
 40
0.0
 40
0.0
 40
0.2573720101
 40
1.0
 40
1.0
 40
1.0
 40
1.0
 10
109.9240951419
 20
116.1085033336
 30
0.0
 10
109.8889557537
 20
116.0407480395
 30
0.0
 10
109.7499676182
 20
115.7787763885
 30
0.0
 10
109.6009841276
 20
115.5220672384
 30
0.0
 10
109.4842306739
 20
115.3353311092
 30
0.0
  0
SPLINE
  5
306
100
AcDbEntity
  8
0
100
AcDbSpline
 62
7
  6
CONTINUOUS
 70
0
 71
3
 72
8
 73
4
 74
0
 42
0.0000001
 43
0.0000001
 44
0.0000000001
 40
0.0
 40
0.0
 40
0.0
 40
0.0
 40
1.0
 40
1.0
 40
1.0
 40
1.0
 10
111.0310799697
 20
142.8372826445
 30
0.0
 10
111.0307490356
 20
142.8848113522
 30
0.0
 10
111.0295665204
 20
142.9323517611
 30
0.0
 10
111.0270625486
 20
142.9798156178
 30
0.0
  0
SPLINE
  5
307
100
AcDbEntity
  8
0
100
AcDbSpline
 62
7
  6
CONTINUOUS
 70
0
 71
3
 72
15
 73
11
 74
0
 42
0.0000001
 43
0.0000001
 44
0.0000000001
 40
0.0
 40
0.0
 40
0.0
 40
0.0
 40
0.2532162989
 40
0.3790219793
 40
0.5040739368
 40
0.6282014989
 40
0.7508575768
 40
0.8716570132
 40
0.9343432508
 40
1.0
 40
1.0
 40
1.0
 40
1.0
 10
111.0270625486
 20
142.9798156178
 30
0.0
 10
111.0246991302
 20
143.0246152232
 30
0.0
 10
111.0195416855
 20
143.0916212132
 30
0.0
 10
111.0073693618
 20
143.180145474
 30
0.0
 10
110.9947915641
 20
143.2453532171
 30
0.0
 10
110.9768647527
 20
143.3091443129
 30
0.0
 10
110.9517760409
 20
143.368419512
 30
0.0
 10
110.9124967518
 20
143.4133007252
 30
0.0
 10
110.865236414
 20
143.4149947901
 30
0.0
 10
110.8453187865
 20
143.4022639859
 30
0.0
 10
110.8362250342
 20
143.3950104377
 30
0.0
  0
SPLINE
  5
308
100
AcDbEntity
  8
0
100
AcDbSpline
 62
7
  6
CONTINUOUS
 70
0
 71
3
 72
12
 73
8
 74
0
 42
0.0000001
 43
0.0000001
 44
0.0000000001
 40
0.0
 40
0.0
 40
0.0
 40
0.0
 40
0.128679218
 40
0.2561331636
 40
0.5063352459
 40
0.7539715031
 40
1.0
 40
1.0
 40
1.0
 40
1.0
 10
124.6925267885
 20
128.86283867
 30
0.0
 10
124.7234029141
 20
128.86283867
 30
0.0
 10
124.7853175406
 20
128.8505154436
 30
0.0
 10
124.8915384677
 20
128.7886006524
 30
0.0
 10
124.990909741
 20
128.6718390874
 30
0.0
 10
125.0722860315
 20
128.5123442786
 30
0.0
 10
125.1099627716
 20
128.399588917
 30
0.0
 10
125.1255394904
 20
128.3426473656
 30
0.0
  0
SPLINE
  5
309
100
AcDbEntity
  8
0
100
AcDbSpline
 62
7
  6
CONTINUOUS
 70
0
 71
3
 72
9
 73
5
 74
0
 42
0.0000001
 43
0.0000001
 44
0.0000000001
 40
0.0
 40
0.0
 40
0.0
 40
0.0
 40
0.1680195226
 40
1.0
 40
1.0
 40
1.0
 40
1.0
 10
125.1255394904
 20
108.2981051381
 30
0.0
 10
125.1086912173
 20
108.2777850221
 30
0.0
 10
124.9932379348
 20
108.1693040459
 30
0.0
 10
124.8232336998
 20
108.1314672242
 30
0.0
 10
124.6925267885
 20
108.1314672242
 30
0.0
  0
SPLINE
  5
30A
100
AcDbEntity
  8
0
100
AcDbSpline
 62
7
  6
CONTINUOUS
 70
0
 71
3
 72
12
 73
8
 74
0
 42
0.0000001
 43
0.0000001
 44
0.0000000001
 40
0.0
 40
0.0
 40
0.0
 40
0.0
 40
0.2460454262
 40
0.4936983158
 40
0.7439199328
 40
0.8713555617
 40
1.0
 40
1.0
 40
1.0
 40
1.0
 10
121.3368643558
 20
128.3426473656
 30
0.0
 10
121.3524421683
 20
128.3995929153
 30
0.0
 10
121.390124188
 20
128.5123534207
 30
0.0
 10
121.4714999359
 20
128.6718700888
 30
0.0
 10
121.5709045477
 20
128.7885976216
 30
0.0
 10
121.6771003641
 20
128.85054546
 30
0.0
 10
121.7390092339
 20
128.86283867
 30
0.0
 10
121.7698770577
 20
128.86283867
 30
0.0
  0
SPLINE
  5
30B
100
AcDbEntity
  8
0
100
AcDbSpline
 62
7
  6
CONTINUOUS
 70
0
 71
3
 72
9
 73
5
 74
0
 42
0.0000001
 43
0.0000001
 44
0.0000000001
 40
0.0
 40
0.0
 40
0.0
 40
0.0
 40
0.3641598889
 40
1.0
 40
1.0
 40
1.0
 40
1.0
 10
121.7698770577
 20
108.1314672242
 30
0.0
 10
121.7125006358
 20
108.1314672242
 30
0.0
 10
121.5563143028
 20
108.1475863182
 30
0.0
 10
121.4008083121
 20
108.2209845571
 30
0.0
 10
121.3368643558
 20
108.2981051381
 30
0.0
  0
SPLINE
  5
30C
100
AcDbEntity
  8
0
100
AcDbSpline
 62
7
  6
CONTINUOUS
 70
0
 71
3
 72
9
 73
5
 74
0
 42
0.0000001
 43
0.0000001
 44
0.0000000001
 40
0.0
 40
0.0
 40
0.0
 40
0.0
 40
0.3642526053
 40
1.0
 40
1.0
 40
1.0
 40
1.0
 10
124.6925267885
 20
168.2926527448
 30
0.0
 10
124.749918195
 20
168.2926527448
 30
0.0
 10
124.9061076535
 20
168.2765381893
 30
0.0
 10
125.0616044388
 20
168.2031246722
 30
0.0
 10
125.1255394904
 20
168.126014831
 30
0.0
  0
SPLINE
  5
30D
100
AcDbEntity
  8
0
100
AcDbSpline
 62
7
  6
CONTINUOUS
 70
0
 71
3
 72
21
 73
17
 74
0
 42
0.0000001
 43
0.0000001
 44
0.0000000001
 40
0.0
 40
0.0
 40
0.0
 40
0.0
 40
0.0152736556
 40
0.0307400416
 40
0.0615944727
 40
0.0924597446
 40
0.1233512662
 40
0.1852330485
 40
0.2472659363
 40
0.3094463907
 40
0.3717660941
 40
0.4967787028
 40
0.6222117836
 40
0.747963109
 40
0.8739278454
 40
1.0
 40
1.0
 40
1.0
 40
1.0
 10
109.2362250342
 20
146.3980031713
 30
0.0
 10
109.220962719
 20
146.3979407519
 30
0.0
 10
109.1952745541
 20
146.3719435973
 30
0.0
 10
109.1695334615
 20
146.3181910614
 30
0.0
 10
109.1458859316
 20
146.2434191684
 30
0.0
 10
109.1260875582
 20
146.153324344
 30
0.0
 10
109.1051098832
 20
146.0314269799
 30
0.0
 10
109.0862064831
 20
145.8778781764
 30
0.0
 10
109.069978843
 20
145.6925942242
 30
0.0
 10
109.0582096485
 20
145.5065601569
 30
0.0
 10
109.0467550085
 20
145.2574843045
 30
0.0
 10
109.0383412445
 20
144.9450387854
 30
0.0
 10
109.0335887963
 20
144.5691433055
 30
0.0
 10
109.0317743736
 20
144.1922732493
 30
0.0
 10
109.0313010355
 20
143.8147626163
 30
0.0
 10
109.0312650121
 20
143.5629107174
 30
0.0
 10
109.0312650121
 20
143.4369311151
 30
0.0
  0
LINE
  5
30E
100
AcDbEntity
  8
0
100
AcDbLine
 62
7
  6
CONTINUOUS
 10
109.2416035548
 20
114.7866751786
 11
109.4842306739
 21
115.3353311092
  0
SPLINE
  5
30F
100
AcDbEntity
  8
0
100
AcDbSpline
 62
7
  6
CONTINUOUS
 70
0
 71
3
 72
17
 73
13
 74
0
 42
0.0000001
 43
0.0000001
 44
0.0000000001
 40
0.0
 40
0.0
 40
0.0
 40
0.0
 40
0.2182009024
 40
0.3349220057
 40
0.456586696
 40
0.5831112211
 40
0.7144823146
 40
0.7820564401
 40
0.8510300181
 40
0.92186225
 40
0.958727904
 40
1.0
 40
1.0
 40
1.0
 40
1.0
 10
109.0312650121
 20
154.6695907332
 30
0.0
 10
109.0312650121
 20
154.5373117189
 30
0.0
 10
109.0312473247
 20
154.3342720576
 30
0.0
 10
109.0336544336
 20
154.0574832873
 30
0.0
 10
109.0384796271
 20
153.8363108846
 30
0.0
 10
109.0487653652
 20
153.6063959037
 30
0.0
 10
109.0648903886
 20
153.4097272086
 30
0.0
 10
109.0864644892
 20
153.2485263369
 30
0.0
 10
109.1090689597
 20
153.1253560449
 30
0.0
 10
109.138664756
 20
153.0202053142
 30
0.0
 10
109.1730964308
 20
152.94073546
 30
0.0
 10
109.2112095673
 20
152.8965150834
 30
0.0
 10
109.2362250342
 20
152.8970021893
 30
0.0
  0
SPLINE
  5
310
100
AcDbEntity
  8
0
100
AcDbSpline
 62
7
  6
CONTINUOUS
 70
0
 71
3
 72
11
 73
7
 74
0
 42
0.0000001
 43
0.0000001
 44
0.0000000001
 40
0.0
 40
0.0
 40
0.0
 40
0.0
 40
0.2163338898
 40
0.4581730139
 40
0.72121324
 40
1.0
 40
1.0
 40
1.0
 40
1.0
 10
109.4842306739
 20
152.9018314172
 30
0.0
 10
109.398529286
 20
152.4391098615
 30
0.0
 10
109.2762607999
 20
151.4478984642
 30
0.0
 10
109.2216787588
 20
149.8785517533
 30
0.0
 10
109.2863062712
 20
148.1737653219
 30
0.0
 10
109.4056148889
 20
147.000345005
 30
0.0
 10
109.4842306739
 20
146.3990174272
 30
0.0
  0
SPLINE
  5
311
100
AcDbEntity
  8
0
100
AcDbSpline
 62
7
  6
CONTINUOUS
 70
0
 71
3
 72
12
 73
8
 74
0
 42
0.0000001
 43
0.0000001
 44
0.0000000001
 40
0.0
 40
0.0
 40
0.0
 40
0.0
 40
0.2460280129
 40
0.4936634005
 40
0.7438647573
 40
0.8713194616
 40
1.0
 40
1.0
 40
1.0
 40
1.0
 10
125.1255394904
 20
148.0814726035
 30
0.0
 10
125.1099628034
 20
148.0245311682
 30
0.0
 10
125.0722863082
 20
147.9117759934
 30
0.0
 10
124.9909098542
 20
147.7522821528
 30
0.0
 10
124.8915400751
 20
147.6355190935
 30
0.0
 10
124.785318051
 20
147.5736057853
 30
0.0
 10
124.7234032287
 20
147.5612812991
 30
0.0
 10
124.6925267885
 20
147.5612812991
 30
0.0
  0
SPLINE
  5
312
100
AcDbEntity
  8
0
100
AcDbSpline
 62
7
  6
CONTINUOUS
 70
0
 71
3
 72
9
 73
5
 74
0
 42
0.0000001
 43
0.0000001
 44
0.0000000001
 40
0.0
 40
0.0
 40
0.0
 40
0.0
 40
0.1680322176
 40
1.0
 40
1.0
 40
1.0
 40
1.0
 10
121.3368643558
 20
168.126014831
 30
0.0
 10
121.3537139147
 20
168.1463364978
 30
0.0
 10
121.4691684915
 20
168.2548165298
 30
0.0
 10
121.6391720406
 20
168.2926527448
 30
0.0
 10
121.7698770577
 20
168.2926527448
 30
0.0
  0
SPLINE
  5
313
100
AcDbEntity
  8
0
100
AcDbSpline
 62
7
  6
CONTINUOUS
 70
0
 71
3
 72
12
 73
8
 74
0
 42
0.0000001
 43
0.0000001
 44
0.0000000001
 40
0.0
 40
0.0
 40
0.0
 40
0.0
 40
0.1286448926
 40
0.256081
 40
0.5063027424
 40
0.7539549585
 40
1.0
 40
1.0
 40
1.0
 40
1.0
 10
121.7698770577
 20
147.5612812991
 30
0.0
 10
121.7390091262
 20
147.5612812991
 30
0.0
 10
121.6771001319
 20
147.5735749229
 30
0.0
 10
121.5709038346
 20
147.6355223865
 30
0.0
 10
121.4714998526
 20
147.7522505885
 30
0.0
 10
121.3901240062
 20
147.9117668266
 30
0.0
 10
121.3524421433
 20
148.0245271451
 30
0.0
 10
121.3368643558
 20
148.0814726035
 30
0.0
  0
ELLIPSE
  5
314
100
AcDbEntity
  8
0
100
AcDbEllipse
 62
7
  6
CONTINUOUS
 10
108.8840477337
 20
138.2120599845
 30
0.0
 11
14.7536831607
 21
31.0932549156
 31
0.0
 40
0.3419987131
 41
-1.0912395858
 42
-0.1578061866
  0
ELLIPSE
  5
315
100
AcDbEntity
  8
0
100
AcDbEllipse
 62
7
  6
CONTINUOUS
 10
137.5783561124
 20
138.2120599845
 30
0.0
 11
-14.7536831607
 21
31.0932549156
 31
0.0
 40
0.3419987131
 41
0.1578061866
 42
1.0912395858
  0
ELLIPSE
  5
316
100
AcDbEntity
  8
0
100
AcDbEllipse
 62
7
  6
CONTINUOUS
 10
137.5783561124
 20
138.2120599845
 30
0.0
 11
14.7536831607
 21
31.0932549156
 31
0.0
 40
0.3419987131
 41
-4.2328322393
 42
-3.2993988402
  0
ELLIPSE
  5
317
100
AcDbEntity
  8
0
100
AcDbEllipse
 62
7
  6
CONTINUOUS
 10
108.8840477337
 20
138.2120599845
 30
0.0
 11
-14.7536831607
 21
31.0932549156
 31
0.0
 40
0.3419987131
 41
-2.9837864669
 42
-2.0503530678
  0
ENDSEC
  0
SECTION
  2
OBJECTS
  0
DICTIONARY
  5
C
100
AcDbDictionary
280
0
281
1
  3
ACAD_GROUP
350
D
  3
ACAD_MLINESTYLE
350
17
  3
ACAD_LAYOUT
350
1A
  3
ACAD_PLOTSETTINGS
350
19
  3
ACAD_PLOTSTYLENAME
350
E
  0
DICTIONARY
  5
D
102
{ACAD_REACTORS
330
C
102
}
100
AcDbDictionary
280
0
281
1
  0
ACDBDICTIONARYWDFLT
  5
E
102
{ACAD_REACTORS
330
C
102
}
100
AcDbDictionary
281
1
  3
Normal
350
F
100
AcDbDictionaryWithDefault
340
F
  0
DICTIONARY
  5
17
102
{ACAD_REACTORS
330
C
102
}
100
AcDbDictionary
280
0
281
1
  3
Standard
350
18
  0
DICTIONARY
  5
19
102
{ACAD_REACTORS
330
C
102
}
100
AcDbDictionary
281
1
  0
DICTIONARY
  5
1A
102
{ACAD_REACTORS
330
C
102
}
100
AcDbDictionary
281
1
  3
Model
350
318
  3
Layout1
350
319
  0
ACDBPLACEHOLDER
  5
F
102
{ACAD_REACTORS
330
E
102
}
  0
MLINESTYLE
  5
18
102
{ACAD_REACTORS
330
17
102
}
100
AcDbMlineStyle
  2
STANDARD
 70
0
  3

 62
256
 51
90.0
 52
90.0
 71
2
 49
0.5
 62
256
  6
BYLAYER
 49
-0.5
 62
256
  6
BYLAYER
  0
LAYOUT
  5
318
102
{ACAD_REACTORS
330
1A
102
}
100
AcDbPlotSettings
  1

  2
none_device
  4
ISO_A4_(297.00_x_210.00_MM)
  6

 40
0.0
 41
0.0
 42
0.0
 43
0.0
 44
297.0
 45
210.0
 46
0.0
 47
0.0
 48
0.0
 49
0.0
140
0.0
141
0.0
142
1.0
143
1.0
 70
1024
 72
1
 73
0
 74
0
  7

 75
0
147
1.0
148
0.0
149
0.0
100
AcDbLayout
  1
Model
 70
0
 71
0
 10
0.0
 20
0.0
 11
297.0
 21
210.0
 12
0.0
 22
0.0
 32
0.0
 14
0.0
 24
0.0
 34
0.0
 15
0.0
 25
0.0
 35
0.0
146
0.0
 13
0.0
 23
0.0
 33
0.0
 16
1.0
 26
0.0
 36
0.0
 17
0.0
 27
1.0
 37
0.0
 76
0
330
217
345
0
346
0
  0
LAYOUT
  5
319
102
{ACAD_REACTORS
330
1A
102
}
100
AcDbPlotSettings
  1

  2
none_device
  4
ISO_A4_(297.00_x_210.00_MM)
  6

 40
0.0
 41
0.0
 42
0.0
 43
0.0
 44
297.0
 45
210.0
 46
0.0
 47
0.0
 48
0.0
 49
0.0
140
0.0
141
0.0
142
1.0
143
1.0
 70
0
 72
1
 73
0
 74
0
  7

 75
0
147
1.0
148
0.0
149
0.0
100
AcDbLayout
  1
Layout1
 70
0
 71
1
 10
0.0
 20
0.0
 11
297.0
 21
210.0
 12
0.0
 22
0.0
 32
0.0
 14
0.0
 24
0.0
 34
0.0
 15
0.0
 25
0.0
 35
0.0
146
0.0
 13
0.0
 23
0.0
 33
0.0
 16
1.0
 26
0.0
 36
0.0
 17
0.0
 27
1.0
 37
0.0
 76
0
330
218
345
0
346
0
  0
ENDSEC
  0
EOF
