999
DXF file: cc6-141-10.dxf
999
Pro/ENGINEER 2010430 by Parametric Technology Corporation
  0
SECTION
  2
HEADER
  9
$ACADVER
  1
AC1021
  9
$DWGCODEPAGE
  3
ANSI_1252
  9
$EXTMAX
 10
297.0
 20
210.0
 30
0.0
  9
$EXTMIN
 10
0.0
 20
0.0
 30
0.0
  9
$LIMMIN
 10
0.0
 20
0.0
  9
$LIMMAX
 10
297.0
 20
210.0
  9
$VIEWCTR
 10
148.5
 20
105.0
  9
$VIEWSIZE
 40
210.0
  9
$CLAYER
  8
0
  9
$LTSCALE
 40
16.335
  9
$CELTYPE
  6
BYLAYER
  9
$DIMSCALE
 40
1.0
  9
$DIMASZ
 40
3.5
  9
$DIMEXO
 40
1.85625
  9
$DIMDLI
 40
11.286
  9
$DIMEXE
 40
5.346
  9
$DIMCEN
 40
2.673
  9
$DIMLFAC
 40
1.0
  9
$DIMBLK
  1
_FILLED
  9
$DIMTXT
 40
3.5
  9
$DIMTOL
 70
1
  9
$DIMLIM
 70
0
  9
$DIMTFAC
 40
1.0
  9
$DIMTP
 40
0.005
  9
$DIMTM
 40
0.005
  9
$PDMODE
 70
3
  9
$PDSIZE
 40
0.3125
  9
$HANDSEED
  5
31A
  9
$TILEMODE
 70
1
  9
$MEASUREMENT
 70
1
  9
$INSUNITS
 70
4
  0
ENDSEC
  0
SECTION
  2
CLASSES
  0
CLASS
  1
ACDBDICTIONARYWDFLT
  2
AcDbDictionaryWithDefault
  3
AutoCAD 2000
 90
0
 91
1
280
0
281
0
  0
CLASS
  1
ACDBPLACEHOLDER
  2
AcDbPlaceHolder
  3
AutoCAD 2000
 90
0
 91
1
280
0
281
0
  0
CLASS
  1
LAYOUT
  2
AcDbLayout
  3
AutoCAD 2000
 90
0
 91
0
280
0
281
0
  0
ENDSEC
  0
SECTION
  2
TABLES
  0
TABLE
  2
VPORT
  5
8
100
AcDbSymbolTable
 70
2
  0
VPORT
  5
1F4
100
AcDbSymbolTableRecord
100
AcDbViewportTableRecord
  2
*ACTIVE
 70
0
 10
0.0
 20
0.0
 11
1.0
 21
1.0
 12
148.5
 22
105.0
 13
0.0
 23
0.0
 14
1.0
 24
1.0
 15
0.0
 25
0.0
 16
0.0
 26
0.0
 36
1.0
 17
0.0
 27
0.0
 37
0.0
 40
210.0
 41
1.4142857143
 42
50.0
 43
0.0
 44
0.0
 50
0.0
 51
0.0
 71
0
 72
100
 73
1
 74
1
 75
0
 76
0
 77
0
 78
0
  0
ENDTAB
  0
TABLE
  2
LTYPE
  5
5
100
AcDbSymbolTable
 70
6
  0
LTYPE
  5
14
100
AcDbSymbolTableRecord
100
AcDbLinetypeTableRecord
  2
BYBLOCK
 70
0
  3

 72
65
 73
0
 40
0.0
  0
LTYPE
  5
15
100
AcDbSymbolTableRecord
100
AcDbLinetypeTableRecord
  2
BYLAYER
 70
0
  3

 72
65
 73
0
 40
0.0
  0
LTYPE
  5
16
100
AcDbSymbolTableRecord
100
AcDbLinetypeTableRecord
  2
CONTINUOUS
 70
64
  3
Solid line
 72
65
 73
0
 40
0.0
  0
LTYPE
  5
1F5
100
AcDbSymbolTableRecord
100
AcDbLinetypeTableRecord
  2
CENTER
 70
64
  3
____ _ ____ _ ____ _ ____ _ ____ _ ____ _ ____
 72
65
 73
4
 40
0.6
 49
0.375
 74
0
 49
-0.075
 74
0
 49
0.075
 74
0
 49
-0.075
 74
0
  0
LTYPE
  5
1F6
100
AcDbSymbolTableRecord
100
AcDbLinetypeTableRecord
  2
HIDDEN
 70
64
  3
- - - - - - - - - - - - - - - - - - - -
 72
65
 73
2
 40
0.2
 49
0.1
 74
0
 49
-0.1
 74
0
  0
LTYPE
  5
1F7
100
AcDbSymbolTableRecord
100
AcDbLinetypeTableRecord
  2
PHANTOM
 70
64
  3
_____ _ _ _____ _ _ _____ _ _ _____
 72
65
 73
6
 40
0.8
 49
0.45
 74
0
 49
-0.05
 74
0
 49
0.1
 74
0
 49
-0.05
 74
0
 49
0.1
 74
0
 49
-0.05
 74
0
  0
LTYPE
  5
1F8
100
AcDbSymbolTableRecord
100
AcDbLinetypeTableRecord
  2
DOT
 70
64
  3
. . . . . . . . . . . . . . . . . . . .
 72
65
 73
2
 40
0.2
 49
0.1
 74
0
 49
-0.1
 74
0
  0
LTYPE
  5
1F9
100
AcDbSymbolTableRecord
100
AcDbLinetypeTableRecord
  2
DASHED
 70
64
  3
- - - - - - - - - - - - - - - - - - - -
 72
65
 73
2
 40
0.2
 49
0.1
 74
0
 49
-0.1
 74
0
  0
ENDTAB
  0
TABLE
  2
LAYER
  5
2
100
AcDbSymbolTable
 70
36
  0
LAYER
  5
10
100
AcDbSymbolTableRecord
100
AcDbLayerTableRecord
  2
0
 70
0
 62
7
  6
CONTINUOUS
370
-3
390
F
  0
LAYER
  5
1FA
100
AcDbSymbolTableRecord
100
AcDbLayerTableRecord
  2
DEFAULT_1
 70
0
 62
7
  6
CENTER
370
-3
390
F
  0
LAYER
  5
1FB
100
AcDbSymbolTableRecord
100
AcDbLayerTableRecord
  2
DEFAULT_2
 70
0
 62
8
  6
HIDDEN
370
-3
390
F
  0
LAYER
  5
1FC
100
AcDbSymbolTableRecord
100
AcDbLayerTableRecord
  2
DEFAULT_3
 70
0
 62
7
  6
PHANTOM
370
-3
390
F
  0
LAYER
  5
1FD
100
AcDbSymbolTableRecord
100
AcDbLayerTableRecord
  2
ACHSEN
 70
0
 62
7
  6
CONTINUOUS
370
-3
390
F
  0
LAYER
  5
1FE
100
AcDbSymbolTableRecord
100
AcDbLayerTableRecord
  2
BEZUGSACHSEN
 70
0
 62
7
  6
CONTINUOUS
370
-3
390
F
  0
LAYER
  5
1FF
100
AcDbSymbolTableRecord
100
AcDbLayerTableRecord
  2
BEZUGSEBENE_B
 70
0
 62
7
  6
CONTINUOUS
370
-3
390
F
  0
LAYER
  5
200
100
AcDbSymbolTableRecord
100
AcDbLayerTableRecord
  2
BOHRUNGEN
 70
0
 62
7
  6
CONTINUOUS
370
-3
390
F
  0
LAYER
  5
201
100
AcDbSymbolTableRecord
100
AcDbLayerTableRecord
  2
EBENEN
 70
0
 62
7
  6
CONTINUOUS
370
-3
390
F
  0
LAYER
  5
202
100
AcDbSymbolTableRecord
100
AcDbLayerTableRecord
  2
FASEN
 70
0
 62
7
  6
CONTINUOUS
370
-3
390
F
  0
LAYER
  5
203
100
AcDbSymbolTableRecord
100
AcDbLayerTableRecord
  2
FLAECHEN
 70
0
 62
7
  6
CONTINUOUS
370
-3
390
F
  0
LAYER
  5
204
100
AcDbSymbolTableRecord
100
AcDbLayerTableRecord
  2
GEWINDE
 70
0
 62
7
  6
CONTINUOUS
370
-3
390
F
  0
LAYER
  5
205
100
AcDbSymbolTableRecord
100
AcDbLayerTableRecord
  2
KOORDSYS
 70
0
 62
7
  6
CONTINUOUS
370
-3
390
F
  0
LAYER
  5
206
100
AcDbSymbolTableRecord
100
AcDbLayerTableRecord
  2
KURVEN
 70
0
 62
7
  6
CONTINUOUS
370
-3
390
F
  0
LAYER
  5
207
100
AcDbSymbolTableRecord
100
AcDbLayerTableRecord
  2
KURVE_FUER_GTOL_DETAILANSICHT
 70
0
 62
7
  6
CONTINUOUS
370
-3
390
F
  0
LAYER
  5
208
100
AcDbSymbolTableRecord
100
AcDbLayerTableRecord
  2
KURVE_GAUGE2_POLIGON_INNENEINST
 70
0
 62
7
  6
CONTINUOUS
370
-3
390
F
  0
LAYER
  5
209
100
AcDbSymbolTableRecord
100
AcDbLayerTableRecord
  2
KURVE_PHANTOM1_GAUGE_PIN_1
 70
0
 62
7
  6
CONTINUOUS
370
-3
390
F
  0
LAYER
  5
20A
100
AcDbSymbolTableRecord
100
AcDbLayerTableRecord
  2
KURVE_PHANTOM2_GAUGE_PIN1
 70
0
 62
7
  6
CONTINUOUS
370
-3
390
F
  0
LAYER
  5
20B
100
AcDbSymbolTableRecord
100
AcDbLayerTableRecord
  2
KURVE_POLIGON_BEMASUNG
 70
0
 62
7
  6
CONTINUOUS
370
-3
390
F
  0
LAYER
  5
20C
100
AcDbSymbolTableRecord
100
AcDbLayerTableRecord
  2
PUNKTE
 70
0
 62
7
  6
CONTINUOUS
370
-3
390
F
  0
LAYER
  5
20D
100
AcDbSymbolTableRecord
100
AcDbLayerTableRecord
  2
RUNDUNGEN
 70
0
 62
7
  6
CONTINUOUS
370
-3
390
F
  0
LAYER
  5
20E
100
AcDbSymbolTableRecord
100
AcDbLayerTableRecord
  2
S_ACHSEN
 70
0
 62
7
  6
CONTINUOUS
370
-3
390
F
  0
LAYER
  5
20F
100
AcDbSymbolTableRecord
100
AcDbLayerTableRecord
  2
S_EBENEN
 70
0
 62
7
  6
CONTINUOUS
370
-3
390
F
  0
LAYER
  5
210
100
AcDbSymbolTableRecord
100
AcDbLayerTableRecord
  2
S_KOORDSYS
 70
0
 62
7
  6
CONTINUOUS
370
-3
390
F
  0
LAYER
  5
211
100
AcDbSymbolTableRecord
100
AcDbLayerTableRecord
  2
TOL_BEZUEGE
 70
0
 62
7
  6
CONTINUOUS
370
-3
390
F
  0
LAYER
  5
212
100
AcDbSymbolTableRecord
100
AcDbLayerTableRecord
  2
VERBFLAECHE
 70
0
 62
7
  6
CONTINUOUS
370
-3
390
F
  0
LAYER
  5
213
100
AcDbSymbolTableRecord
100
AcDbLayerTableRecord
  2
ZEICHNUNGSBEMASSUNGEN
 70
0
 62
7
  6
CONTINUOUS
370
-3
390
F
  0
ENDTAB
  0
TABLE
  2
STYLE
  5
3
100
AcDbSymbolTable
 70
1
  0
STYLE
  5
11
100
AcDbSymbolTableRecord
100
AcDbTextStyleTableRecord
  2
STANDARD
 70
0
 40
0.0
 41
0.7
 50
0.0
 71
0
 42
0.2
  3
txt
  4

  0
STYLE
  5
214
100
AcDbSymbolTableRecord
100
AcDbTextStyleTableRecord
  2
TEXTSTYLE_1
 70
0
 40
0.0
 41
0.8
 50
0.0
 71
0
 42
0.2
  3
gdt
  4

  0
STYLE
  5
215
100
AcDbSymbolTableRecord
100
AcDbTextStyleTableRecord
  2
TEXTSTYLE_2
 70
0
 40
0.0
 41
0.7
 50
0.0
 71
0
 42
0.2
  3
gdt
  4

  0
ENDTAB
  0
TABLE
  2
VIEW
  5
6
100
AcDbSymbolTable
 70
0
  0
ENDTAB
  0
TABLE
  2
UCS
  5
7
100
AcDbSymbolTable
 70
0
  0
ENDTAB
  0
TABLE
  2
APPID
  5
9
100
AcDbSymbolTable
 70
1
  0
APPID
  5
216
100
AcDbSymbolTableRecord
100
AcDbRegAppTableRecord
  2
ACAD
 70
0
  0
ENDTAB
  0
TABLE
  2
BLOCK_RECORD
  5
1
100
AcDbSymbolTable
 70
0
  0
BLOCK_RECORD
  5
217
100
AcDbSymbolTableRecord
100
AcDbBlockTableRecord
  2
*Model_Space
  0
BLOCK_RECORD
  5
218
100
AcDbSymbolTableRecord
100
AcDbBlockTableRecord
  2
*Paper_Space
  0
BLOCK_RECORD
  5
219
100
AcDbSymbolTableRecord
100
AcDbBlockTableRecord
  2
_FILLED
  0
BLOCK_RECORD
  5
21A
100
AcDbSymbolTableRecord
100
AcDbBlockTableRecord
  2
*D0
  0
BLOCK_RECORD
  5
21B
100
AcDbSymbolTableRecord
100
AcDbBlockTableRecord
  2
*D1
  0
BLOCK_RECORD
  5
21C
100
AcDbSymbolTableRecord
100
AcDbBlockTableRecord
  2
*D2
  0
BLOCK_RECORD
  5
21D
100
AcDbSymbolTableRecord
100
AcDbBlockTableRecord
  2
*D3
  0
BLOCK_RECORD
  5
21E
100
AcDbSymbolTableRecord
100
AcDbBlockTableRecord
  2
*D4
  0
BLOCK_RECORD
  5
21F
100
AcDbSymbolTableRecord
100
AcDbBlockTableRecord
  2
*D5
  0
BLOCK_RECORD
  5
220
100
AcDbSymbolTableRecord
100
AcDbBlockTableRecord
  2
*D6
  0
ENDTAB
  0
TABLE
  2
DIMSTYLE
  5
A
100
AcDbSymbolTable
 70
1
100
AcDbDimStyleTable
 71
0
  0
DIMSTYLE
105
221
100
AcDbSymbolTableRecord
100
AcDbDimStyleTableRecord
  2
STANDARD
 70
0
  3

  4

 40
1.0
 41
3.5
 42
0.0625
 43
0.38
 44
0.18
 45
0.0
 46
0.0
 47
0.005
 48
0.005
140
3.5
141
0.09
142
0.0
143
25.4
144
1.0
145
0.0
146
1.0
147
0.09
 71
1.0
 72
0.0
 73
0
 74
0
 75
0
 76
0
 77
1
 78
8
170
0
171
2
172
0
173
0
174
0
175
0
176
0
177
0
178
5
270
2
271
3
272
3
273
2
274
2
275
0
280
0
281
0
282
0
283
1
284
8
285
0
286
0
287
3
288
0
340
11
341
219
342
219
343
219
344
219
  0
DIMSTYLE
105
222
100
AcDbSymbolTableRecord
100
AcDbDimStyleTableRecord
  2
DIMSTYLE_1
 70
0
  3

  4

 40
1.0
 41
3.5
 42
0.0625
 43
0.38
 44
0.18
 45
0.0
 46
0.0
 47
0.0
 48
0.1
140
3.5
141
0.09
142
0.0
143
25.4
144
1.0
145
0.0
146
1.0
147
0.09
 71
0.0
 72
0.0
 73
0
 74
0
 75
0
 76
0
 77
1
 78
8
170
0
171
2
172
0
173
0
174
0
175
0
176
0
177
0
178
5
270
2
271
2
272
2
273
2
274
2
275
0
280
0
281
0
282
0
283
1
284
8
285
0
286
0
287
3
288
0
340
11
341
219
342
219
343
219
344
219
  0
DIMSTYLE
105
223
100
AcDbSymbolTableRecord
100
AcDbDimStyleTableRecord
  2
DIMSTYLE_2
 70
0
  3

  4

 40
1.0
 41
3.5
 42
0.0625
 43
0.38
 44
0.18
 45
0.0
 46
0.0
 47
0.25
 48
0.25
140
3.5
141
0.09
142
0.0
143
25.4
144
1.0
145
0.0
146
1.0
147
0.09
 71
0.0
 72
0.0
 73
0
 74
0
 75
0
 76
0
 77
1
 78
8
170
0
171
2
172
0
173
0
174
0
175
0
176
0
177
0
178
5
270
2
271
2
272
2
273
2
274
2
275
0
280
0
281
0
282
0
283
1
284
8
285
0
286
0
287
3
288
0
340
11
341
219
342
219
343
219
344
219
  0
DIMSTYLE
105
224
100
AcDbSymbolTableRecord
100
AcDbDimStyleTableRecord
  2
DIMSTYLE_3
 70
0
  3

  4

 40
1.0
 41
3.5
 42
0.0625
 43
0.38
 44
0.18
 45
0.0
 46
0.0
 47
0.3
 48
0.3
140
3.5
141
0.09
142
0.0
143
25.4
144
1.0
145
0.0
146
1.0
147
0.09
 71
0.0
 72
0.0
 73
0
 74
0
 75
0
 76
0
 77
1
 78
8
170
0
171
2
172
0
173
0
174
0
175
0
176
0
177
0
178
5
270
2
271
2
272
2
273
2
274
2
275
0
280
0
281
0
282
0
283
1
284
8
285
0
286
0
287
3
288
0
340
11
341
219
342
219
343
219
344
219
  0
DIMSTYLE
105
225
100
AcDbSymbolTableRecord
100
AcDbDimStyleTableRecord
  2
DIMSTYLE_4
 70
0
  3

  4

 40
1.0
 41
3.5
 42
0.0625
 43
0.38
 44
0.18
 45
0.0
 46
0.0
 47
-0.018
 48
0.023
140
3.5
141
0.09
142
0.0
143
25.4
144
1.0
145
0.0
146
1.0
147
0.09
 71
0.0
 72
0.0
 73
0
 74
0
 75
0
 76
0
 77
1
 78
8
170
0
171
2
172
0
173
0
174
0
175
0
176
0
177
0
178
5
270
2
271
3
272
3
273
2
274
2
275
0
280
0
281
0
282
0
283
1
284
8
285
0
286
0
287
3
288
0
340
11
341
219
342
219
343
219
344
219
  0
DIMSTYLE
105
226
100
AcDbSymbolTableRecord
100
AcDbDimStyleTableRecord
  2
DIMSTYLE_5
 70
0
  3

  4

 40
1.0
 41
3.5
 42
0.0625
 43
0.38
 44
0.18
 45
0.0
 46
0.0
 47
0.5
 48
0.5
140
3.5
141
0.09
142
0.0
143
25.4
144
1.0
145
0.0
146
1.0
147
0.09
 71
0.0
 72
0.0
 73
0
 74
0
 75
0
 76
0
 77
1
 78
8
170
0
171
2
172
0
173
0
174
0
175
0
176
0
177
0
178
5
270
2
271
2
272
2
273
2
274
2
275
0
280
0
281
0
282
0
283
1
284
8
285
0
286
0
287
3
288
0
340
11
341
219
342
219
343
219
344
219
  0
ENDTAB
  0
ENDSEC
  0
SECTION
  2
BLOCKS
  0
BLOCK
  5
20
100
AcDbEntity
  8
0
100
AcDbBlockBegin
  2
*Model_Space
 70
0
 10
0.0
 20
0.0
 30
0.0
  3
*Model_Space
  1

  0
ENDBLK
  5
21
100
AcDbEntity
  8
0
100
AcDbBlockEnd
  0
BLOCK
  5
1C
100
AcDbEntity
  8
0
100
AcDbBlockBegin
  2
*Paper_Space
 70
0
 10
0.0
 20
0.0
 30
0.0
  3
*Paper_Space
  1

  0
ENDBLK
  5
1D
100
AcDbEntity
  8
0
100
AcDbBlockEnd
  0
BLOCK
  5
227
100
AcDbEntity
  8
0
100
AcDbBlockBegin
  2
_FILLED
 70
64
 10
0.0
 20
0.0
  3
_FILLED
  1

  0
SOLID
  5
228
100
AcDbEntity
  8
0
  6
BYBLOCK
 62
0
100
AcDbTrace
 10
0.0
 20
0.0
 11
-1.0
 21
0.125
 12
-1.0
 22
-0.125
 13
-1.0
 23
-0.125
  0
ENDBLK
  5
229
100
AcDbEntity
  8
0
  6
BYBLOCK
 62
0
100
AcDbBlockEnd
  0
BLOCK
  5
22A
100
AcDbEntity
  8
0
100
AcDbBlockBegin
 62
2
  6
CONTINUOUS
  2
*D0
 70
65
 10
0.0
 20
0.0
  3
*D0
  1

  0
MTEXT
  5
22B
100
AcDbEntity
  8
0
100
AcDbMText
 62
5
  6
CONTINUOUS
  7
TEXTSTYLE_2
 71
2
 72
1
 10
248.9576676894
 20
130.6419911176
 30
0.0
 11
0.0
 21
1.0
 31
0.0
 44
0.9
  1
{\Fgdt;n}\Ftxt;24
 40
3.5
 41
10.1666666667
  0
LINE
  5
22C
100
AcDbEntity
  8
0
100
AcDbLine
 62
2
  6
CONTINUOUS
 10
217.3937538981
 20
142.6169911176
 11
222.6440183827
 21
142.6169911176
  0
LINE
  5
22D
100
AcDbEntity
  8
0
100
AcDbLine
 62
2
  6
CONTINUOUS
 10
226.8064510439
 20
142.6169911176
 11
254.8326676894
 21
142.6169911176
  0
LINE
  5
22E
100
AcDbEntity
  8
0
100
AcDbLine
 62
2
  6
CONTINUOUS
 10
217.3937538981
 20
118.6669911176
 11
245.9942503844
 21
118.6669911176
  0
LINE
  5
22F
100
AcDbEntity
  8
0
100
AcDbLine
 62
2
  6
CONTINUOUS
 10
249.8013534282
 20
118.6669911176
 11
254.8326676894
 21
118.6669911176
  0
LINE
  5
230
100
AcDbEntity
  8
0
100
AcDbLine
 62
2
  6
CONTINUOUS
 10
253.3326676894
 20
142.6169911176
 11
253.3326676894
 21
130.6419911176
  0
LINE
  5
231
100
AcDbEntity
  8
0
100
AcDbLine
 62
2
  6
CONTINUOUS
 10
253.3326676894
 20
118.6669911176
 11
253.3326676894
 21
130.6419911176
  0
INSERT
  5
232
100
AcDbEntity
  8
0
100
AcDbBlockReference
 62
2
  6
CONTINUOUS
  2
_FILLED
 10
253.3326676894
 20
142.6169911176
 41
3.5
 42
3.5
 43
3.5
 50
90.0
  0
INSERT
  5
233
100
AcDbEntity
  8
0
100
AcDbBlockReference
 62
2
  6
CONTINUOUS
  2
_FILLED
 10
253.3326676894
 20
118.6669911176
 41
3.5
 42
3.5
 43
3.5
 50
270.0
  0
ENDBLK
  5
234
100
AcDbEntity
  8
0
  6
BYBLOCK
 62
0
100
AcDbBlockEnd
  0
BLOCK
  5
235
100
AcDbEntity
  8
0
100
AcDbBlockBegin
 62
2
  6
CONTINUOUS
  2
*D1
 70
65
 10
0.0
 20
0.0
  3
*D1
  1

  0
MTEXT
  5
236
100
AcDbEntity
  8
0
100
AcDbMText
 62
5
  6
CONTINUOUS
  7
STANDARD
 71
2
 72
1
 10
239.5296679213
 20
101.8963810719
 30
0.0
 11
0.1690398479
 21
0.9856092176
 31
0.0
 44
0.9
  1
4\Fgdt;{\Fgdt;~}\Ftxt;30'
 40
3.5
 41
12.3333333333
  0
LINE
  5
237
100
AcDbEntity
  8
0
100
AcDbLine
 62
2
  6
CONTINUOUS
 10
194.5696217314
 20
116.9887455195
 11
248.8577699871
 21
121.2613154476
  0
LINE
  5
238
100
AcDbEntity
  8
0
100
AcDbLine
 62
2
  6
CONTINUOUS
 10
166.5689349534
 20
114.6669911176
 11
212.6525697562
 21
114.6669911176
  0
LINE
  5
239
100
AcDbEntity
  8
0
100
AcDbLine
 62
2
  6
CONTINUOUS
 10
223.4356360777
 20
114.6669911176
 11
249.1168616957
 21
114.6669911176
  0
ARC
  5
23A
100
AcDbEntity
  8
0
100
AcDbCircle
 62
2
  6
CONTINUOUS
 10
165.0689349534
 20
114.6669911176
 40
82.5479267422
100
AcDbArc
 50
4.5
 51
8.6645464719
  0
ARC
  5
23B
100
AcDbEntity
  8
0
100
AcDbCircle
 62
2
  6
CONTINUOUS
 10
165.0689349534
 20
114.6669911176
 40
82.5479267422
100
AcDbArc
 50
350.2680015131
 51
0.0
  0
ARC
  5
23C
100
AcDbEntity
  8
0
100
AcDbCircle
 62
2
  6
CONTINUOUS
 10
165.0689349534
 20
114.6669911176
 40
82.5479267422
100
AcDbArc
 50
360.0
 51
4.5
  0
SOLID
  5
23D
100
AcDbEntity
  8
0
100
AcDbTrace
 62
2
  6
CONTINUOUS
 10
246.5785581303
 20
124.5826684729
 11
247.3623939865
 21
121.143626804
 12
247.4492094906
 22
124.6697960169
 13
247.4492094906
 23
124.6697960169
  0
SOLID
  5
23E
100
AcDbEntity
  8
0
100
AcDbTrace
 62
2
  6
CONTINUOUS
 10
247.9800696243
 20
111.1585033735
 11
247.6168616957
 21
114.6669911176
 12
247.1052662434
 22
111.1770518139
 13
247.1052662434
 23
111.1770518139
  0
ENDBLK
  5
23F
100
AcDbEntity
  8
0
  6
BYBLOCK
 62
0
100
AcDbBlockEnd
  0
BLOCK
  5
240
100
AcDbEntity
  8
0
100
AcDbBlockBegin
 62
2
  6
CONTINUOUS
  2
*D2
 70
65
 10
0.0
 20
0.0
  3
*D2
  1

  0
MTEXT
  5
241
100
AcDbEntity
  8
0
100
AcDbMText
 62
5
  6
CONTINUOUS
  7
STANDARD
 71
2
 72
1
 10
165.8937538981
 20
178.3269376779
 30
0.0
 11
1.0
 21
0.0
 31
0.0
 44
0.9
  1
100
 40
3.5
 41
7.5
  0
LINE
  5
242
100
AcDbEntity
  8
0
100
AcDbLine
 62
2
  6
CONTINUOUS
 10
115.8937538981
 20
156.6081658264
 11
115.8937538981
 21
175.4519376779
  0
LINE
  5
243
100
AcDbEntity
  8
0
100
AcDbLine
 62
2
  6
CONTINUOUS
 10
215.8937538981
 20
139.9425658264
 11
215.8937538981
 21
175.4519376779
  0
LINE
  5
244
100
AcDbEntity
  8
0
100
AcDbLine
 62
2
  6
CONTINUOUS
 10
115.8937538981
 20
173.9519376779
 11
165.8937538981
 21
173.9519376779
  0
LINE
  5
245
100
AcDbEntity
  8
0
100
AcDbLine
 62
2
  6
CONTINUOUS
 10
215.8937538981
 20
173.9519376779
 11
165.8937538981
 21
173.9519376779
  0
INSERT
  5
246
100
AcDbEntity
  8
0
100
AcDbBlockReference
 62
2
  6
CONTINUOUS
  2
_FILLED
 10
115.8937538981
 20
173.9519376779
 41
3.5
 42
3.5
 43
3.5
 50
180.0
  0
INSERT
  5
247
100
AcDbEntity
  8
0
100
AcDbBlockReference
 62
2
  6
CONTINUOUS
  2
_FILLED
 10
215.8937538981
 20
173.9519376779
 41
3.5
 42
3.5
 43
3.5
  0
ENDBLK
  5
248
100
AcDbEntity
  8
0
  6
BYBLOCK
 62
0
100
AcDbBlockEnd
  0
BLOCK
  5
249
100
AcDbEntity
  8
0
100
AcDbBlockBegin
 62
2
  6
CONTINUOUS
  2
*D3
 70
65
 10
0.0
 20
0.0
  3
*D3
  1

  0
MTEXT
  5
24A
100
AcDbEntity
  8
0
100
AcDbMText
 62
5
  6
CONTINUOUS
  7
TEXTSTYLE_2
 71
2
 72
1
 10
233.0753163139
 20
130.6419911176
 30
0.0
 11
0.0
 21
1.0
 31
0.0
 44
0.9
  1
{\Fgdt;n}\Ftxt;10
 40
3.5
 41
9.4166666667
  0
LINE
  5
24B
100
AcDbEntity
  8
0
100
AcDbLine
 62
2
  6
CONTINUOUS
 10
205.1574579996
 20
125.6522411176
 11
238.9503163139
 21
125.6522411176
  0
LINE
  5
24C
100
AcDbEntity
  8
0
100
AcDbLine
 62
2
  6
CONTINUOUS
 10
205.0140979996
 20
135.6317411176
 11
238.9503163139
 21
135.6317411176
  0
LINE
  5
24D
100
AcDbEntity
  8
0
100
AcDbLine
 62
2
  6
CONTINUOUS
 10
237.4503163139
 20
125.6522411176
 11
237.4503163139
 21
130.6419911176
  0
LINE
  5
24E
100
AcDbEntity
  8
0
100
AcDbLine
 62
2
  6
CONTINUOUS
 10
237.4503163139
 20
135.6317411176
 11
237.4503163139
 21
130.6419911176
  0
INSERT
  5
24F
100
AcDbEntity
  8
0
100
AcDbBlockReference
 62
2
  6
CONTINUOUS
  2
_FILLED
 10
237.4503163139
 20
125.6522411176
 41
3.5
 42
3.5
 43
3.5
 50
270.0
  0
INSERT
  5
250
100
AcDbEntity
  8
0
100
AcDbBlockReference
 62
2
  6
CONTINUOUS
  2
_FILLED
 10
237.4503163139
 20
135.6317411176
 41
3.5
 42
3.5
 43
3.5
 50
90.0
  0
ENDBLK
  5
251
100
AcDbEntity
  8
0
  6
BYBLOCK
 62
0
100
AcDbBlockEnd
  0
BLOCK
  5
252
100
AcDbEntity
  8
0
100
AcDbBlockBegin
 62
2
  6
CONTINUOUS
  2
*D4
 70
65
 10
0.0
 20
0.0
  3
*D4
  1

  0
MTEXT
  5
253
100
AcDbEntity
  8
0
100
AcDbMText
 62
5
  6
CONTINUOUS
  7
STANDARD
 71
2
 72
1
 10
176.8937538981
 20
171.0418582886
 30
0.0
 11
1.0
 21
0.0
 31
0.0
 44
0.9
  1
78
 40
3.5
 41
5.5
  0
LINE
  5
254
100
AcDbEntity
  8
0
100
AcDbLine
 62
2
  6
CONTINUOUS
 10
215.8937538981
 20
120.1669911176
 11
215.8937538981
 21
168.1668582886
  0
LINE
  5
255
100
AcDbEntity
  8
0
100
AcDbLine
 62
2
  6
CONTINUOUS
 10
137.8937538981
 20
154.9953658264
 11
137.8937538981
 21
168.1668582886
  0
LINE
  5
256
100
AcDbEntity
  8
0
100
AcDbLine
 62
2
  6
CONTINUOUS
 10
215.8937538981
 20
166.6668582886
 11
176.8937538981
 21
166.6668582886
  0
LINE
  5
257
100
AcDbEntity
  8
0
100
AcDbLine
 62
2
  6
CONTINUOUS
 10
137.8937538981
 20
166.6668582886
 11
176.8937538981
 21
166.6668582886
  0
INSERT
  5
258
100
AcDbEntity
  8
0
100
AcDbBlockReference
 62
2
  6
CONTINUOUS
  2
_FILLED
 10
215.8937538981
 20
166.6668582886
 41
3.5
 42
3.5
 43
3.5
  0
INSERT
  5
259
100
AcDbEntity
  8
0
100
AcDbBlockReference
 62
2
  6
CONTINUOUS
  2
_FILLED
 10
137.8937538981
 20
166.6668582886
 41
3.5
 42
3.5
 43
3.5
 50
180.0
  0
ENDBLK
  5
25A
100
AcDbEntity
  8
0
  6
BYBLOCK
 62
0
100
AcDbBlockEnd
  0
BLOCK
  5
25B
100
AcDbEntity
  8
0
100
AcDbBlockBegin
 62
2
  6
CONTINUOUS
  2
*D5
 70
65
 10
0.0
 20
0.0
  3
*D5
  1

  0
MTEXT
  5
25C
100
AcDbEntity
  8
0
100
AcDbMText
 62
5
  6
CONTINUOUS
  7
STANDARD
 71
2
 72
1
 10
146.8937538981
 20
185.8365059771
 30
0.0
 11
1.0
 21
0.0
 31
0.0
 44
0.9
  1
138
 40
3.5
 41
7.25
  0
LINE
  5
25D
100
AcDbEntity
  8
0
100
AcDbLine
 62
2
  6
CONTINUOUS
 10
215.8937538981
 20
120.1669911176
 11
215.8937538981
 21
182.9615059771
  0
LINE
  5
25E
100
AcDbEntity
  8
0
100
AcDbLine
 62
2
  6
CONTINUOUS
 10
77.8937538981
 20
111.9558753483
 11
77.8937538981
 21
182.9615059771
  0
LINE
  5
25F
100
AcDbEntity
  8
0
100
AcDbLine
 62
2
  6
CONTINUOUS
 10
215.8937538981
 20
181.4615059771
 11
146.8937538981
 21
181.4615059771
  0
LINE
  5
260
100
AcDbEntity
  8
0
100
AcDbLine
 62
2
  6
CONTINUOUS
 10
77.8937538981
 20
181.4615059771
 11
146.8937538981
 21
181.4615059771
  0
INSERT
  5
261
100
AcDbEntity
  8
0
100
AcDbBlockReference
 62
2
  6
CONTINUOUS
  2
_FILLED
 10
215.8937538981
 20
181.4615059771
 41
3.5
 42
3.5
 43
3.5
  0
INSERT
  5
262
100
AcDbEntity
  8
0
100
AcDbBlockReference
 62
2
  6
CONTINUOUS
  2
_FILLED
 10
77.8937538981
 20
181.4615059771
 41
3.5
 42
3.5
 43
3.5
 50
180.0
  0
ENDBLK
  5
263
100
AcDbEntity
  8
0
  6
BYBLOCK
 62
0
100
AcDbBlockEnd
  0
BLOCK
  5
264
100
AcDbEntity
  8
0
100
AcDbBlockBegin
 62
2
  6
CONTINUOUS
  2
*D6
 70
65
 10
0.0
 20
0.0
  3
*D6
  1

  0
MTEXT
  5
265
100
AcDbEntity
  8
0
100
AcDbMText
 62
5
  6
CONTINUOUS
  7
TEXTSTYLE_2
 71
2
 72
1
 10
262.6753532132
 20
130.6419911176
 30
0.0
 11
0.0
 21
1.0
 31
0.0
 44
0.9
  1
{\Fgdt;n}\Ftxt;32
 40
3.5
 41
9.9166666667
  0
LINE
  5
266
100
AcDbEntity
  8
0
100
AcDbLine
 62
2
  6
CONTINUOUS
 10
166.5689349534
 20
146.6169911176
 11
214.3592421236
 21
146.6169911176
  0
LINE
  5
267
100
AcDbEntity
  8
0
100
AcDbLine
 62
2
  6
CONTINUOUS
 10
231.0380857144
 20
146.6169911176
 11
268.5503532132
 21
146.6169911176
  0
LINE
  5
268
100
AcDbEntity
  8
0
100
AcDbLine
 62
2
  6
CONTINUOUS
 10
166.5689349534
 20
114.6669911176
 11
212.962873823
 21
114.6669911176
  0
LINE
  5
269
100
AcDbEntity
  8
0
100
AcDbLine
 62
2
  6
CONTINUOUS
 10
223.2804840443
 20
114.6669911176
 11
268.5503532132
 21
114.6669911176
  0
LINE
  5
26A
100
AcDbEntity
  8
0
100
AcDbLine
 62
2
  6
CONTINUOUS
 10
267.0503532132
 20
146.6169911176
 11
267.0503532132
 21
130.6419911176
  0
LINE
  5
26B
100
AcDbEntity
  8
0
100
AcDbLine
 62
2
  6
CONTINUOUS
 10
267.0503532132
 20
114.6669911176
 11
267.0503532132
 21
130.6419911176
  0
INSERT
  5
26C
100
AcDbEntity
  8
0
100
AcDbBlockReference
 62
2
  6
CONTINUOUS
  2
_FILLED
 10
267.0503532132
 20
146.6169911176
 41
3.5
 42
3.5
 43
3.5
 50
90.0
  0
INSERT
  5
26D
100
AcDbEntity
  8
0
100
AcDbBlockReference
 62
2
  6
CONTINUOUS
  2
_FILLED
 10
267.0503532132
 20
114.6669911176
 41
3.5
 42
3.5
 43
3.5
 50
270.0
  0
ENDBLK
  5
26E
100
AcDbEntity
  8
0
  6
BYBLOCK
 62
0
100
AcDbBlockEnd
  0
ENDSEC
  0
SECTION
  2
ENTITIES
  0
DIMENSION
  5
26F
100
AcDbEntity
  8
0
100
AcDbDimension
 62
2
  6
CONTINUOUS
  2
*D0
 10
253.3326676894
 20
118.6669911176
 11
251.8465214637
 21
128.3697495976
 70
160
 71
2
 42
23.95
  1
%%c<>
  3
DIMSTYLE_1
100
AcDbAlignedDimension
 13
217.3937538981
 23
142.6169911176
 14
217.3937538981
 24
118.6669911176
 50
270.0
100
AcDbRotatedDimension
  0
DIMENSION
  5
270
100
AcDbEntity
  8
0
100
AcDbDimension
 62
2
  6
CONTINUOUS
  2
*D1
 10
249.1168616957
 20
114.6669911176
 11
240.8626343907
 21
104.0696611422
 70
162
 71
2
 42
0.0785398163
  3
DIMSTYLE_2
100
AcDb2LineAngularDimension
 13
248.8577699871
 23
121.2613154476
 14
194.5696217314
 24
116.9887455195
 15
166.5689349534
 25
114.6669911176
 16
247.5532202357
 26
117.9078075128
  0
DIMENSION
  5
271
100
AcDbEntity
  8
0
100
AcDbDimension
 62
2
  6
CONTINUOUS
  2
*D2
 10
215.8937538981
 20
173.9519376779
 11
162.1437538981
 21
176.5769376779
 70
160
 71
2
 42
100.0
  3
DIMSTYLE_3
100
AcDbAlignedDimension
 13
115.8937538981
 23
156.6081658264
 14
215.8937538981
 24
139.9425658264
100
AcDbRotatedDimension
  0
DIMENSION
  5
272
100
AcDbEntity
  8
0
100
AcDbDimension
 62
2
  6
CONTINUOUS
  2
*D3
 10
237.4503163139
 20
135.6317411176
 11
235.8801562852
 21
128.537373972
 70
160
 71
2
 42
9.9795
  1
%%c<>
  3
DIMSTYLE_4
100
AcDbAlignedDimension
 13
205.1574579996
 23
125.6522411176
 14
205.0140979996
 24
135.6317411176
 50
90.0
100
AcDbRotatedDimension
  0
DIMENSION
  5
273
100
AcDbEntity
  8
0
100
AcDbDimension
 62
2
  6
CONTINUOUS
  2
*D4
 10
137.8937538981
 20
166.6668582886
 11
174.1437538981
 21
169.2918582886
 70
160
 71
2
 42
78.0
  3
DIMSTYLE_3
100
AcDbAlignedDimension
 13
215.8937538981
 23
120.1669911176
 14
137.8937538981
 24
154.9953658264
 50
180.0
100
AcDbRotatedDimension
  0
DIMENSION
  5
274
100
AcDbEntity
  8
0
100
AcDbDimension
 62
2
  6
CONTINUOUS
  2
*D5
 10
77.8937538981
 20
181.4615059771
 11
143.2687538981
 21
184.0865059771
 70
160
 71
2
 42
138.0
  3
DIMSTYLE_5
100
AcDbAlignedDimension
 13
215.8937538981
 23
120.1669911176
 14
77.8937538981
 24
111.9558753483
 50
180.0
100
AcDbRotatedDimension
  0
DIMENSION
  5
275
100
AcDbEntity
  8
0
100
AcDbDimension
 62
2
  6
CONTINUOUS
  2
*D6
 10
267.0503532132
 20
114.6669911176
 11
265.5362023865
 21
128.4256243891
 70
160
 71
2
 42
31.95
  1
%%c<>
  3
DIMSTYLE_1
100
AcDbAlignedDimension
 13
166.5689349534
 23
146.6169911176
 14
166.5689349534
 24
114.6669911176
 50
270.0
100
AcDbRotatedDimension
  0
MTEXT
  5
276
100
AcDbEntity
  8
0
100
AcDbMText
 62
5
  6
CONTINUOUS
  7
STANDARD
 71
1
 72
1
 10
26.0685420998
 20
89.036512474
 30
0.0
 11
1.0
 21
0.0
 31
0.0
 44
0.9
  3
Für diese Unterlage behalten wir das Ur-\Pheberrecht. Sie darf nur für den von uns \Pbestimmten Zweck benutzt und ohne unsere \PZustimmung weder vervielfältigt noch\PDritten zugänglich gemacht werden\P \PWe own the copyright of this document. It \Pde
  1
termined and may neither be copied or \Pmade accessible to outsiders without our\Ppermission.\P \PCe plan reste notre propriété. Il ne peut\Pêtre utilisé, copié ou reproduit sans notre\Paccord.\P 
 40
3.5
 41
104.8333333333
  0
LINE
  5
277
100
AcDbEntity
  8
0
100
AcDbLine
 62
7
  6
CONTINUOUS
 10
0.0
 20
0.0
 11
0.0
 21
210.0
  0
LINE
  5
278
100
AcDbEntity
  8
0
100
AcDbLine
 62
7
  6
CONTINUOUS
 10
0.0
 20
0.0
 11
297.0
 21
0.0
  0
LINE
  5
279
100
AcDbEntity
  8
0
100
AcDbLine
 62
7
  6
CONTINUOUS
 10
0.0
 20
210.0
 11
297.0
 21
210.0
  0
LINE
  5
27A
100
AcDbEntity
  8
0
100
AcDbLine
 62
7
  6
CONTINUOUS
 10
297.0
 20
0.0
 11
297.0
 21
210.0
  0
LINE
  5
27B
100
AcDbEntity
  8
0
100
AcDbLine
 62
7
  6
CONTINUOUS
 10
77.8937538981
 20
108.9496531247
 11
77.8937538981
 21
145.6032357563
  0
LINE
  5
27C
100
AcDbEntity
  8
KURVEN
100
AcDbLine
 62
4
  6
CONTINUOUS
 10
77.8937538981
 20
108.121312942
 11
77.8937538981
 21
149.8535651045
  0
LINE
  5
27D
100
AcDbEntity
  8
ACHSEN
100
AcDbLine
 62
7
  6
CONTINUOUS
 10
77.8937538981
 20
145.6032357563
 11
77.8937538981
 21
149.3904704316
  0
LINE
  5
27E
100
AcDbEntity
  8
ACHSEN
100
AcDbLine
 62
7
  6
CONTINUOUS
 10
79.3937538981
 20
150.1389807311
 11
79.3937538981
 21
146.3532357563
  0
LINE
  5
27F
100
AcDbEntity
  8
0
100
AcDbLine
 62
7
  6
CONTINUOUS
 10
79.3937538981
 20
146.3532357563
 11
79.3937538981
 21
108.0836277209
  0
LINE
  5
280
100
AcDbEntity
  8
ACHSEN
100
AcDbLine
 62
7
  6
CENTER
 10
100.3937538981
 20
107.7085056105
 11
100.3937538981
 21
154.8303616822
  0
LINE
  5
281
100
AcDbEntity
  8
0
100
AcDbLine
 62
7
  6
CONTINUOUS
 10
115.8937557341
 20
161.8419892102
 11
116.193755824
 21
162.1419892641
  0
LINE
  5
282
100
AcDbEntity
  8
0
100
AcDbLine
 62
9
  6
CONTINUOUS
 10
79.3937538981
 20
146.3532357563
 11
77.8937538981
 21
145.6032357563
  0
LINE
  5
283
100
AcDbEntity
  8
0
100
AcDbLine
 62
7
  6
CONTINUOUS
 10
79.3937538981
 20
108.0836277209
 11
77.8937538981
 21
108.9496531247
  0
LINE
  5
284
100
AcDbEntity
  8
0
100
AcDbLine
 62
9
  6
CONTINUOUS
 10
79.3937538981
 20
109.7058753483
 11
77.8937538981
 21
110.4558753483
  0
LINE
  5
285
100
AcDbEntity
  8
0
100
AcDbLine
 62
7
  6
CONTINUOUS
 10
115.8937557341
 20
99.4419930249
 11
116.193755824
 21
99.141992971
  0
LINE
  5
286
100
AcDbEntity
  8
0
100
AcDbLine
 62
7
  6
CONTINUOUS
 10
113.6938169872
 20
151.2620914872
 11
113.6938169872
 21
147.0995218662
  0
LINE
  5
287
100
AcDbEntity
  8
0
100
AcDbLine
 62
7
  6
CONTINUOUS
 10
113.6938169872
 20
135.8668622482
 11
113.6938169872
 21
108.9595892384
  0
LINE
  5
288
100
AcDbEntity
  8
0
100
AcDbLine
 62
9
  6
CONTINUOUS
 10
113.8987770093
 20
151.0671776873
 11
113.8987770093
 21
145.3269333224
  0
LINE
  5
289
100
AcDbEntity
  8
0
100
AcDbLine
 62
9
  6
CONTINUOUS
 10
113.8987770093
 20
138.8279343043
 11
113.8987770093
 21
107.7711057261
  0
LINE
  5
28A
100
AcDbEntity
  8
0
100
AcDbLine
 62
9
  6
CONTINUOUS
 10
114.5866471169
 20
107.8990978988
 11
114.5866471169
 21
108.5384344667
  0
LINE
  5
28B
100
AcDbEntity
  8
0
100
AcDbLine
 62
9
  6
CONTINUOUS
 10
114.5866471169
 20
137.0565308783
 11
114.5866471169
 21
146.3310080078
  0
LINE
  5
28C
100
AcDbEntity
  8
0
100
AcDbLine
 62
9
  6
CONTINUOUS
 10
115.4987770093
 20
151.1073752565
 11
115.4987770093
 21
146.9864694045
  0
LINE
  5
28D
100
AcDbEntity
  8
0
100
AcDbLine
 62
9
  6
CONTINUOUS
 10
115.4987770093
 20
135.8249415707
 11
115.4987770093
 21
109.1145623775
  0
LINE
  5
28E
100
AcDbEntity
  8
0
100
AcDbLine
 62
7
  6
CONTINUOUS
 10
115.6937538981
 20
109.242576101
 11
115.6936579318
 21
135.2672163317
  0
LINE
  5
28F
100
AcDbEntity
  8
0
100
AcDbLine
 62
7
  6
CONTINUOUS
 10
115.8937538981
 20
99.4422667871
 11
115.8937538981
 21
161.841715448
  0
LINE
  5
290
100
AcDbEntity
  8
0
100
AcDbLine
 62
7
  6
CONTINUOUS
 10
116.1937539717
 20
99.1419911176
 11
116.1937539717
 21
162.1419911176
  0
LINE
  5
291
100
AcDbEntity
  8
0
100
AcDbLine
 62
7
  6
CONTINUOUS
 10
115.6936890463
 20
147.4315657033
 11
115.6937538981
 21
153.1754759786
  0
LINE
  5
292
100
AcDbEntity
  8
0
100
AcDbLine
 62
7
  6
CONTINUOUS
 10
115.6936890463
 20
109.2318230262
 11
115.6937538981
 21
109.2486046604
  0
LINE
  5
293
100
AcDbEntity
  8
0
100
AcDbLine
 62
7
  6
CONTINUOUS
 10
137.8937538981
 20
99.1419911176
 11
116.1937539705
 21
99.1419911176
  0
LINE
  5
294
100
AcDbEntity
  8
0
100
AcDbLine
 62
7
  6
CONTINUOUS
 10
129.3550787635
 20
100.5613983573
 11
126.4324290327
 21
100.5613983573
  0
LINE
  5
295
100
AcDbEntity
  8
0
100
AcDbLine
 62
9
  6
CONTINUOUS
 10
125.9994163308
 20
160.5559459641
 11
125.9994163308
 21
140.5114037366
  0
LINE
  5
296
100
AcDbEntity
  8
0
100
AcDbLine
 62
9
  6
CONTINUOUS
 10
125.9994163308
 20
120.7725784986
 11
125.9994163308
 21
100.7280362711
  0
LINE
  5
297
100
AcDbEntity
  8
0
100
AcDbLine
 62
9
  6
CONTINUOUS
 10
126.4324290327
 20
160.7225838779
 11
126.4324290327
 21
139.9912124321
  0
LINE
  5
298
100
AcDbEntity
  8
0
100
AcDbLine
 62
9
  6
CONTINUOUS
 10
126.4324290327
 20
121.2927698031
 11
126.4324290327
 21
100.5613983573
  0
LINE
  5
299
100
AcDbEntity
  8
ACHSEN
100
AcDbLine
 62
7
  6
CENTER
 10
127.8937538981
 20
152.8003527489
 11
127.8937538981
 21
165.1419911176
  0
LINE
  5
29A
100
AcDbEntity
  8
0
100
AcDbLine
 62
9
  6
CONTINUOUS
 10
129.3550787635
 20
160.7225838779
 11
129.3550787635
 21
139.9912124321
  0
LINE
  5
29B
100
AcDbEntity
  8
0
100
AcDbLine
 62
9
  6
CONTINUOUS
 10
129.3550787635
 20
121.2927698031
 11
129.3550787635
 21
100.5613983573
  0
LINE
  5
29C
100
AcDbEntity
  8
0
100
AcDbLine
 62
9
  6
CONTINUOUS
 10
129.7880914654
 20
160.5559459641
 11
129.7880914654
 21
140.5114037366
  0
LINE
  5
29D
100
AcDbEntity
  8
0
100
AcDbLine
 62
9
  6
CONTINUOUS
 10
129.7880914654
 20
120.7725784986
 11
129.7880914654
 21
100.7280362711
  0
LINE
  5
29E
100
AcDbEntity
  8
0
100
AcDbLine
 62
9
  6
CONTINUOUS
 10
113.6938169872
 20
108.9595892384
 11
79.3937538981
 21
109.7058753483
  0
LINE
  5
29F
100
AcDbEntity
  8
0
100
AcDbLine
 62
7
  6
CONTINUOUS
 10
114.146782649
 20
107.7652622423
 11
113.8987770093
 21
107.7711057261
  0
LINE
  5
2A0
100
AcDbEntity
  8
0
100
AcDbLine
 62
7
  6
CONTINUOUS
 10
79.3937538981
 20
108.0836277209
 11
113.9041567209
 21
107.2166062818
  0
LINE
  5
2A1
100
AcDbEntity
  8
0
100
AcDbLine
 62
7
  6
CONTINUOUS
 10
114.5866471169
 20
107.8990978988
 11
113.9041567207
 21
107.2166075025
  0
LINE
  5
2A2
100
AcDbEntity
  8
RUNDUNGEN
100
AcDbLine
 62
7
  6
CONTINUOUS
 10
214.9722129939
 20
118.5944642755
 11
165.0689349534
 21
114.6669911176
  0
LINE
  5
2A3
100
AcDbEntity
  8
0
100
AcDbLine
 62
7
  6
CONTINUOUS
 10
165.0689349534
 20
114.6669911176
 11
214.9722129939
 21
118.5944642755
  0
LINE
  5
2A4
100
AcDbEntity
  8
0
100
AcDbLine
 62
7
  6
CONTINUOUS
 10
165.0689349534
 20
114.6669911176
 11
164.1437538981
 21
114.6669911176
  0
LINE
  5
2A5
100
AcDbEntity
  8
0
100
AcDbLine
 62
7
  6
CONTINUOUS
 10
155.6437538981
 20
114.6669911176
 11
146.8937538981
 21
114.6669911176
  0
LINE
  5
2A6
100
AcDbEntity
  8
0
100
AcDbLine
 62
7
  6
CONTINUOUS
 10
137.8937538981
 20
99.1419911176
 11
137.8937538981
 21
162.1419911176
  0
LINE
  5
2A7
100
AcDbEntity
  8
0
100
AcDbLine
 62
7
  6
CONTINUOUS
 10
163.8097793019
 20
146.4241707946
 11
164.1437538981
 21
146.6169911176
  0
LINE
  5
2A8
100
AcDbEntity
  8
RUNDUNGEN
100
AcDbLine
 62
7
  6
CONTINUOUS
 10
163.8097793019
 20
146.4241707946
 11
164.1437538981
 21
146.6169911176
  0
LINE
  5
2A9
100
AcDbEntity
  8
0
100
AcDbLine
 62
7
  6
CONTINUOUS
 10
156.3777284943
 20
114.9669911176
 11
157.3937538981
 21
114.9669911176
  0
LINE
  5
2AA
100
AcDbEntity
  8
0
100
AcDbLine
 62
7
  6
CONTINUOUS
 10
162.3937538981
 20
114.9669911176
 11
163.4097793019
 21
114.9669911176
  0
LINE
  5
2AB
100
AcDbEntity
  8
RUNDUNGEN
100
AcDbLine
 62
9
  6
CONTINUOUS
 10
146.8937538981
 20
146.6169911176
 11
146.8937538981
 21
114.6669911176
  0
LINE
  5
2AC
100
AcDbEntity
  8
0
100
AcDbLine
 62
7
  6
CONTINUOUS
 10
129.3550787635
 20
121.2927698031
 11
126.4324290327
 21
121.2927698031
  0
LINE
  5
2AD
100
AcDbEntity
  8
DEFAULT_2
100
AcDbLine
 62
8
  6
HIDDEN
 10
173.4435187817
 20
125.3022411176
 11
183.5085446169
 21
125.3022411176
  0
LINE
  5
2AE
100
AcDbEntity
  8
BOHRUNGEN
100
AcDbLine
 62
8
  6
HIDDEN
 10
184.8937538981
 20
125.6522411176
 11
213.5937538981
 21
125.6522411176
  0
LINE
  5
2AF
100
AcDbEntity
  8
0
100
AcDbLine
 62
7
  6
CONTINUOUS
 10
163.8097793019
 20
114.8598114406
 11
164.1437538981
 21
114.6669911176
  0
LINE
  5
2B0
100
AcDbEntity
  8
RUNDUNGEN
100
AcDbLine
 62
7
  6
CONTINUOUS
 10
163.8097793019
 20
114.8598114406
 11
164.1437538981
 21
114.6669911176
  0
LINE
  5
2B1
100
AcDbEntity
  8
S_ACHSEN
100
AcDbLine
 62
7
  6
CENTER
 10
74.8937538981
 20
130.6419911176
 11
219.8937538981
 21
130.6419911176
  0
LINE
  5
2B2
100
AcDbEntity
  8
0
100
AcDbLine
 62
7
  6
CONTINUOUS
 10
155.6437538981
 20
146.6169911176
 11
155.6437538981
 21
114.6669911176
  0
LINE
  5
2B3
100
AcDbEntity
  8
RUNDUNGEN
100
AcDbLine
 62
9
  6
CONTINUOUS
 10
155.9777284943
 20
114.8598114406
 11
155.9777284943
 21
146.4241707946
  0
LINE
  5
2B4
100
AcDbEntity
  8
RUNDUNGEN
100
AcDbLine
 62
9
  6
CONTINUOUS
 10
156.3777284943
 20
114.9669911176
 11
156.3777284943
 21
146.3169911176
  0
LINE
  5
2B5
100
AcDbEntity
  8
BOHRUNGEN
100
AcDbLine
 62
8
  6
HIDDEN
 10
184.8937538981
 20
135.6317411176
 11
213.5937538981
 21
135.6317411176
  0
LINE
  5
2B6
100
AcDbEntity
  8
0
100
AcDbLine
 62
9
  6
CONTINUOUS
 10
77.8937538981
 20
135.8668622482
 11
113.6938169872
 21
135.8668622482
  0
LINE
  5
2B7
100
AcDbEntity
  8
RUNDUNGEN
100
AcDbLine
 62
8
  6
HIDDEN
 10
183.5085446169
 20
135.9817411176
 11
173.4435187817
 21
135.9817411176
  0
LINE
  5
2B8
100
AcDbEntity
  8
DEFAULT_2
100
AcDbLine
 62
8
  6
HIDDEN
 10
173.4435187817
 20
135.9817411176
 11
183.5085446169
 21
135.9817411176
  0
LINE
  5
2B9
100
AcDbEntity
  8
BEZUGSACHSEN
100
AcDbLine
 62
7
  6
CENTER
 10
159.8937538981
 20
149.3169911176
 11
159.8937538981
 21
135.6169911176
  0
LINE
  5
2BA
100
AcDbEntity
  8
BEZUGSACHSEN
100
AcDbLine
 62
7
  6
CENTER
 10
159.8937538981
 20
111.9669911176
 11
159.8937538981
 21
125.6669911176
  0
LINE
  5
2BB
100
AcDbEntity
  8
RUNDUNGEN
100
AcDbLine
 62
9
  6
CONTINUOUS
 10
163.4097793019
 20
114.9669911176
 11
163.4097793019
 21
146.3169911176
  0
LINE
  5
2BC
100
AcDbEntity
  8
RUNDUNGEN
100
AcDbLine
 62
9
  6
CONTINUOUS
 10
163.8097793019
 20
114.8598114406
 11
163.8097793019
 21
146.4241707946
  0
LINE
  5
2BD
100
AcDbEntity
  8
0
100
AcDbLine
 62
7
  6
CONTINUOUS
 10
164.1437538981
 20
146.6169911176
 11
164.1437538981
 21
114.6669911176
  0
LINE
  5
2BE
100
AcDbEntity
  8
0
100
AcDbLine
 62
7
  6
CONTINUOUS
 10
165.0689349534
 20
114.6669911176
 11
165.0689349534
 21
146.6169911176
  0
LINE
  5
2BF
100
AcDbEntity
  8
0
100
AcDbLine
 62
7
  6
CONTINUOUS
 10
155.6437538981
 20
114.6669911176
 11
155.9777284943
 21
114.8598114406
  0
LINE
  5
2C0
100
AcDbEntity
  8
RUNDUNGEN
100
AcDbLine
 62
7
  6
CONTINUOUS
 10
155.6437538981
 20
114.6669911176
 11
155.9777284943
 21
114.8598114406
  0
LINE
  5
2C1
100
AcDbEntity
  8
0
100
AcDbLine
 62
7
  6
CONTINUOUS
 10
113.8987770093
 20
138.8279343043
 11
114.146782649
 21
138.8289485602
  0
LINE
  5
2C2
100
AcDbEntity
  8
0
100
AcDbLine
 62
7
  6
CONTINUOUS
 10
129.3550787635
 20
139.9912124321
 11
126.4324290327
 21
139.9912124321
  0
LINE
  5
2C3
100
AcDbEntity
  8
0
100
AcDbLine
 62
9
  6
CONTINUOUS
 10
79.3937538981
 20
146.3532357563
 11
113.6938169872
 21
147.0995218662
  0
LINE
  5
2C4
100
AcDbEntity
  8
0
100
AcDbLine
 62
7
  6
CONTINUOUS
 10
114.146782649
 20
145.3317625503
 11
113.8987770093
 21
145.3269333224
  0
LINE
  5
2C5
100
AcDbEntity
  8
0
100
AcDbLine
 62
7
  6
CONTINUOUS
 10
156.3777284943
 20
146.3169911176
 11
157.3937538981
 21
146.3169911176
  0
LINE
  5
2C6
100
AcDbEntity
  8
BEZUGSACHSEN
100
AcDbLine
 62
7
  6
CONTINUOUS
 10
156.3777284943
 20
146.3169911176
 11
157.3937538981
 21
146.3169911176
  0
LINE
  5
2C7
100
AcDbEntity
  8
0
100
AcDbLine
 62
7
  6
CONTINUOUS
 10
162.3937538981
 20
146.3169911176
 11
163.4097793019
 21
146.3169911176
  0
LINE
  5
2C8
100
AcDbEntity
  8
BEZUGSACHSEN
100
AcDbLine
 62
7
  6
CONTINUOUS
 10
162.3937538981
 20
146.3169911176
 11
163.4097793019
 21
146.3169911176
  0
LINE
  5
2C9
100
AcDbEntity
  8
0
100
AcDbLine
 62
7
  6
CONTINUOUS
 10
165.0689349534
 20
146.6169911176
 11
164.1437538981
 21
146.6169911176
  0
LINE
  5
2CA
100
AcDbEntity
  8
0
100
AcDbLine
 62
7
  6
CONTINUOUS
 10
146.8937538981
 20
146.6169911176
 11
155.6437538981
 21
146.6169911176
  0
LINE
  5
2CB
100
AcDbEntity
  8
RUNDUNGEN
100
AcDbLine
 62
7
  6
CONTINUOUS
 10
214.9722129939
 20
142.6895179597
 11
165.0689349534
 21
146.6169911176
  0
LINE
  5
2CC
100
AcDbEntity
  8
0
100
AcDbLine
 62
7
  6
CONTINUOUS
 10
165.0689349534
 20
146.6169911176
 11
214.9722129939
 21
142.6895179597
  0
LINE
  5
2CD
100
AcDbEntity
  8
0
100
AcDbLine
 62
7
  6
CONTINUOUS
 10
155.6437538981
 20
146.6169911176
 11
155.9777284943
 21
146.4241707946
  0
LINE
  5
2CE
100
AcDbEntity
  8
RUNDUNGEN
100
AcDbLine
 62
7
  6
CONTINUOUS
 10
155.6437538981
 20
146.6169911176
 11
155.9777284943
 21
146.4241707946
  0
LINE
  5
2CF
100
AcDbEntity
  8
RUNDUNGEN
100
AcDbLine
 62
9
  6
CONTINUOUS
 10
173.4435187817
 20
125.3022411176
 11
173.4435187817
 21
135.9817411176
  0
LINE
  5
2D0
100
AcDbEntity
  8
0
100
AcDbLine
 62
7
  6
CONTINUOUS
 10
113.8987770093
 20
151.0671776873
 11
115.4987770093
 21
151.1073752565
  0
LINE
  5
2D1
100
AcDbEntity
  8
0
100
AcDbLine
 62
7
  6
CONTINUOUS
 10
86.1573586522
 20
150.5702798077
 11
95.9437538981
 21
150.8161481198
  0
LINE
  5
2D2
100
AcDbEntity
  8
0
100
AcDbLine
 62
7
  6
CONTINUOUS
 10
105.0731152314
 20
151.045509453
 11
113.6938169872
 21
151.2620914872
  0
LINE
  5
2D3
100
AcDbEntity
  8
0
100
AcDbLine
 62
7
  6
CONTINUOUS
 10
129.3550787635
 20
160.7225838779
 11
126.4324290327
 21
160.7225838779
  0
LINE
  5
2D4
100
AcDbEntity
  8
0
100
AcDbLine
 62
7
  6
CONTINUOUS
 10
137.8937538981
 20
162.1419911176
 11
133.1155146
 21
162.1419911176
  0
LINE
  5
2D5
100
AcDbEntity
  8
0
100
AcDbLine
 62
7
  6
CONTINUOUS
 10
122.6719927111
 20
162.1419911176
 11
116.1937539705
 21
162.1419911176
  0
LINE
  5
2D6
100
AcDbEntity
  8
RUNDUNGEN
100
AcDbLine
 62
9
  6
CONTINUOUS
 10
214.9722129939
 20
118.5944642755
 11
214.9722129939
 21
142.6895179597
  0
LINE
  5
2D7
100
AcDbEntity
  8
RUNDUNGEN
100
AcDbLine
 62
7
  6
CONTINUOUS
 10
215.8937538981
 20
141.6926006259
 11
215.8937538981
 21
119.5913816092
  0
ARC
  5
2D8
100
AcDbEntity
  8
0
100
AcDbCircle
 62
7
  6
CONTINUOUS
 10
260.1279266749
 20
81.6677932453
 40
159.2595221605
100
AcDbArc
 50
156.0446773748
 51
156.4374589831
  0
ARC
  5
2D9
100
AcDbEntity
  8
ACHSEN
100
AcDbCircle
 62
7
  6
CONTINUOUS
 10
14.1355369211
 20
279.0379306682
 40
144.4768984229
100
AcDbArc
 50
296.187103939
 51
296.8519184685
  0
ARC
  5
2DA
100
AcDbEntity
  8
0
100
AcDbCircle
 62
7
  6
CONTINUOUS
 10
7.1417427027
 20
111.3325022883
 40
110.4813700652
100
AcDbArc
 50
13.4640903998
 51
14.4111621352
  0
ARC
  5
2DB
100
AcDbEntity
  8
FASEN
100
AcDbCircle
 62
7
  6
CONTINUOUS
 10
128.1820534489
 20
194.9628886269
 40
33.2803296421
100
AcDbArc
 50
260.5371419897
 51
261.5260699511
  0
ARC
  5
2DC
100
AcDbEntity
  8
FASEN
100
AcDbCircle
 62
7
  6
CONTINUOUS
 10
127.6047644123
 20
194.9614376919
 40
33.2790000521
100
AcDbArc
 50
278.4788021285
 51
278.9330655273
  0
ARC
  5
2DD
100
AcDbEntity
  8
FASEN
100
AcDbCircle
 62
7
  6
CONTINUOUS
 10
127.8543813413
 20
193.2368741499
 40
31.5364816332
100
AcDbArc
 50
270.0715324539
 51
278.4922227823
  0
ARC
  5
2DE
100
AcDbEntity
  8
FASEN
100
AcDbCircle
 62
7
  6
CONTINUOUS
 10
127.9066047194
 20
192.8821161562
 40
31.1817017098
100
AcDbArc
 50
261.4632654014
 51
269.9763868614
  0
ARC
  5
2DF
100
AcDbEntity
  8
BEZUGSACHSEN
100
AcDbCircle
 62
7
  6
CONTINUOUS
 10
159.8782608486
 20
99.3162256751
 40
15.8516297023
100
AcDbArc
 50
80.8691402505
 51
88.768654924
  0
ARC
  5
2E0
100
AcDbEntity
  8
BEZUGSACHSEN
100
AcDbCircle
 62
7
  6
CONTINUOUS
 10
159.9092433928
 20
161.9677193031
 40
15.8515923532
100
AcDbArc
 50
260.8691315666
 51
268.7691310295
  0
ARC
  5
2E1
100
AcDbEntity
  8
BEZUGSACHSEN
100
AcDbCircle
 62
7
  6
CONTINUOUS
 10
159.8949881077
 20
99.6933600585
 40
15.4742773254
100
AcDbArc
 50
88.7914124882
 51
91.207539567
  0
ARC
  5
2E2
100
AcDbEntity
  8
BEZUGSACHSEN
100
AcDbCircle
 62
7
  6
CONTINUOUS
 10
159.8925212288
 20
161.5906151622
 40
15.4742703108
100
AcDbArc
 50
268.7918945498
 51
271.2070069274
  0
ARC
  5
2E3
100
AcDbEntity
  8
RUNDUNGEN
100
AcDbCircle
 62
7
  6
CONTINUOUS
 10
146.8937538981
 20
155.6169911176
 40
9.0
100
AcDbArc
 50
180.0000000003
 51
270.0
  0
ARC
  5
2E4
100
AcDbEntity
  8
RUNDUNGEN
100
AcDbCircle
 62
7
  6
CONTINUOUS
 10
146.8937538981
 20
105.6669911176
 40
9.0
100
AcDbArc
 50
90.0
 51
179.9999999991
  0
ARC
  5
2E5
100
AcDbEntity
  8
0
100
AcDbCircle
 62
2
  6
CONTINUOUS
 10
159.8948927899
 20
130.6500578745
 40
3.0080669725
100
AcDbArc
 50
255.0750559175
 51
269.9783071008
  0
ARC
  5
2E6
100
AcDbEntity
  8
0
100
AcDbCircle
 62
2
  6
CONTINUOUS
 10
159.8933792205
 20
130.6424643593
 40
2.9994627495
100
AcDbArc
 50
270.0
 51
195.0006941383
  0
CIRCLE
  5
2E7
100
AcDbEntity
  8
BEZUGSACHSEN
100
AcDbCircle
 62
7
  6
CONTINUOUS
 10
159.8937538981
 20
130.6419911176
 40
2.5
  0
ARC
  5
2E8
100
AcDbEntity
  8
RUNDUNGEN
100
AcDbCircle
 62
7
  6
CONTINUOUS
 10
214.8937538981
 20
141.6926006259
 40
1.0
100
AcDbArc
 50
0.0
 51
85.4999999969
  0
ARC
  5
2E9
100
AcDbEntity
  8
RUNDUNGEN
100
AcDbCircle
 62
7
  6
CONTINUOUS
 10
214.8937538981
 20
119.5913816092
 40
1.0
100
AcDbArc
 50
274.5000000031
 51
360.0
  0
ARC
  5
2EA
100
AcDbEntity
  8
0
100
AcDbCircle
 62
7
  6
CONTINUOUS
 10
115.2937538981
 20
107.1919911176
 40
1.0
100
AcDbArc
 50
53.0400606802
 51
135.0
  0
ARC
  5
2EB
100
AcDbEntity
  8
0
100
AcDbCircle
 62
7
  6
CONTINUOUS
 10
115.2937538981
 20
154.0919911176
 40
1.0
100
AcDbArc
 50
293.5781784782
 51
306.9599393198
  0
ARC
  5
2EC
100
AcDbEntity
  8
RUNDUNGEN
100
AcDbCircle
 62
7
  6
CONTINUOUS
 10
163.4097793019
 20
147.1169911176
 40
0.8
100
AcDbArc
 50
270.0
 51
300.0000000029
  0
ARC
  5
2ED
100
AcDbEntity
  8
RUNDUNGEN
100
AcDbCircle
 62
7
  6
CONTINUOUS
 10
163.4097793019
 20
114.1669911176
 40
0.8
100
AcDbArc
 50
59.9999999732
 51
90.0
  0
ARC
  5
2EE
100
AcDbEntity
  8
RUNDUNGEN
100
AcDbCircle
 62
7
  6
CONTINUOUS
 10
156.3777284943
 20
147.1169911176
 40
0.8
100
AcDbArc
 50
239.999999997
 51
270.0
  0
ARC
  5
2EF
100
AcDbEntity
  8
RUNDUNGEN
100
AcDbCircle
 62
7
  6
CONTINUOUS
 10
156.3777284943
 20
114.1669911176
 40
0.8
100
AcDbArc
 50
90.0
 51
120.0000000261
  0
ARC
  5
2F0
100
AcDbEntity
  8
0
100
AcDbCircle
 62
7
  6
CONTINUOUS
 10
115.4937538981
 20
151.3073121674
 40
0.2
100
AcDbArc
 50
271.439166666
 51
360.0
  0
ARC
  5
2F1
100
AcDbEntity
  8
0
100
AcDbCircle
 62
7
  6
CONTINUOUS
 10
113.8937538981
 20
151.2671145983
 40
0.2
100
AcDbArc
 50
181.439166666
 51
271.439166666
  0
SPLINE
  5
2F2
100
AcDbEntity
  8
0
100
AcDbSpline
 62
2
  6
CONTINUOUS
 70
0
 71
3
 72
13
 73
9
 74
0
 42
0.0000001
 43
0.0000001
 44
0.0000000001
 40
0.0
 40
0.0
 40
0.0
 40
0.0
 40
0.1666666667
 40
0.3333333333
 40
0.5
 40
0.6666666667
 40
0.8333333333
 40
1.0
 40
1.0
 40
1.0
 40
1.0
 10
162.8937538981
 20
114.9669911176
 30
0.0
 10
162.8937538981
 20
114.9669911176
 30
0.0
 10
162.8251306229
 20
114.9803827347
 30
0.0
 10
162.5137639844
 20
115.0368412488
 30
0.0
 10
162.0355021063
 20
115.1116813822
 30
0.0
 10
161.40183028
 20
115.1880840578
 30
0.0
 10
160.6734561501
 20
115.2432675406
 30
0.0
 10
160.1533142675
 20
115.2567506255
 30
0.0
 10
159.8937538981
 20
115.2567506255
 30
0.0
  0
SPLINE
  5
2F3
100
AcDbEntity
  8
0
100
AcDbSpline
 62
2
  6
CONTINUOUS
 70
0
 71
3
 72
13
 73
9
 74
0
 42
0.0000001
 43
0.0000001
 44
0.0000000001
 40
0.0
 40
0.0
 40
0.0
 40
0.0
 40
0.1666666667
 40
0.3333333333
 40
0.5
 40
0.6666666667
 40
0.8333333333
 40
1.0
 40
1.0
 40
1.0
 40
1.0
 10
159.8937538981
 20
115.2567506255
 30
0.0
 10
159.6342668684
 20
115.2567506255
 30
0.0
 10
159.1142583495
 20
115.2432739062
 30
0.0
 10
158.3860880426
 20
115.1881240372
 30
0.0
 10
157.7523333628
 20
115.1117251958
 30
0.0
 10
157.2743154213
 20
115.036938367
 30
0.0
 10
156.9623522241
 20
114.9803805875
 30
0.0
 10
156.8937538981
 20
114.9669911176
 30
0.0
 10
156.8937538981
 20
114.9669911176
 30
0.0
  0
SPLINE
  5
2F4
100
AcDbEntity
  8
0
100
AcDbSpline
 62
2
  6
CONTINUOUS
 70
0
 71
3
 72
13
 73
9
 74
0
 42
0.0000001
 43
0.0000001
 44
0.0000000001
 40
0.0
 40
0.0
 40
0.0
 40
0.0
 40
0.1666666667
 40
0.3333333333
 40
0.5
 40
0.6666666667
 40
0.8333333333
 40
1.0
 40
1.0
 40
1.0
 40
1.0
 10
159.8937538981
 20
146.0272316097
 30
0.0
 10
160.1535268054
 20
146.0272316097
 30
0.0
 10
160.6741692489
 20
146.0407210255
 30
0.0
 10
161.4044497866
 20
146.096148181
 30
0.0
 10
162.0371827954
 20
146.172538063
 30
0.0
 10
162.5161210018
 20
146.247536798
 30
0.0
 10
162.8258923639
 20
146.303751989
 30
0.0
 10
162.8937538981
 20
146.3169911176
 30
0.0
 10
162.8937538981
 20
146.3169911176
 30
0.0
  0
SPLINE
  5
2F5
100
AcDbEntity
  8
0
100
AcDbSpline
 62
2
  6
CONTINUOUS
 70
0
 71
3
 72
13
 73
9
 74
0
 42
0.0000001
 43
0.0000001
 44
0.0000000001
 40
0.0
 40
0.0
 40
0.0
 40
0.0
 40
0.1666666667
 40
0.3333333333
 40
0.5
 40
0.6666666667
 40
0.8333333333
 40
1.0
 40
1.0
 40
1.0
 40
1.0
 10
156.8937538981
 20
146.3169911176
 30
0.0
 10
156.8937538981
 20
146.3169911176
 30
0.0
 10
156.9616534603
 20
146.3037473757
 30
0.0
 10
157.2708407596
 20
146.2476293697
 30
0.0
 10
157.7500653788
 20
146.1725724146
 30
0.0
 10
158.3826983692
 20
146.0961833395
 30
0.0
 10
159.113188243
 20
146.0407247694
 30
0.0
 10
159.6339294834
 20
146.0272316097
 30
0.0
 10
159.8937538981
 20
146.0272316097
 30
0.0
  0
LINE
  5
2F6
100
AcDbEntity
  8
FASEN
100
AcDbLine
 62
7
  6
CONTINUOUS
 10
122.7104939719
 20
162.1354248507
 11
122.6713129169
 21
162.1419555487
  0
LINE
  5
2F7
100
AcDbEntity
  8
FASEN
100
AcDbLine
 62
7
  6
CONTINUOUS
 10
133.0770144156
 20
162.1354249618
 11
133.1161947854
 21
162.1419555458
  0
LINE
  5
2F8
100
AcDbEntity
  8
ACHSEN
100
AcDbLine
 62
7
  6
CONTINUOUS
 10
84.2437538981
 20
150.2460424162
 11
79.3937538981
 21
150.1389807311
  0
LINE
  5
2F9
100
AcDbEntity
  8
ACHSEN
100
AcDbLine
 62
7
  6
CONTINUOUS
 10
86.1573732461
 20
150.5685431934
 11
86.1723241841
 21
150.5706489229
  0
SPLINE
  5
2FA
100
AcDbEntity
  8
BEZUGSACHSEN
100
AcDbSpline
 62
7
  6
CONTINUOUS
 70
0
 71
3
 72
9
 73
5
 74
0
 42
0.0000001
 43
0.0000001
 44
0.0000000001
 40
0.0
 40
0.0
 40
0.0
 40
0.0
 40
0.0744727955
 40
1.0
 40
1.0
 40
1.0
 40
1.0
 10
157.3937538981
 20
114.9669911176
 30
0.0
 10
157.4472934361
 20
114.9755373471
 30
0.0
 10
158.1669022288
 20
115.0867495747
 30
0.0
 10
158.8951251171
 20
115.1500522878
 30
0.0
 10
159.5688834797
 20
115.1642008409
 30
0.0
  0
SPLINE
  5
2FB
100
AcDbEntity
  8
BEZUGSACHSEN
100
AcDbSpline
 62
7
  6
CONTINUOUS
 70
0
 71
3
 72
9
 73
5
 74
0
 42
0.0000001
 43
0.0000001
 44
0.0000000001
 40
0.0
 40
0.0
 40
0.0
 40
0.0
 40
0.0744744288
 40
1.0
 40
1.0
 40
1.0
 40
1.0
 10
162.3937538981
 20
146.3169911176
 30
0.0
 10
162.3402097001
 20
146.3084441568
 30
0.0
 10
161.6205539907
 20
146.1972251419
 30
0.0
 10
160.8922830497
 20
146.1339216137
 30
0.0
 10
160.2184818872
 20
146.119778362
 30
0.0
  0
SPLINE
  5
2FC
100
AcDbEntity
  8
ACHSEN
100
AcDbSpline
 62
7
  6
CONTINUOUS
 70
0
 71
3
 72
10
 73
6
 74
0
 42
0.0000001
 43
0.0000001
 44
0.0000000001
 40
0.0
 40
0.0
 40
0.0
 40
0.0
 40
0.0929965444
 40
0.3287693884
 40
1.0
 40
1.0
 40
1.0
 40
1.0
 10
86.1723241837
 20
150.5706489228
 30
0.0
 10
86.1122226088
 20
150.5626654255
 30
0.0
 10
85.9001701785
 20
150.5313487579
 30
0.0
 10
85.2554726661
 20
150.4344012563
 30
0.0
 10
84.6731714189
 20
150.330330963
 30
0.0
 10
84.2437538981
 20
150.2460424162
 30
0.0
  0
SPLINE
  5
2FD
100
AcDbEntity
  8
ACHSEN
100
AcDbSpline
 62
7
  6
CONTINUOUS
 70
0
 71
3
 72
11
 73
7
 74
0
 42
0.0000001
 43
0.0000001
 44
0.0000000001
 40
0.0
 40
0.0
 40
0.0
 40
0.0
 40
0.1537099379
 40
0.500508937
 40
0.8472910559
 40
1.0
 40
1.0
 40
1.0
 40
1.0
 10
105.0731152314
 20
151.045509453
 30
0.0
 10
104.6095299622
 20
150.9742324983
 30
0.0
 10
103.0952976481
 20
150.7701747259
 30
0.0
 10
100.5125232206
 20
150.584665694
 30
0.0
 10
97.9264771906
 20
150.6376129127
 30
0.0
 10
96.4071880079
 20
150.7673794054
 30
0.0
 10
95.9437538981
 20
150.8161481198
 30
0.0
  0
SPLINE
  5
2FE
100
AcDbEntity
  8
FASEN
100
AcDbSpline
 62
7
  6
CONTINUOUS
 70
0
 71
3
 72
14
 73
10
 74
0
 42
0.0000001
 43
0.0000001
 44
0.0000000001
 40
0.0
 40
0.0
 40
0.0
 40
0.0
 40
0.0157913008
 40
0.0631428111
 40
0.1420511197
 40
0.2523669563
 40
0.3937144672
 40
0.5656986818
 40
1.0
 40
1.0
 40
1.0
 40
1.0
 10
133.1161947847
 20
162.1419555461
 30
0.0
 10
133.1143789382
 20
162.1422106641
 30
0.0
 10
133.107163361
 20
162.1396535921
 30
0.0
 10
133.0908761707
 20
162.1382502666
 30
0.0
 10
133.0637882778
 20
162.1329889752
 30
0.0
 10
133.0259174574
 20
162.127025552
 30
0.0
 10
132.9773784473
 20
162.1189084943
 30
0.0
 10
132.8916897971
 20
162.1050262624
 30
0.0
 10
132.8221642853
 20
162.0939263252
 30
0.0
 10
132.7723446603
 20
162.0860980154
 30
0.0
  0
SPLINE
  5
2FF
100
AcDbEntity
  8
0
100
AcDbSpline
 62
7
  6
CONTINUOUS
 70
0
 71
3
 72
13
 73
9
 74
0
 42
0.0000001
 43
0.0000001
 44
0.0000000001
 40
0.0
 40
0.0
 40
0.0
 40
0.0
 40
0.1753307868
 40
0.3422637982
 40
0.4768046258
 40
0.5947351366
 40
0.8062611466
 40
1.0
 40
1.0
 40
1.0
 40
1.0
 10
115.4987770093
 20
109.1145623775
 30
0.0
 10
115.4348642643
 20
109.1415025391
 30
0.0
 10
115.297087221
 20
109.1702405251
 30
0.0
 10
115.1094402228
 20
109.1214617072
 30
0.0
 10
114.9678555391
 20
109.0326198042
 30
0.0
 10
114.8313903164
 20
108.9090171923
 30
0.0
 10
114.7029716298
 20
108.7451405862
 30
0.0
 10
114.6219316328
 20
108.6064695939
 30
0.0
 10
114.5866471169
 20
108.5384344667
 30
0.0
  0
SPLINE
  5
300
100
AcDbEntity
  8
0
100
AcDbSpline
 62
7
  6
CONTINUOUS
 70
0
 71
3
 72
13
 73
9
 74
0
 42
0.0000001
 43
0.0000001
 44
0.0000000001
 40
0.0
 40
0.0
 40
0.0
 40
0.0
 40
0.286526882
 40
0.4543474408
 40
0.5599589325
 40
0.648267425
 40
0.8182504149
 40
1.0
 40
1.0
 40
1.0
 40
1.0
 10
115.4987770093
 20
109.1145623775
 30
0.0
 10
115.5241632932
 20
109.1038616856
 30
0.0
 10
115.5668885025
 20
109.0910627631
 30
0.0
 10
115.6220783958
 20
109.0952666295
 30
0.0
 10
115.6532634565
 20
109.1125527052
 30
0.0
 10
115.6763257612
 20
109.1395643459
 30
0.0
 10
115.6905645528
 20
109.1805429328
 30
0.0
 10
115.6933442268
 20
109.2143598791
 30
0.0
 10
115.6936676914
 20
109.2318319924
 30
0.0
  0
SPLINE
  5
301
100
AcDbEntity
  8
0
100
AcDbSpline
 62
7
  6
CONTINUOUS
 70
0
 71
3
 72
17
 73
13
 74
0
 42
0.0000001
 43
0.0000001
 44
0.0000000001
 40
0.0
 40
0.0
 40
0.0
 40
0.0
 40
0.125135549
 40
0.2502986125
 40
0.3754807531
 40
0.5006727147
 40
0.6258456077
 40
0.6884746641
 40
0.7511065344
 40
0.8746656069
 40
0.9373062378
 40
1.0
 40
1.0
 40
1.0
 40
1.0
 10
114.5866471169
 20
137.0565308783
 30
0.0
 10
114.6037154606
 20
136.9852045697
 30
0.0
 10
114.6399820225
 20
136.8430308882
 30
0.0
 10
114.702028496
 20
136.6318373783
 30
0.0
 10
114.7736096552
 20
136.4235996885
 30
0.0
 10
114.8579497101
 20
136.2200970803
 30
0.0
 10
114.9431190638
 20
136.0572141855
 30
0.0
 10
115.0267734701
 20
135.9359026378
 30
0.0
 10
115.1216085905
 20
135.8265754853
 30
0.0
 10
115.2562169726
 20
135.7404993466
 30
0.0
 10
115.4067440043
 20
135.762092235
 30
0.0
 10
115.4700518235
 20
135.8020291894
 30
0.0
 10
115.4987770093
 20
135.8249415707
 30
0.0
  0
SPLINE
  5
302
100
AcDbEntity
  8
0
100
AcDbSpline
 62
7
  6
CONTINUOUS
 70
0
 71
3
 72
13
 73
9
 74
0
 42
0.0000001
 43
0.0000001
 44
0.0000000001
 40
0.0
 40
0.0
 40
0.0
 40
0.0
 40
0.1670510693
 40
0.3289369806
 40
0.4609641718
 40
0.578209763
 40
0.7939442568
 40
1.0
 40
1.0
 40
1.0
 40
1.0
 10
115.4987770093
 20
146.9864694045
 30
0.0
 10
115.4343435585
 20
147.0107045096
 30
0.0
 10
115.2951425656
 20
147.032638852
 30
0.0
 10
115.1085345772
 20
146.9761626798
 30
0.0
 10
114.9670735391
 20
146.8805992251
 30
0.0
 10
114.8295449418
 20
146.7462317561
 30
0.0
 10
114.7001252372
 20
146.5638594975
 30
0.0
 10
114.6211252706
 20
146.4086072564
 30
0.0
 10
114.5866471169
 20
146.3310080078
 30
0.0
  0
SPLINE
  5
303
100
AcDbEntity
  8
0
100
AcDbSpline
 62
7
  6
CONTINUOUS
 70
0
 71
3
 72
16
 73
12
 74
0
 42
0.0000001
 43
0.0000001
 44
0.0000000001
 40
0.0
 40
0.0
 40
0.0
 40
0.0
 40
0.0735401093
 40
0.1545841369
 40
0.2292313659
 40
0.2978973002
 40
0.4259913051
 40
0.5473045002
 40
0.6644420892
 40
0.7785599955
 40
1.0
 40
1.0
 40
1.0
 40
1.0
 10
115.4987770093
 20
146.9864694045
 30
0.0
 10
115.511228828
 20
146.98178595
 30
0.0
 10
115.5403790687
 20
146.9777054412
 30
0.0
 10
115.5798486223
 20
146.9959474512
 30
0.0
 10
115.6074100884
 20
147.0263508027
 30
0.0
 10
115.6333060012
 20
147.0682282352
 30
0.0
 10
115.654385787
 20
147.1221601707
 30
0.0
 10
115.6709146286
 20
147.1864310616
 30
0.0
 10
115.6817305755
 20
147.2493495745
 30
0.0
 10
115.6908187423
 20
147.3307647042
 30
0.0
 10
115.6933246093
 20
147.3915015587
 30
0.0
 10
115.6936676914
 20
147.431558805
 30
0.0
  0
SPLINE
  5
304
100
AcDbEntity
  8
0
100
AcDbSpline
 62
7
  6
CONTINUOUS
 70
0
 71
3
 72
17
 73
13
 74
0
 42
0.0000001
 43
0.0000001
 44
0.0000000001
 40
0.0
 40
0.0
 40
0.0
 40
0.0
 40
0.2841775711
 40
0.4146661432
 40
0.5373502072
 40
0.652341305
 40
0.7602377654
 40
0.8121867936
 40
0.8638391814
 40
0.9180398508
 40
0.9497831112
 40
1.0
 40
1.0
 40
1.0
 40
1.0
 10
113.6938169872
 20
108.9595892384
 30
0.0
 10
113.6938169872
 20
108.840015801
 30
0.0
 10
113.6936741739
 20
108.6655331414
 30
0.0
 10
113.6960541691
 20
108.4394430573
 30
0.0
 10
113.7006737369
 20
108.284573555
 30
0.0
 10
113.7106013141
 20
108.139474434
 30
0.0
 10
113.7267156295
 20
108.0247129603
 30
0.0
 10
113.7486840314
 20
107.9383358669
 30
0.0
 10
113.7719881585
 20
107.8760362481
 30
0.0
 10
113.802122858
 20
107.8256912263
 30
0.0
 10
113.8432124061
 20
107.7854439609
 30
0.0
 10
113.8776531046
 20
107.7716034466
 30
0.0
 10
113.8987770093
 20
107.7711057261
 30
0.0
  0
SPLINE
  5
305
100
AcDbEntity
  8
0
100
AcDbSpline
 62
7
  6
CONTINUOUS
 70
0
 71
3
 72
9
 73
5
 74
0
 42
0.0000001
 43
0.0000001
 44
0.0000000001
 40
0.0
 40
0.0
 40
0.0
 40
0.0
 40
0.2573720101
 40
1.0
 40
1.0
 40
1.0
 40
1.0
 10
114.5866471169
 20
108.5384344667
 30
0.0
 10
114.5515077287
 20
108.4706791725
 30
0.0
 10
114.4125195932
 20
108.2087075215
 30
0.0
 10
114.2635361027
 20
107.9519983715
 30
0.0
 10
114.146782649
 20
107.7652622423
 30
0.0
  0
SPLINE
  5
306
100
AcDbEntity
  8
0
100
AcDbSpline
 62
7
  6
CONTINUOUS
 70
0
 71
3
 72
8
 73
4
 74
0
 42
0.0000001
 43
0.0000001
 44
0.0000000001
 40
0.0
 40
0.0
 40
0.0
 40
0.0
 40
1.0
 40
1.0
 40
1.0
 40
1.0
 10
115.6936319447
 20
135.2672137775
 30
0.0
 10
115.6933010107
 20
135.3147424852
 30
0.0
 10
115.6921184954
 20
135.3622828941
 30
0.0
 10
115.6896145236
 20
135.4097467509
 30
0.0
  0
SPLINE
  5
307
100
AcDbEntity
  8
0
100
AcDbSpline
 62
7
  6
CONTINUOUS
 70
0
 71
3
 72
15
 73
11
 74
0
 42
0.0000001
 43
0.0000001
 44
0.0000000001
 40
0.0
 40
0.0
 40
0.0
 40
0.0
 40
0.2532162989
 40
0.3790219793
 40
0.5040739368
 40
0.6282014989
 40
0.7508575768
 40
0.8716570132
 40
0.9343432508
 40
1.0
 40
1.0
 40
1.0
 40
1.0
 10
115.6896145236
 20
135.4097467509
 30
0.0
 10
115.6872511053
 20
135.4545463562
 30
0.0
 10
115.6820936605
 20
135.5215523463
 30
0.0
 10
115.6699213369
 20
135.610076607
 30
0.0
 10
115.6573435391
 20
135.6752843501
 30
0.0
 10
115.6394167277
 20
135.739075446
 30
0.0
 10
115.6143280159
 20
135.7983506451
 30
0.0
 10
115.5750487268
 20
135.8432318582
 30
0.0
 10
115.527788389
 20
135.8449259232
 30
0.0
 10
115.5078707615
 20
135.832195119
 30
0.0
 10
115.4987770093
 20
135.8249415707
 30
0.0
  0
SPLINE
  5
308
100
AcDbEntity
  8
0
100
AcDbSpline
 62
7
  6
CONTINUOUS
 70
0
 71
3
 72
12
 73
8
 74
0
 42
0.0000001
 43
0.0000001
 44
0.0000000001
 40
0.0
 40
0.0
 40
0.0
 40
0.0
 40
0.128679218
 40
0.2561331636
 40
0.5063352459
 40
0.7539715031
 40
1.0
 40
1.0
 40
1.0
 40
1.0
 10
129.3550787635
 20
121.2927698031
 30
0.0
 10
129.3859548891
 20
121.2927698031
 30
0.0
 10
129.4478695157
 20
121.2804465766
 30
0.0
 10
129.5540904428
 20
121.2185317855
 30
0.0
 10
129.6534617161
 20
121.1017702204
 30
0.0
 10
129.7348380066
 20
120.9422754117
 30
0.0
 10
129.7725147467
 20
120.82952005
 30
0.0
 10
129.7880914654
 20
120.7725784986
 30
0.0
  0
SPLINE
  5
309
100
AcDbEntity
  8
0
100
AcDbSpline
 62
7
  6
CONTINUOUS
 70
0
 71
3
 72
9
 73
5
 74
0
 42
0.0000001
 43
0.0000001
 44
0.0000000001
 40
0.0
 40
0.0
 40
0.0
 40
0.0
 40
0.1680195226
 40
1.0
 40
1.0
 40
1.0
 40
1.0
 10
129.7880914654
 20
100.7280362711
 30
0.0
 10
129.7712431924
 20
100.7077161552
 30
0.0
 10
129.6557899099
 20
100.599235179
 30
0.0
 10
129.4857856748
 20
100.5613983573
 30
0.0
 10
129.3550787635
 20
100.5613983573
 30
0.0
  0
SPLINE
  5
30A
100
AcDbEntity
  8
0
100
AcDbSpline
 62
7
  6
CONTINUOUS
 70
0
 71
3
 72
12
 73
8
 74
0
 42
0.0000001
 43
0.0000001
 44
0.0000000001
 40
0.0
 40
0.0
 40
0.0
 40
0.0
 40
0.2460454262
 40
0.4936983158
 40
0.7439199328
 40
0.8713555617
 40
1.0
 40
1.0
 40
1.0
 40
1.0
 10
125.9994163308
 20
120.7725784986
 30
0.0
 10
126.0149941434
 20
120.8295240484
 30
0.0
 10
126.052676163
 20
120.9422845538
 30
0.0
 10
126.134051911
 20
121.1018012218
 30
0.0
 10
126.2334565228
 20
121.2185287546
 30
0.0
 10
126.3396523392
 20
121.280476593
 30
0.0
 10
126.4015612089
 20
121.2927698031
 30
0.0
 10
126.4324290327
 20
121.2927698031
 30
0.0
  0
SPLINE
  5
30B
100
AcDbEntity
  8
0
100
AcDbSpline
 62
7
  6
CONTINUOUS
 70
0
 71
3
 72
9
 73
5
 74
0
 42
0.0000001
 43
0.0000001
 44
0.0000000001
 40
0.0
 40
0.0
 40
0.0
 40
0.0
 40
0.3641598889
 40
1.0
 40
1.0
 40
1.0
 40
1.0
 10
126.4324290327
 20
100.5613983573
 30
0.0
 10
126.3750526109
 20
100.5613983573
 30
0.0
 10
126.2188662778
 20
100.5775174513
 30
0.0
 10
126.0633602872
 20
100.6509156902
 30
0.0
 10
125.9994163308
 20
100.7280362711
 30
0.0
  0
SPLINE
  5
30C
100
AcDbEntity
  8
0
100
AcDbSpline
 62
7
  6
CONTINUOUS
 70
0
 71
3
 72
9
 73
5
 74
0
 42
0.0000001
 43
0.0000001
 44
0.0000000001
 40
0.0
 40
0.0
 40
0.0
 40
0.0
 40
0.3642526053
 40
1.0
 40
1.0
 40
1.0
 40
1.0
 10
129.3550787635
 20
160.7225838779
 30
0.0
 10
129.41247017
 20
160.7225838779
 30
0.0
 10
129.5686596286
 20
160.7064693224
 30
0.0
 10
129.7241564139
 20
160.6330558053
 30
0.0
 10
129.7880914654
 20
160.5559459641
 30
0.0
  0
SPLINE
  5
30D
100
AcDbEntity
  8
0
100
AcDbSpline
 62
7
  6
CONTINUOUS
 70
0
 71
3
 72
21
 73
17
 74
0
 42
0.0000001
 43
0.0000001
 44
0.0000000001
 40
0.0
 40
0.0
 40
0.0
 40
0.0
 40
0.0152736556
 40
0.0307400416
 40
0.0615944727
 40
0.0924597446
 40
0.1233512662
 40
0.1852330485
 40
0.2472659363
 40
0.3094463907
 40
0.3717660941
 40
0.4967787028
 40
0.6222117836
 40
0.747963109
 40
0.8739278454
 40
1.0
 40
1.0
 40
1.0
 40
1.0
 10
113.8987770093
 20
138.8279343043
 30
0.0
 10
113.883514694
 20
138.827871885
 30
0.0
 10
113.8578265292
 20
138.8018747303
 30
0.0
 10
113.8320854365
 20
138.7481221945
 30
0.0
 10
113.8084379067
 20
138.6733503015
 30
0.0
 10
113.7886395333
 20
138.5832554771
 30
0.0
 10
113.7676618583
 20
138.4613581129
 30
0.0
 10
113.7487584582
 20
138.3078093095
 30
0.0
 10
113.7325308181
 20
138.1225253573
 30
0.0
 10
113.7207616236
 20
137.9364912899
 30
0.0
 10
113.7093069836
 20
137.6874154376
 30
0.0
 10
113.7008932195
 20
137.3749699185
 30
0.0
 10
113.6961407714
 20
136.9990744385
 30
0.0
 10
113.6943263487
 20
136.6222043823
 30
0.0
 10
113.6938530106
 20
136.2446937494
 30
0.0
 10
113.6938169872
 20
135.9928418504
 30
0.0
 10
113.6938169872
 20
135.8668622482
 30
0.0
  0
LINE
  5
30E
100
AcDbEntity
  8
0
100
AcDbLine
 62
7
  6
CONTINUOUS
 10
113.9041555299
 20
107.2166063117
 11
114.146782649
 21
107.7652622423
  0
SPLINE
  5
30F
100
AcDbEntity
  8
0
100
AcDbSpline
 62
7
  6
CONTINUOUS
 70
0
 71
3
 72
17
 73
13
 74
0
 42
0.0000001
 43
0.0000001
 44
0.0000000001
 40
0.0
 40
0.0
 40
0.0
 40
0.0
 40
0.2182009024
 40
0.3349220057
 40
0.456586696
 40
0.5831112211
 40
0.7144823146
 40
0.7820564401
 40
0.8510300181
 40
0.92186225
 40
0.958727904
 40
1.0
 40
1.0
 40
1.0
 40
1.0
 10
113.6938169872
 20
147.0995218662
 30
0.0
 10
113.6938169872
 20
146.967242852
 30
0.0
 10
113.6937992998
 20
146.7642031906
 30
0.0
 10
113.6962064087
 20
146.4874144203
 30
0.0
 10
113.7010316022
 20
146.2662420177
 30
0.0
 10
113.7113173403
 20
146.0363270367
 30
0.0
 10
113.7274423637
 20
145.8396583416
 30
0.0
 10
113.7490164642
 20
145.67845747
 30
0.0
 10
113.7716209348
 20
145.5552871779
 30
0.0
 10
113.8012167311
 20
145.4501364473
 30
0.0
 10
113.8356484058
 20
145.370666593
 30
0.0
 10
113.8737615423
 20
145.3264462164
 30
0.0
 10
113.8987770093
 20
145.3269333224
 30
0.0
  0
SPLINE
  5
310
100
AcDbEntity
  8
0
100
AcDbSpline
 62
7
  6
CONTINUOUS
 70
0
 71
3
 72
11
 73
7
 74
0
 42
0.0000001
 43
0.0000001
 44
0.0000000001
 40
0.0
 40
0.0
 40
0.0
 40
0.0
 40
0.2163338898
 40
0.4581730139
 40
0.72121324
 40
1.0
 40
1.0
 40
1.0
 40
1.0
 10
114.146782649
 20
145.3317625503
 30
0.0
 10
114.061081261
 20
144.8690409946
 30
0.0
 10
113.938812775
 20
143.8778295972
 30
0.0
 10
113.8842307339
 20
142.3084828864
 30
0.0
 10
113.9488582462
 20
140.6036964549
 30
0.0
 10
114.068166864
 20
139.4302761381
 30
0.0
 10
114.146782649
 20
138.8289485602
 30
0.0
  0
SPLINE
  5
311
100
AcDbEntity
  8
0
100
AcDbSpline
 62
7
  6
CONTINUOUS
 70
0
 71
3
 72
12
 73
8
 74
0
 42
0.0000001
 43
0.0000001
 44
0.0000000001
 40
0.0
 40
0.0
 40
0.0
 40
0.0
 40
0.2460280129
 40
0.4936634005
 40
0.7438647573
 40
0.8713194616
 40
1.0
 40
1.0
 40
1.0
 40
1.0
 10
129.7880914654
 20
140.5114037366
 30
0.0
 10
129.7725147784
 20
140.4544623013
 30
0.0
 10
129.7348382832
 20
140.3417071265
 30
0.0
 10
129.6534618293
 20
140.1822132858
 30
0.0
 10
129.5540920501
 20
140.0654502265
 30
0.0
 10
129.447870026
 20
140.0035369183
 30
0.0
 10
129.3859552037
 20
139.9912124321
 30
0.0
 10
129.3550787635
 20
139.9912124321
 30
0.0
  0
SPLINE
  5
312
100
AcDbEntity
  8
0
100
AcDbSpline
 62
7
  6
CONTINUOUS
 70
0
 71
3
 72
9
 73
5
 74
0
 42
0.0000001
 43
0.0000001
 44
0.0000000001
 40
0.0
 40
0.0
 40
0.0
 40
0.0
 40
0.1680322176
 40
1.0
 40
1.0
 40
1.0
 40
1.0
 10
125.9994163308
 20
160.5559459641
 30
0.0
 10
126.0162658898
 20
160.5762676309
 30
0.0
 10
126.1317204666
 20
160.6847476629
 30
0.0
 10
126.3017240157
 20
160.7225838779
 30
0.0
 10
126.4324290327
 20
160.7225838779
 30
0.0
  0
SPLINE
  5
313
100
AcDbEntity
  8
0
100
AcDbSpline
 62
7
  6
CONTINUOUS
 70
0
 71
3
 72
12
 73
8
 74
0
 42
0.0000001
 43
0.0000001
 44
0.0000000001
 40
0.0
 40
0.0
 40
0.0
 40
0.0
 40
0.1286448926
 40
0.256081
 40
0.5063027424
 40
0.7539549585
 40
1.0
 40
1.0
 40
1.0
 40
1.0
 10
126.4324290327
 20
139.9912124321
 30
0.0
 10
126.4015611012
 20
139.9912124321
 30
0.0
 10
126.339652107
 20
140.0035060559
 30
0.0
 10
126.2334558097
 20
140.0654535196
 30
0.0
 10
126.1340518277
 20
140.1821817216
 30
0.0
 10
126.0526759812
 20
140.3416979596
 30
0.0
 10
126.0149941184
 20
140.4544582782
 30
0.0
 10
125.9994163308
 20
140.5114037366
 30
0.0
  0
ELLIPSE
  5
314
100
AcDbEntity
  8
0
100
AcDbEllipse
 62
7
  6
CONTINUOUS
 10
113.5465997088
 20
130.6419911176
 30
0.0
 11
14.7536831607
 21
31.0932549156
 31
0.0
 40
0.3419987131
 41
-1.0912395858
 42
-0.1578061866
  0
ELLIPSE
  5
315
100
AcDbEntity
  8
0
100
AcDbEllipse
 62
7
  6
CONTINUOUS
 10
142.2409080875
 20
130.6419911176
 30
0.0
 11
-14.7536831607
 21
31.0932549156
 31
0.0
 40
0.3419987131
 41
0.1578061866
 42
1.0912395858
  0
ELLIPSE
  5
316
100
AcDbEntity
  8
0
100
AcDbEllipse
 62
7
  6
CONTINUOUS
 10
142.2409080875
 20
130.6419911176
 30
0.0
 11
14.7536831607
 21
31.0932549156
 31
0.0
 40
0.3419987131
 41
-4.2328322393
 42
-3.2993988402
  0
ELLIPSE
  5
317
100
AcDbEntity
  8
0
100
AcDbEllipse
 62
7
  6
CONTINUOUS
 10
113.5465997088
 20
130.6419911176
 30
0.0
 11
-14.7536831607
 21
31.0932549156
 31
0.0
 40
0.3419987131
 41
-2.9837864669
 42
-2.0503530678
  0
ENDSEC
  0
SECTION
  2
OBJECTS
  0
DICTIONARY
  5
C
100
AcDbDictionary
280
0
281
1
  3
ACAD_GROUP
350
D
  3
ACAD_MLINESTYLE
350
17
  3
ACAD_LAYOUT
350
1A
  3
ACAD_PLOTSETTINGS
350
19
  3
ACAD_PLOTSTYLENAME
350
E
  0
DICTIONARY
  5
D
102
{ACAD_REACTORS
330
C
102
}
100
AcDbDictionary
280
0
281
1
  0
ACDBDICTIONARYWDFLT
  5
E
102
{ACAD_REACTORS
330
C
102
}
100
AcDbDictionary
281
1
  3
Normal
350
F
100
AcDbDictionaryWithDefault
340
F
  0
DICTIONARY
  5
17
102
{ACAD_REACTORS
330
C
102
}
100
AcDbDictionary
280
0
281
1
  3
Standard
350
18
  0
DICTIONARY
  5
19
102
{ACAD_REACTORS
330
C
102
}
100
AcDbDictionary
281
1
  0
DICTIONARY
  5
1A
102
{ACAD_REACTORS
330
C
102
}
100
AcDbDictionary
281
1
  3
Model
350
318
  3
Layout1
350
319
  0
ACDBPLACEHOLDER
  5
F
102
{ACAD_REACTORS
330
E
102
}
  0
MLINESTYLE
  5
18
102
{ACAD_REACTORS
330
17
102
}
100
AcDbMlineStyle
  2
STANDARD
 70
0
  3

 62
256
 51
90.0
 52
90.0
 71
2
 49
0.5
 62
256
  6
BYLAYER
 49
-0.5
 62
256
  6
BYLAYER
  0
LAYOUT
  5
318
102
{ACAD_REACTORS
330
1A
102
}
100
AcDbPlotSettings
  1

  2
none_device
  4
ISO_A4_(297.00_x_210.00_MM)
  6

 40
0.0
 41
0.0
 42
0.0
 43
0.0
 44
297.0
 45
210.0
 46
0.0
 47
0.0
 48
0.0
 49
0.0
140
0.0
141
0.0
142
1.0
143
1.0
 70
1024
 72
1
 73
0
 74
0
  7

 75
0
147
1.0
148
0.0
149
0.0
100
AcDbLayout
  1
Model
 70
0
 71
0
 10
0.0
 20
0.0
 11
297.0
 21
210.0
 12
0.0
 22
0.0
 32
0.0
 14
0.0
 24
0.0
 34
0.0
 15
0.0
 25
0.0
 35
0.0
146
0.0
 13
0.0
 23
0.0
 33
0.0
 16
1.0
 26
0.0
 36
0.0
 17
0.0
 27
1.0
 37
0.0
 76
0
330
217
345
0
346
0
  0
LAYOUT
  5
319
102
{ACAD_REACTORS
330
1A
102
}
100
AcDbPlotSettings
  1

  2
none_device
  4
ISO_A4_(297.00_x_210.00_MM)
  6

 40
0.0
 41
0.0
 42
0.0
 43
0.0
 44
297.0
 45
210.0
 46
0.0
 47
0.0
 48
0.0
 49
0.0
140
0.0
141
0.0
142
1.0
143
1.0
 70
0
 72
1
 73
0
 74
0
  7

 75
0
147
1.0
148
0.0
149
0.0
100
AcDbLayout
  1
Layout1
 70
0
 71
1
 10
0.0
 20
0.0
 11
297.0
 21
210.0
 12
0.0
 22
0.0
 32
0.0
 14
0.0
 24
0.0
 34
0.0
 15
0.0
 25
0.0
 35
0.0
146
0.0
 13
0.0
 23
0.0
 33
0.0
 16
1.0
 26
0.0
 36
0.0
 17
0.0
 27
1.0
 37
0.0
 76
0
330
218
345
0
346
0
  0
ENDSEC
  0
EOF
