999
DXF file: cc6-141-08.dxf
999
Pro/ENGINEER 2010430 by Parametric Technology Corporation
  0
SECTION
  2
HEADER
  9
$ACADVER
  1
AC1021
  9
$DWGCODEPAGE
  3
ANSI_1252
  9
$EXTMAX
 10
297.0
 20
210.0
 30
0.0
  9
$EXTMIN
 10
0.0
 20
0.0
 30
0.0
  9
$LIMMIN
 10
0.0
 20
0.0
  9
$LIMMAX
 10
297.0
 20
210.0
  9
$VIEWCTR
 10
148.5
 20
105.0
  9
$VIEWSIZE
 40
210.0
  9
$CLAYER
  8
0
  9
$LTSCALE
 40
16.335
  9
$CELTYPE
  6
BYLAYER
  9
$DIMSCALE
 40
1.0
  9
$DIMASZ
 40
3.5
  9
$DIMEXO
 40
1.85625
  9
$DIMDLI
 40
11.286
  9
$DIMEXE
 40
5.346
  9
$DIMCEN
 40
2.673
  9
$DIMLFAC
 40
1.0
  9
$DIMBLK
  1
_FILLED
  9
$DIMTXT
 40
3.5
  9
$DIMTOL
 70
1
  9
$DIMLIM
 70
0
  9
$DIMTFAC
 40
1.0
  9
$DIMTP
 40
0.005
  9
$DIMTM
 40
0.005
  9
$PDMODE
 70
3
  9
$PDSIZE
 40
0.3125
  9
$HANDSEED
  5
31B
  9
$TILEMODE
 70
1
  9
$MEASUREMENT
 70
1
  9
$INSUNITS
 70
4
  0
ENDSEC
  0
SECTION
  2
CLASSES
  0
CLASS
  1
ACDBDICTIONARYWDFLT
  2
AcDbDictionaryWithDefault
  3
AutoCAD 2000
 90
0
 91
1
280
0
281
0
  0
CLASS
  1
ACDBPLACEHOLDER
  2
AcDbPlaceHolder
  3
AutoCAD 2000
 90
0
 91
1
280
0
281
0
  0
CLASS
  1
LAYOUT
  2
AcDbLayout
  3
AutoCAD 2000
 90
0
 91
0
280
0
281
0
  0
ENDSEC
  0
SECTION
  2
TABLES
  0
TABLE
  2
VPORT
  5
8
100
AcDbSymbolTable
 70
2
  0
VPORT
  5
1F4
100
AcDbSymbolTableRecord
100
AcDbViewportTableRecord
  2
*ACTIVE
 70
0
 10
0.0
 20
0.0
 11
1.0
 21
1.0
 12
148.5
 22
105.0
 13
0.0
 23
0.0
 14
1.0
 24
1.0
 15
0.0
 25
0.0
 16
0.0
 26
0.0
 36
1.0
 17
0.0
 27
0.0
 37
0.0
 40
210.0
 41
1.4142857143
 42
50.0
 43
0.0
 44
0.0
 50
0.0
 51
0.0
 71
0
 72
100
 73
1
 74
1
 75
0
 76
0
 77
0
 78
0
  0
ENDTAB
  0
TABLE
  2
LTYPE
  5
5
100
AcDbSymbolTable
 70
6
  0
LTYPE
  5
14
100
AcDbSymbolTableRecord
100
AcDbLinetypeTableRecord
  2
BYBLOCK
 70
0
  3

 72
65
 73
0
 40
0.0
  0
LTYPE
  5
15
100
AcDbSymbolTableRecord
100
AcDbLinetypeTableRecord
  2
BYLAYER
 70
0
  3

 72
65
 73
0
 40
0.0
  0
LTYPE
  5
16
100
AcDbSymbolTableRecord
100
AcDbLinetypeTableRecord
  2
CONTINUOUS
 70
64
  3
Solid line
 72
65
 73
0
 40
0.0
  0
LTYPE
  5
1F5
100
AcDbSymbolTableRecord
100
AcDbLinetypeTableRecord
  2
CENTER
 70
64
  3
____ _ ____ _ ____ _ ____ _ ____ _ ____ _ ____
 72
65
 73
4
 40
0.6
 49
0.375
 74
0
 49
-0.075
 74
0
 49
0.075
 74
0
 49
-0.075
 74
0
  0
LTYPE
  5
1F6
100
AcDbSymbolTableRecord
100
AcDbLinetypeTableRecord
  2
HIDDEN
 70
64
  3
- - - - - - - - - - - - - - - - - - - -
 72
65
 73
2
 40
0.2
 49
0.1
 74
0
 49
-0.1
 74
0
  0
LTYPE
  5
1F7
100
AcDbSymbolTableRecord
100
AcDbLinetypeTableRecord
  2
PHANTOM
 70
64
  3
_____ _ _ _____ _ _ _____ _ _ _____
 72
65
 73
6
 40
0.8
 49
0.45
 74
0
 49
-0.05
 74
0
 49
0.1
 74
0
 49
-0.05
 74
0
 49
0.1
 74
0
 49
-0.05
 74
0
  0
LTYPE
  5
1F8
100
AcDbSymbolTableRecord
100
AcDbLinetypeTableRecord
  2
DOT
 70
64
  3
. . . . . . . . . . . . . . . . . . . .
 72
65
 73
2
 40
0.2
 49
0.1
 74
0
 49
-0.1
 74
0
  0
LTYPE
  5
1F9
100
AcDbSymbolTableRecord
100
AcDbLinetypeTableRecord
  2
DASHED
 70
64
  3
- - - - - - - - - - - - - - - - - - - -
 72
65
 73
2
 40
0.2
 49
0.1
 74
0
 49
-0.1
 74
0
  0
ENDTAB
  0
TABLE
  2
LAYER
  5
2
100
AcDbSymbolTable
 70
36
  0
LAYER
  5
10
100
AcDbSymbolTableRecord
100
AcDbLayerTableRecord
  2
0
 70
0
 62
7
  6
CONTINUOUS
370
-3
390
F
  0
LAYER
  5
1FA
100
AcDbSymbolTableRecord
100
AcDbLayerTableRecord
  2
DEFAULT_1
 70
0
 62
7
  6
CENTER
370
-3
390
F
  0
LAYER
  5
1FB
100
AcDbSymbolTableRecord
100
AcDbLayerTableRecord
  2
DEFAULT_2
 70
0
 62
8
  6
HIDDEN
370
-3
390
F
  0
LAYER
  5
1FC
100
AcDbSymbolTableRecord
100
AcDbLayerTableRecord
  2
DEFAULT_3
 70
0
 62
7
  6
PHANTOM
370
-3
390
F
  0
LAYER
  5
1FD
100
AcDbSymbolTableRecord
100
AcDbLayerTableRecord
  2
ACHSEN
 70
0
 62
7
  6
CONTINUOUS
370
-3
390
F
  0
LAYER
  5
1FE
100
AcDbSymbolTableRecord
100
AcDbLayerTableRecord
  2
BEZUGSACHSEN
 70
0
 62
7
  6
CONTINUOUS
370
-3
390
F
  0
LAYER
  5
1FF
100
AcDbSymbolTableRecord
100
AcDbLayerTableRecord
  2
BEZUGSEBENE_B
 70
0
 62
7
  6
CONTINUOUS
370
-3
390
F
  0
LAYER
  5
200
100
AcDbSymbolTableRecord
100
AcDbLayerTableRecord
  2
BOHRUNGEN
 70
0
 62
7
  6
CONTINUOUS
370
-3
390
F
  0
LAYER
  5
201
100
AcDbSymbolTableRecord
100
AcDbLayerTableRecord
  2
EBENEN
 70
0
 62
7
  6
CONTINUOUS
370
-3
390
F
  0
LAYER
  5
202
100
AcDbSymbolTableRecord
100
AcDbLayerTableRecord
  2
FASEN
 70
0
 62
7
  6
CONTINUOUS
370
-3
390
F
  0
LAYER
  5
203
100
AcDbSymbolTableRecord
100
AcDbLayerTableRecord
  2
FLAECHEN
 70
0
 62
7
  6
CONTINUOUS
370
-3
390
F
  0
LAYER
  5
204
100
AcDbSymbolTableRecord
100
AcDbLayerTableRecord
  2
GEWINDE
 70
0
 62
7
  6
CONTINUOUS
370
-3
390
F
  0
LAYER
  5
205
100
AcDbSymbolTableRecord
100
AcDbLayerTableRecord
  2
KOORDSYS
 70
0
 62
7
  6
CONTINUOUS
370
-3
390
F
  0
LAYER
  5
206
100
AcDbSymbolTableRecord
100
AcDbLayerTableRecord
  2
KURVEN
 70
0
 62
7
  6
CONTINUOUS
370
-3
390
F
  0
LAYER
  5
207
100
AcDbSymbolTableRecord
100
AcDbLayerTableRecord
  2
KURVE_FUER_GTOL_DETAILANSICHT
 70
0
 62
7
  6
CONTINUOUS
370
-3
390
F
  0
LAYER
  5
208
100
AcDbSymbolTableRecord
100
AcDbLayerTableRecord
  2
KURVE_GAUGE2_POLIGON_INNENEINST
 70
0
 62
7
  6
CONTINUOUS
370
-3
390
F
  0
LAYER
  5
209
100
AcDbSymbolTableRecord
100
AcDbLayerTableRecord
  2
KURVE_PHANTOM1_GAUGE_PIN_1
 70
0
 62
7
  6
CONTINUOUS
370
-3
390
F
  0
LAYER
  5
20A
100
AcDbSymbolTableRecord
100
AcDbLayerTableRecord
  2
KURVE_PHANTOM2_GAUGE_PIN1
 70
0
 62
7
  6
CONTINUOUS
370
-3
390
F
  0
LAYER
  5
20B
100
AcDbSymbolTableRecord
100
AcDbLayerTableRecord
  2
KURVE_POLIGON_BEMASUNG
 70
0
 62
7
  6
CONTINUOUS
370
-3
390
F
  0
LAYER
  5
20C
100
AcDbSymbolTableRecord
100
AcDbLayerTableRecord
  2
PUNKTE
 70
0
 62
7
  6
CONTINUOUS
370
-3
390
F
  0
LAYER
  5
20D
100
AcDbSymbolTableRecord
100
AcDbLayerTableRecord
  2
RUNDUNGEN
 70
0
 62
7
  6
CONTINUOUS
370
-3
390
F
  0
LAYER
  5
20E
100
AcDbSymbolTableRecord
100
AcDbLayerTableRecord
  2
S_ACHSEN
 70
0
 62
7
  6
CONTINUOUS
370
-3
390
F
  0
LAYER
  5
20F
100
AcDbSymbolTableRecord
100
AcDbLayerTableRecord
  2
S_EBENEN
 70
0
 62
7
  6
CONTINUOUS
370
-3
390
F
  0
LAYER
  5
210
100
AcDbSymbolTableRecord
100
AcDbLayerTableRecord
  2
S_KOORDSYS
 70
0
 62
7
  6
CONTINUOUS
370
-3
390
F
  0
LAYER
  5
211
100
AcDbSymbolTableRecord
100
AcDbLayerTableRecord
  2
TOL_BEZUEGE
 70
0
 62
7
  6
CONTINUOUS
370
-3
390
F
  0
LAYER
  5
212
100
AcDbSymbolTableRecord
100
AcDbLayerTableRecord
  2
VERBFLAECHE
 70
0
 62
7
  6
CONTINUOUS
370
-3
390
F
  0
LAYER
  5
213
100
AcDbSymbolTableRecord
100
AcDbLayerTableRecord
  2
ZEICHNUNGSBEMASSUNGEN
 70
0
 62
7
  6
CONTINUOUS
370
-3
390
F
  0
ENDTAB
  0
TABLE
  2
STYLE
  5
3
100
AcDbSymbolTable
 70
1
  0
STYLE
  5
11
100
AcDbSymbolTableRecord
100
AcDbTextStyleTableRecord
  2
STANDARD
 70
0
 40
0.0
 41
0.7
 50
0.0
 71
0
 42
0.2
  3
txt
  4

  0
STYLE
  5
214
100
AcDbSymbolTableRecord
100
AcDbTextStyleTableRecord
  2
TEXTSTYLE_1
 70
0
 40
0.0
 41
0.8
 50
0.0
 71
0
 42
0.2
  3
gdt
  4

  0
STYLE
  5
215
100
AcDbSymbolTableRecord
100
AcDbTextStyleTableRecord
  2
TEXTSTYLE_2
 70
0
 40
0.0
 41
0.7
 50
0.0
 71
0
 42
0.2
  3
gdt
  4

  0
ENDTAB
  0
TABLE
  2
VIEW
  5
6
100
AcDbSymbolTable
 70
0
  0
ENDTAB
  0
TABLE
  2
UCS
  5
7
100
AcDbSymbolTable
 70
0
  0
ENDTAB
  0
TABLE
  2
APPID
  5
9
100
AcDbSymbolTable
 70
1
  0
APPID
  5
216
100
AcDbSymbolTableRecord
100
AcDbRegAppTableRecord
  2
ACAD
 70
0
  0
ENDTAB
  0
TABLE
  2
BLOCK_RECORD
  5
1
100
AcDbSymbolTable
 70
0
  0
BLOCK_RECORD
  5
217
100
AcDbSymbolTableRecord
100
AcDbBlockTableRecord
  2
*Model_Space
  0
BLOCK_RECORD
  5
218
100
AcDbSymbolTableRecord
100
AcDbBlockTableRecord
  2
*Paper_Space
  0
BLOCK_RECORD
  5
219
100
AcDbSymbolTableRecord
100
AcDbBlockTableRecord
  2
_FILLED
  0
BLOCK_RECORD
  5
21A
100
AcDbSymbolTableRecord
100
AcDbBlockTableRecord
  2
*D0
  0
BLOCK_RECORD
  5
21B
100
AcDbSymbolTableRecord
100
AcDbBlockTableRecord
  2
*D1
  0
BLOCK_RECORD
  5
21C
100
AcDbSymbolTableRecord
100
AcDbBlockTableRecord
  2
*D2
  0
BLOCK_RECORD
  5
21D
100
AcDbSymbolTableRecord
100
AcDbBlockTableRecord
  2
*D3
  0
BLOCK_RECORD
  5
21E
100
AcDbSymbolTableRecord
100
AcDbBlockTableRecord
  2
*D4
  0
BLOCK_RECORD
  5
21F
100
AcDbSymbolTableRecord
100
AcDbBlockTableRecord
  2
*D5
  0
BLOCK_RECORD
  5
220
100
AcDbSymbolTableRecord
100
AcDbBlockTableRecord
  2
*D6
  0
ENDTAB
  0
TABLE
  2
DIMSTYLE
  5
A
100
AcDbSymbolTable
 70
1
100
AcDbDimStyleTable
 71
0
  0
DIMSTYLE
105
221
100
AcDbSymbolTableRecord
100
AcDbDimStyleTableRecord
  2
STANDARD
 70
0
  3

  4

 40
1.0
 41
3.5
 42
0.0625
 43
0.38
 44
0.18
 45
0.0
 46
0.0
 47
0.005
 48
0.005
140
3.5
141
0.09
142
0.0
143
25.4
144
1.0
145
0.0
146
1.0
147
0.09
 71
1.0
 72
0.0
 73
0
 74
0
 75
0
 76
0
 77
1
 78
8
170
0
171
2
172
0
173
0
174
0
175
0
176
0
177
0
178
5
270
2
271
3
272
3
273
2
274
2
275
0
280
0
281
0
282
0
283
1
284
8
285
0
286
0
287
3
288
0
340
11
341
219
342
219
343
219
344
219
  0
DIMSTYLE
105
222
100
AcDbSymbolTableRecord
100
AcDbDimStyleTableRecord
  2
DIMSTYLE_1
 70
0
  3

  4

 40
1.0
 41
3.5
 42
0.0625
 43
0.38
 44
0.18
 45
0.0
 46
0.0
 47
0.0
 48
0.1
140
3.5
141
0.09
142
0.0
143
25.4
144
1.0
145
0.0
146
1.0
147
0.09
 71
0.0
 72
0.0
 73
0
 74
0
 75
0
 76
0
 77
1
 78
8
170
0
171
2
172
0
173
0
174
0
175
0
176
0
177
0
178
5
270
2
271
2
272
2
273
2
274
2
275
0
280
0
281
0
282
0
283
1
284
8
285
0
286
0
287
3
288
0
340
11
341
219
342
219
343
219
344
219
  0
DIMSTYLE
105
223
100
AcDbSymbolTableRecord
100
AcDbDimStyleTableRecord
  2
DIMSTYLE_2
 70
0
  3

  4

 40
1.0
 41
3.5
 42
0.0625
 43
0.38
 44
0.18
 45
0.0
 46
0.0
 47
0.25
 48
0.25
140
3.5
141
0.09
142
0.0
143
25.4
144
1.0
145
0.0
146
1.0
147
0.09
 71
0.0
 72
0.0
 73
0
 74
0
 75
0
 76
0
 77
1
 78
8
170
0
171
2
172
0
173
0
174
0
175
0
176
0
177
0
178
5
270
2
271
2
272
2
273
2
274
2
275
0
280
0
281
0
282
0
283
1
284
8
285
0
286
0
287
3
288
0
340
11
341
219
342
219
343
219
344
219
  0
DIMSTYLE
105
224
100
AcDbSymbolTableRecord
100
AcDbDimStyleTableRecord
  2
DIMSTYLE_3
 70
0
  3

  4

 40
1.0
 41
3.5
 42
0.0625
 43
0.38
 44
0.18
 45
0.0
 46
0.0
 47
0.3
 48
0.3
140
3.5
141
0.09
142
0.0
143
25.4
144
1.0
145
0.0
146
1.0
147
0.09
 71
0.0
 72
0.0
 73
0
 74
0
 75
0
 76
0
 77
1
 78
8
170
0
171
2
172
0
173
0
174
0
175
0
176
0
177
0
178
5
270
2
271
2
272
2
273
2
274
2
275
0
280
0
281
0
282
0
283
1
284
8
285
0
286
0
287
3
288
0
340
11
341
219
342
219
343
219
344
219
  0
DIMSTYLE
105
225
100
AcDbSymbolTableRecord
100
AcDbDimStyleTableRecord
  2
DIMSTYLE_4
 70
0
  3

  4

 40
1.0
 41
3.5
 42
0.0625
 43
0.38
 44
0.18
 45
0.0
 46
0.0
 47
-0.015
 48
0.019
140
3.5
141
0.09
142
0.0
143
25.4
144
1.0
145
0.0
146
1.0
147
0.09
 71
0.0
 72
0.0
 73
0
 74
0
 75
0
 76
0
 77
1
 78
8
170
0
171
2
172
0
173
0
174
0
175
0
176
0
177
0
178
5
270
2
271
3
272
3
273
2
274
2
275
0
280
0
281
0
282
0
283
1
284
8
285
0
286
0
287
3
288
0
340
11
341
219
342
219
343
219
344
219
  0
DIMSTYLE
105
226
100
AcDbSymbolTableRecord
100
AcDbDimStyleTableRecord
  2
DIMSTYLE_5
 70
0
  3

  4

 40
1.0
 41
3.5
 42
0.0625
 43
0.38
 44
0.18
 45
0.0
 46
0.0
 47
0.5
 48
0.5
140
3.5
141
0.09
142
0.0
143
25.4
144
1.0
145
0.0
146
1.0
147
0.09
 71
0.0
 72
0.0
 73
0
 74
0
 75
0
 76
0
 77
1
 78
8
170
0
171
2
172
0
173
0
174
0
175
0
176
0
177
0
178
5
270
2
271
2
272
2
273
2
274
2
275
0
280
0
281
0
282
0
283
1
284
8
285
0
286
0
287
3
288
0
340
11
341
219
342
219
343
219
344
219
  0
ENDTAB
  0
ENDSEC
  0
SECTION
  2
BLOCKS
  0
BLOCK
  5
20
100
AcDbEntity
  8
0
100
AcDbBlockBegin
  2
*Model_Space
 70
0
 10
0.0
 20
0.0
 30
0.0
  3
*Model_Space
  1

  0
ENDBLK
  5
21
100
AcDbEntity
  8
0
100
AcDbBlockEnd
  0
BLOCK
  5
1C
100
AcDbEntity
  8
0
100
AcDbBlockBegin
  2
*Paper_Space
 70
0
 10
0.0
 20
0.0
 30
0.0
  3
*Paper_Space
  1

  0
ENDBLK
  5
1D
100
AcDbEntity
  8
0
100
AcDbBlockEnd
  0
BLOCK
  5
227
100
AcDbEntity
  8
0
100
AcDbBlockBegin
  2
_FILLED
 70
64
 10
0.0
 20
0.0
  3
_FILLED
  1

  0
SOLID
  5
228
100
AcDbEntity
  8
0
  6
BYBLOCK
 62
0
100
AcDbTrace
 10
0.0
 20
0.0
 11
-1.0
 21
0.125
 12
-1.0
 22
-0.125
 13
-1.0
 23
-0.125
  0
ENDBLK
  5
229
100
AcDbEntity
  8
0
  6
BYBLOCK
 62
0
100
AcDbBlockEnd
  0
BLOCK
  5
22A
100
AcDbEntity
  8
0
100
AcDbBlockBegin
 62
2
  6
CONTINUOUS
  2
*D0
 70
65
 10
0.0
 20
0.0
  3
*D0
  1

  0
MTEXT
  5
22B
100
AcDbEntity
  8
0
100
AcDbMText
 62
5
  6
CONTINUOUS
  7
TEXTSTYLE_2
 71
2
 72
1
 10
241.9654047404
 20
129.8684074378
 30
0.0
 11
0.0
 21
1.0
 31
0.0
 44
0.9
  1
{\Fgdt;n}\Ftxt;21
 40
3.5
 41
9.4166666667
  0
LINE
  5
22C
100
AcDbEntity
  8
0
100
AcDbLine
 62
2
  6
CONTINUOUS
 10
218.4015176715
 20
140.3434074378
 11
223.6517821561
 21
140.3434074378
  0
LINE
  5
22D
100
AcDbEntity
  8
0
100
AcDbLine
 62
2
  6
CONTINUOUS
 10
227.8142148173
 20
140.3434074378
 11
247.8404047404
 21
140.3434074378
  0
LINE
  5
22E
100
AcDbEntity
  8
0
100
AcDbLine
 62
2
  6
CONTINUOUS
 10
218.4015176715
 20
119.3934074378
 11
222.5350319299
 21
119.3934074378
  0
LINE
  5
22F
100
AcDbEntity
  8
0
100
AcDbLine
 62
2
  6
CONTINUOUS
 10
226.0883281041
 20
119.3934074378
 11
247.0020141578
 21
119.3934074378
  0
LINE
  5
230
100
AcDbEntity
  8
0
100
AcDbLine
 62
2
  6
CONTINUOUS
 10
246.3404047404
 20
140.3434074378
 11
246.3404047404
 21
129.8684074378
  0
LINE
  5
231
100
AcDbEntity
  8
0
100
AcDbLine
 62
2
  6
CONTINUOUS
 10
246.3404047404
 20
119.3934074378
 11
246.3404047404
 21
129.8684074378
  0
INSERT
  5
232
100
AcDbEntity
  8
0
100
AcDbBlockReference
 62
2
  6
CONTINUOUS
  2
_FILLED
 10
246.3404047404
 20
140.3434074378
 41
3.5
 42
3.5
 43
3.5
 50
90.0
  0
INSERT
  5
233
100
AcDbEntity
  8
0
100
AcDbBlockReference
 62
2
  6
CONTINUOUS
  2
_FILLED
 10
246.3404047404
 20
119.3934074378
 41
3.5
 42
3.5
 43
3.5
 50
270.0
  0
ENDBLK
  5
234
100
AcDbEntity
  8
0
  6
BYBLOCK
 62
0
100
AcDbBlockEnd
  0
BLOCK
  5
235
100
AcDbEntity
  8
0
100
AcDbBlockBegin
 62
2
  6
CONTINUOUS
  2
*D1
 70
65
 10
0.0
 20
0.0
  3
*D1
  1

  0
MTEXT
  5
236
100
AcDbEntity
  8
0
100
AcDbMText
 62
5
  6
CONTINUOUS
  7
STANDARD
 71
2
 72
1
 10
240.1821683184
 20
103.4911571162
 30
0.0
 11
0.2056455347
 21
0.9786265447
 31
0.0
 44
0.9
  1
4\Fgdt;{\Fgdt;~}\Ftxt;30'
 40
3.5
 41
12.3333333333
  0
LINE
  5
237
100
AcDbEntity
  8
0
100
AcDbLine
 62
2
  6
CONTINUOUS
 10
208.2835902409
 20
118.7151618397
 11
249.8035341574
 21
121.9828522932
  0
LINE
  5
238
100
AcDbEntity
  8
0
100
AcDbLine
 62
2
  6
CONTINUOUS
 10
180.282903463
 20
116.3934074378
 11
214.4206485692
 21
116.3934074378
  0
LINE
  5
239
100
AcDbEntity
  8
0
100
AcDbLine
 62
2
  6
CONTINUOUS
 10
224.7237132874
 20
116.3934074378
 11
250.0231440438
 21
116.3934074378
  0
ARC
  5
23A
100
AcDbEntity
  8
0
100
AcDbCircle
 62
2
  6
CONTINUOUS
 10
178.782903463
 20
116.3934074378
 40
69.7402405808
100
AcDbArc
 50
4.5
 51
9.4293589213
  0
ARC
  5
23B
100
AcDbEntity
  8
0
100
AcDbCircle
 62
2
  6
CONTINUOUS
 10
178.782903463
 20
116.3934074378
 40
69.7402405808
100
AcDbArc
 50
348.1327093609
 51
0.0
  0
ARC
  5
23C
100
AcDbEntity
  8
0
100
AcDbCircle
 62
2
  6
CONTINUOUS
 10
178.782903463
 20
116.3934074378
 40
69.7402405808
100
AcDbArc
 50
360.0
 51
4.5
  0
SOLID
  5
23D
100
AcDbEntity
  8
0
100
AcDbTrace
 62
2
  6
CONTINUOUS
 10
247.5109390157
 20
125.3011275451
 11
248.3081581568
 21
121.8651636496
 12
248.3812445636
 22
125.3916441368
 13
248.3812445636
 23
125.3916441368
  0
SOLID
  5
23E
100
AcDbEntity
  8
0
100
AcDbTrace
 62
2
  6
CONTINUOUS
 10
248.8726896198
 20
112.8835322063
 11
248.5231440438
 21
116.3934074378
 12
247.9979650836
 22
112.9054863793
 13
247.9979650836
 23
112.9054863793
  0
ENDBLK
  5
23F
100
AcDbEntity
  8
0
  6
BYBLOCK
 62
0
100
AcDbBlockEnd
  0
BLOCK
  5
240
100
AcDbEntity
  8
0
100
AcDbBlockBegin
 62
2
  6
CONTINUOUS
  2
*D2
 70
65
 10
0.0
 20
0.0
  3
*D2
  1

  0
MTEXT
  5
241
100
AcDbEntity
  8
0
100
AcDbMText
 62
5
  6
CONTINUOUS
  7
STANDARD
 71
2
 72
1
 10
166.9015176715
 20
179.8932459961
 30
0.0
 11
1.0
 21
0.0
 31
0.0
 44
0.9
  1
100
 40
3.5
 41
7.5
  0
LINE
  5
242
100
AcDbEntity
  8
0
100
AcDbLine
 62
2
  6
CONTINUOUS
 10
116.9015176715
 20
157.3345821465
 11
116.9015176715
 21
177.0182459961
  0
LINE
  5
243
100
AcDbEntity
  8
0
100
AcDbLine
 62
2
  6
CONTINUOUS
 10
216.9015176715
 20
140.6689821465
 11
216.9015176715
 21
177.0182459961
  0
LINE
  5
244
100
AcDbEntity
  8
0
100
AcDbLine
 62
2
  6
CONTINUOUS
 10
116.9015176715
 20
175.5182459961
 11
166.9015176715
 21
175.5182459961
  0
LINE
  5
245
100
AcDbEntity
  8
0
100
AcDbLine
 62
2
  6
CONTINUOUS
 10
216.9015176715
 20
175.5182459961
 11
166.9015176715
 21
175.5182459961
  0
INSERT
  5
246
100
AcDbEntity
  8
0
100
AcDbBlockReference
 62
2
  6
CONTINUOUS
  2
_FILLED
 10
116.9015176715
 20
175.5182459961
 41
3.5
 42
3.5
 43
3.5
 50
180.0
  0
INSERT
  5
247
100
AcDbEntity
  8
0
100
AcDbBlockReference
 62
2
  6
CONTINUOUS
  2
_FILLED
 10
216.9015176715
 20
175.5182459961
 41
3.5
 42
3.5
 43
3.5
  0
ENDBLK
  5
248
100
AcDbEntity
  8
0
  6
BYBLOCK
 62
0
100
AcDbBlockEnd
  0
BLOCK
  5
249
100
AcDbEntity
  8
0
100
AcDbBlockBegin
 62
2
  6
CONTINUOUS
  2
*D3
 70
65
 10
0.0
 20
0.0
  3
*D3
  1

  0
MTEXT
  5
24A
100
AcDbEntity
  8
0
100
AcDbMText
 62
5
  6
CONTINUOUS
  7
TEXTSTYLE_2
 71
2
 72
1
 10
231.3632449996
 20
129.8684074378
 30
0.0
 11
0.0
 21
1.0
 31
0.0
 44
0.9
  1
{\Fgdt;n}\Ftxt;8
 40
3.5
 41
7.4166666667
  0
LINE
  5
24B
100
AcDbEntity
  8
0
100
AcDbLine
 62
2
  6
CONTINUOUS
 10
211.165221773
 20
125.8769074378
 11
237.2382449996
 21
125.8769074378
  0
LINE
  5
24C
100
AcDbEntity
  8
0
100
AcDbLine
 62
2
  6
CONTINUOUS
 10
211.021861773
 20
133.8599074378
 11
237.2382449996
 21
133.8599074378
  0
LINE
  5
24D
100
AcDbEntity
  8
0
100
AcDbLine
 62
2
  6
CONTINUOUS
 10
235.7382449996
 20
125.8769074378
 11
235.7382449996
 21
129.8684074378
  0
LINE
  5
24E
100
AcDbEntity
  8
0
100
AcDbLine
 62
2
  6
CONTINUOUS
 10
235.7382449996
 20
133.8599074378
 11
235.7382449996
 21
129.8684074378
  0
INSERT
  5
24F
100
AcDbEntity
  8
0
100
AcDbBlockReference
 62
2
  6
CONTINUOUS
  2
_FILLED
 10
235.7382449996
 20
125.8769074378
 41
3.5
 42
3.5
 43
3.5
 50
270.0
  0
INSERT
  5
250
100
AcDbEntity
  8
0
100
AcDbBlockReference
 62
2
  6
CONTINUOUS
  2
_FILLED
 10
235.7382449996
 20
133.8599074378
 41
3.5
 42
3.5
 43
3.5
 50
90.0
  0
ENDBLK
  5
251
100
AcDbEntity
  8
0
  6
BYBLOCK
 62
0
100
AcDbBlockEnd
  0
BLOCK
  5
252
100
AcDbEntity
  8
0
100
AcDbBlockBegin
 62
2
  6
CONTINUOUS
  2
*D4
 70
65
 10
0.0
 20
0.0
  3
*D4
  1

  0
MTEXT
  5
253
100
AcDbEntity
  8
0
100
AcDbMText
 62
5
  6
CONTINUOUS
  7
STANDARD
 71
2
 72
1
 10
177.9015176715
 20
172.6081666068
 30
0.0
 11
1.0
 21
0.0
 31
0.0
 44
0.9
  1
78
 40
3.5
 41
5.5
  0
LINE
  5
254
100
AcDbEntity
  8
0
100
AcDbLine
 62
2
  6
CONTINUOUS
 10
216.9015176715
 20
120.8934074378
 11
216.9015176715
 21
169.7331666068
  0
LINE
  5
255
100
AcDbEntity
  8
0
100
AcDbLine
 62
2
  6
CONTINUOUS
 10
138.9015176715
 20
155.7217821465
 11
138.9015176715
 21
169.7331666068
  0
LINE
  5
256
100
AcDbEntity
  8
0
100
AcDbLine
 62
2
  6
CONTINUOUS
 10
216.9015176715
 20
168.2331666068
 11
177.9015176715
 21
168.2331666068
  0
LINE
  5
257
100
AcDbEntity
  8
0
100
AcDbLine
 62
2
  6
CONTINUOUS
 10
138.9015176715
 20
168.2331666068
 11
177.9015176715
 21
168.2331666068
  0
INSERT
  5
258
100
AcDbEntity
  8
0
100
AcDbBlockReference
 62
2
  6
CONTINUOUS
  2
_FILLED
 10
216.9015176715
 20
168.2331666068
 41
3.5
 42
3.5
 43
3.5
  0
INSERT
  5
259
100
AcDbEntity
  8
0
100
AcDbBlockReference
 62
2
  6
CONTINUOUS
  2
_FILLED
 10
138.9015176715
 20
168.2331666068
 41
3.5
 42
3.5
 43
3.5
 50
180.0
  0
ENDBLK
  5
25A
100
AcDbEntity
  8
0
  6
BYBLOCK
 62
0
100
AcDbBlockEnd
  0
BLOCK
  5
25B
100
AcDbEntity
  8
0
100
AcDbBlockBegin
 62
2
  6
CONTINUOUS
  2
*D5
 70
65
 10
0.0
 20
0.0
  3
*D5
  1

  0
MTEXT
  5
25C
100
AcDbEntity
  8
0
100
AcDbMText
 62
5
  6
CONTINUOUS
  7
STANDARD
 71
2
 72
1
 10
147.9015176715
 20
189.1150272869
 30
0.0
 11
1.0
 21
0.0
 31
0.0
 44
0.9
  1
138
 40
3.5
 41
7.25
  0
LINE
  5
25D
100
AcDbEntity
  8
0
100
AcDbLine
 62
2
  6
CONTINUOUS
 10
216.9015176715
 20
120.8934074378
 11
216.9015176715
 21
186.2400272869
  0
LINE
  5
25E
100
AcDbEntity
  8
0
100
AcDbLine
 62
2
  6
CONTINUOUS
 10
78.9015176715
 20
111.1822916684
 11
78.9015176715
 21
186.2400272869
  0
LINE
  5
25F
100
AcDbEntity
  8
0
100
AcDbLine
 62
2
  6
CONTINUOUS
 10
216.9015176715
 20
184.7400272869
 11
147.9015176715
 21
184.7400272869
  0
LINE
  5
260
100
AcDbEntity
  8
0
100
AcDbLine
 62
2
  6
CONTINUOUS
 10
78.9015176715
 20
184.7400272869
 11
147.9015176715
 21
184.7400272869
  0
INSERT
  5
261
100
AcDbEntity
  8
0
100
AcDbBlockReference
 62
2
  6
CONTINUOUS
  2
_FILLED
 10
216.9015176715
 20
184.7400272869
 41
3.5
 42
3.5
 43
3.5
  0
INSERT
  5
262
100
AcDbEntity
  8
0
100
AcDbBlockReference
 62
2
  6
CONTINUOUS
  2
_FILLED
 10
78.9015176715
 20
184.7400272869
 41
3.5
 42
3.5
 43
3.5
 50
180.0
  0
ENDBLK
  5
263
100
AcDbEntity
  8
0
  6
BYBLOCK
 62
0
100
AcDbBlockEnd
  0
BLOCK
  5
264
100
AcDbEntity
  8
0
100
AcDbBlockBegin
 62
2
  6
CONTINUOUS
  2
*D6
 70
65
 10
0.0
 20
0.0
  3
*D6
  1

  0
MTEXT
  5
265
100
AcDbEntity
  8
0
100
AcDbMText
 62
5
  6
CONTINUOUS
  7
TEXTSTYLE_2
 71
2
 72
1
 10
255.6830902642
 20
129.8684074378
 30
0.0
 11
0.0
 21
1.0
 31
0.0
 44
0.9
  1
{\Fgdt;n}\Ftxt;27
 40
3.5
 41
10.1666666667
  0
LINE
  5
266
100
AcDbEntity
  8
0
100
AcDbLine
 62
2
  6
CONTINUOUS
 10
180.282903463
 20
143.3434074378
 11
212.6024606778
 21
143.3434074378
  0
LINE
  5
267
100
AcDbEntity
  8
0
100
AcDbLine
 62
2
  6
CONTINUOUS
 10
230.1782769617
 20
143.3434074378
 11
261.5580902642
 21
143.3434074378
  0
LINE
  5
268
100
AcDbEntity
  8
0
100
AcDbLine
 62
2
  6
CONTINUOUS
 10
180.282903463
 20
116.3934074378
 11
214.2994360431
 21
116.3934074378
  0
LINE
  5
269
100
AcDbEntity
  8
0
100
AcDbLine
 62
2
  6
CONTINUOUS
 10
224.3600757091
 20
116.3934074378
 11
261.5580902642
 21
116.3934074378
  0
LINE
  5
26A
100
AcDbEntity
  8
0
100
AcDbLine
 62
2
  6
CONTINUOUS
 10
260.0580902642
 20
143.3434074378
 11
260.0580902642
 21
129.8684074378
  0
LINE
  5
26B
100
AcDbEntity
  8
0
100
AcDbLine
 62
2
  6
CONTINUOUS
 10
260.0580902642
 20
116.3934074378
 11
260.0580902642
 21
129.8684074378
  0
INSERT
  5
26C
100
AcDbEntity
  8
0
100
AcDbBlockReference
 62
2
  6
CONTINUOUS
  2
_FILLED
 10
260.0580902642
 20
143.3434074378
 41
3.5
 42
3.5
 43
3.5
 50
90.0
  0
INSERT
  5
26D
100
AcDbEntity
  8
0
100
AcDbBlockReference
 62
2
  6
CONTINUOUS
  2
_FILLED
 10
260.0580902642
 20
116.3934074378
 41
3.5
 42
3.5
 43
3.5
 50
270.0
  0
ENDBLK
  5
26E
100
AcDbEntity
  8
0
  6
BYBLOCK
 62
0
100
AcDbBlockEnd
  0
ENDSEC
  0
SECTION
  2
ENTITIES
  0
DIMENSION
  5
26F
100
AcDbEntity
  8
0
100
AcDbDimension
 62
2
  6
CONTINUOUS
  2
*D0
 10
246.3404047404
 20
119.3934074378
 11
244.7702447117
 21
127.7637902922
 70
160
 71
2
 42
20.95
  1
%%c<>
  3
DIMSTYLE_1
100
AcDbAlignedDimension
 13
218.4015176715
 23
140.3434074378
 14
218.4015176715
 24
119.3934074378
 50
270.0
100
AcDbRotatedDimension
  0
DIMENSION
  5
270
100
AcDbEntity
  8
0
100
AcDbDimension
 62
2
  6
CONTINUOUS
  2
*D1
 10
250.0231440438
 20
116.3934074378
 11
244.1904401928
 21
102.1413913962
 70
162
 71
2
 42
0.0785398163
  3
DIMSTYLE_2
100
AcDb2LineAngularDimension
 13
249.8035341574
 23
121.9828522932
 14
208.2835902409
 24
118.7151618397
 15
180.282903463
 25
116.3934074378
 16
248.4693768458
 26
119.131396434
  0
DIMENSION
  5
271
100
AcDbEntity
  8
0
100
AcDbDimension
 62
2
  6
CONTINUOUS
  2
*D2
 10
216.9015176715
 20
175.5182459961
 11
163.1515176715
 21
178.1432459961
 70
160
 71
2
 42
100.0
  3
DIMSTYLE_3
100
AcDbAlignedDimension
 13
116.9015176715
 23
157.3345821465
 14
216.9015176715
 24
140.6689821465
100
AcDbRotatedDimension
  0
DIMENSION
  5
272
100
AcDbEntity
  8
0
100
AcDbDimension
 62
2
  6
CONTINUOUS
  2
*D3
 10
235.7382449996
 20
133.8599074378
 11
233.9440481629
 21
128.210788624
 70
160
 71
2
 42
7.983
  1
%%c<>
  3
DIMSTYLE_4
100
AcDbAlignedDimension
 13
211.165221773
 23
125.8769074378
 14
211.021861773
 24
133.8599074378
 50
90.0
100
AcDbRotatedDimension
  0
DIMENSION
  5
273
100
AcDbEntity
  8
0
100
AcDbDimension
 62
2
  6
CONTINUOUS
  2
*D4
 10
138.9015176715
 20
168.2331666068
 11
175.1515176715
 21
170.8581666068
 70
160
 71
2
 42
78.0
  3
DIMSTYLE_3
100
AcDbAlignedDimension
 13
216.9015176715
 23
120.8934074378
 14
138.9015176715
 24
155.7217821465
 50
180.0
100
AcDbRotatedDimension
  0
DIMENSION
  5
274
100
AcDbEntity
  8
0
100
AcDbDimension
 62
2
  6
CONTINUOUS
  2
*D5
 10
78.9015176715
 20
184.7400272869
 11
144.2765176715
 21
187.3650272869
 70
160
 71
2
 42
138.0
  3
DIMSTYLE_5
100
AcDbAlignedDimension
 13
216.9015176715
 23
120.8934074378
 14
78.9015176715
 24
111.1822916684
 50
180.0
100
AcDbRotatedDimension
  0
DIMENSION
  5
275
100
AcDbEntity
  8
0
100
AcDbDimension
 62
2
  6
CONTINUOUS
  2
*D6
 10
260.0580902642
 20
116.3934074378
 11
258.5719440386
 21
127.5961659178
 70
160
 71
2
 42
26.95
  1
%%c<>
  3
DIMSTYLE_1
100
AcDbAlignedDimension
 13
180.282903463
 23
143.3434074378
 14
180.282903463
 24
116.3934074378
 50
270.0
100
AcDbRotatedDimension
  0
MTEXT
  5
276
100
AcDbEntity
  8
0
100
AcDbMText
 62
5
  6
CONTINUOUS
  7
STANDARD
 71
1
 72
1
 10
14.8673661642
 20
82.0032159563
 30
0.0
 11
1.0
 21
0.0
 31
0.0
 44
0.9
  3
Für diese Unterlage behalten wir das Ur-\Pheberrecht. Sie darf nur für den von uns \Pbestimmten Zweck benutzt und ohne unsere \PZustimmung weder vervielfältigt noch\PDritten zugänglich gemacht werden\P \PWe own the copyright of this document. It \Pde
  1
termined and may neither be copied or \Pmade accessible to outsiders without our\Ppermission.\P \PCe plan reste notre propriété. Il ne peut\Pêtre utilisé, copié ou reproduit sans notre\Paccord.\P 
 40
3.5
 41
104.8333333333
  0
LINE
  5
277
100
AcDbEntity
  8
0
100
AcDbLine
 62
7
  6
CONTINUOUS
 10
0.0
 20
0.0
 11
0.0
 21
210.0
  0
LINE
  5
278
100
AcDbEntity
  8
0
100
AcDbLine
 62
7
  6
CONTINUOUS
 10
0.0
 20
0.0
 11
297.0
 21
0.0
  0
LINE
  5
279
100
AcDbEntity
  8
0
100
AcDbLine
 62
7
  6
CONTINUOUS
 10
0.0
 20
210.0
 11
297.0
 21
210.0
  0
LINE
  5
27A
100
AcDbEntity
  8
0
100
AcDbLine
 62
7
  6
CONTINUOUS
 10
297.0
 20
0.0
 11
297.0
 21
210.0
  0
LINE
  5
27B
100
AcDbEntity
  8
0
100
AcDbLine
 62
7
  6
CONTINUOUS
 10
78.9015176715
 20
108.1760694449
 11
78.9015176715
 21
144.8296520765
  0
LINE
  5
27C
100
AcDbEntity
  8
KURVEN
100
AcDbLine
 62
4
  6
CONTINUOUS
 10
78.9015176715
 20
107.3477292621
 11
78.9015176715
 21
149.0799814247
  0
LINE
  5
27D
100
AcDbEntity
  8
ACHSEN
100
AcDbLine
 62
7
  6
CONTINUOUS
 10
78.9015176715
 20
144.8296520765
 11
78.9015176715
 21
148.6168867517
  0
LINE
  5
27E
100
AcDbEntity
  8
ACHSEN
100
AcDbLine
 62
7
  6
CONTINUOUS
 10
80.4015176715
 20
149.3653970513
 11
80.4015176715
 21
145.5796520765
  0
LINE
  5
27F
100
AcDbEntity
  8
0
100
AcDbLine
 62
7
  6
CONTINUOUS
 10
80.4015176715
 20
145.5796520765
 11
80.4015176715
 21
107.3100440411
  0
LINE
  5
280
100
AcDbEntity
  8
ACHSEN
100
AcDbLine
 62
7
  6
CENTER
 10
101.4015176715
 20
106.9349219307
 11
101.4015176715
 21
154.0567780023
  0
LINE
  5
281
100
AcDbEntity
  8
0
100
AcDbLine
 62
7
  6
CONTINUOUS
 10
116.9015195075
 20
161.0684055304
 11
117.2015195974
 21
161.3684055843
  0
LINE
  5
282
100
AcDbEntity
  8
0
100
AcDbLine
 62
9
  6
CONTINUOUS
 10
80.4015176715
 20
145.5796520765
 11
78.9015176715
 21
144.8296520765
  0
LINE
  5
283
100
AcDbEntity
  8
0
100
AcDbLine
 62
7
  6
CONTINUOUS
 10
80.4015176715
 20
107.3100440411
 11
78.9015176715
 21
108.1760694449
  0
LINE
  5
284
100
AcDbEntity
  8
0
100
AcDbLine
 62
9
  6
CONTINUOUS
 10
80.4015176715
 20
108.9322916684
 11
78.9015176715
 21
109.6822916684
  0
LINE
  5
285
100
AcDbEntity
  8
0
100
AcDbLine
 62
7
  6
CONTINUOUS
 10
116.9015195075
 20
98.6684093451
 11
117.2015195974
 21
98.3684092912
  0
LINE
  5
286
100
AcDbEntity
  8
0
100
AcDbLine
 62
7
  6
CONTINUOUS
 10
114.7015807606
 20
150.4885078073
 11
114.7015807606
 21
146.3259381864
  0
LINE
  5
287
100
AcDbEntity
  8
0
100
AcDbLine
 62
7
  6
CONTINUOUS
 10
114.7015807606
 20
135.0932785684
 11
114.7015807606
 21
108.1860055585
  0
LINE
  5
288
100
AcDbEntity
  8
0
100
AcDbLine
 62
9
  6
CONTINUOUS
 10
114.9065407826
 20
150.2935940075
 11
114.9065407826
 21
144.5533496425
  0
LINE
  5
289
100
AcDbEntity
  8
0
100
AcDbLine
 62
9
  6
CONTINUOUS
 10
114.9065407826
 20
138.0543506245
 11
114.9065407826
 21
106.9975220462
  0
LINE
  5
28A
100
AcDbEntity
  8
0
100
AcDbLine
 62
9
  6
CONTINUOUS
 10
115.5944108903
 20
107.1255142189
 11
115.5944108903
 21
107.7648507868
  0
LINE
  5
28B
100
AcDbEntity
  8
0
100
AcDbLine
 62
9
  6
CONTINUOUS
 10
115.5944108903
 20
136.2829471985
 11
115.5944108903
 21
145.5574243279
  0
LINE
  5
28C
100
AcDbEntity
  8
0
100
AcDbLine
 62
9
  6
CONTINUOUS
 10
116.5065407826
 20
150.3337915766
 11
116.5065407826
 21
146.2128857247
  0
LINE
  5
28D
100
AcDbEntity
  8
0
100
AcDbLine
 62
9
  6
CONTINUOUS
 10
116.5065407826
 20
135.0513578909
 11
116.5065407826
 21
108.3409786976
  0
LINE
  5
28E
100
AcDbEntity
  8
0
100
AcDbLine
 62
7
  6
CONTINUOUS
 10
116.7015176715
 20
108.4689924211
 11
116.7014217052
 21
134.4936326518
  0
LINE
  5
28F
100
AcDbEntity
  8
0
100
AcDbLine
 62
7
  6
CONTINUOUS
 10
116.9015176715
 20
98.6686831073
 11
116.9015176715
 21
161.0681317682
  0
LINE
  5
290
100
AcDbEntity
  8
0
100
AcDbLine
 62
7
  6
CONTINUOUS
 10
117.2015177451
 20
98.3684074378
 11
117.2015177451
 21
161.3684074378
  0
LINE
  5
291
100
AcDbEntity
  8
0
100
AcDbLine
 62
7
  6
CONTINUOUS
 10
116.7014528197
 20
146.6579820235
 11
116.7015176715
 21
152.4018922988
  0
LINE
  5
292
100
AcDbEntity
  8
0
100
AcDbLine
 62
7
  6
CONTINUOUS
 10
116.7014528197
 20
108.4582393463
 11
116.7015176715
 21
108.4750209806
  0
LINE
  5
293
100
AcDbEntity
  8
0
100
AcDbLine
 62
7
  6
CONTINUOUS
 10
138.9015176715
 20
98.3684074378
 11
117.2015177439
 21
98.3684074378
  0
LINE
  5
294
100
AcDbEntity
  8
0
100
AcDbLine
 62
7
  6
CONTINUOUS
 10
130.3628425369
 20
99.7878146774
 11
127.4401928061
 21
99.7878146774
  0
LINE
  5
295
100
AcDbEntity
  8
0
100
AcDbLine
 62
9
  6
CONTINUOUS
 10
127.0071801042
 20
159.7823622842
 11
127.0071801042
 21
139.7378200567
  0
LINE
  5
296
100
AcDbEntity
  8
0
100
AcDbLine
 62
9
  6
CONTINUOUS
 10
127.0071801042
 20
119.9989948188
 11
127.0071801042
 21
99.9544525913
  0
LINE
  5
297
100
AcDbEntity
  8
0
100
AcDbLine
 62
9
  6
CONTINUOUS
 10
127.4401928061
 20
159.9490001981
 11
127.4401928061
 21
139.2176287523
  0
LINE
  5
298
100
AcDbEntity
  8
0
100
AcDbLine
 62
9
  6
CONTINUOUS
 10
127.4401928061
 20
120.5191861232
 11
127.4401928061
 21
99.7878146774
  0
LINE
  5
299
100
AcDbEntity
  8
ACHSEN
100
AcDbLine
 62
7
  6
CENTER
 10
128.9015176715
 20
151.9324097169
 11
128.9015176715
 21
164.3684074378
  0
LINE
  5
29A
100
AcDbEntity
  8
0
100
AcDbLine
 62
9
  6
CONTINUOUS
 10
130.3628425369
 20
159.9490001981
 11
130.3628425369
 21
139.2176287523
  0
LINE
  5
29B
100
AcDbEntity
  8
0
100
AcDbLine
 62
9
  6
CONTINUOUS
 10
130.3628425369
 20
120.5191861232
 11
130.3628425369
 21
99.7878146774
  0
LINE
  5
29C
100
AcDbEntity
  8
0
100
AcDbLine
 62
9
  6
CONTINUOUS
 10
130.7958552388
 20
159.7823622842
 11
130.7958552388
 21
139.7378200567
  0
LINE
  5
29D
100
AcDbEntity
  8
0
100
AcDbLine
 62
9
  6
CONTINUOUS
 10
130.7958552388
 20
119.9989948188
 11
130.7958552388
 21
99.9544525913
  0
LINE
  5
29E
100
AcDbEntity
  8
0
100
AcDbLine
 62
9
  6
CONTINUOUS
 10
114.7015807606
 20
108.1860055585
 11
80.4015176715
 21
108.9322916684
  0
LINE
  5
29F
100
AcDbEntity
  8
0
100
AcDbLine
 62
7
  6
CONTINUOUS
 10
115.1545464223
 20
106.9916785624
 11
114.9065407826
 21
106.9975220462
  0
LINE
  5
2A0
100
AcDbEntity
  8
0
100
AcDbLine
 62
7
  6
CONTINUOUS
 10
80.4015176715
 20
107.3100440411
 11
114.9119204943
 21
106.4430226019
  0
LINE
  5
2A1
100
AcDbEntity
  8
0
100
AcDbLine
 62
7
  6
CONTINUOUS
 10
115.5944108903
 20
107.1255142189
 11
114.9119204941
 21
106.4430238227
  0
LINE
  5
2A2
100
AcDbEntity
  8
RUNDUNGEN
100
AcDbLine
 62
7
  6
CONTINUOUS
 10
215.9799767672
 20
119.3208805957
 11
178.782903463
 21
116.3934074378
  0
LINE
  5
2A3
100
AcDbEntity
  8
0
100
AcDbLine
 62
7
  6
CONTINUOUS
 10
178.782903463
 20
116.3934074378
 11
215.9799767672
 21
119.3208805957
  0
LINE
  5
2A4
100
AcDbEntity
  8
0
100
AcDbLine
 62
7
  6
CONTINUOUS
 10
138.9015176715
 20
98.3684074378
 11
138.9015176715
 21
161.3684074378
  0
LINE
  5
2A5
100
AcDbEntity
  8
0
100
AcDbLine
 62
7
  6
CONTINUOUS
 10
178.782903463
 20
116.3934074378
 11
176.1515176715
 21
116.3934074378
  0
LINE
  5
2A6
100
AcDbEntity
  8
0
100
AcDbLine
 62
7
  6
CONTINUOUS
 10
167.6515176715
 20
116.3934074378
 11
150.9015176715
 21
116.3934074378
  0
LINE
  5
2A7
100
AcDbEntity
  8
0
100
AcDbLine
 62
7
  6
CONTINUOUS
 10
168.3854922677
 20
116.6934074378
 11
169.4015176715
 21
116.6934074378
  0
LINE
  5
2A8
100
AcDbEntity
  8
0
100
AcDbLine
 62
7
  6
CONTINUOUS
 10
174.4015176715
 20
116.6934074378
 11
175.4175430753
 21
116.6934074378
  0
LINE
  5
2A9
100
AcDbEntity
  8
BEZUGSACHSEN
100
AcDbLine
 62
7
  6
CONTINUOUS
 10
174.4015176715
 20
116.6934074378
 11
175.4175430753
 21
116.6934074378
  0
LINE
  5
2AA
100
AcDbEntity
  8
0
100
AcDbLine
 62
7
  6
CONTINUOUS
 10
175.8175430753
 20
143.1505871147
 11
176.1515176715
 21
143.3434074378
  0
LINE
  5
2AB
100
AcDbEntity
  8
RUNDUNGEN
100
AcDbLine
 62
7
  6
CONTINUOUS
 10
175.8175430753
 20
143.1505871147
 11
176.1515176715
 21
143.3434074378
  0
LINE
  5
2AC
100
AcDbEntity
  8
0
100
AcDbLine
 62
7
  6
CONTINUOUS
 10
130.3628425369
 20
120.5191861232
 11
127.4401928061
 21
120.5191861232
  0
LINE
  5
2AD
100
AcDbEntity
  8
DEFAULT_2
100
AcDbLine
 62
8
  6
HIDDEN
 10
179.4512825551
 20
125.5269074378
 11
189.5163083903
 21
125.5269074378
  0
LINE
  5
2AE
100
AcDbEntity
  8
RUNDUNGEN
100
AcDbLine
 62
9
  6
CONTINUOUS
 10
150.9015176715
 20
143.3434074378
 11
150.9015176715
 21
116.3934074378
  0
LINE
  5
2AF
100
AcDbEntity
  8
BOHRUNGEN
100
AcDbLine
 62
8
  6
HIDDEN
 10
190.9015176715
 20
125.8769074378
 11
214.6015176715
 21
125.8769074378
  0
LINE
  5
2B0
100
AcDbEntity
  8
S_ACHSEN
100
AcDbLine
 62
7
  6
CENTER
 10
75.9015176715
 20
129.8684074378
 11
220.9015176715
 21
129.8684074378
  0
LINE
  5
2B1
100
AcDbEntity
  8
BOHRUNGEN
100
AcDbLine
 62
8
  6
HIDDEN
 10
190.9015176715
 20
133.8599074378
 11
214.6015176715
 21
133.8599074378
  0
LINE
  5
2B2
100
AcDbEntity
  8
RUNDUNGEN
100
AcDbLine
 62
8
  6
HIDDEN
 10
189.5163083903
 20
134.2099074378
 11
179.4512825551
 21
134.2099074378
  0
LINE
  5
2B3
100
AcDbEntity
  8
DEFAULT_2
100
AcDbLine
 62
8
  6
HIDDEN
 10
179.4512825551
 20
134.2099074378
 11
189.5163083903
 21
134.2099074378
  0
LINE
  5
2B4
100
AcDbEntity
  8
0
100
AcDbLine
 62
9
  6
CONTINUOUS
 10
78.9015176715
 20
135.0932785684
 11
114.7015807606
 21
135.0932785684
  0
LINE
  5
2B5
100
AcDbEntity
  8
0
100
AcDbLine
 62
7
  6
CONTINUOUS
 10
175.8175430753
 20
116.5862277608
 11
176.1515176715
 21
116.3934074378
  0
LINE
  5
2B6
100
AcDbEntity
  8
RUNDUNGEN
100
AcDbLine
 62
7
  6
CONTINUOUS
 10
175.8175430753
 20
116.5862277608
 11
176.1515176715
 21
116.3934074378
  0
LINE
  5
2B7
100
AcDbEntity
  8
0
100
AcDbLine
 62
7
  6
CONTINUOUS
 10
167.6515176715
 20
116.3934074378
 11
167.9854922677
 21
116.5862277608
  0
LINE
  5
2B8
100
AcDbEntity
  8
RUNDUNGEN
100
AcDbLine
 62
7
  6
CONTINUOUS
 10
167.6515176715
 20
116.3934074378
 11
167.9854922677
 21
116.5862277608
  0
LINE
  5
2B9
100
AcDbEntity
  8
0
100
AcDbLine
 62
7
  6
CONTINUOUS
 10
114.9065407826
 20
138.0543506245
 11
115.1545464223
 21
138.0553648804
  0
LINE
  5
2BA
100
AcDbEntity
  8
0
100
AcDbLine
 62
7
  6
CONTINUOUS
 10
130.3628425369
 20
139.2176287523
 11
127.4401928061
 21
139.2176287523
  0
LINE
  5
2BB
100
AcDbEntity
  8
0
100
AcDbLine
 62
7
  6
CONTINUOUS
 10
167.6515176715
 20
143.3434074378
 11
167.6515176715
 21
116.3934074378
  0
LINE
  5
2BC
100
AcDbEntity
  8
RUNDUNGEN
100
AcDbLine
 62
9
  6
CONTINUOUS
 10
167.9854922677
 20
116.5862277608
 11
167.9854922677
 21
143.1505871147
  0
LINE
  5
2BD
100
AcDbEntity
  8
RUNDUNGEN
100
AcDbLine
 62
9
  6
CONTINUOUS
 10
168.3854922677
 20
116.6934074378
 11
168.3854922677
 21
143.0434074378
  0
LINE
  5
2BE
100
AcDbEntity
  8
BEZUGSACHSEN
100
AcDbLine
 62
7
  6
CENTER
 10
171.9015176715
 20
146.0434074378
 11
171.9015176715
 21
132.3434074378
  0
LINE
  5
2BF
100
AcDbEntity
  8
BEZUGSACHSEN
100
AcDbLine
 62
7
  6
CENTER
 10
171.9015176715
 20
113.6934074378
 11
171.9015176715
 21
127.3934074378
  0
LINE
  5
2C0
100
AcDbEntity
  8
0
100
AcDbLine
 62
9
  6
CONTINUOUS
 10
80.4015176715
 20
145.5796520765
 11
114.7015807606
 21
146.3259381864
  0
LINE
  5
2C1
100
AcDbEntity
  8
0
100
AcDbLine
 62
7
  6
CONTINUOUS
 10
115.1545464223
 20
144.5581788704
 11
114.9065407826
 21
144.5533496425
  0
LINE
  5
2C2
100
AcDbEntity
  8
0
100
AcDbLine
 62
7
  6
CONTINUOUS
 10
168.3854922677
 20
143.0434074378
 11
169.4015176715
 21
143.0434074378
  0
LINE
  5
2C3
100
AcDbEntity
  8
BEZUGSACHSEN
100
AcDbLine
 62
7
  6
CONTINUOUS
 10
168.3854922677
 20
143.0434074378
 11
169.4015176715
 21
143.0434074378
  0
LINE
  5
2C4
100
AcDbEntity
  8
0
100
AcDbLine
 62
7
  6
CONTINUOUS
 10
174.4015176715
 20
143.0434074378
 11
175.4175430753
 21
143.0434074378
  0
LINE
  5
2C5
100
AcDbEntity
  8
BEZUGSACHSEN
100
AcDbLine
 62
7
  6
CONTINUOUS
 10
174.4015176715
 20
143.0434074378
 11
175.4175430753
 21
143.0434074378
  0
LINE
  5
2C6
100
AcDbEntity
  8
0
100
AcDbLine
 62
7
  6
CONTINUOUS
 10
178.782903463
 20
143.3434074378
 11
176.1515176715
 21
143.3434074378
  0
LINE
  5
2C7
100
AcDbEntity
  8
0
100
AcDbLine
 62
7
  6
CONTINUOUS
 10
150.9015176715
 20
143.3434074378
 11
167.6515176715
 21
143.3434074378
  0
LINE
  5
2C8
100
AcDbEntity
  8
RUNDUNGEN
100
AcDbLine
 62
7
  6
CONTINUOUS
 10
215.9799767672
 20
140.4159342798
 11
178.782903463
 21
143.3434074378
  0
LINE
  5
2C9
100
AcDbEntity
  8
0
100
AcDbLine
 62
7
  6
CONTINUOUS
 10
178.782903463
 20
143.3434074378
 11
215.9799767672
 21
140.4159342798
  0
LINE
  5
2CA
100
AcDbEntity
  8
RUNDUNGEN
100
AcDbLine
 62
9
  6
CONTINUOUS
 10
175.4175430753
 20
116.6934074378
 11
175.4175430753
 21
143.0434074378
  0
LINE
  5
2CB
100
AcDbEntity
  8
RUNDUNGEN
100
AcDbLine
 62
9
  6
CONTINUOUS
 10
175.8175430753
 20
116.5862277608
 11
175.8175430753
 21
143.1505871147
  0
LINE
  5
2CC
100
AcDbEntity
  8
0
100
AcDbLine
 62
7
  6
CONTINUOUS
 10
176.1515176715
 20
143.3434074378
 11
176.1515176715
 21
116.3934074378
  0
LINE
  5
2CD
100
AcDbEntity
  8
0
100
AcDbLine
 62
7
  6
CONTINUOUS
 10
114.9065407826
 20
150.2935940075
 11
116.5065407826
 21
150.3337915766
  0
LINE
  5
2CE
100
AcDbEntity
  8
0
100
AcDbLine
 62
7
  6
CONTINUOUS
 10
87.1651224256
 20
149.7966961279
 11
96.9515176715
 21
150.04256444
  0
LINE
  5
2CF
100
AcDbEntity
  8
0
100
AcDbLine
 62
7
  6
CONTINUOUS
 10
106.0808790047
 20
150.2719257732
 11
114.7015807606
 21
150.4885078073
  0
LINE
  5
2D0
100
AcDbEntity
  8
0
100
AcDbLine
 62
7
  6
CONTINUOUS
 10
167.6515176715
 20
143.3434074378
 11
167.9854922677
 21
143.1505871147
  0
LINE
  5
2D1
100
AcDbEntity
  8
RUNDUNGEN
100
AcDbLine
 62
7
  6
CONTINUOUS
 10
167.6515176715
 20
143.3434074378
 11
167.9854922677
 21
143.1505871147
  0
LINE
  5
2D2
100
AcDbEntity
  8
0
100
AcDbLine
 62
7
  6
CONTINUOUS
 10
178.782903463
 20
116.3934074378
 11
178.782903463
 21
143.3434074378
  0
LINE
  5
2D3
100
AcDbEntity
  8
RUNDUNGEN
100
AcDbLine
 62
9
  6
CONTINUOUS
 10
179.4512825551
 20
125.5269074378
 11
179.4512825551
 21
134.2099074378
  0
LINE
  5
2D4
100
AcDbEntity
  8
0
100
AcDbLine
 62
7
  6
CONTINUOUS
 10
130.3628425369
 20
159.9490001981
 11
127.4401928061
 21
159.9490001981
  0
LINE
  5
2D5
100
AcDbEntity
  8
0
100
AcDbLine
 62
7
  6
CONTINUOUS
 10
138.9015176715
 20
161.3684074378
 11
134.1232783734
 21
161.3684074378
  0
LINE
  5
2D6
100
AcDbEntity
  8
0
100
AcDbLine
 62
7
  6
CONTINUOUS
 10
123.6797564845
 20
161.3684074378
 11
117.2015177439
 21
161.3684074378
  0
LINE
  5
2D7
100
AcDbEntity
  8
RUNDUNGEN
100
AcDbLine
 62
9
  6
CONTINUOUS
 10
215.9799767672
 20
119.3208805957
 11
215.9799767672
 21
140.4159342798
  0
LINE
  5
2D8
100
AcDbEntity
  8
RUNDUNGEN
100
AcDbLine
 62
7
  6
CONTINUOUS
 10
216.9015176715
 20
139.4190169461
 11
216.9015176715
 21
120.3177979294
  0
ARC
  5
2D9
100
AcDbEntity
  8
0
100
AcDbCircle
 62
7
  6
CONTINUOUS
 10
8.1495064758
 20
110.5589186084
 40
110.4813700655
100
AcDbArc
 50
13.4640903998
 51
14.4111621352
  0
ARC
  5
2DA
100
AcDbEntity
  8
0
100
AcDbCircle
 62
7
  6
CONTINUOUS
 10
116.3015176715
 20
106.4184074378
 40
1.0
100
AcDbArc
 50
53.0400606802
 51
135.0
  0
ARC
  5
2DB
100
AcDbEntity
  8
0
100
AcDbCircle
 62
7
  6
CONTINUOUS
 10
116.3015176715
 20
153.3184074378
 40
1.0
100
AcDbArc
 50
293.5781784782
 51
306.9599393198
  0
ARC
  5
2DC
100
AcDbEntity
  8
0
100
AcDbCircle
 62
7
  6
CONTINUOUS
 10
116.5015176715
 20
150.5337284876
 40
0.2
100
AcDbArc
 50
271.439166666
 51
360.0
  0
ARC
  5
2DD
100
AcDbEntity
  8
0
100
AcDbCircle
 62
7
  6
CONTINUOUS
 10
114.9015176715
 20
150.4935309184
 40
0.2
100
AcDbArc
 50
181.439166666
 51
271.439166666
  0
ARC
  5
2DE
100
AcDbEntity
  8
ACHSEN
100
AcDbCircle
 62
7
  6
CONTINUOUS
 10
15.143300695
 20
278.2643469873
 40
144.4768984217
100
AcDbArc
 50
296.1871039389
 51
296.8519184685
  0
ARC
  5
2DF
100
AcDbEntity
  8
FASEN
100
AcDbCircle
 62
7
  6
CONTINUOUS
 10
129.1898172224
 20
194.1893049477
 40
33.2803296427
100
AcDbArc
 50
260.5371419897
 51
261.5260699511
  0
ARC
  5
2E0
100
AcDbEntity
  8
FASEN
100
AcDbCircle
 62
7
  6
CONTINUOUS
 10
128.6125281866
 20
194.1878540061
 40
33.279000046
100
AcDbArc
 50
278.4788021284
 51
278.9330655274
  0
ARC
  5
2E1
100
AcDbEntity
  8
FASEN
100
AcDbCircle
 62
7
  6
CONTINUOUS
 10
128.8621451147
 20
192.4632904701
 40
31.5364816333
100
AcDbArc
 50
270.0715324539
 51
278.4922227823
  0
ARC
  5
2E2
100
AcDbEntity
  8
FASEN
100
AcDbCircle
 62
7
  6
CONTINUOUS
 10
128.9143684928
 20
192.1085324764
 40
31.1817017098
100
AcDbArc
 50
261.4632654014
 51
269.9763868614
  0
ARC
  5
2E3
100
AcDbEntity
  8
0
100
AcDbCircle
 62
7
  6
CONTINUOUS
 10
261.1356904454
 20
80.8942095668
 40
159.2595221573
100
AcDbArc
 50
156.0446773748
 51
156.4374589831
  0
ARC
  5
2E4
100
AcDbEntity
  8
BEZUGSACHSEN
100
AcDbCircle
 62
7
  6
CONTINUOUS
 10
171.9027861422
 20
103.9949823436
 40
12.9377912329
100
AcDbArc
 50
88.5557403493
 51
91.4426519543
  0
ARC
  5
2E5
100
AcDbEntity
  8
BEZUGSACHSEN
100
AcDbCircle
 62
7
  6
CONTINUOUS
 10
171.9002508897
 20
155.7418249169
 40
12.9377836178
100
AcDbArc
 50
268.5563618542
 51
271.4419762486
  0
ARC
  5
2E6
100
AcDbEntity
  8
RUNDUNGEN
100
AcDbCircle
 62
7
  6
CONTINUOUS
 10
150.9015176715
 20
155.3434074378
 40
12.0
100
AcDbArc
 50
180.0000000003
 51
270.0
  0
ARC
  5
2E7
100
AcDbEntity
  8
RUNDUNGEN
100
AcDbCircle
 62
7
  6
CONTINUOUS
 10
150.9015176715
 20
104.3934074378
 40
12.0
100
AcDbArc
 50
90.0
 51
179.9999999992
  0
ARC
  5
2E8
100
AcDbEntity
  8
0
100
AcDbCircle
 62
2
  6
CONTINUOUS
 10
171.9024844504
 20
129.8753495168
 40
3.0069422345
100
AcDbArc
 50
255.094802448
 51
269.9815785115
  0
ARC
  5
2E9
100
AcDbEntity
  8
0
100
AcDbCircle
 62
2
  6
CONTINUOUS
 10
171.9011473248
 20
129.8688752151
 40
2.9994689816
100
AcDbArc
 50
270.0
 51
194.9914476708
  0
CIRCLE
  5
2EA
100
AcDbEntity
  8
BEZUGSACHSEN
100
AcDbCircle
 62
7
  6
CONTINUOUS
 10
171.9015176715
 20
129.8684074378
 40
2.5
  0
ARC
  5
2EB
100
AcDbEntity
  8
RUNDUNGEN
100
AcDbCircle
 62
7
  6
CONTINUOUS
 10
215.9015176715
 20
139.4190169461
 40
1.0
100
AcDbArc
 50
0.0
 51
85.4999999954
  0
ARC
  5
2EC
100
AcDbEntity
  8
RUNDUNGEN
100
AcDbCircle
 62
7
  6
CONTINUOUS
 10
215.9015176715
 20
120.3177979294
 40
1.0
100
AcDbArc
 50
274.5000000036
 51
360.0
  0
ARC
  5
2ED
100
AcDbEntity
  8
RUNDUNGEN
100
AcDbCircle
 62
7
  6
CONTINUOUS
 10
175.4175430753
 20
143.8434074378
 40
0.8
100
AcDbArc
 50
270.0
 51
300.0000000075
  0
ARC
  5
2EE
100
AcDbEntity
  8
RUNDUNGEN
100
AcDbCircle
 62
7
  6
CONTINUOUS
 10
175.4175430753
 20
115.8934074378
 40
0.8
100
AcDbArc
 50
59.9999999614
 51
90.0
  0
ARC
  5
2EF
100
AcDbEntity
  8
RUNDUNGEN
100
AcDbCircle
 62
7
  6
CONTINUOUS
 10
168.3854922677
 20
143.8434074378
 40
0.8
100
AcDbArc
 50
239.9999999923
 51
270.0
  0
ARC
  5
2F0
100
AcDbEntity
  8
RUNDUNGEN
100
AcDbCircle
 62
7
  6
CONTINUOUS
 10
168.3854922677
 20
115.8934074378
 40
0.8
100
AcDbArc
 50
90.0
 51
120.0000000375
  0
SPLINE
  5
2F1
100
AcDbEntity
  8
0
100
AcDbSpline
 62
2
  6
CONTINUOUS
 70
0
 71
3
 72
13
 73
9
 74
0
 42
0.0000001
 43
0.0000001
 44
0.0000000001
 40
0.0
 40
0.0
 40
0.0
 40
0.0
 40
0.1666666667
 40
0.3333333333
 40
0.5
 40
0.6666666667
 40
0.8333333333
 40
1.0
 40
1.0
 40
1.0
 40
1.0
 10
174.9015176715
 20
116.6934074378
 30
0.0
 10
174.9015176715
 20
116.6934074378
 30
0.0
 10
174.8331136674
 20
116.7092863023
 30
0.0
 10
174.5213794266
 20
116.7765998685
 30
0.0
 10
174.0426009435
 20
116.8659671105
 30
0.0
 10
173.4085964588
 20
116.9573431959
 30
0.0
 10
172.679564119
 20
117.0234324723
 30
0.0
 10
172.1603791343
 20
117.0395093947
 30
0.0
 10
171.9015176715
 20
117.0395093947
 30
0.0
  0
SPLINE
  5
2F2
100
AcDbEntity
  8
0
100
AcDbSpline
 62
2
  6
CONTINUOUS
 70
0
 71
3
 72
13
 73
9
 74
0
 42
0.0000001
 43
0.0000001
 44
0.0000000001
 40
0.0
 40
0.0
 40
0.0
 40
0.0
 40
0.1666666667
 40
0.3333333333
 40
0.5
 40
0.6666666667
 40
0.8333333333
 40
1.0
 40
1.0
 40
1.0
 40
1.0
 10
171.9015176715
 20
117.0395093947
 30
0.0
 10
171.6427152815
 20
117.0395093947
 30
0.0
 10
171.1236456983
 20
117.0234381695
 30
0.0
 10
170.3948337309
 20
116.9573887788
 30
0.0
 10
169.7607643795
 20
116.8660196612
 30
0.0
 10
169.2822376508
 20
116.7767176496
 30
0.0
 10
168.9698997
 20
116.7092844182
 30
0.0
 10
168.9015176715
 20
116.6934074378
 30
0.0
 10
168.9015176715
 20
116.6934074378
 30
0.0
  0
SPLINE
  5
2F3
100
AcDbEntity
  8
0
100
AcDbSpline
 62
2
  6
CONTINUOUS
 70
0
 71
3
 72
13
 73
9
 74
0
 42
0.0000001
 43
0.0000001
 44
0.0000000001
 40
0.0
 40
0.0
 40
0.0
 40
0.0
 40
0.1666666667
 40
0.3333333333
 40
0.5
 40
0.6666666667
 40
0.8333333333
 40
1.0
 40
1.0
 40
1.0
 40
1.0
 10
171.9015176715
 20
142.6973054808
 30
0.0
 10
172.1606418095
 20
142.6973054808
 30
0.0
 10
172.6804245143
 20
142.7133962061
 30
0.0
 10
173.4114808478
 20
142.7798003456
 30
0.0
 10
174.0445813103
 20
142.8711807826
 30
0.0
 10
174.5239706252
 20
142.9607348541
 30
0.0
 10
174.8339669622
 20
143.0277311026
 30
0.0
 10
174.9015176715
 20
143.0434074378
 30
0.0
 10
174.9015176715
 20
143.0434074378
 30
0.0
  0
SPLINE
  5
2F4
100
AcDbEntity
  8
0
100
AcDbSpline
 62
2
  6
CONTINUOUS
 70
0
 71
3
 72
13
 73
9
 74
0
 42
0.0000001
 43
0.0000001
 44
0.0000000001
 40
0.0
 40
0.0
 40
0.0
 40
0.0
 40
0.1666666667
 40
0.3333333333
 40
0.5
 40
0.6666666667
 40
0.8333333333
 40
1.0
 40
1.0
 40
1.0
 40
1.0
 10
168.9015176715
 20
143.0434074378
 30
0.0
 10
168.9015176715
 20
143.0434074378
 30
0.0
 10
168.9691023342
 20
143.0277265245
 30
0.0
 10
169.2785086084
 20
142.9608472189
 30
0.0
 10
169.758192448
 20
142.8712219509
 30
0.0
 10
170.3912154237
 20
142.7798395066
 30
0.0
 10
171.1224995219
 20
142.7133983859
 30
0.0
 10
171.6423592335
 20
142.6973054808
 30
0.0
 10
171.9015176715
 20
142.6973054808
 30
0.0
  0
LINE
  5
2F5
100
AcDbEntity
  8
FASEN
100
AcDbLine
 62
7
  6
CONTINUOUS
 10
123.7182577453
 20
161.3618411709
 11
123.6790766903
 21
161.3683718689
  0
LINE
  5
2F6
100
AcDbEntity
  8
FASEN
100
AcDbLine
 62
7
  6
CONTINUOUS
 10
134.084778189
 20
161.361841282
 11
134.1239585588
 21
161.3683718659
  0
LINE
  5
2F7
100
AcDbEntity
  8
ACHSEN
100
AcDbLine
 62
7
  6
CONTINUOUS
 10
85.2515176715
 20
149.4724587364
 11
80.4015176715
 21
149.3653970513
  0
LINE
  5
2F8
100
AcDbEntity
  8
ACHSEN
100
AcDbLine
 62
7
  6
CONTINUOUS
 10
87.1651370195
 20
149.7949595136
 11
87.1800879575
 21
149.797065243
  0
SPLINE
  5
2F9
100
AcDbEntity
  8
BEZUGSACHSEN
100
AcDbSpline
 62
7
  6
CONTINUOUS
 70
0
 71
3
 72
9
 73
5
 74
0
 42
0.0000001
 43
0.0000001
 44
0.0000000001
 40
0.0
 40
0.0
 40
0.0
 40
0.0
 40
0.2877248158
 40
1.0
 40
1.0
 40
1.0
 40
1.0
 10
169.4015176715
 20
116.6934074378
 30
0.0
 10
169.6077234057
 20
116.7326273048
 30
0.0
 10
170.3280027417
 20
116.8529226397
 30
0.0
 10
171.057335373
 20
116.9156341803
 30
0.0
 10
171.5770595732
 20
116.9286726209
 30
0.0
  0
SPLINE
  5
2FA
100
AcDbEntity
  8
BEZUGSACHSEN
100
AcDbSpline
 62
7
  6
CONTINUOUS
 70
0
 71
3
 72
9
 73
5
 74
0
 42
0.0000001
 43
0.0000001
 44
0.0000000001
 40
0.0
 40
0.0
 40
0.0
 40
0.0
 40
0.2877287328
 40
1.0
 40
1.0
 40
1.0
 40
1.0
 10
174.4015176715
 20
143.0434074378
 30
0.0
 10
174.1952949382
 20
143.0041843242
 30
0.0
 10
173.4749656856
 20
142.8838820131
 30
0.0
 10
172.7455820452
 20
142.8211716167
 30
0.0
 10
172.2258247363
 20
142.8081384119
 30
0.0
  0
SPLINE
  5
2FB
100
AcDbEntity
  8
BEZUGSACHSEN
100
AcDbSpline
 62
7
  6
CONTINUOUS
 70
0
 71
3
 72
9
 73
5
 74
0
 42
0.0000001
 43
0.0000001
 44
0.0000000001
 40
0.0
 40
0.0
 40
0.0
 40
0.0
 40
0.7122681279
 40
1.0
 40
1.0
 40
1.0
 40
1.0
 10
171.5768408398
 20
142.8081478747
 30
0.0
 10
171.0571738656
 20
142.8211936361
 30
0.0
 10
170.3279150903
 20
142.8839058243
 30
0.0
 10
169.6077079019
 20
143.004190459
 30
0.0
 10
169.4015176715
 20
143.0434074378
 30
0.0
  0
SPLINE
  5
2FC
100
AcDbEntity
  8
BEZUGSACHSEN
100
AcDbSpline
 62
7
  6
CONTINUOUS
 70
0
 71
3
 72
9
 73
5
 74
0
 42
0.0000001
 43
0.0000001
 44
0.0000000001
 40
0.0
 40
0.0
 40
0.0
 40
0.0
 40
0.7122720411
 40
1.0
 40
1.0
 40
1.0
 40
1.0
 10
172.2263334401
 20
116.9286634626
 30
0.0
 10
172.7459701828
 20
116.9156128799
 30
0.0
 10
173.4751820334
 20
116.8528996118
 30
0.0
 10
174.1953433001
 20
116.7326213838
 30
0.0
 10
174.4015176715
 20
116.6934074378
 30
0.0
  0
SPLINE
  5
2FD
100
AcDbEntity
  8
ACHSEN
100
AcDbSpline
 62
7
  6
CONTINUOUS
 70
0
 71
3
 72
10
 73
6
 74
0
 42
0.0000001
 43
0.0000001
 44
0.0000000001
 40
0.0
 40
0.0
 40
0.0
 40
0.0
 40
0.0929965444
 40
0.3287693884
 40
1.0
 40
1.0
 40
1.0
 40
1.0
 10
87.1800879571
 20
149.797065243
 30
0.0
 10
87.1199863822
 20
149.7890817456
 30
0.0
 10
86.9079339518
 20
149.7577650782
 30
0.0
 10
86.2632364395
 20
149.6608175764
 30
0.0
 10
85.6809351923
 20
149.5567472831
 30
0.0
 10
85.2515176715
 20
149.4724587364
 30
0.0
  0
SPLINE
  5
2FE
100
AcDbEntity
  8
ACHSEN
100
AcDbSpline
 62
7
  6
CONTINUOUS
 70
0
 71
3
 72
11
 73
7
 74
0
 42
0.0000001
 43
0.0000001
 44
0.0000000001
 40
0.0
 40
0.0
 40
0.0
 40
0.0
 40
0.1537099379
 40
0.500508937
 40
0.8472910559
 40
1.0
 40
1.0
 40
1.0
 40
1.0
 10
106.0808790047
 20
150.2719257732
 30
0.0
 10
105.6172937356
 20
150.2006488184
 30
0.0
 10
104.1030614215
 20
149.996591046
 30
0.0
 10
101.520286994
 20
149.8110820141
 30
0.0
 10
98.934240964
 20
149.8640292329
 30
0.0
 10
97.4149517813
 20
149.9937957256
 30
0.0
 10
96.9515176715
 20
150.04256444
 30
0.0
  0
SPLINE
  5
2FF
100
AcDbEntity
  8
FASEN
100
AcDbSpline
 62
7
  6
CONTINUOUS
 70
0
 71
3
 72
14
 73
10
 74
0
 42
0.0000001
 43
0.0000001
 44
0.0000000001
 40
0.0
 40
0.0
 40
0.0
 40
0.0
 40
0.0157913008
 40
0.0631428111
 40
0.1420511197
 40
0.2523669563
 40
0.3937144672
 40
0.5656986818
 40
1.0
 40
1.0
 40
1.0
 40
1.0
 10
134.1239585581
 20
161.3683718662
 30
0.0
 10
134.1221427116
 20
161.3686269843
 30
0.0
 10
134.1149271344
 20
161.3660699123
 30
0.0
 10
134.0986399441
 20
161.3646665868
 30
0.0
 10
134.0715520512
 20
161.3594052954
 30
0.0
 10
134.0336812308
 20
161.3534418722
 30
0.0
 10
133.9851422207
 20
161.3453248145
 30
0.0
 10
133.8994535705
 20
161.3314425826
 30
0.0
 10
133.8299280587
 20
161.3203426454
 30
0.0
 10
133.7801084337
 20
161.3125143355
 30
0.0
  0
SPLINE
  5
300
100
AcDbEntity
  8
0
100
AcDbSpline
 62
7
  6
CONTINUOUS
 70
0
 71
3
 72
13
 73
9
 74
0
 42
0.0000001
 43
0.0000001
 44
0.0000000001
 40
0.0
 40
0.0
 40
0.0
 40
0.0
 40
0.1753307868
 40
0.3422637982
 40
0.4768046258
 40
0.5947351366
 40
0.8062611466
 40
1.0
 40
1.0
 40
1.0
 40
1.0
 10
116.5065407826
 20
108.3409786976
 30
0.0
 10
116.4426280377
 20
108.3679188593
 30
0.0
 10
116.3048509944
 20
108.3966568453
 30
0.0
 10
116.1172039962
 20
108.3478780274
 30
0.0
 10
115.9756193125
 20
108.2590361244
 30
0.0
 10
115.8391540897
 20
108.1354335125
 30
0.0
 10
115.7107354032
 20
107.9715569064
 30
0.0
 10
115.6296954062
 20
107.8328859141
 30
0.0
 10
115.5944108903
 20
107.7648507868
 30
0.0
  0
SPLINE
  5
301
100
AcDbEntity
  8
0
100
AcDbSpline
 62
7
  6
CONTINUOUS
 70
0
 71
3
 72
13
 73
9
 74
0
 42
0.0000001
 43
0.0000001
 44
0.0000000001
 40
0.0
 40
0.0
 40
0.0
 40
0.0
 40
0.286526882
 40
0.4543474408
 40
0.5599589325
 40
0.648267425
 40
0.8182504149
 40
1.0
 40
1.0
 40
1.0
 40
1.0
 10
116.5065407826
 20
108.3409786976
 30
0.0
 10
116.5319270666
 20
108.3302780057
 30
0.0
 10
116.5746522759
 20
108.3174790832
 30
0.0
 10
116.6298421692
 20
108.3216829496
 30
0.0
 10
116.6610272299
 20
108.3389690254
 30
0.0
 10
116.6840895346
 20
108.365980666
 30
0.0
 10
116.6983283262
 20
108.406959253
 30
0.0
 10
116.7011080002
 20
108.4407761993
 30
0.0
 10
116.7014314648
 20
108.4582483126
 30
0.0
  0
SPLINE
  5
302
100
AcDbEntity
  8
0
100
AcDbSpline
 62
7
  6
CONTINUOUS
 70
0
 71
3
 72
17
 73
13
 74
0
 42
0.0000001
 43
0.0000001
 44
0.0000000001
 40
0.0
 40
0.0
 40
0.0
 40
0.0
 40
0.125135549
 40
0.2502986125
 40
0.3754807531
 40
0.5006727147
 40
0.6258456077
 40
0.6884746641
 40
0.7511065344
 40
0.8746656069
 40
0.9373062378
 40
1.0
 40
1.0
 40
1.0
 40
1.0
 10
115.5944108903
 20
136.2829471985
 30
0.0
 10
115.611479234
 20
136.2116208899
 30
0.0
 10
115.6477457958
 20
136.0694472084
 30
0.0
 10
115.7097922694
 20
135.8582536984
 30
0.0
 10
115.7813734286
 20
135.6500160086
 30
0.0
 10
115.8657134835
 20
135.4465134005
 30
0.0
 10
115.9508828371
 20
135.2836305057
 30
0.0
 10
116.0345372435
 20
135.162318958
 30
0.0
 10
116.1293723639
 20
135.0529918055
 30
0.0
 10
116.263980746
 20
134.9669156668
 30
0.0
 10
116.4145077777
 20
134.9885085552
 30
0.0
 10
116.4778155969
 20
135.0284455096
 30
0.0
 10
116.5065407826
 20
135.0513578909
 30
0.0
  0
SPLINE
  5
303
100
AcDbEntity
  8
0
100
AcDbSpline
 62
7
  6
CONTINUOUS
 70
0
 71
3
 72
13
 73
9
 74
0
 42
0.0000001
 43
0.0000001
 44
0.0000000001
 40
0.0
 40
0.0
 40
0.0
 40
0.0
 40
0.1670510693
 40
0.3289369806
 40
0.4609641718
 40
0.578209763
 40
0.7939442568
 40
1.0
 40
1.0
 40
1.0
 40
1.0
 10
116.5065407826
 20
146.2128857247
 30
0.0
 10
116.4421073319
 20
146.2371208297
 30
0.0
 10
116.3029063389
 20
146.2590551722
 30
0.0
 10
116.1162983506
 20
146.2025789999
 30
0.0
 10
115.9748373125
 20
146.1070155453
 30
0.0
 10
115.8373087151
 20
145.9726480763
 30
0.0
 10
115.7078890106
 20
145.7902758177
 30
0.0
 10
115.628889044
 20
145.6350235765
 30
0.0
 10
115.5944108903
 20
145.5574243279
 30
0.0
  0
SPLINE
  5
304
100
AcDbEntity
  8
0
100
AcDbSpline
 62
7
  6
CONTINUOUS
 70
0
 71
3
 72
16
 73
12
 74
0
 42
0.0000001
 43
0.0000001
 44
0.0000000001
 40
0.0
 40
0.0
 40
0.0
 40
0.0
 40
0.0735401093
 40
0.1545841369
 40
0.2292313659
 40
0.2978973002
 40
0.4259913051
 40
0.5473045002
 40
0.6644420892
 40
0.7785599955
 40
1.0
 40
1.0
 40
1.0
 40
1.0
 10
116.5065407826
 20
146.2128857247
 30
0.0
 10
116.5189926014
 20
146.2082022702
 30
0.0
 10
116.5481428421
 20
146.2041217613
 30
0.0
 10
116.5876123957
 20
146.2223637714
 30
0.0
 10
116.6151738618
 20
146.2527671229
 30
0.0
 10
116.6410697746
 20
146.2946445553
 30
0.0
 10
116.6621495604
 20
146.3485764909
 30
0.0
 10
116.678678402
 20
146.4128473818
 30
0.0
 10
116.6894943489
 20
146.4757658947
 30
0.0
 10
116.6985825157
 20
146.5571810244
 30
0.0
 10
116.7010883827
 20
146.6179178789
 30
0.0
 10
116.7014314648
 20
146.6579751252
 30
0.0
  0
SPLINE
  5
305
100
AcDbEntity
  8
0
100
AcDbSpline
 62
7
  6
CONTINUOUS
 70
0
 71
3
 72
17
 73
13
 74
0
 42
0.0000001
 43
0.0000001
 44
0.0000000001
 40
0.0
 40
0.0
 40
0.0
 40
0.0
 40
0.2841775711
 40
0.4146661432
 40
0.5373502072
 40
0.652341305
 40
0.7602377654
 40
0.8121867936
 40
0.8638391814
 40
0.9180398508
 40
0.9497831112
 40
1.0
 40
1.0
 40
1.0
 40
1.0
 10
114.7015807606
 20
108.1860055585
 30
0.0
 10
114.7015807606
 20
108.0664321212
 30
0.0
 10
114.7014379473
 20
107.8919494615
 30
0.0
 10
114.7038179425
 20
107.6658593775
 30
0.0
 10
114.7084375103
 20
107.5109898752
 30
0.0
 10
114.7183650875
 20
107.3658907542
 30
0.0
 10
114.7344794029
 20
107.2511292805
 30
0.0
 10
114.7564478048
 20
107.1647521871
 30
0.0
 10
114.7797519319
 20
107.1024525682
 30
0.0
 10
114.8098866314
 20
107.0521075465
 30
0.0
 10
114.8509761795
 20
107.0118602811
 30
0.0
 10
114.8854168779
 20
106.9980197668
 30
0.0
 10
114.9065407826
 20
106.9975220462
 30
0.0
  0
SPLINE
  5
306
100
AcDbEntity
  8
0
100
AcDbSpline
 62
7
  6
CONTINUOUS
 70
0
 71
3
 72
9
 73
5
 74
0
 42
0.0000001
 43
0.0000001
 44
0.0000000001
 40
0.0
 40
0.0
 40
0.0
 40
0.0
 40
0.2573720101
 40
1.0
 40
1.0
 40
1.0
 40
1.0
 10
115.5944108903
 20
107.7648507868
 30
0.0
 10
115.5592715021
 20
107.6970954927
 30
0.0
 10
115.4202833666
 20
107.4351238417
 30
0.0
 10
115.271299876
 20
107.1784146916
 30
0.0
 10
115.1545464223
 20
106.9916785624
 30
0.0
  0
SPLINE
  5
307
100
AcDbEntity
  8
0
100
AcDbSpline
 62
7
  6
CONTINUOUS
 70
0
 71
3
 72
8
 73
4
 74
0
 42
0.0000001
 43
0.0000001
 44
0.0000000001
 40
0.0
 40
0.0
 40
0.0
 40
0.0
 40
1.0
 40
1.0
 40
1.0
 40
1.0
 10
116.7013957181
 20
134.4936300977
 30
0.0
 10
116.701064784
 20
134.5411588054
 30
0.0
 10
116.6998822688
 20
134.5886992143
 30
0.0
 10
116.697378297
 20
134.636163071
 30
0.0
  0
SPLINE
  5
308
100
AcDbEntity
  8
0
100
AcDbSpline
 62
7
  6
CONTINUOUS
 70
0
 71
3
 72
15
 73
11
 74
0
 42
0.0000001
 43
0.0000001
 44
0.0000000001
 40
0.0
 40
0.0
 40
0.0
 40
0.0
 40
0.2532162989
 40
0.3790219793
 40
0.5040739368
 40
0.6282014989
 40
0.7508575768
 40
0.8716570132
 40
0.9343432508
 40
1.0
 40
1.0
 40
1.0
 40
1.0
 10
116.697378297
 20
134.636163071
 30
0.0
 10
116.6950148787
 20
134.6809626764
 30
0.0
 10
116.6898574339
 20
134.7479686665
 30
0.0
 10
116.6776851103
 20
134.8364929272
 30
0.0
 10
116.6651073125
 20
134.9017006703
 30
0.0
 10
116.6471805011
 20
134.9654917661
 30
0.0
 10
116.6220917893
 20
135.0247669653
 30
0.0
 10
116.5828125002
 20
135.0696481784
 30
0.0
 10
116.5355521624
 20
135.0713422433
 30
0.0
 10
116.5156345349
 20
135.0586114391
 30
0.0
 10
116.5065407826
 20
135.0513578909
 30
0.0
  0
SPLINE
  5
309
100
AcDbEntity
  8
0
100
AcDbSpline
 62
7
  6
CONTINUOUS
 70
0
 71
3
 72
12
 73
8
 74
0
 42
0.0000001
 43
0.0000001
 44
0.0000000001
 40
0.0
 40
0.0
 40
0.0
 40
0.0
 40
0.128679218
 40
0.2561331636
 40
0.5063352459
 40
0.7539715031
 40
1.0
 40
1.0
 40
1.0
 40
1.0
 10
130.3628425369
 20
120.5191861232
 30
0.0
 10
130.3937186625
 20
120.5191861232
 30
0.0
 10
130.455633289
 20
120.5068628968
 30
0.0
 10
130.5618542161
 20
120.4449481057
 30
0.0
 10
130.6612254895
 20
120.3281865406
 30
0.0
 10
130.74260178
 20
120.1686917319
 30
0.0
 10
130.78027852
 20
120.0559363702
 30
0.0
 10
130.7958552388
 20
119.9989948188
 30
0.0
  0
SPLINE
  5
30A
100
AcDbEntity
  8
0
100
AcDbSpline
 62
7
  6
CONTINUOUS
 70
0
 71
3
 72
9
 73
5
 74
0
 42
0.0000001
 43
0.0000001
 44
0.0000000001
 40
0.0
 40
0.0
 40
0.0
 40
0.0
 40
0.1680195226
 40
1.0
 40
1.0
 40
1.0
 40
1.0
 10
130.7958552388
 20
99.9544525913
 30
0.0
 10
130.7790069658
 20
99.9341324754
 30
0.0
 10
130.6635536832
 20
99.8256514991
 30
0.0
 10
130.4935494482
 20
99.7878146774
 30
0.0
 10
130.3628425369
 20
99.7878146774
 30
0.0
  0
SPLINE
  5
30B
100
AcDbEntity
  8
0
100
AcDbSpline
 62
7
  6
CONTINUOUS
 70
0
 71
3
 72
12
 73
8
 74
0
 42
0.0000001
 43
0.0000001
 44
0.0000000001
 40
0.0
 40
0.0
 40
0.0
 40
0.0
 40
0.2460454262
 40
0.4936983158
 40
0.7439199328
 40
0.8713555617
 40
1.0
 40
1.0
 40
1.0
 40
1.0
 10
127.0071801042
 20
119.9989948188
 30
0.0
 10
127.0227579168
 20
120.0559403686
 30
0.0
 10
127.0604399364
 20
120.168700874
 30
0.0
 10
127.1418156844
 20
120.328217542
 30
0.0
 10
127.2412202962
 20
120.4449450748
 30
0.0
 10
127.3474161126
 20
120.5068929132
 30
0.0
 10
127.4093249823
 20
120.5191861232
 30
0.0
 10
127.4401928061
 20
120.5191861232
 30
0.0
  0
SPLINE
  5
30C
100
AcDbEntity
  8
0
100
AcDbSpline
 62
7
  6
CONTINUOUS
 70
0
 71
3
 72
9
 73
5
 74
0
 42
0.0000001
 43
0.0000001
 44
0.0000000001
 40
0.0
 40
0.0
 40
0.0
 40
0.0
 40
0.3641598889
 40
1.0
 40
1.0
 40
1.0
 40
1.0
 10
127.4401928061
 20
99.7878146774
 30
0.0
 10
127.3828163843
 20
99.7878146774
 30
0.0
 10
127.2266300512
 20
99.8039337714
 30
0.0
 10
127.0711240606
 20
99.8773320103
 30
0.0
 10
127.0071801042
 20
99.9544525913
 30
0.0
  0
SPLINE
  5
30D
100
AcDbEntity
  8
0
100
AcDbSpline
 62
7
  6
CONTINUOUS
 70
0
 71
3
 72
9
 73
5
 74
0
 42
0.0000001
 43
0.0000001
 44
0.0000000001
 40
0.0
 40
0.0
 40
0.0
 40
0.0
 40
0.3642526053
 40
1.0
 40
1.0
 40
1.0
 40
1.0
 10
130.3628425369
 20
159.9490001981
 30
0.0
 10
130.4202339434
 20
159.9490001981
 30
0.0
 10
130.576423402
 20
159.9328856426
 30
0.0
 10
130.7319201873
 20
159.8594721254
 30
0.0
 10
130.7958552388
 20
159.7823622842
 30
0.0
  0
SPLINE
  5
30E
100
AcDbEntity
  8
0
100
AcDbSpline
 62
7
  6
CONTINUOUS
 70
0
 71
3
 72
21
 73
17
 74
0
 42
0.0000001
 43
0.0000001
 44
0.0000000001
 40
0.0
 40
0.0
 40
0.0
 40
0.0
 40
0.0152736556
 40
0.0307400416
 40
0.0615944727
 40
0.0924597446
 40
0.1233512662
 40
0.1852330485
 40
0.2472659363
 40
0.3094463907
 40
0.3717660941
 40
0.4967787028
 40
0.6222117836
 40
0.747963109
 40
0.8739278454
 40
1.0
 40
1.0
 40
1.0
 40
1.0
 10
114.9065407826
 20
138.0543506245
 30
0.0
 10
114.8912784674
 20
138.0542882052
 30
0.0
 10
114.8655903025
 20
138.0282910505
 30
0.0
 10
114.8398492099
 20
137.9745385146
 30
0.0
 10
114.8162016801
 20
137.8997666216
 30
0.0
 10
114.7964033067
 20
137.8096717973
 30
0.0
 10
114.7754256317
 20
137.6877744331
 30
0.0
 10
114.7565222316
 20
137.5342256296
 30
0.0
 10
114.7402945915
 20
137.3489416774
 30
0.0
 10
114.7285253969
 20
137.1629076101
 30
0.0
 10
114.717070757
 20
136.9138317578
 30
0.0
 10
114.7086569929
 20
136.6013862387
 30
0.0
 10
114.7039045447
 20
136.2254907587
 30
0.0
 10
114.7020901221
 20
135.8486207025
 30
0.0
 10
114.7016167839
 20
135.4711100695
 30
0.0
 10
114.7015807606
 20
135.2192581706
 30
0.0
 10
114.7015807606
 20
135.0932785684
 30
0.0
  0
LINE
  5
30F
100
AcDbEntity
  8
0
100
AcDbLine
 62
7
  6
CONTINUOUS
 10
114.9119193033
 20
106.4430226319
 11
115.1545464223
 21
106.9916785624
  0
SPLINE
  5
310
100
AcDbEntity
  8
0
100
AcDbSpline
 62
7
  6
CONTINUOUS
 70
0
 71
3
 72
17
 73
13
 74
0
 42
0.0000001
 43
0.0000001
 44
0.0000000001
 40
0.0
 40
0.0
 40
0.0
 40
0.0
 40
0.2182009024
 40
0.3349220057
 40
0.456586696
 40
0.5831112211
 40
0.7144823146
 40
0.7820564401
 40
0.8510300181
 40
0.92186225
 40
0.958727904
 40
1.0
 40
1.0
 40
1.0
 40
1.0
 10
114.7015807606
 20
146.3259381864
 30
0.0
 10
114.7015807606
 20
146.1936591722
 30
0.0
 10
114.7015630732
 20
145.9906195108
 30
0.0
 10
114.7039701821
 20
145.7138307405
 30
0.0
 10
114.7087953756
 20
145.4926583378
 30
0.0
 10
114.7190811137
 20
145.2627433569
 30
0.0
 10
114.735206137
 20
145.0660746618
 30
0.0
 10
114.7567802376
 20
144.9048737902
 30
0.0
 10
114.7793847082
 20
144.7817034981
 30
0.0
 10
114.8089805044
 20
144.6765527674
 30
0.0
 10
114.8434121792
 20
144.5970829132
 30
0.0
 10
114.8815253157
 20
144.5528625366
 30
0.0
 10
114.9065407826
 20
144.5533496425
 30
0.0
  0
SPLINE
  5
311
100
AcDbEntity
  8
0
100
AcDbSpline
 62
7
  6
CONTINUOUS
 70
0
 71
3
 72
11
 73
7
 74
0
 42
0.0000001
 43
0.0000001
 44
0.0000000001
 40
0.0
 40
0.0
 40
0.0
 40
0.0
 40
0.2163338898
 40
0.4581730139
 40
0.72121324
 40
1.0
 40
1.0
 40
1.0
 40
1.0
 10
115.1545464223
 20
144.5581788704
 30
0.0
 10
115.0688450344
 20
144.0954573148
 30
0.0
 10
114.9465765484
 20
143.1042459174
 30
0.0
 10
114.8919945073
 20
141.5348992065
 30
0.0
 10
114.9566220196
 20
139.8301127751
 30
0.0
 10
115.0759306374
 20
138.6566924582
 30
0.0
 10
115.1545464223
 20
138.0553648804
 30
0.0
  0
SPLINE
  5
312
100
AcDbEntity
  8
0
100
AcDbSpline
 62
7
  6
CONTINUOUS
 70
0
 71
3
 72
12
 73
8
 74
0
 42
0.0000001
 43
0.0000001
 44
0.0000000001
 40
0.0
 40
0.0
 40
0.0
 40
0.0
 40
0.2460280129
 40
0.4936634005
 40
0.7438647573
 40
0.8713194616
 40
1.0
 40
1.0
 40
1.0
 40
1.0
 10
130.7958552388
 20
139.7378200567
 30
0.0
 10
130.7802785518
 20
139.6808786214
 30
0.0
 10
130.7426020566
 20
139.5681234467
 30
0.0
 10
130.6612256027
 20
139.408629606
 30
0.0
 10
130.5618558235
 20
139.2918665467
 30
0.0
 10
130.4556337994
 20
139.2299532385
 30
0.0
 10
130.3937189771
 20
139.2176287523
 30
0.0
 10
130.3628425369
 20
139.2176287523
 30
0.0
  0
SPLINE
  5
313
100
AcDbEntity
  8
0
100
AcDbSpline
 62
7
  6
CONTINUOUS
 70
0
 71
3
 72
9
 73
5
 74
0
 42
0.0000001
 43
0.0000001
 44
0.0000000001
 40
0.0
 40
0.0
 40
0.0
 40
0.0
 40
0.1680322176
 40
1.0
 40
1.0
 40
1.0
 40
1.0
 10
127.0071801042
 20
159.7823622842
 30
0.0
 10
127.0240296632
 20
159.802683951
 30
0.0
 10
127.13948424
 20
159.9111639831
 30
0.0
 10
127.3094877891
 20
159.9490001981
 30
0.0
 10
127.4401928061
 20
159.9490001981
 30
0.0
  0
SPLINE
  5
314
100
AcDbEntity
  8
0
100
AcDbSpline
 62
7
  6
CONTINUOUS
 70
0
 71
3
 72
12
 73
8
 74
0
 42
0.0000001
 43
0.0000001
 44
0.0000000001
 40
0.0
 40
0.0
 40
0.0
 40
0.0
 40
0.1286448926
 40
0.256081
 40
0.5063027424
 40
0.7539549585
 40
1.0
 40
1.0
 40
1.0
 40
1.0
 10
127.4401928061
 20
139.2176287523
 30
0.0
 10
127.4093248746
 20
139.2176287523
 30
0.0
 10
127.3474158803
 20
139.2299223761
 30
0.0
 10
127.2412195831
 20
139.2918698397
 30
0.0
 10
127.141815601
 20
139.4085980417
 30
0.0
 10
127.0604397546
 20
139.5681142798
 30
0.0
 10
127.0227578918
 20
139.6808745984
 30
0.0
 10
127.0071801042
 20
139.7378200567
 30
0.0
  0
ELLIPSE
  5
315
100
AcDbEntity
  8
0
100
AcDbEllipse
 62
7
  6
CONTINUOUS
 10
114.5543634822
 20
129.8684074378
 30
0.0
 11
14.7536831607
 21
31.0932549156
 31
0.0
 40
0.3419987131
 41
-1.0912395858
 42
-0.1578061866
  0
ELLIPSE
  5
316
100
AcDbEntity
  8
0
100
AcDbEllipse
 62
7
  6
CONTINUOUS
 10
143.2486718609
 20
129.8684074378
 30
0.0
 11
-14.7536831607
 21
31.0932549156
 31
0.0
 40
0.3419987131
 41
0.1578061866
 42
1.0912395858
  0
ELLIPSE
  5
317
100
AcDbEntity
  8
0
100
AcDbEllipse
 62
7
  6
CONTINUOUS
 10
143.2486718609
 20
129.8684074378
 30
0.0
 11
14.7536831607
 21
31.0932549156
 31
0.0
 40
0.3419987131
 41
-4.2328322393
 42
-3.2993988402
  0
ELLIPSE
  5
318
100
AcDbEntity
  8
0
100
AcDbEllipse
 62
7
  6
CONTINUOUS
 10
114.5543634822
 20
129.8684074378
 30
0.0
 11
-14.7536831607
 21
31.0932549156
 31
0.0
 40
0.3419987131
 41
-2.9837864669
 42
-2.0503530678
  0
ENDSEC
  0
SECTION
  2
OBJECTS
  0
DICTIONARY
  5
C
100
AcDbDictionary
280
0
281
1
  3
ACAD_GROUP
350
D
  3
ACAD_MLINESTYLE
350
17
  3
ACAD_LAYOUT
350
1A
  3
ACAD_PLOTSETTINGS
350
19
  3
ACAD_PLOTSTYLENAME
350
E
  0
DICTIONARY
  5
D
102
{ACAD_REACTORS
330
C
102
}
100
AcDbDictionary
280
0
281
1
  0
ACDBDICTIONARYWDFLT
  5
E
102
{ACAD_REACTORS
330
C
102
}
100
AcDbDictionary
281
1
  3
Normal
350
F
100
AcDbDictionaryWithDefault
340
F
  0
DICTIONARY
  5
17
102
{ACAD_REACTORS
330
C
102
}
100
AcDbDictionary
280
0
281
1
  3
Standard
350
18
  0
DICTIONARY
  5
19
102
{ACAD_REACTORS
330
C
102
}
100
AcDbDictionary
281
1
  0
DICTIONARY
  5
1A
102
{ACAD_REACTORS
330
C
102
}
100
AcDbDictionary
281
1
  3
Model
350
319
  3
Layout1
350
31A
  0
ACDBPLACEHOLDER
  5
F
102
{ACAD_REACTORS
330
E
102
}
  0
MLINESTYLE
  5
18
102
{ACAD_REACTORS
330
17
102
}
100
AcDbMlineStyle
  2
STANDARD
 70
0
  3

 62
256
 51
90.0
 52
90.0
 71
2
 49
0.5
 62
256
  6
BYLAYER
 49
-0.5
 62
256
  6
BYLAYER
  0
LAYOUT
  5
319
102
{ACAD_REACTORS
330
1A
102
}
100
AcDbPlotSettings
  1

  2
none_device
  4
ISO_A4_(297.00_x_210.00_MM)
  6

 40
0.0
 41
0.0
 42
0.0
 43
0.0
 44
297.0
 45
210.0
 46
0.0
 47
0.0
 48
0.0
 49
0.0
140
0.0
141
0.0
142
1.0
143
1.0
 70
1024
 72
1
 73
0
 74
0
  7

 75
0
147
1.0
148
0.0
149
0.0
100
AcDbLayout
  1
Model
 70
0
 71
0
 10
0.0
 20
0.0
 11
297.0
 21
210.0
 12
0.0
 22
0.0
 32
0.0
 14
0.0
 24
0.0
 34
0.0
 15
0.0
 25
0.0
 35
0.0
146
0.0
 13
0.0
 23
0.0
 33
0.0
 16
1.0
 26
0.0
 36
0.0
 17
0.0
 27
1.0
 37
0.0
 76
0
330
217
345
0
346
0
  0
LAYOUT
  5
31A
102
{ACAD_REACTORS
330
1A
102
}
100
AcDbPlotSettings
  1

  2
none_device
  4
ISO_A4_(297.00_x_210.00_MM)
  6

 40
0.0
 41
0.0
 42
0.0
 43
0.0
 44
297.0
 45
210.0
 46
0.0
 47
0.0
 48
0.0
 49
0.0
140
0.0
141
0.0
142
1.0
143
1.0
 70
0
 72
1
 73
0
 74
0
  7

 75
0
147
1.0
148
0.0
149
0.0
100
AcDbLayout
  1
Layout1
 70
0
 71
1
 10
0.0
 20
0.0
 11
297.0
 21
210.0
 12
0.0
 22
0.0
 32
0.0
 14
0.0
 24
0.0
 34
0.0
 15
0.0
 25
0.0
 35
0.0
146
0.0
 13
0.0
 23
0.0
 33
0.0
 16
1.0
 26
0.0
 36
0.0
 17
0.0
 27
1.0
 37
0.0
 76
0
330
218
345
0
346
0
  0
ENDSEC
  0
EOF
