999
DXF file: cc6-140-32.dxf
999
Pro/ENGINEER 2010430 by Parametric Technology Corporation
  0
SECTION
  2
HEADER
  9
$ACADVER
  1
AC1021
  9
$DWGCODEPAGE
  3
ANSI_1252
  9
$EXTMAX
 10
297.0
 20
210.0
 30
0.0
  9
$EXTMIN
 10
0.0
 20
0.0
 30
0.0
  9
$LIMMIN
 10
0.0
 20
0.0
  9
$LIMMAX
 10
297.0
 20
210.0
  9
$VIEWCTR
 10
148.5
 20
105.0
  9
$VIEWSIZE
 40
210.0
  9
$CLAYER
  8
0
  9
$LTSCALE
 40
16.335
  9
$CELTYPE
  6
BYLAYER
  9
$DIMSCALE
 40
1.0
  9
$DIMASZ
 40
3.5
  9
$DIMEXO
 40
1.85625
  9
$DIMDLI
 40
11.286
  9
$DIMEXE
 40
5.346
  9
$DIMCEN
 40
2.673
  9
$DIMLFAC
 40
1.0
  9
$DIMBLK
  1
_FILLED
  9
$DIMTXT
 40
3.5
  9
$DIMTOL
 70
1
  9
$DIMLIM
 70
0
  9
$DIMTFAC
 40
1.0
  9
$DIMTP
 40
0.005
  9
$DIMTM
 40
0.005
  9
$PDMODE
 70
3
  9
$PDSIZE
 40
0.3125
  9
$HANDSEED
  5
327
  9
$TILEMODE
 70
1
  9
$MEASUREMENT
 70
1
  9
$INSUNITS
 70
4
  0
ENDSEC
  0
SECTION
  2
CLASSES
  0
CLASS
  1
ACDBDICTIONARYWDFLT
  2
AcDbDictionaryWithDefault
  3
AutoCAD 2000
 90
0
 91
1
280
0
281
0
  0
CLASS
  1
ACDBPLACEHOLDER
  2
AcDbPlaceHolder
  3
AutoCAD 2000
 90
0
 91
1
280
0
281
0
  0
CLASS
  1
LAYOUT
  2
AcDbLayout
  3
AutoCAD 2000
 90
0
 91
0
280
0
281
0
  0
ENDSEC
  0
SECTION
  2
TABLES
  0
TABLE
  2
VPORT
  5
8
100
AcDbSymbolTable
 70
2
  0
VPORT
  5
1F4
100
AcDbSymbolTableRecord
100
AcDbViewportTableRecord
  2
*ACTIVE
 70
0
 10
0.0
 20
0.0
 11
1.0
 21
1.0
 12
148.5
 22
105.0
 13
0.0
 23
0.0
 14
1.0
 24
1.0
 15
0.0
 25
0.0
 16
0.0
 26
0.0
 36
1.0
 17
0.0
 27
0.0
 37
0.0
 40
210.0
 41
1.4142857143
 42
50.0
 43
0.0
 44
0.0
 50
0.0
 51
0.0
 71
0
 72
100
 73
1
 74
1
 75
0
 76
0
 77
0
 78
0
  0
ENDTAB
  0
TABLE
  2
LTYPE
  5
5
100
AcDbSymbolTable
 70
6
  0
LTYPE
  5
14
100
AcDbSymbolTableRecord
100
AcDbLinetypeTableRecord
  2
BYBLOCK
 70
0
  3

 72
65
 73
0
 40
0.0
  0
LTYPE
  5
15
100
AcDbSymbolTableRecord
100
AcDbLinetypeTableRecord
  2
BYLAYER
 70
0
  3

 72
65
 73
0
 40
0.0
  0
LTYPE
  5
16
100
AcDbSymbolTableRecord
100
AcDbLinetypeTableRecord
  2
CONTINUOUS
 70
64
  3
Solid line
 72
65
 73
0
 40
0.0
  0
LTYPE
  5
1F5
100
AcDbSymbolTableRecord
100
AcDbLinetypeTableRecord
  2
CENTER
 70
64
  3
____ _ ____ _ ____ _ ____ _ ____ _ ____ _ ____
 72
65
 73
4
 40
0.6
 49
0.375
 74
0
 49
-0.075
 74
0
 49
0.075
 74
0
 49
-0.075
 74
0
  0
LTYPE
  5
1F6
100
AcDbSymbolTableRecord
100
AcDbLinetypeTableRecord
  2
HIDDEN
 70
64
  3
- - - - - - - - - - - - - - - - - - - -
 72
65
 73
2
 40
0.2
 49
0.1
 74
0
 49
-0.1
 74
0
  0
LTYPE
  5
1F7
100
AcDbSymbolTableRecord
100
AcDbLinetypeTableRecord
  2
PHANTOM
 70
64
  3
_____ _ _ _____ _ _ _____ _ _ _____
 72
65
 73
6
 40
0.8
 49
0.45
 74
0
 49
-0.05
 74
0
 49
0.1
 74
0
 49
-0.05
 74
0
 49
0.1
 74
0
 49
-0.05
 74
0
  0
LTYPE
  5
1F8
100
AcDbSymbolTableRecord
100
AcDbLinetypeTableRecord
  2
DOT
 70
64
  3
. . . . . . . . . . . . . . . . . . . .
 72
65
 73
2
 40
0.2
 49
0.1
 74
0
 49
-0.1
 74
0
  0
LTYPE
  5
1F9
100
AcDbSymbolTableRecord
100
AcDbLinetypeTableRecord
  2
DASHED
 70
64
  3
- - - - - - - - - - - - - - - - - - - -
 72
65
 73
2
 40
0.2
 49
0.1
 74
0
 49
-0.1
 74
0
  0
ENDTAB
  0
TABLE
  2
LAYER
  5
2
100
AcDbSymbolTable
 70
36
  0
LAYER
  5
10
100
AcDbSymbolTableRecord
100
AcDbLayerTableRecord
  2
0
 70
0
 62
7
  6
CONTINUOUS
370
-3
390
F
  0
LAYER
  5
1FA
100
AcDbSymbolTableRecord
100
AcDbLayerTableRecord
  2
DEFAULT_1
 70
0
 62
7
  6
CENTER
370
-3
390
F
  0
LAYER
  5
1FB
100
AcDbSymbolTableRecord
100
AcDbLayerTableRecord
  2
DEFAULT_2
 70
0
 62
8
  6
HIDDEN
370
-3
390
F
  0
LAYER
  5
1FC
100
AcDbSymbolTableRecord
100
AcDbLayerTableRecord
  2
DEFAULT_3
 70
0
 62
7
  6
PHANTOM
370
-3
390
F
  0
LAYER
  5
1FD
100
AcDbSymbolTableRecord
100
AcDbLayerTableRecord
  2
ACHSEN
 70
0
 62
7
  6
CONTINUOUS
370
-3
390
F
  0
LAYER
  5
1FE
100
AcDbSymbolTableRecord
100
AcDbLayerTableRecord
  2
BEZUGSACHSEN
 70
0
 62
7
  6
CONTINUOUS
370
-3
390
F
  0
LAYER
  5
1FF
100
AcDbSymbolTableRecord
100
AcDbLayerTableRecord
  2
BEZUGSEBENE_B
 70
0
 62
7
  6
CONTINUOUS
370
-3
390
F
  0
LAYER
  5
200
100
AcDbSymbolTableRecord
100
AcDbLayerTableRecord
  2
BOHRUNGEN
 70
0
 62
7
  6
CONTINUOUS
370
-3
390
F
  0
LAYER
  5
201
100
AcDbSymbolTableRecord
100
AcDbLayerTableRecord
  2
EBENEN
 70
0
 62
7
  6
CONTINUOUS
370
-3
390
F
  0
LAYER
  5
202
100
AcDbSymbolTableRecord
100
AcDbLayerTableRecord
  2
FASEN
 70
0
 62
7
  6
CONTINUOUS
370
-3
390
F
  0
LAYER
  5
203
100
AcDbSymbolTableRecord
100
AcDbLayerTableRecord
  2
FLAECHEN
 70
0
 62
7
  6
CONTINUOUS
370
-3
390
F
  0
LAYER
  5
204
100
AcDbSymbolTableRecord
100
AcDbLayerTableRecord
  2
GEWINDE
 70
0
 62
7
  6
CONTINUOUS
370
-3
390
F
  0
LAYER
  5
205
100
AcDbSymbolTableRecord
100
AcDbLayerTableRecord
  2
KOORDSYS
 70
0
 62
7
  6
CONTINUOUS
370
-3
390
F
  0
LAYER
  5
206
100
AcDbSymbolTableRecord
100
AcDbLayerTableRecord
  2
KURVEN
 70
0
 62
7
  6
CONTINUOUS
370
-3
390
F
  0
LAYER
  5
207
100
AcDbSymbolTableRecord
100
AcDbLayerTableRecord
  2
KURVE_FUER_GTOL_DETAILANSICHT
 70
0
 62
7
  6
CONTINUOUS
370
-3
390
F
  0
LAYER
  5
208
100
AcDbSymbolTableRecord
100
AcDbLayerTableRecord
  2
KURVE_GAUGE2_POLIGON_INNENEINST
 70
0
 62
7
  6
CONTINUOUS
370
-3
390
F
  0
LAYER
  5
209
100
AcDbSymbolTableRecord
100
AcDbLayerTableRecord
  2
KURVE_PHANTOM1_GAUGE_PIN_1
 70
0
 62
7
  6
CONTINUOUS
370
-3
390
F
  0
LAYER
  5
20A
100
AcDbSymbolTableRecord
100
AcDbLayerTableRecord
  2
KURVE_PHANTOM2_GAUGE_PIN1
 70
0
 62
7
  6
CONTINUOUS
370
-3
390
F
  0
LAYER
  5
20B
100
AcDbSymbolTableRecord
100
AcDbLayerTableRecord
  2
KURVE_POLIGON_BEMASUNG
 70
0
 62
7
  6
CONTINUOUS
370
-3
390
F
  0
LAYER
  5
20C
100
AcDbSymbolTableRecord
100
AcDbLayerTableRecord
  2
PUNKTE
 70
0
 62
7
  6
CONTINUOUS
370
-3
390
F
  0
LAYER
  5
20D
100
AcDbSymbolTableRecord
100
AcDbLayerTableRecord
  2
RUNDUNGEN
 70
0
 62
7
  6
CONTINUOUS
370
-3
390
F
  0
LAYER
  5
20E
100
AcDbSymbolTableRecord
100
AcDbLayerTableRecord
  2
S_ACHSEN
 70
0
 62
7
  6
CONTINUOUS
370
-3
390
F
  0
LAYER
  5
20F
100
AcDbSymbolTableRecord
100
AcDbLayerTableRecord
  2
S_EBENEN
 70
0
 62
7
  6
CONTINUOUS
370
-3
390
F
  0
LAYER
  5
210
100
AcDbSymbolTableRecord
100
AcDbLayerTableRecord
  2
S_KOORDSYS
 70
0
 62
7
  6
CONTINUOUS
370
-3
390
F
  0
LAYER
  5
211
100
AcDbSymbolTableRecord
100
AcDbLayerTableRecord
  2
TOL_BEZUEGE
 70
0
 62
7
  6
CONTINUOUS
370
-3
390
F
  0
LAYER
  5
212
100
AcDbSymbolTableRecord
100
AcDbLayerTableRecord
  2
VERBFLAECHE
 70
0
 62
7
  6
CONTINUOUS
370
-3
390
F
  0
LAYER
  5
213
100
AcDbSymbolTableRecord
100
AcDbLayerTableRecord
  2
ZEICHNUNGSBEMASSUNGEN
 70
0
 62
7
  6
CONTINUOUS
370
-3
390
F
  0
ENDTAB
  0
TABLE
  2
STYLE
  5
3
100
AcDbSymbolTable
 70
1
  0
STYLE
  5
11
100
AcDbSymbolTableRecord
100
AcDbTextStyleTableRecord
  2
STANDARD
 70
0
 40
0.0
 41
0.7
 50
0.0
 71
0
 42
0.2
  3
txt
  4

  0
STYLE
  5
214
100
AcDbSymbolTableRecord
100
AcDbTextStyleTableRecord
  2
TEXTSTYLE_1
 70
0
 40
0.0
 41
0.8
 50
0.0
 71
0
 42
0.2
  3
gdt
  4

  0
STYLE
  5
215
100
AcDbSymbolTableRecord
100
AcDbTextStyleTableRecord
  2
TEXTSTYLE_2
 70
0
 40
0.0
 41
0.7
 50
0.0
 71
0
 42
0.2
  3
gdt
  4

  0
ENDTAB
  0
TABLE
  2
VIEW
  5
6
100
AcDbSymbolTable
 70
0
  0
ENDTAB
  0
TABLE
  2
UCS
  5
7
100
AcDbSymbolTable
 70
0
  0
ENDTAB
  0
TABLE
  2
APPID
  5
9
100
AcDbSymbolTable
 70
1
  0
APPID
  5
216
100
AcDbSymbolTableRecord
100
AcDbRegAppTableRecord
  2
ACAD
 70
0
  0
ENDTAB
  0
TABLE
  2
BLOCK_RECORD
  5
1
100
AcDbSymbolTable
 70
0
  0
BLOCK_RECORD
  5
217
100
AcDbSymbolTableRecord
100
AcDbBlockTableRecord
  2
*Model_Space
  0
BLOCK_RECORD
  5
218
100
AcDbSymbolTableRecord
100
AcDbBlockTableRecord
  2
*Paper_Space
  0
BLOCK_RECORD
  5
219
100
AcDbSymbolTableRecord
100
AcDbBlockTableRecord
  2
_FILLED
  0
BLOCK_RECORD
  5
21A
100
AcDbSymbolTableRecord
100
AcDbBlockTableRecord
  2
*D0
  0
BLOCK_RECORD
  5
21B
100
AcDbSymbolTableRecord
100
AcDbBlockTableRecord
  2
*D1
  0
BLOCK_RECORD
  5
21C
100
AcDbSymbolTableRecord
100
AcDbBlockTableRecord
  2
*D2
  0
BLOCK_RECORD
  5
21D
100
AcDbSymbolTableRecord
100
AcDbBlockTableRecord
  2
*D3
  0
BLOCK_RECORD
  5
21E
100
AcDbSymbolTableRecord
100
AcDbBlockTableRecord
  2
*D4
  0
BLOCK_RECORD
  5
21F
100
AcDbSymbolTableRecord
100
AcDbBlockTableRecord
  2
*D5
  0
BLOCK_RECORD
  5
220
100
AcDbSymbolTableRecord
100
AcDbBlockTableRecord
  2
*D6
  0
ENDTAB
  0
TABLE
  2
DIMSTYLE
  5
A
100
AcDbSymbolTable
 70
1
100
AcDbDimStyleTable
 71
0
  0
DIMSTYLE
105
221
100
AcDbSymbolTableRecord
100
AcDbDimStyleTableRecord
  2
STANDARD
 70
0
  3

  4

 40
1.0
 41
3.5
 42
0.0625
 43
0.38
 44
0.18
 45
0.0
 46
0.0
 47
0.005
 48
0.005
140
3.5
141
0.09
142
0.0
143
25.4
144
1.0
145
0.0
146
1.0
147
0.09
 71
1.0
 72
0.0
 73
0
 74
0
 75
0
 76
0
 77
1
 78
8
170
0
171
2
172
0
173
0
174
0
175
0
176
0
177
0
178
5
270
2
271
3
272
3
273
2
274
2
275
0
280
0
281
0
282
0
283
1
284
8
285
0
286
0
287
3
288
0
340
11
341
219
342
219
343
219
344
219
  0
DIMSTYLE
105
222
100
AcDbSymbolTableRecord
100
AcDbDimStyleTableRecord
  2
DIMSTYLE_1
 70
0
  3

  4

 40
1.0
 41
3.5
 42
0.0625
 43
0.38
 44
0.18
 45
0.0
 46
0.0
 47
0.0
 48
0.1
140
3.5
141
0.09
142
0.0
143
25.4
144
1.0
145
0.0
146
1.0
147
0.09
 71
0.0
 72
0.0
 73
0
 74
0
 75
0
 76
0
 77
1
 78
8
170
0
171
2
172
0
173
0
174
0
175
0
176
0
177
0
178
5
270
2
271
2
272
2
273
2
274
2
275
0
280
0
281
0
282
0
283
1
284
8
285
0
286
0
287
3
288
0
340
11
341
219
342
219
343
219
344
219
  0
DIMSTYLE
105
223
100
AcDbSymbolTableRecord
100
AcDbDimStyleTableRecord
  2
DIMSTYLE_2
 70
0
  3

  4

 40
1.0
 41
3.5
 42
0.0625
 43
0.38
 44
0.18
 45
0.0
 46
0.0
 47
0.25
 48
0.25
140
3.5
141
0.09
142
0.0
143
25.4
144
1.0
145
0.0
146
1.0
147
0.09
 71
0.0
 72
0.0
 73
0
 74
0
 75
0
 76
0
 77
1
 78
8
170
0
171
2
172
0
173
0
174
0
175
0
176
0
177
0
178
5
270
2
271
2
272
2
273
2
274
2
275
0
280
0
281
0
282
0
283
1
284
8
285
0
286
0
287
3
288
0
340
11
341
219
342
219
343
219
344
219
  0
DIMSTYLE
105
224
100
AcDbSymbolTableRecord
100
AcDbDimStyleTableRecord
  2
DIMSTYLE_3
 70
0
  3

  4

 40
1.0
 41
3.5
 42
0.0625
 43
0.38
 44
0.18
 45
0.0
 46
0.0
 47
0.3
 48
0.3
140
3.5
141
0.09
142
0.0
143
25.4
144
1.0
145
0.0
146
1.0
147
0.09
 71
0.0
 72
0.0
 73
0
 74
0
 75
0
 76
0
 77
1
 78
8
170
0
171
2
172
0
173
0
174
0
175
0
176
0
177
0
178
5
270
2
271
2
272
2
273
2
274
2
275
0
280
0
281
0
282
0
283
1
284
8
285
0
286
0
287
3
288
0
340
11
341
219
342
219
343
219
344
219
  0
DIMSTYLE
105
225
100
AcDbSymbolTableRecord
100
AcDbDimStyleTableRecord
  2
DIMSTYLE_4
 70
0
  3

  4

 40
1.0
 41
3.5
 42
0.0625
 43
0.38
 44
0.18
 45
0.0
 46
0.0
 47
0.5
 48
0.5
140
3.5
141
0.09
142
0.0
143
25.4
144
1.0
145
0.0
146
1.0
147
0.09
 71
0.0
 72
0.0
 73
0
 74
0
 75
0
 76
0
 77
1
 78
8
170
0
171
2
172
0
173
0
174
0
175
0
176
0
177
0
178
5
270
2
271
2
272
2
273
2
274
2
275
0
280
0
281
0
282
0
283
1
284
8
285
0
286
0
287
3
288
0
340
11
341
219
342
219
343
219
344
219
  0
DIMSTYLE
105
226
100
AcDbSymbolTableRecord
100
AcDbDimStyleTableRecord
  2
DIMSTYLE_5
 70
0
  3

  4

 40
1.0
 41
3.5
 42
0.0625
 43
0.38
 44
0.18
 45
0.0
 46
0.0
 47
-0.042
 48
0.047
140
3.5
141
0.09
142
0.0
143
25.4
144
1.0
145
0.0
146
1.0
147
0.09
 71
0.0
 72
0.0
 73
0
 74
0
 75
0
 76
0
 77
1
 78
8
170
0
171
2
172
0
173
0
174
0
175
0
176
0
177
0
178
5
270
2
271
3
272
3
273
2
274
2
275
0
280
0
281
0
282
0
283
1
284
8
285
0
286
0
287
3
288
0
340
11
341
219
342
219
343
219
344
219
  0
ENDTAB
  0
ENDSEC
  0
SECTION
  2
BLOCKS
  0
BLOCK
  5
20
100
AcDbEntity
  8
0
100
AcDbBlockBegin
  2
*Model_Space
 70
0
 10
0.0
 20
0.0
 30
0.0
  3
*Model_Space
  1

  0
ENDBLK
  5
21
100
AcDbEntity
  8
0
100
AcDbBlockEnd
  0
BLOCK
  5
1C
100
AcDbEntity
  8
0
100
AcDbBlockBegin
  2
*Paper_Space
 70
0
 10
0.0
 20
0.0
 30
0.0
  3
*Paper_Space
  1

  0
ENDBLK
  5
1D
100
AcDbEntity
  8
0
100
AcDbBlockEnd
  0
BLOCK
  5
227
100
AcDbEntity
  8
0
100
AcDbBlockBegin
  2
_FILLED
 70
64
 10
0.0
 20
0.0
  3
_FILLED
  1

  0
SOLID
  5
228
100
AcDbEntity
  8
0
  6
BYBLOCK
 62
0
100
AcDbTrace
 10
0.0
 20
0.0
 11
-1.0
 21
0.125
 12
-1.0
 22
-0.125
 13
-1.0
 23
-0.125
  0
ENDBLK
  5
229
100
AcDbEntity
  8
0
  6
BYBLOCK
 62
0
100
AcDbBlockEnd
  0
BLOCK
  5
22A
100
AcDbEntity
  8
0
100
AcDbBlockBegin
 62
2
  6
CONTINUOUS
  2
*D0
 70
65
 10
0.0
 20
0.0
  3
*D0
  1

  0
MTEXT
  5
22B
100
AcDbEntity
  8
0
100
AcDbMText
 62
5
  6
CONTINUOUS
  7
TEXTSTYLE_2
 71
2
 72
1
 10
234.3705915879
 20
138.2146912215
 30
0.0
 11
0.0
 21
1.0
 31
0.0
 44
0.9
  1
{\Fgdt;n}\Ftxt;44
 40
3.5
 41
10.1666666667
  0
LINE
  5
22C
100
AcDbEntity
  8
0
100
AcDbLine
 62
2
  6
CONTINUOUS
 10
221.1878271475
 20
160.1896912215
 11
240.2455915879
 21
160.1896912215
  0
LINE
  5
22D
100
AcDbEntity
  8
0
100
AcDbLine
 62
2
  6
CONTINUOUS
 10
218.9826962058
 20
116.2396912215
 11
240.2455915879
 21
116.2396912215
  0
LINE
  5
22E
100
AcDbEntity
  8
0
100
AcDbLine
 62
2
  6
CONTINUOUS
 10
238.7455915879
 20
160.1896912215
 11
238.7455915879
 21
138.2146912215
  0
LINE
  5
22F
100
AcDbEntity
  8
0
100
AcDbLine
 62
2
  6
CONTINUOUS
 10
238.7455915879
 20
116.2396912215
 11
238.7455915879
 21
138.2146912215
  0
INSERT
  5
230
100
AcDbEntity
  8
0
100
AcDbBlockReference
 62
2
  6
CONTINUOUS
  2
_FILLED
 10
238.7455915879
 20
160.1896912215
 41
3.5
 42
3.5
 43
3.5
 50
90.0
  0
INSERT
  5
231
100
AcDbEntity
  8
0
100
AcDbBlockReference
 62
2
  6
CONTINUOUS
  2
_FILLED
 10
238.7455915879
 20
116.2396912215
 41
3.5
 42
3.5
 43
3.5
 50
270.0
  0
ENDBLK
  5
232
100
AcDbEntity
  8
0
  6
BYBLOCK
 62
0
100
AcDbBlockEnd
  0
BLOCK
  5
233
100
AcDbEntity
  8
0
100
AcDbBlockBegin
 62
2
  6
CONTINUOUS
  2
*D1
 70
65
 10
0.0
 20
0.0
  3
*D1
  1

  0
MTEXT
  5
234
100
AcDbEntity
  8
0
100
AcDbMText
 62
5
  6
CONTINUOUS
  7
STANDARD
 71
2
 72
1
 10
197.7295839039
 20
99.2830839654
 30
0.0
 11
0.3158095116
 21
0.9488226138
 31
0.0
 44
0.9
  1
4\Fgdt;{\Fgdt;~}\Ftxt;30'
 40
3.5
 41
12.3333333333
  0
LINE
  5
235
100
AcDbEntity
  8
0
100
AcDbLine
 62
2
  6
CONTINUOUS
 10
189.805461671
 20
114.0614456235
 11
208.1004014879
 21
115.5012886133
  0
LINE
  5
236
100
AcDbEntity
  8
0
100
AcDbLine
 62
2
  6
CONTINUOUS
 10
161.804774893
 20
111.7396912215
 11
208.248195052
 21
111.7396912215
  0
ARC
  5
237
100
AcDbEntity
  8
0
100
AcDbCircle
 62
2
  6
CONTINUOUS
 10
160.304774893
 20
111.7396912215
 40
46.4434201589
100
AcDbArc
 50
4.5
 51
11.902010358
  0
ARC
  5
238
100
AcDbEntity
  8
0
100
AcDbCircle
 62
2
  6
CONTINUOUS
 10
160.304774893
 20
111.7396912215
 40
46.4434201589
100
AcDbArc
 50
341.5903098205
 51
0.0
  0
ARC
  5
239
100
AcDbEntity
  8
0
100
AcDbCircle
 62
2
  6
CONTINUOUS
 10
160.304774893
 20
111.7396912215
 40
46.4434201589
100
AcDbArc
 50
360.0
 51
4.5
  0
SOLID
  5
23A
100
AcDbEntity
  8
0
100
AcDbTrace
 62
2
  6
CONTINUOUS
 10
205.7646216828
 20
118.8092572344
 11
206.6050254873
 21
115.3835999697
 12
206.6337189727
 22
118.9107210243
 13
206.6337189727
 23
118.9107210243
  0
SOLID
  5
23B
100
AcDbEntity
  8
0
100
AcDbTrace
 62
2
  6
CONTINUOUS
 10
207.0535348134
 20
108.2256943689
 11
206.748195052
 21
111.7396912215
 12
206.1791559032
 22
108.2586567924
 13
206.1791559032
 23
108.2586567924
  0
ENDBLK
  5
23C
100
AcDbEntity
  8
0
  6
BYBLOCK
 62
0
100
AcDbBlockEnd
  0
BLOCK
  5
23D
100
AcDbEntity
  8
0
100
AcDbBlockBegin
 62
2
  6
CONTINUOUS
  2
*D2
 70
65
 10
0.0
 20
0.0
  3
*D2
  1

  0
MTEXT
  5
23E
100
AcDbEntity
  8
0
100
AcDbMText
 62
5
  6
CONTINUOUS
  7
STANDARD
 71
2
 72
1
 10
169.9826962058
 20
187.318868297
 30
0.0
 11
1.0
 21
0.0
 31
0.0
 44
0.9
  1
95
 40
3.5
 41
5.25
  0
LINE
  5
23F
100
AcDbEntity
  8
0
100
AcDbLine
 62
2
  6
CONTINUOUS
 10
122.4826962058
 20
165.797808527
 11
122.4826962058
 21
184.443868297
  0
LINE
  5
240
100
AcDbEntity
  8
0
100
AcDbLine
 62
2
  6
CONTINUOUS
 10
217.4826962058
 20
137.5152659303
 11
217.4826962058
 21
184.443868297
  0
LINE
  5
241
100
AcDbEntity
  8
0
100
AcDbLine
 62
2
  6
CONTINUOUS
 10
122.4826962058
 20
182.943868297
 11
169.9826962058
 21
182.943868297
  0
LINE
  5
242
100
AcDbEntity
  8
0
100
AcDbLine
 62
2
  6
CONTINUOUS
 10
217.4826962058
 20
182.943868297
 11
169.9826962058
 21
182.943868297
  0
INSERT
  5
243
100
AcDbEntity
  8
0
100
AcDbBlockReference
 62
2
  6
CONTINUOUS
  2
_FILLED
 10
122.4826962058
 20
182.943868297
 41
3.5
 42
3.5
 43
3.5
 50
180.0
  0
INSERT
  5
244
100
AcDbEntity
  8
0
100
AcDbBlockReference
 62
2
  6
CONTINUOUS
  2
_FILLED
 10
217.4826962058
 20
182.943868297
 41
3.5
 42
3.5
 43
3.5
  0
ENDBLK
  5
245
100
AcDbEntity
  8
0
  6
BYBLOCK
 62
0
100
AcDbBlockEnd
  0
BLOCK
  5
246
100
AcDbEntity
  8
0
100
AcDbBlockBegin
 62
2
  6
CONTINUOUS
  2
*D3
 70
65
 10
0.0
 20
0.0
  3
*D3
  1

  0
MTEXT
  5
247
100
AcDbEntity
  8
0
100
AcDbMText
 62
5
  6
CONTINUOUS
  7
STANDARD
 71
2
 72
1
 10
180.9826962058
 20
180.4883358805
 30
0.0
 11
1.0
 21
0.0
 31
0.0
 44
0.9
  1
73
 40
3.5
 41
5.25
  0
LINE
  5
248
100
AcDbEntity
  8
0
100
AcDbLine
 62
2
  6
CONTINUOUS
 10
217.4826962058
 20
117.7396912215
 11
217.4826962058
 21
177.6133358805
  0
LINE
  5
249
100
AcDbEntity
  8
0
100
AcDbLine
 62
2
  6
CONTINUOUS
 10
144.4826962058
 20
167.4462988819
 11
144.4826962058
 21
177.6133358805
  0
LINE
  5
24A
100
AcDbEntity
  8
0
100
AcDbLine
 62
2
  6
CONTINUOUS
 10
217.4826962058
 20
176.1133358805
 11
180.9826962058
 21
176.1133358805
  0
LINE
  5
24B
100
AcDbEntity
  8
0
100
AcDbLine
 62
2
  6
CONTINUOUS
 10
144.4826962058
 20
176.1133358805
 11
180.9826962058
 21
176.1133358805
  0
INSERT
  5
24C
100
AcDbEntity
  8
0
100
AcDbBlockReference
 62
2
  6
CONTINUOUS
  2
_FILLED
 10
217.4826962058
 20
176.1133358805
 41
3.5
 42
3.5
 43
3.5
  0
INSERT
  5
24D
100
AcDbEntity
  8
0
100
AcDbBlockReference
 62
2
  6
CONTINUOUS
  2
_FILLED
 10
144.4826962058
 20
176.1133358805
 41
3.5
 42
3.5
 43
3.5
 50
180.0
  0
ENDBLK
  5
24E
100
AcDbEntity
  8
0
  6
BYBLOCK
 62
0
100
AcDbBlockEnd
  0
BLOCK
  5
24F
100
AcDbEntity
  8
0
100
AcDbBlockBegin
 62
2
  6
CONTINUOUS
  2
*D4
 70
65
 10
0.0
 20
0.0
  3
*D4
  1

  0
MTEXT
  5
250
100
AcDbEntity
  8
0
100
AcDbMText
 62
5
  6
CONTINUOUS
  7
STANDARD
 71
2
 72
1
 10
150.9826962058
 20
195.4800399845
 30
0.0
 11
1.0
 21
0.0
 31
0.0
 44
0.9
  1
133
 40
3.5
 41
7.0
  0
LINE
  5
251
100
AcDbEntity
  8
0
100
AcDbLine
 62
2
  6
CONTINUOUS
 10
217.4826962058
 20
117.7396912215
 11
217.4826962058
 21
192.6050399845
  0
LINE
  5
252
100
AcDbEntity
  8
0
100
AcDbLine
 62
2
  6
CONTINUOUS
 10
84.4826962058
 20
119.5285754522
 11
84.4826962058
 21
192.6050399845
  0
LINE
  5
253
100
AcDbEntity
  8
0
100
AcDbLine
 62
2
  6
CONTINUOUS
 10
217.4826962058
 20
191.1050399845
 11
150.9826962058
 21
191.1050399845
  0
LINE
  5
254
100
AcDbEntity
  8
0
100
AcDbLine
 62
2
  6
CONTINUOUS
 10
84.4826962058
 20
191.1050399845
 11
150.9826962058
 21
191.1050399845
  0
INSERT
  5
255
100
AcDbEntity
  8
0
100
AcDbBlockReference
 62
2
  6
CONTINUOUS
  2
_FILLED
 10
217.4826962058
 20
191.1050399845
 41
3.5
 42
3.5
 43
3.5
  0
INSERT
  5
256
100
AcDbEntity
  8
0
100
AcDbBlockReference
 62
2
  6
CONTINUOUS
  2
_FILLED
 10
84.4826962058
 20
191.1050399845
 41
3.5
 42
3.5
 43
3.5
 50
180.0
  0
ENDBLK
  5
257
100
AcDbEntity
  8
0
  6
BYBLOCK
 62
0
100
AcDbBlockEnd
  0
BLOCK
  5
258
100
AcDbEntity
  8
0
100
AcDbBlockBegin
 62
2
  6
CONTINUOUS
  2
*D5
 70
65
 10
0.0
 20
0.0
  3
*D5
  1

  0
MTEXT
  5
259
100
AcDbEntity
  8
0
100
AcDbMText
 62
5
  6
CONTINUOUS
  7
TEXTSTYLE_2
 71
2
 72
1
 10
240.7491988581
 20
138.2146912215
 30
0.0
 11
0.0
 21
1.0
 31
0.0
 44
0.9
  1
{\Fgdt;n}\Ftxt;53
 40
3.5
 41
9.6666666667
  0
LINE
  5
25A
100
AcDbEntity
  8
0
100
AcDbLine
 62
2
  6
CONTINUOUS
 10
161.804774893
 20
164.6896912215
 11
215.4384835211
 21
164.6896912215
  0
LINE
  5
25B
100
AcDbEntity
  8
0
100
AcDbLine
 62
2
  6
CONTINUOUS
 10
220.3959199584
 20
164.6896912215
 11
246.6241988581
 21
164.6896912215
  0
LINE
  5
25C
100
AcDbEntity
  8
0
100
AcDbLine
 62
2
  6
CONTINUOUS
 10
161.804774893
 20
111.7396912215
 11
246.6241988581
 21
111.7396912215
  0
LINE
  5
25D
100
AcDbEntity
  8
0
100
AcDbLine
 62
2
  6
CONTINUOUS
 10
245.1241988581
 20
164.6896912215
 11
245.1241988581
 21
138.2146912215
  0
LINE
  5
25E
100
AcDbEntity
  8
0
100
AcDbLine
 62
2
  6
CONTINUOUS
 10
245.1241988581
 20
111.7396912215
 11
245.1241988581
 21
138.2146912215
  0
INSERT
  5
25F
100
AcDbEntity
  8
0
100
AcDbBlockReference
 62
2
  6
CONTINUOUS
  2
_FILLED
 10
245.1241988581
 20
164.6896912215
 41
3.5
 42
3.5
 43
3.5
 50
90.0
  0
INSERT
  5
260
100
AcDbEntity
  8
0
100
AcDbBlockReference
 62
2
  6
CONTINUOUS
  2
_FILLED
 10
245.1241988581
 20
111.7396912215
 41
3.5
 42
3.5
 43
3.5
 50
270.0
  0
ENDBLK
  5
261
100
AcDbEntity
  8
0
  6
BYBLOCK
 62
0
100
AcDbBlockEnd
  0
BLOCK
  5
262
100
AcDbEntity
  8
0
100
AcDbBlockBegin
 62
2
  6
CONTINUOUS
  2
*D6
 70
65
 10
0.0
 20
0.0
  3
*D6
  1

  0
MTEXT
  5
263
100
AcDbEntity
  8
0
100
AcDbMText
 62
5
  6
CONTINUOUS
  7
TEXTSTYLE_2
 71
2
 72
1
 10
226.0136005717
 20
138.2146912215
 30
0.0
 11
0.0
 21
1.0
 31
0.0
 44
0.9
  1
{\Fgdt;n}\Ftxt;32
 40
3.5
 41
9.9166666667
  0
LINE
  5
264
100
AcDbEntity
  8
0
100
AcDbLine
 62
2
  6
CONTINUOUS
 10
220.3959199584
 20
122.2369412215
 11
231.8886005717
 21
122.2369412215
  0
LINE
  5
265
100
AcDbEntity
  8
0
100
AcDbLine
 62
2
  6
CONTINUOUS
 10
219.8749350312
 20
154.1924412215
 11
231.8886005717
 21
154.1924412215
  0
LINE
  5
266
100
AcDbEntity
  8
0
100
AcDbLine
 62
2
  6
CONTINUOUS
 10
230.3886005717
 20
122.2369412215
 11
230.3886005717
 21
138.2146912215
  0
LINE
  5
267
100
AcDbEntity
  8
0
100
AcDbLine
 62
2
  6
CONTINUOUS
 10
230.3886005717
 20
154.1924412215
 11
230.3886005717
 21
138.2146912215
  0
INSERT
  5
268
100
AcDbEntity
  8
0
100
AcDbBlockReference
 62
2
  6
CONTINUOUS
  2
_FILLED
 10
230.3886005717
 20
122.2369412215
 41
3.5
 42
3.5
 43
3.5
 50
270.0
  0
INSERT
  5
269
100
AcDbEntity
  8
0
100
AcDbBlockReference
 62
2
  6
CONTINUOUS
  2
_FILLED
 10
230.3886005717
 20
154.1924412215
 41
3.5
 42
3.5
 43
3.5
 50
90.0
  0
ENDBLK
  5
26A
100
AcDbEntity
  8
0
  6
BYBLOCK
 62
0
100
AcDbBlockEnd
  0
ENDSEC
  0
SECTION
  2
ENTITIES
  0
DIMENSION
  5
26B
100
AcDbEntity
  8
0
100
AcDbDimension
 62
2
  6
CONTINUOUS
  2
*D0
 10
238.7455915879
 20
116.2396912215
 11
237.2594453623
 21
135.9424497016
 70
160
 71
2
 42
43.95
  1
%%c<>
  3
DIMSTYLE_1
100
AcDbAlignedDimension
 13
221.1878271475
 23
160.1896912215
 14
218.9826962058
 24
116.2396912215
 50
270.0
100
AcDbRotatedDimension
  0
DIMENSION
  5
26C
100
AcDbEntity
  8
0
100
AcDbDimension
 62
2
  6
CONTINUOUS
  2
*D1
 10
208.248195052
 20
111.7396912215
 11
201.3552755595
 21
97.1851716257
 70
162
 71
2
 42
0.0785398163
  3
DIMSTYLE_2
100
AcDb2LineAngularDimension
 13
208.1004014879
 23
115.5012886133
 14
189.805461671
 24
114.0614456235
 15
161.804774893
 25
111.7396912215
 16
206.7123888582
 26
113.5630513402
  0
DIMENSION
  5
26D
100
AcDbEntity
  8
0
100
AcDbDimension
 62
2
  6
CONTINUOUS
  2
*D2
 10
217.4826962058
 20
182.943868297
 11
167.3576962058
 21
185.568868297
 70
160
 71
2
 42
95.0
  3
DIMSTYLE_3
100
AcDbAlignedDimension
 13
122.4826962058
 23
165.797808527
 14
217.4826962058
 24
137.5152659303
100
AcDbRotatedDimension
  0
DIMENSION
  5
26E
100
AcDbEntity
  8
0
100
AcDbDimension
 62
2
  6
CONTINUOUS
  2
*D3
 10
144.4826962058
 20
176.1133358805
 11
178.3576962058
 21
178.7383358805
 70
160
 71
2
 42
73.0
  3
DIMSTYLE_3
100
AcDbAlignedDimension
 13
217.4826962058
 23
117.7396912215
 14
144.4826962058
 24
167.4462988819
 50
180.0
100
AcDbRotatedDimension
  0
DIMENSION
  5
26F
100
AcDbEntity
  8
0
100
AcDbDimension
 62
2
  6
CONTINUOUS
  2
*D4
 10
84.4826962058
 20
191.1050399845
 11
147.4826962058
 21
193.7300399845
 70
160
 71
2
 42
133.0
  3
DIMSTYLE_4
100
AcDbAlignedDimension
 13
217.4826962058
 23
117.7396912215
 14
84.4826962058
 24
119.5285754522
 50
180.0
100
AcDbRotatedDimension
  0
DIMENSION
  5
270
100
AcDbEntity
  8
0
100
AcDbDimension
 62
2
  6
CONTINUOUS
  2
*D5
 10
245.1241988581
 20
111.7396912215
 11
243.5820434305
 21
136.0541992845
 70
160
 71
2
 42
52.95
  1
%%c<>
  3
DIMSTYLE_1
100
AcDbAlignedDimension
 13
161.804774893
 23
164.6896912215
 14
161.804774893
 24
111.7396912215
 50
270.0
100
AcDbRotatedDimension
  0
DIMENSION
  5
271
100
AcDbEntity
  8
0
100
AcDbDimension
 62
2
  6
CONTINUOUS
  2
*D6
 10
230.3886005717
 20
154.1924412215
 11
228.874449745
 21
135.998324493
 70
160
 71
2
 42
31.9555
  1
%%c<>
  3
DIMSTYLE_5
100
AcDbAlignedDimension
 13
220.3959199584
 23
122.2369412215
 14
219.8749350312
 24
154.1924412215
 50
90.0
100
AcDbRotatedDimension
  0
MTEXT
  5
272
100
AcDbEntity
  8
0
100
AcDbMText
 62
5
  6
CONTINUOUS
  7
STANDARD
 71
1
 72
1
 10
12.0019490644
 20
83.0451858108
 30
0.0
 11
1.0
 21
0.0
 31
0.0
 44
0.9
  3
Für diese Unterlage behalten wir das Ur-\Pheberrecht. Sie darf nur für den von uns \Pbestimmten Zweck benutzt und ohne unsere \PZustimmung weder vervielfältigt noch\PDritten zugänglich gemacht werden\P \PWe own the copyright of this document. It \Pde
  1
termined and may neither be copied or \Pmade accessible to outsiders without our\Ppermission.\P \PCe plan reste notre propriété. Il ne peut\Pêtre utilisé, copié ou reproduit sans notre\Paccord.\P 
 40
3.5
 41
104.8333333333
  0
LINE
  5
273
100
AcDbEntity
  8
0
100
AcDbLine
 62
7
  6
CONTINUOUS
 10
0.0
 20
0.0
 11
0.0
 21
210.0
  0
LINE
  5
274
100
AcDbEntity
  8
0
100
AcDbLine
 62
7
  6
CONTINUOUS
 10
0.0
 20
0.0
 11
297.0
 21
0.0
  0
LINE
  5
275
100
AcDbEntity
  8
0
100
AcDbLine
 62
7
  6
CONTINUOUS
 10
0.0
 20
210.0
 11
297.0
 21
210.0
  0
LINE
  5
276
100
AcDbEntity
  8
0
100
AcDbLine
 62
7
  6
CONTINUOUS
 10
297.0
 20
0.0
 11
297.0
 21
210.0
  0
LINE
  5
277
100
AcDbEntity
  8
0
100
AcDbLine
 62
7
  6
CONTINUOUS
 10
84.4826962058
 20
116.5223532286
 11
84.4826962058
 21
153.1759358603
  0
LINE
  5
278
100
AcDbEntity
  8
KURVEN
100
AcDbLine
 62
4
  6
CONTINUOUS
 10
84.4826962058
 20
115.6940130459
 11
84.4826962058
 21
157.4262652085
  0
LINE
  5
279
100
AcDbEntity
  8
ACHSEN
100
AcDbLine
 62
7
  6
CONTINUOUS
 10
84.4826962058
 20
153.1759358603
 11
84.4826962058
 21
156.9631705355
  0
LINE
  5
27A
100
AcDbEntity
  8
ACHSEN
100
AcDbLine
 62
7
  6
CONTINUOUS
 10
85.9826962058
 20
157.7116808351
 11
85.9826962058
 21
153.9259358603
  0
LINE
  5
27B
100
AcDbEntity
  8
0
100
AcDbLine
 62
7
  6
CONTINUOUS
 10
85.9826962058
 20
153.9259358603
 11
85.9826962058
 21
115.6563278249
  0
LINE
  5
27C
100
AcDbEntity
  8
ACHSEN
100
AcDbLine
 62
7
  6
CENTER
 10
106.9826962058
 20
115.2812057145
 11
106.9826962058
 21
162.4030617861
  0
LINE
  5
27D
100
AcDbEntity
  8
0
100
AcDbLine
 62
7
  6
CONTINUOUS
 10
122.4826980418
 20
169.4146893142
 11
122.7826981317
 21
169.7146893681
  0
LINE
  5
27E
100
AcDbEntity
  8
0
100
AcDbLine
 62
9
  6
CONTINUOUS
 10
85.9826962058
 20
153.9259358603
 11
84.4826962058
 21
153.1759358603
  0
LINE
  5
27F
100
AcDbEntity
  8
0
100
AcDbLine
 62
7
  6
CONTINUOUS
 10
85.9826962058
 20
115.6563278249
 11
84.4826962058
 21
116.5223532286
  0
LINE
  5
280
100
AcDbEntity
  8
0
100
AcDbLine
 62
9
  6
CONTINUOUS
 10
85.9826962058
 20
117.2785754522
 11
84.4826962058
 21
118.0285754522
  0
LINE
  5
281
100
AcDbEntity
  8
0
100
AcDbLine
 62
7
  6
CONTINUOUS
 10
122.4826980418
 20
107.0146931289
 11
122.7826981317
 21
106.714693075
  0
LINE
  5
282
100
AcDbEntity
  8
0
100
AcDbLine
 62
7
  6
CONTINUOUS
 10
120.2827592949
 20
158.8347915911
 11
120.2827592949
 21
154.6722219702
  0
LINE
  5
283
100
AcDbEntity
  8
0
100
AcDbLine
 62
7
  6
CONTINUOUS
 10
120.2827592949
 20
143.4395623521
 11
120.2827592949
 21
116.5322893423
  0
LINE
  5
284
100
AcDbEntity
  8
0
100
AcDbLine
 62
9
  6
CONTINUOUS
 10
120.4877193169
 20
158.6398777913
 11
120.4877193169
 21
152.8996334263
  0
LINE
  5
285
100
AcDbEntity
  8
0
100
AcDbLine
 62
9
  6
CONTINUOUS
 10
120.4877193169
 20
146.4006344083
 11
120.4877193169
 21
115.34380583
  0
LINE
  5
286
100
AcDbEntity
  8
0
100
AcDbLine
 62
9
  6
CONTINUOUS
 10
121.1755894246
 20
115.4717980027
 11
121.1755894246
 21
116.1111345706
  0
LINE
  5
287
100
AcDbEntity
  8
0
100
AcDbLine
 62
9
  6
CONTINUOUS
 10
121.1755894246
 20
144.6292309823
 11
121.1755894246
 21
153.9037081117
  0
LINE
  5
288
100
AcDbEntity
  8
0
100
AcDbLine
 62
9
  6
CONTINUOUS
 10
122.0877193169
 20
158.6800753604
 11
122.0877193169
 21
154.5591695085
  0
LINE
  5
289
100
AcDbEntity
  8
0
100
AcDbLine
 62
9
  6
CONTINUOUS
 10
122.0877193169
 20
143.3976416747
 11
122.0877193169
 21
116.6872624814
  0
LINE
  5
28A
100
AcDbEntity
  8
0
100
AcDbLine
 62
7
  6
CONTINUOUS
 10
122.2826962058
 20
116.8152762049
 11
122.2826002395
 21
142.8399164356
  0
LINE
  5
28B
100
AcDbEntity
  8
0
100
AcDbLine
 62
7
  6
CONTINUOUS
 10
122.4826962058
 20
107.0149668911
 11
122.4826962058
 21
169.414415552
  0
LINE
  5
28C
100
AcDbEntity
  8
0
100
AcDbLine
 62
7
  6
CONTINUOUS
 10
122.7826962794
 20
106.7146912215
 11
122.7826962794
 21
169.7146912215
  0
LINE
  5
28D
100
AcDbEntity
  8
0
100
AcDbLine
 62
7
  6
CONTINUOUS
 10
122.282631354
 20
155.0042658073
 11
122.2826962058
 21
160.7481760825
  0
LINE
  5
28E
100
AcDbEntity
  8
0
100
AcDbLine
 62
7
  6
CONTINUOUS
 10
122.282631354
 20
116.8045231301
 11
122.2826962058
 21
116.8213047644
  0
LINE
  5
28F
100
AcDbEntity
  8
0
100
AcDbLine
 62
7
  6
CONTINUOUS
 10
155.3987216096
 20
164.4968708985
 11
155.7326962058
 21
164.6896912215
  0
LINE
  5
290
100
AcDbEntity
  8
RUNDUNGEN
100
AcDbLine
 62
7
  6
CONTINUOUS
 10
155.3987216096
 20
164.4968708985
 11
155.7326962058
 21
164.6896912215
  0
LINE
  5
291
100
AcDbEntity
  8
RUNDUNGEN
100
AcDbLine
 62
7
  6
CONTINUOUS
 10
216.5611553015
 20
116.1671643795
 11
160.304774893
 21
111.7396912215
  0
LINE
  5
292
100
AcDbEntity
  8
0
100
AcDbLine
 62
7
  6
CONTINUOUS
 10
160.304774893
 20
111.7396912215
 11
216.5611553015
 21
116.1671643795
  0
LINE
  5
293
100
AcDbEntity
  8
0
100
AcDbLine
 62
7
  6
CONTINUOUS
 10
144.4826962058
 20
106.7146912215
 11
122.7826962782
 21
106.7146912215
  0
LINE
  5
294
100
AcDbEntity
  8
0
100
AcDbLine
 62
7
  6
CONTINUOUS
 10
135.9440210712
 20
108.1340984612
 11
133.0213713404
 21
108.1340984612
  0
LINE
  5
295
100
AcDbEntity
  8
0
100
AcDbLine
 62
9
  6
CONTINUOUS
 10
132.5883586385
 20
168.128646068
 11
132.5883586385
 21
148.0841038405
  0
LINE
  5
296
100
AcDbEntity
  8
0
100
AcDbLine
 62
9
  6
CONTINUOUS
 10
132.5883586385
 20
128.3452786026
 11
132.5883586385
 21
108.3007363751
  0
LINE
  5
297
100
AcDbEntity
  8
0
100
AcDbLine
 62
9
  6
CONTINUOUS
 10
133.0213713404
 20
168.2952839819
 11
133.0213713404
 21
147.5639125361
  0
LINE
  5
298
100
AcDbEntity
  8
0
100
AcDbLine
 62
9
  6
CONTINUOUS
 10
133.0213713404
 20
128.865469907
 11
133.0213713404
 21
108.1340984612
  0
LINE
  5
299
100
AcDbEntity
  8
ACHSEN
100
AcDbLine
 62
7
  6
CENTER
 10
134.4826962058
 20
162.2262615592
 11
134.4826962058
 21
171.3480723316
  0
LINE
  5
29A
100
AcDbEntity
  8
0
100
AcDbLine
 62
7
  6
CONTINUOUS
 10
160.304774893
 20
111.7396912215
 11
155.7326962058
 21
111.7396912215
  0
LINE
  5
29B
100
AcDbEntity
  8
0
100
AcDbLine
 62
7
  6
CONTINUOUS
 10
147.2326962058
 20
111.7396912215
 11
145.4826962058
 21
111.7396912215
  0
LINE
  5
29C
100
AcDbEntity
  8
0
100
AcDbLine
 62
7
  6
CONTINUOUS
 10
147.966670802
 20
112.0396912215
 11
148.9826962058
 21
112.0396912215
  0
LINE
  5
29D
100
AcDbEntity
  8
0
100
AcDbLine
 62
7
  6
CONTINUOUS
 10
153.9826962058
 20
112.0396912215
 11
154.9987216096
 21
112.0396912215
  0
LINE
  5
29E
100
AcDbEntity
  8
0
100
AcDbLine
 62
9
  6
CONTINUOUS
 10
120.2827592949
 20
116.5322893423
 11
85.9826962058
 21
117.2785754522
  0
LINE
  5
29F
100
AcDbEntity
  8
0
100
AcDbLine
 62
7
  6
CONTINUOUS
 10
120.7357249567
 20
115.3379623462
 11
120.4877193169
 21
115.34380583
  0
LINE
  5
2A0
100
AcDbEntity
  8
0
100
AcDbLine
 62
7
  6
CONTINUOUS
 10
85.9826962058
 20
115.6563278249
 11
120.4930990286
 21
114.7893063857
  0
LINE
  5
2A1
100
AcDbEntity
  8
0
100
AcDbLine
 62
7
  6
CONTINUOUS
 10
155.3987216096
 20
111.9325115446
 11
155.7326962058
 21
111.7396912215
  0
LINE
  5
2A2
100
AcDbEntity
  8
RUNDUNGEN
100
AcDbLine
 62
7
  6
CONTINUOUS
 10
155.3987216096
 20
111.9325115446
 11
155.7326962058
 21
111.7396912215
  0
LINE
  5
2A3
100
AcDbEntity
  8
0
100
AcDbLine
 62
9
  6
CONTINUOUS
 10
135.9440210712
 20
168.2952839819
 11
135.9440210712
 21
147.5639125361
  0
LINE
  5
2A4
100
AcDbEntity
  8
0
100
AcDbLine
 62
9
  6
CONTINUOUS
 10
135.9440210712
 20
128.865469907
 11
135.9440210712
 21
108.1340984612
  0
LINE
  5
2A5
100
AcDbEntity
  8
0
100
AcDbLine
 62
9
  6
CONTINUOUS
 10
136.3770337731
 20
168.128646068
 11
136.3770337731
 21
148.0841038405
  0
LINE
  5
2A6
100
AcDbEntity
  8
0
100
AcDbLine
 62
9
  6
CONTINUOUS
 10
136.3770337731
 20
128.3452786026
 11
136.3770337731
 21
108.3007363751
  0
LINE
  5
2A7
100
AcDbEntity
  8
DEFAULT_2
100
AcDbLine
 62
8
  6
HIDDEN
 10
153.0324610894
 20
121.8869412215
 11
165.0974869246
 21
121.8869412215
  0
LINE
  5
2A8
100
AcDbEntity
  8
BOHRUNGEN
100
AcDbLine
 62
8
  6
HIDDEN
 10
214.8826962058
 20
122.2369412215
 11
166.4826962058
 21
122.2369412215
  0
LINE
  5
2A9
100
AcDbEntity
  8
0
100
AcDbLine
 62
7
  6
CONTINUOUS
 10
144.4826962058
 20
106.7146912215
 11
144.4826962058
 21
169.7146912215
  0
LINE
  5
2AA
100
AcDbEntity
  8
RUNDUNGEN
100
AcDbLine
 62
9
  6
CONTINUOUS
 10
145.4826962058
 20
164.6896912215
 11
145.4826962058
 21
111.7396912215
  0
LINE
  5
2AB
100
AcDbEntity
  8
0
100
AcDbLine
 62
7
  6
CONTINUOUS
 10
121.1755894246
 20
115.4717980027
 11
120.4930990284
 21
114.7893076065
  0
LINE
  5
2AC
100
AcDbEntity
  8
0
100
AcDbLine
 62
7
  6
CONTINUOUS
 10
147.2326962058
 20
164.6896912215
 11
147.2326962058
 21
111.7396912215
  0
LINE
  5
2AD
100
AcDbEntity
  8
RUNDUNGEN
100
AcDbLine
 62
9
  6
CONTINUOUS
 10
147.566670802
 20
111.9325115446
 11
147.566670802
 21
164.4968708985
  0
LINE
  5
2AE
100
AcDbEntity
  8
RUNDUNGEN
100
AcDbLine
 62
9
  6
CONTINUOUS
 10
147.966670802
 20
112.0396912215
 11
147.966670802
 21
164.3896912215
  0
LINE
  5
2AF
100
AcDbEntity
  8
BEZUGSACHSEN
100
AcDbLine
 62
7
  6
CENTER
 10
151.4826962058
 20
167.3896912215
 11
151.4826962058
 21
153.6896912215
  0
LINE
  5
2B0
100
AcDbEntity
  8
BEZUGSACHSEN
100
AcDbLine
 62
7
  6
CENTER
 10
151.4826962058
 20
109.0396912215
 11
151.4826962058
 21
131.9771912215
  0
LINE
  5
2B1
100
AcDbEntity
  8
0
100
AcDbLine
 62
7
  6
CONTINUOUS
 10
135.9440210712
 20
128.865469907
 11
133.0213713404
 21
128.865469907
  0
LINE
  5
2B2
100
AcDbEntity
  8
RUNDUNGEN
100
AcDbLine
 62
9
  6
CONTINUOUS
 10
153.0324610894
 20
121.8869412215
 11
153.0324610894
 21
154.5424412215
  0
LINE
  5
2B3
100
AcDbEntity
  8
RUNDUNGEN
100
AcDbLine
 62
9
  6
CONTINUOUS
 10
154.9987216096
 20
112.0396912215
 11
154.9987216096
 21
164.3896912215
  0
LINE
  5
2B4
100
AcDbEntity
  8
RUNDUNGEN
100
AcDbLine
 62
9
  6
CONTINUOUS
 10
155.3987216096
 20
111.9325115446
 11
155.3987216096
 21
164.4968708985
  0
LINE
  5
2B5
100
AcDbEntity
  8
0
100
AcDbLine
 62
7
  6
CONTINUOUS
 10
155.7326962058
 20
164.6896912215
 11
155.7326962058
 21
111.7396912215
  0
LINE
  5
2B6
100
AcDbEntity
  8
S_ACHSEN
100
AcDbLine
 62
7
  6
CENTER
 10
81.4826962058
 20
138.2146912215
 11
221.4826962058
 21
138.2146912215
  0
LINE
  5
2B7
100
AcDbEntity
  8
0
100
AcDbLine
 62
7
  6
CONTINUOUS
 10
160.304774893
 20
111.7396912215
 11
160.304774893
 21
164.6896912215
  0
LINE
  5
2B8
100
AcDbEntity
  8
0
100
AcDbLine
 62
9
  6
CONTINUOUS
 10
84.4826962058
 20
143.4395623521
 11
120.2827592949
 21
143.4395623521
  0
LINE
  5
2B9
100
AcDbEntity
  8
0
100
AcDbLine
 62
7
  6
CONTINUOUS
 10
147.2326962058
 20
111.7396912215
 11
147.566670802
 21
111.9325115446
  0
LINE
  5
2BA
100
AcDbEntity
  8
RUNDUNGEN
100
AcDbLine
 62
7
  6
CONTINUOUS
 10
147.2326962058
 20
111.7396912215
 11
147.566670802
 21
111.9325115446
  0
LINE
  5
2BB
100
AcDbEntity
  8
0
100
AcDbLine
 62
7
  6
CONTINUOUS
 10
120.4877193169
 20
146.4006344083
 11
120.7357249567
 21
146.4016486642
  0
LINE
  5
2BC
100
AcDbEntity
  8
0
100
AcDbLine
 62
7
  6
CONTINUOUS
 10
135.9440210712
 20
147.5639125361
 11
133.0213713404
 21
147.5639125361
  0
LINE
  5
2BD
100
AcDbEntity
  8
0
100
AcDbLine
 62
9
  6
CONTINUOUS
 10
85.9826962058
 20
153.9259358603
 11
120.2827592949
 21
154.6722219702
  0
LINE
  5
2BE
100
AcDbEntity
  8
0
100
AcDbLine
 62
7
  6
CONTINUOUS
 10
120.7357249567
 20
152.9044626542
 11
120.4877193169
 21
152.8996334263
  0
LINE
  5
2BF
100
AcDbEntity
  8
BOHRUNGEN
100
AcDbLine
 62
8
  6
HIDDEN
 10
214.8826962058
 20
154.1924412215
 11
166.4826962058
 21
154.1924412215
  0
LINE
  5
2C0
100
AcDbEntity
  8
RUNDUNGEN
100
AcDbLine
 62
8
  6
HIDDEN
 10
165.0974869246
 20
154.5424412215
 11
153.0324610894
 21
154.5424412215
  0
LINE
  5
2C1
100
AcDbEntity
  8
DEFAULT_2
100
AcDbLine
 62
8
  6
HIDDEN
 10
153.0324610894
 20
154.5424412215
 11
165.0974869246
 21
154.5424412215
  0
LINE
  5
2C2
100
AcDbEntity
  8
0
100
AcDbLine
 62
7
  6
CONTINUOUS
 10
120.4877193169
 20
158.6398777913
 11
122.0877193169
 21
158.6800753604
  0
LINE
  5
2C3
100
AcDbEntity
  8
0
100
AcDbLine
 62
7
  6
CONTINUOUS
 10
92.7463009599
 20
158.1429799117
 11
102.5326962058
 21
158.3888482237
  0
LINE
  5
2C4
100
AcDbEntity
  8
0
100
AcDbLine
 62
7
  6
CONTINUOUS
 10
111.662057539
 20
158.618209557
 11
120.2827592949
 21
158.8347915911
  0
LINE
  5
2C5
100
AcDbEntity
  8
0
100
AcDbLine
 62
7
  6
CONTINUOUS
 10
147.2326962058
 20
164.6896912215
 11
147.566670802
 21
164.4968708985
  0
LINE
  5
2C6
100
AcDbEntity
  8
RUNDUNGEN
100
AcDbLine
 62
7
  6
CONTINUOUS
 10
147.2326962058
 20
164.6896912215
 11
147.566670802
 21
164.4968708985
  0
LINE
  5
2C7
100
AcDbEntity
  8
0
100
AcDbLine
 62
7
  6
CONTINUOUS
 10
147.966670802
 20
164.3896912215
 11
148.9826962058
 21
164.3896912215
  0
LINE
  5
2C8
100
AcDbEntity
  8
BEZUGSACHSEN
100
AcDbLine
 62
7
  6
CONTINUOUS
 10
147.966670802
 20
164.3896912215
 11
148.9826962058
 21
164.3896912215
  0
LINE
  5
2C9
100
AcDbEntity
  8
0
100
AcDbLine
 62
7
  6
CONTINUOUS
 10
153.9826962058
 20
164.3896912215
 11
154.9987216096
 21
164.3896912215
  0
LINE
  5
2CA
100
AcDbEntity
  8
BEZUGSACHSEN
100
AcDbLine
 62
7
  6
CONTINUOUS
 10
153.9826962058
 20
164.3896912215
 11
154.9987216096
 21
164.3896912215
  0
LINE
  5
2CB
100
AcDbEntity
  8
0
100
AcDbLine
 62
7
  6
CONTINUOUS
 10
160.304774893
 20
164.6896912215
 11
155.7326962058
 21
164.6896912215
  0
LINE
  5
2CC
100
AcDbEntity
  8
0
100
AcDbLine
 62
7
  6
CONTINUOUS
 10
147.2326962058
 20
164.6896912215
 11
145.4826962058
 21
164.6896912215
  0
LINE
  5
2CD
100
AcDbEntity
  8
RUNDUNGEN
100
AcDbLine
 62
7
  6
CONTINUOUS
 10
216.5611553015
 20
160.2622180636
 11
160.304774893
 21
164.6896912215
  0
LINE
  5
2CE
100
AcDbEntity
  8
0
100
AcDbLine
 62
7
  6
CONTINUOUS
 10
160.304774893
 20
164.6896912215
 11
216.5611553015
 21
160.2622180636
  0
LINE
  5
2CF
100
AcDbEntity
  8
0
100
AcDbLine
 62
7
  6
CONTINUOUS
 10
135.9440210712
 20
168.2952839819
 11
133.0213713404
 21
168.2952839819
  0
LINE
  5
2D0
100
AcDbEntity
  8
0
100
AcDbLine
 62
7
  6
CONTINUOUS
 10
144.4826962058
 20
169.7146912215
 11
139.7044575385
 21
169.7146912215
  0
LINE
  5
2D1
100
AcDbEntity
  8
0
100
AcDbLine
 62
7
  6
CONTINUOUS
 10
129.2609344036
 20
169.7146912215
 11
122.7826962782
 21
169.7146912215
  0
LINE
  5
2D2
100
AcDbEntity
  8
RUNDUNGEN
100
AcDbLine
 62
9
  6
CONTINUOUS
 10
216.5611553015
 20
116.1671643795
 11
216.5611553015
 21
160.2622180636
  0
LINE
  5
2D3
100
AcDbEntity
  8
RUNDUNGEN
100
AcDbLine
 62
7
  6
CONTINUOUS
 10
217.4826962058
 20
117.1640817132
 11
217.4826962058
 21
159.2653007299
  0
ARC
  5
2D4
100
AcDbEntity
  8
0
100
AcDbCircle
 62
7
  6
CONTINUOUS
 10
266.7168689826
 20
89.2404933493
 40
159.2595221605
100
AcDbArc
 50
156.0446773748
 51
156.4374589831
  0
ARC
  5
2D5
100
AcDbEntity
  8
ACHSEN
100
AcDbCircle
 62
7
  6
CONTINUOUS
 10
20.724479228
 20
286.6106307737
 40
144.4768984246
100
AcDbArc
 50
296.187103939
 51
296.8519184685
  0
ARC
  5
2D6
100
AcDbEntity
  8
0
100
AcDbCircle
 62
7
  6
CONTINUOUS
 10
13.7306850102
 20
118.9052023922
 40
110.4813700654
100
AcDbArc
 50
13.4640903998
 51
14.4111621352
  0
ARC
  5
2D7
100
AcDbEntity
  8
FASEN
100
AcDbCircle
 62
7
  6
CONTINUOUS
 10
134.7708378186
 20
202.534593474
 40
33.2793219392
100
AcDbArc
 50
260.537117008
 51
261.5260777187
  0
ARC
  5
2D8
100
AcDbEntity
  8
FASEN
100
AcDbCircle
 62
7
  6
CONTINUOUS
 10
134.1937644317
 20
202.5339067567
 40
33.2787629177
100
AcDbArc
 50
278.4786872594
 51
278.9329842208
  0
ARC
  5
2D9
100
AcDbEntity
  8
FASEN
100
AcDbCircle
 62
7
  6
CONTINUOUS
 10
134.4433284954
 20
200.8094984508
 40
31.5364058243
100
AcDbArc
 50
270.0715238208
 51
278.4921550115
  0
ARC
  5
2DA
100
AcDbEntity
  8
FASEN
100
AcDbCircle
 62
7
  6
CONTINUOUS
 10
134.4955330165
 20
200.4546261588
 40
31.1815116027
100
AcDbArc
 50
261.4632297437
 51
269.9764124618
  0
ARC
  5
2DB
100
AcDbEntity
  8
BEZUGSACHSEN
100
AcDbCircle
 62
7
  6
CONTINUOUS
 10
151.4709641009
 20
190.6674177201
 40
26.3974943526
100
AcDbArc
 50
270.7317452071
 51
275.4599762199
  0
ARC
  5
2DC
100
AcDbEntity
  8
BEZUGSACHSEN
100
AcDbCircle
 62
7
  6
CONTINUOUS
 10
151.4944248782
 20
85.7620313302
 40
26.397427721
100
AcDbArc
 50
90.7320152737
 51
95.4599825594
  0
ARC
  5
2DD
100
AcDbEntity
  8
BEZUGSACHSEN
100
AcDbCircle
 62
7
  6
CONTINUOUS
 10
151.4776730153
 20
85.885993739
 40
26.2733902113
100
AcDbArc
 50
84.5288519236
 51
89.2787462143
  0
ARC
  5
2DE
100
AcDbEntity
  8
BEZUGSACHSEN
100
AcDbCircle
 62
7
  6
CONTINUOUS
 10
151.4877181258
 20
190.543363267
 40
26.273364769
100
AcDbArc
 50
264.5288493928
 51
269.2789905794
  0
ARC
  5
2DF
100
AcDbEntity
  8
BEZUGSACHSEN
100
AcDbCircle
 62
7
  6
CONTINUOUS
 10
151.4815091575
 20
86.1109452585
 40
26.0484082452
100
AcDbArc
 50
89.280954967
 51
90.7186247505
  0
ARC
  5
2E0
100
AcDbEntity
  8
BEZUGSACHSEN
100
AcDbCircle
 62
7
  6
CONTINUOUS
 10
151.4838821758
 20
190.3184310912
 40
26.0484021518
100
AcDbArc
 50
269.281201556
 51
270.7183427237
  0
ARC
  5
2E1
100
AcDbEntity
  8
RUNDUNGEN
100
AcDbCircle
 62
7
  6
CONTINUOUS
 10
216.4826962058
 20
159.2653007299
 40
1.0
100
AcDbArc
 50
0.0
 51
85.4999999989
  0
ARC
  5
2E2
100
AcDbEntity
  8
RUNDUNGEN
100
AcDbCircle
 62
7
  6
CONTINUOUS
 10
216.4826962058
 20
117.1640817132
 40
1.0
100
AcDbArc
 50
274.5000000009
 51
360.0
  0
ARC
  5
2E3
100
AcDbEntity
  8
RUNDUNGEN
100
AcDbCircle
 62
7
  6
CONTINUOUS
 10
145.4826962058
 20
165.6896912215
 40
1.0
100
AcDbArc
 50
180.0000000001
 51
270.0
  0
ARC
  5
2E4
100
AcDbEntity
  8
RUNDUNGEN
100
AcDbCircle
 62
7
  6
CONTINUOUS
 10
145.4826962058
 20
110.7396912215
 40
1.0
100
AcDbArc
 50
90.0
 51
179.9999999997
  0
ARC
  5
2E5
100
AcDbEntity
  8
0
100
AcDbCircle
 62
7
  6
CONTINUOUS
 10
121.8826962058
 20
114.7646912215
 40
1.0
100
AcDbArc
 50
53.0400606802
 51
135.0
  0
ARC
  5
2E6
100
AcDbEntity
  8
0
100
AcDbCircle
 62
7
  6
CONTINUOUS
 10
121.8826962058
 20
161.6646912215
 40
1.0
100
AcDbArc
 50
293.5781784782
 51
306.9599393198
  0
ARC
  5
2E7
100
AcDbEntity
  8
RUNDUNGEN
100
AcDbCircle
 62
7
  6
CONTINUOUS
 10
154.9987216096
 20
165.1896912215
 40
0.8
100
AcDbArc
 50
270.0
 51
300.000000001
  0
ARC
  5
2E8
100
AcDbEntity
  8
RUNDUNGEN
100
AcDbCircle
 62
7
  6
CONTINUOUS
 10
154.9987216096
 20
111.2396912215
 40
0.8
100
AcDbArc
 50
59.9999999989
 51
90.0
  0
ARC
  5
2E9
100
AcDbEntity
  8
RUNDUNGEN
100
AcDbCircle
 62
7
  6
CONTINUOUS
 10
147.966670802
 20
165.1896912215
 40
0.8
100
AcDbArc
 50
239.999999999
 51
270.0
  0
ARC
  5
2EA
100
AcDbEntity
  8
RUNDUNGEN
100
AcDbCircle
 62
7
  6
CONTINUOUS
 10
147.966670802
 20
111.2396912215
 40
0.8
100
AcDbArc
 50
90.0
 51
120.0000000011
  0
ARC
  5
2EB
100
AcDbEntity
  8
0
100
AcDbCircle
 62
7
  6
CONTINUOUS
 10
122.0826962058
 20
158.8800122713
 40
0.2
100
AcDbArc
 50
271.439166666
 51
360.0
  0
ARC
  5
2EC
100
AcDbEntity
  8
0
100
AcDbCircle
 62
7
  6
CONTINUOUS
 10
120.4826962058
 20
158.8398147022
 40
0.2
100
AcDbArc
 50
181.439166666
 51
271.439166666
  0
SPLINE
  5
2ED
100
AcDbEntity
  8
0
100
AcDbSpline
 62
2
  6
CONTINUOUS
 70
0
 71
3
 72
18
 73
14
 74
0
 42
0.0000001
 43
0.0000001
 44
0.0000000001
 40
0.0
 40
0.0
 40
0.0
 40
0.0
 40
0.0909090909
 40
0.1818181818
 40
0.2727272727
 40
0.3636363636
 40
0.4545454545
 40
0.5454545455
 40
0.6363636364
 40
0.7272727273
 40
0.8181818182
 40
0.9090909091
 40
1.0
 40
1.0
 40
1.0
 40
1.0
 10
151.4826962058
 20
148.6178709591
 30
0.0
 10
151.7667301814
 20
148.6178709591
 30
0.0
 10
152.3353648012
 20
148.6931864017
 30
0.0
 10
153.1197385935
 20
149.0204975592
 30
0.0
 10
153.7775140282
 20
149.5372353877
 30
0.0
 10
154.2418569733
 20
150.1847967648
 30
0.0
 10
154.4886326334
 20
150.9023177655
 30
0.0
 10
154.4968363018
 20
151.6732364737
 30
0.0
 10
154.2419583715
 20
152.3960245293
 30
0.0
 10
153.7774285172
 20
152.9928179735
 30
0.0
 10
153.1193747065
 20
153.4599223191
 30
0.0
 10
152.3355491749
 20
153.7481368112
 30
0.0
 10
151.7668237395
 20
153.8140233818
 30
0.0
 10
151.4826962058
 20
153.8140233818
 30
0.0
  0
SPLINE
  5
2EE
100
AcDbEntity
  8
0
100
AcDbSpline
 62
7
  6
CONTINUOUS
 70
0
 71
3
 72
21
 73
17
 74
0
 42
0.0000001
 43
0.0000001
 44
0.0000000001
 40
0.0
 40
0.0
 40
0.0
 40
0.0
 40
0.125
 40
0.1875
 40
0.25
 40
0.3125
 40
0.375
 40
0.4375
 40
0.5
 40
0.5625
 40
0.625
 40
0.6875
 40
0.75
 40
0.8125
 40
0.875
 40
1.0
 40
1.0
 40
1.0
 40
1.0
 10
153.3772487249
 20
149.8648139824
 30
0.0
 10
153.3142438384
 20
149.9197073145
 30
0.0
 10
153.2209003708
 20
150.003180172
 30
0.0
 10
153.0917869655
 20
150.1099458781
 30
0.0
 10
152.9814012161
 20
150.1763179568
 30
0.0
 10
152.8771673392
 20
150.2497029699
 30
0.0
 10
152.7618766677
 20
150.3087384463
 30
0.0
 10
152.6430425562
 20
150.3623865826
 30
0.0
 10
152.5286296269
 20
150.4240473396
 30
0.0
 10
152.4000754088
 20
150.4590449538
 30
0.0
 10
152.2756533785
 20
150.5021678598
 30
0.0
 10
152.1488438857
 20
150.5394527411
 30
0.0
 10
152.016580812
 20
150.5601245338
 30
0.0
 10
151.8867770387
 20
150.589406914
 30
0.0
 10
151.7078605132
 20
150.6046777393
 30
0.0
 10
151.5726217956
 20
150.6116228691
 30
0.0
 10
151.4826962779
 20
150.617254731
 30
0.0
  0
SPLINE
  5
2EF
100
AcDbEntity
  8
0
100
AcDbSpline
 62
7
  6
CONTINUOUS
 70
0
 71
3
 72
21
 73
17
 74
0
 42
0.0000001
 43
0.0000001
 44
0.0000000001
 40
0.0
 40
0.0
 40
0.0
 40
0.0
 40
0.125
 40
0.1875
 40
0.25
 40
0.3125
 40
0.375
 40
0.4375
 40
0.5
 40
0.5625
 40
0.625
 40
0.6875
 40
0.75
 40
0.8125
 40
0.875
 40
1.0
 40
1.0
 40
1.0
 40
1.0
 10
151.4826962058
 20
150.617254731
 30
0.0
 10
151.3935531223
 20
150.6117209537
 30
0.0
 10
151.2596065576
 20
150.6049232696
 30
0.0
 10
151.0819388952
 20
150.5898477631
 30
0.0
 10
150.9518370255
 20
150.5607077447
 30
0.0
 10
150.8196123086
 20
150.5401808287
 30
0.0
 10
150.6927301032
 20
150.5030348919
 30
0.0
 10
150.568250153
 20
150.4600483764
 30
0.0
 10
150.4396433976
 20
150.425191417
 30
0.0
 10
150.3251416075
 20
150.3636568118
 30
0.0
 10
150.206226297
 20
150.3101360505
 30
0.0
 10
150.0908601028
 20
150.2512375593
 30
0.0
 10
149.9864795875
 20
150.1779270932
 30
0.0
 10
149.8761444876
 20
150.1118241556
 30
0.0
 10
149.7461412337
 20
150.0044627199
 30
0.0
 10
149.6519239156
 20
149.9203368514
 30
0.0
 10
149.588382343
 20
149.8650540039
 30
0.0
  0
SPLINE
  5
2F0
100
AcDbEntity
  8
0
100
AcDbSpline
 62
2
  6
CONTINUOUS
 70
0
 71
3
 72
18
 73
14
 74
0
 42
0.0000001
 43
0.0000001
 44
0.0000000001
 40
0.0
 40
0.0
 40
0.0
 40
0.0
 40
0.0909090909
 40
0.1818181818
 40
0.2727272727
 40
0.3636363636
 40
0.4545454545
 40
0.5454545455
 40
0.6363636364
 40
0.7272727273
 40
0.8181818182
 40
0.9090909091
 40
1.0
 40
1.0
 40
1.0
 40
1.0
 10
151.4826962058
 20
153.8140233818
 30
0.0
 10
151.1990867167
 20
153.8140233818
 30
0.0
 10
150.6313219076
 20
153.7484864719
 30
0.0
 10
149.8480119834
 20
153.4605790563
 30
0.0
 10
149.1906986537
 20
152.9962057966
 30
0.0
 10
148.7260917384
 20
152.3966267857
 30
0.0
 10
148.4769140301
 20
151.7069542876
 30
0.0
 10
148.4685134886
 20
150.9290694197
 30
0.0
 10
148.7258522258
 20
150.1766878148
 30
0.0
 10
149.1907833172
 20
149.5353688522
 30
0.0
 10
149.8483781683
 20
149.0188024954
 30
0.0
 10
150.6311333188
 20
148.6931260325
 30
0.0
 10
151.1989912877
 20
148.6178709591
 30
0.0
 10
151.4826962058
 20
148.6178709591
 30
0.0
  0
SPLINE
  5
2F1
100
AcDbEntity
  8
0
100
AcDbSpline
 62
2
  6
CONTINUOUS
 70
0
 71
3
 72
18
 73
14
 74
0
 42
0.0000001
 43
0.0000001
 44
0.0000000001
 40
0.0
 40
0.0
 40
0.0
 40
0.0
 40
0.0909090909
 40
0.1818181818
 40
0.2727272727
 40
0.3636363636
 40
0.4545454545
 40
0.5454545455
 40
0.6363636364
 40
0.7272727273
 40
0.8181818182
 40
0.9090909091
 40
1.0
 40
1.0
 40
1.0
 40
1.0
 10
151.4826962058
 20
122.6153590612
 30
0.0
 10
151.7667301814
 20
122.6153590612
 30
0.0
 10
152.3353648012
 20
122.6810917367
 30
0.0
 10
153.1197385935
 20
122.9698988688
 30
0.0
 10
153.7775140282
 20
123.4356723929
 30
0.0
 10
154.2418569733
 20
124.0370625513
 30
0.0
 10
154.4886326334
 20
124.7266785573
 30
0.0
 10
154.4968363018
 20
125.4966592244
 30
0.0
 10
154.2419583715
 20
126.2483016754
 30
0.0
 10
153.7774285172
 20
126.8912596268
 30
0.0
 10
153.1193747065
 20
127.4093460805
 30
0.0
 10
152.3355491749
 20
127.7360318348
 30
0.0
 10
151.7668237395
 20
127.8115114839
 30
0.0
 10
151.4826962058
 20
127.8115114839
 30
0.0
  0
SPLINE
  5
2F2
100
AcDbEntity
  8
0
100
AcDbSpline
 62
7
  6
CONTINUOUS
 70
0
 71
3
 72
21
 73
17
 74
0
 42
0.0000001
 43
0.0000001
 44
0.0000000001
 40
0.0
 40
0.0
 40
0.0
 40
0.0
 40
0.125
 40
0.1875
 40
0.25
 40
0.3125
 40
0.375
 40
0.4375
 40
0.5
 40
0.5625
 40
0.625
 40
0.6875
 40
0.75
 40
0.8125
 40
0.875
 40
1.0
 40
1.0
 40
1.0
 40
1.0
 10
151.4826962058
 20
125.8121277121
 30
0.0
 10
151.5718392894
 20
125.8176614894
 30
0.0
 10
151.705785854
 20
125.8244591735
 30
0.0
 10
151.8834535164
 20
125.83953468
 30
0.0
 10
152.0135553862
 20
125.8686746984
 30
0.0
 10
152.145780103
 20
125.8892016144
 30
0.0
 10
152.2726623084
 20
125.9263475512
 30
0.0
 10
152.3971422587
 20
125.9693340667
 30
0.0
 10
152.525749014
 20
126.004191026
 30
0.0
 10
152.6402508041
 20
126.0657256313
 30
0.0
 10
152.7591661146
 20
126.1192463926
 30
0.0
 10
152.8745323089
 20
126.1781448837
 30
0.0
 10
152.9789128241
 20
126.2514553499
 30
0.0
 10
153.089247924
 20
126.3175582874
 30
0.0
 10
153.219251178
 20
126.4249197232
 30
0.0
 10
153.3134684961
 20
126.5090455917
 30
0.0
 10
153.3770100687
 20
126.5643284392
 30
0.0
  0
SPLINE
  5
2F3
100
AcDbEntity
  8
0
100
AcDbSpline
 62
7
  6
CONTINUOUS
 70
0
 71
3
 72
21
 73
17
 74
0
 42
0.0000001
 43
0.0000001
 44
0.0000000001
 40
0.0
 40
0.0
 40
0.0
 40
0.0
 40
0.125
 40
0.1875
 40
0.25
 40
0.3125
 40
0.375
 40
0.4375
 40
0.5
 40
0.5625
 40
0.625
 40
0.6875
 40
0.75
 40
0.8125
 40
0.875
 40
1.0
 40
1.0
 40
1.0
 40
1.0
 10
149.5881436868
 20
126.5645684607
 30
0.0
 10
149.6511485732
 20
126.5096751286
 30
0.0
 10
149.7444920408
 20
126.4262022711
 30
0.0
 10
149.8736054461
 20
126.319436565
 30
0.0
 10
149.9839911956
 20
126.2530644863
 30
0.0
 10
150.0882250725
 20
126.1796794732
 30
0.0
 10
150.2035157439
 20
126.1206439968
 30
0.0
 10
150.3223498555
 20
126.0669958605
 30
0.0
 10
150.4367627848
 20
126.0053351034
 30
0.0
 10
150.5653170029
 20
125.9703374893
 30
0.0
 10
150.6897390332
 20
125.9272145833
 30
0.0
 10
150.8165485259
 20
125.889929702
 30
0.0
 10
150.9488115997
 20
125.8692579092
 30
0.0
 10
151.0786153729
 20
125.839975529
 30
0.0
 10
151.2575318984
 20
125.8247047038
 30
0.0
 10
151.3927706161
 20
125.817759574
 30
0.0
 10
151.4826961337
 20
125.8121277121
 30
0.0
  0
SPLINE
  5
2F4
100
AcDbEntity
  8
0
100
AcDbSpline
 62
2
  6
CONTINUOUS
 70
0
 71
3
 72
18
 73
14
 74
0
 42
0.0000001
 43
0.0000001
 44
0.0000000001
 40
0.0
 40
0.0
 40
0.0
 40
0.0
 40
0.0909090909
 40
0.1818181818
 40
0.2727272727
 40
0.3636363636
 40
0.4545454545
 40
0.5454545455
 40
0.6363636364
 40
0.7272727273
 40
0.8181818182
 40
0.9090909091
 40
1.0
 40
1.0
 40
1.0
 40
1.0
 10
151.4826962058
 20
127.8115114839
 30
0.0
 10
151.1990867167
 20
127.8115114839
 30
0.0
 10
150.6313219076
 20
127.7364209715
 30
0.0
 10
149.8480119834
 20
127.41012143
 30
0.0
 10
149.1906986537
 20
126.8948890762
 30
0.0
 10
148.7260917384
 20
126.2491695116
 30
0.0
 10
148.4769140301
 20
125.531335214
 30
0.0
 10
148.4685134886
 20
124.7524894859
 30
0.0
 10
148.7258522258
 20
124.0292281506
 30
0.0
 10
149.1907833172
 20
123.4340571984
 30
0.0
 10
149.8483781683
 20
122.9683672819
 30
0.0
 10
150.6311333188
 20
122.6810500967
 30
0.0
 10
151.1989912877
 20
122.6153590612
 30
0.0
 10
151.4826962058
 20
122.6153590612
 30
0.0
  0
SPLINE
  5
2F5
100
AcDbEntity
  8
0
100
AcDbSpline
 62
2
  6
CONTINUOUS
 70
0
 71
3
 72
13
 73
9
 74
0
 42
0.0000001
 43
0.0000001
 44
0.0000000001
 40
0.0
 40
0.0
 40
0.0
 40
0.0
 40
0.1666666667
 40
0.3333333333
 40
0.5
 40
0.6666666667
 40
0.8333333333
 40
1.0
 40
1.0
 40
1.0
 40
1.0
 10
154.4826962058
 20
112.0396912215
 30
0.0
 10
154.4826962058
 20
112.0396912215
 30
0.0
 10
154.4137429034
 20
112.04775157
 30
0.0
 10
154.1029606205
 20
112.0814505925
 30
0.0
 10
153.6254411045
 20
112.1260229025
 30
0.0
 10
152.9923242825
 20
112.1714112652
 30
0.0
 10
152.2649343997
 20
112.2041313647
 30
0.0
 10
151.743327516
 20
112.2121793236
 30
0.0
 10
151.4826962058
 20
112.2121793236
 30
0.0
  0
SPLINE
  5
2F6
100
AcDbEntity
  8
0
100
AcDbSpline
 62
2
  6
CONTINUOUS
 70
0
 71
3
 72
13
 73
9
 74
0
 42
0.0000001
 43
0.0000001
 44
0.0000000001
 40
0.0
 40
0.0
 40
0.0
 40
0.0
 40
0.1666666667
 40
0.3333333333
 40
0.5
 40
0.6666666667
 40
0.8333333333
 40
1.0
 40
1.0
 40
1.0
 40
1.0
 10
151.4826962058
 20
112.2121793236
 30
0.0
 10
151.2221565481
 20
112.2121793236
 30
0.0
 10
150.7007052641
 20
112.2041363635
 30
0.0
 10
149.9734948545
 20
112.1714362465
 30
0.0
 10
149.3402681967
 20
112.1260482251
 30
0.0
 10
148.8629818829
 20
112.0815064124
 30
0.0
 10
148.5516200802
 20
112.0477497632
 30
0.0
 10
148.4826962058
 20
112.0396912215
 30
0.0
 10
148.4826962058
 20
112.0396912215
 30
0.0
  0
SPLINE
  5
2F7
100
AcDbEntity
  8
0
100
AcDbSpline
 62
2
  6
CONTINUOUS
 70
0
 71
3
 72
13
 73
9
 74
0
 42
0.0000001
 43
0.0000001
 44
0.0000000001
 40
0.0
 40
0.0
 40
0.0
 40
0.0
 40
0.1666666667
 40
0.3333333333
 40
0.5
 40
0.6666666667
 40
0.8333333333
 40
1.0
 40
1.0
 40
1.0
 40
1.0
 10
151.4826962058
 20
164.2172031194
 30
0.0
 10
151.7434641409
 20
164.2172031194
 30
0.0
 10
152.265421537
 20
164.2252502314
 30
0.0
 10
152.9945188065
 20
164.2580961694
 30
0.0
 10
153.6266438404
 20
164.3034611942
 30
0.0
 10
154.1049460638
 20
164.3481300199
 30
0.0
 10
154.4143509168
 20
164.3817043816
 30
0.0
 10
154.4826962058
 20
164.3896912215
 30
0.0
 10
154.4826962058
 20
164.3896912215
 30
0.0
  0
SPLINE
  5
2F8
100
AcDbEntity
  8
0
100
AcDbSpline
 62
2
  6
CONTINUOUS
 70
0
 71
3
 72
13
 73
9
 74
0
 42
0.0000001
 43
0.0000001
 44
0.0000000001
 40
0.0
 40
0.0
 40
0.0
 40
0.0
 40
0.1666666667
 40
0.3333333333
 40
0.5
 40
0.6666666667
 40
0.8333333333
 40
1.0
 40
1.0
 40
1.0
 40
1.0
 10
148.4826962058
 20
164.3896912215
 30
0.0
 10
148.4826962058
 20
164.3896912215
 30
0.0
 10
148.5510853473
 20
164.3817009522
 30
0.0
 10
148.8599210257
 20
164.3481831982
 30
0.0
 10
149.3384978618
 20
164.3034810581
 30
0.0
 10
149.9704891666
 20
164.2581188436
 30
0.0
 10
150.6997691061
 20
164.2252539724
 30
0.0
 10
151.2218537696
 20
164.2172031194
 30
0.0
 10
151.4826962058
 20
164.2172031194
 30
0.0
  0
LINE
  5
2F9
100
AcDbEntity
  8
FASEN
100
AcDbLine
 62
7
  6
CONTINUOUS
 10
129.2994297034
 20
169.7081260739
 11
129.2602551082
 21
169.714655655
  0
LINE
  5
2FA
100
AcDbEntity
  8
FASEN
100
AcDbLine
 62
7
  6
CONTINUOUS
 10
139.6659631783
 20
169.7081261644
 11
139.7051372119
 21
169.7146556522
  0
LINE
  5
2FB
100
AcDbEntity
  8
ACHSEN
100
AcDbLine
 62
7
  6
CONTINUOUS
 10
90.8326962058
 20
157.8187425202
 11
85.9826962058
 21
157.7116808351
  0
LINE
  5
2FC
100
AcDbEntity
  8
ACHSEN
100
AcDbLine
 62
7
  6
CONTINUOUS
 10
92.7463155538
 20
158.1412432974
 11
92.7612664918
 21
158.1433490268
  0
SPLINE
  5
2FD
100
AcDbEntity
  8
BEZUGSACHSEN
100
AcDbSpline
 62
7
  6
CONTINUOUS
 70
0
 71
3
 72
13
 73
9
 74
0
 42
0.0000001
 43
0.0000001
 44
0.0000000001
 40
0.0
 40
0.0
 40
0.0
 40
0.0
 40
0.1157958532
 40
0.2340339441
 40
0.3553732159
 40
0.4799869142
 40
0.7365621135
 40
1.0
 40
1.0
 40
1.0
 40
1.0
 10
153.9826557852
 20
151.3022296097
 30
0.0
 10
153.9826601177
 20
151.1597034216
 30
0.0
 10
153.9494700533
 20
150.8706776376
 30
0.0
 10
153.8046790549
 20
150.4545436588
 30
0.0
 10
153.5708170417
 20
150.0683228788
 30
0.0
 10
153.1498078174
 20
149.6104595833
 30
0.0
 10
152.4526788362
 20
149.1925885753
 30
0.0
 10
151.8069461399
 20
149.0772965845
 30
0.0
 10
151.4826962058
 20
149.0772965845
 30
0.0
  0
SPLINE
  5
2FE
100
AcDbEntity
  8
BEZUGSACHSEN
100
AcDbSpline
 62
7
  6
CONTINUOUS
 70
0
 71
3
 72
13
 73
9
 74
0
 42
0.0000001
 43
0.0000001
 44
0.0000000001
 40
0.0
 40
0.0
 40
0.0
 40
0.0
 40
0.1157958532
 40
0.2340339441
 40
0.3553732159
 40
0.4799869142
 40
0.7365621135
 40
1.0
 40
1.0
 40
1.0
 40
1.0
 10
148.9827366265
 20
125.1271528334
 30
0.0
 10
148.9827322939
 20
125.2696790214
 30
0.0
 10
149.0159223584
 20
125.5587048055
 30
0.0
 10
149.1607133567
 20
125.9748387843
 30
0.0
 10
149.3945753699
 20
126.3610595642
 30
0.0
 10
149.8155845942
 20
126.8189228597
 30
0.0
 10
150.5127135755
 20
127.2367938677
 30
0.0
 10
151.1584462717
 20
127.3520858586
 30
0.0
 10
151.4826962058
 20
127.3520858586
 30
0.0
  0
SPLINE
  5
2FF
100
AcDbEntity
  8
BEZUGSACHSEN
100
AcDbSpline
 62
7
  6
CONTINUOUS
 70
0
 71
3
 72
13
 73
9
 74
0
 42
0.0000001
 43
0.0000001
 44
0.0000000001
 40
0.0
 40
0.0
 40
0.0
 40
0.0
 40
0.2634373917
 40
0.5200092302
 40
0.6446244234
 40
0.7659652303
 40
0.8842035099
 40
1.0
 40
1.0
 40
1.0
 40
1.0
 10
151.4826962058
 20
127.3520858586
 30
0.0
 10
151.8069374868
 20
127.3520858586
 30
0.0
 10
152.4526491611
 20
127.2368023613
 30
0.0
 10
153.1497649717
 20
126.8189566232
 30
0.0
 10
153.570773853
 20
126.3611144671
 30
0.0
 10
153.8046437884
 20
125.9749078145
 30
0.0
 10
153.9494539781
 20
125.5587886056
 30
0.0
 10
153.9826514527
 20
125.2697701751
 30
0.0
 10
153.9826557852
 20
125.1272467391
 30
0.0
  0
SPLINE
  5
300
100
AcDbEntity
  8
BEZUGSACHSEN
100
AcDbSpline
 62
7
  6
CONTINUOUS
 70
0
 71
3
 72
13
 73
9
 74
0
 42
0.0000001
 43
0.0000001
 44
0.0000000001
 40
0.0
 40
0.0
 40
0.0
 40
0.0
 40
0.2634373917
 40
0.5200092302
 40
0.6446244234
 40
0.7659652303
 40
0.8842035099
 40
1.0
 40
1.0
 40
1.0
 40
1.0
 10
151.4826962058
 20
149.0772965845
 30
0.0
 10
151.1584549249
 20
149.0772965845
 30
0.0
 10
150.5127432506
 20
149.1925800818
 30
0.0
 10
149.8156274399
 20
149.6104258198
 30
0.0
 10
149.3946185587
 20
150.068267976
 30
0.0
 10
149.1607486233
 20
150.4544746286
 30
0.0
 10
149.0159384336
 20
150.8705938375
 30
0.0
 10
148.982740959
 20
151.1596122679
 30
0.0
 10
148.9827366265
 20
151.302135704
 30
0.0
  0
SPLINE
  5
301
100
AcDbEntity
  8
ACHSEN
100
AcDbSpline
 62
7
  6
CONTINUOUS
 70
0
 71
3
 72
10
 73
6
 74
0
 42
0.0000001
 43
0.0000001
 44
0.0000000001
 40
0.0
 40
0.0
 40
0.0
 40
0.0
 40
0.0929965444
 40
0.3287693884
 40
1.0
 40
1.0
 40
1.0
 40
1.0
 10
92.7612664914
 20
158.1433490268
 30
0.0
 10
92.7011649165
 20
158.1353655294
 30
0.0
 10
92.4891124861
 20
158.1040488619
 30
0.0
 10
91.8444149738
 20
158.0071013602
 30
0.0
 10
91.2621137266
 20
157.9030310669
 30
0.0
 10
90.8326962058
 20
157.8187425202
 30
0.0
  0
SPLINE
  5
302
100
AcDbEntity
  8
FASEN
100
AcDbSpline
 62
7
  6
CONTINUOUS
 70
0
 71
3
 72
14
 73
10
 74
0
 42
0.0000001
 43
0.0000001
 44
0.0000000001
 40
0.0
 40
0.0
 40
0.0
 40
0.0
 40
0.0157909895
 40
0.0631421971
 40
0.1420502468
 40
0.252365938
 40
0.3937134472
 40
0.5656978202
 40
1.0
 40
1.0
 40
1.0
 40
1.0
 10
139.7051372112
 20
169.7146556525
 30
0.0
 10
139.7033216673
 20
169.7149136391
 30
0.0
 10
139.6961046463
 20
169.7123493886
 30
0.0
 10
139.6798172755
 20
169.7109527017
 30
0.0
 10
139.6527268923
 20
169.7056871609
 30
0.0
 10
139.6148535081
 20
169.6997249828
 30
0.0
 10
139.5663107535
 20
169.6916066589
 30
0.0
 10
139.4806155786
 20
169.6777237142
 30
0.0
 10
139.411084688
 20
169.6666228511
 30
0.0
 10
139.3612612054
 20
169.6587940051
 30
0.0
  0
SPLINE
  5
303
100
AcDbEntity
  8
ACHSEN
100
AcDbSpline
 62
7
  6
CONTINUOUS
 70
0
 71
3
 72
11
 73
7
 74
0
 42
0.0000001
 43
0.0000001
 44
0.0000000001
 40
0.0
 40
0.0
 40
0.0
 40
0.0
 40
0.1537099379
 40
0.500508937
 40
0.8472910559
 40
1.0
 40
1.0
 40
1.0
 40
1.0
 10
111.662057539
 20
158.618209557
 30
0.0
 10
111.1984722699
 20
158.5469326022
 30
0.0
 10
109.6842399558
 20
158.3428748298
 30
0.0
 10
107.1014655283
 20
158.1573657979
 30
0.0
 10
104.5154194983
 20
158.2103130166
 30
0.0
 10
102.9961303156
 20
158.3400795094
 30
0.0
 10
102.5326962058
 20
158.3888482237
 30
0.0
  0
SPLINE
  5
304
100
AcDbEntity
  8
0
100
AcDbSpline
 62
7
  6
CONTINUOUS
 70
0
 71
3
 72
12
 73
8
 74
0
 42
0.0000001
 43
0.0000001
 44
0.0000000001
 40
0.0
 40
0.0
 40
0.0
 40
0.0
 40
0.128679218
 40
0.2561331636
 40
0.5063352459
 40
0.7539715031
 40
1.0
 40
1.0
 40
1.0
 40
1.0
 10
135.9440210712
 20
128.865469907
 30
0.0
 10
135.9748971968
 20
128.865469907
 30
0.0
 10
136.0368118233
 20
128.8531466806
 30
0.0
 10
136.1430327504
 20
128.7912318894
 30
0.0
 10
136.2424040238
 20
128.6744703244
 30
0.0
 10
136.3237803143
 20
128.5149755156
 30
0.0
 10
136.3614570543
 20
128.402220154
 30
0.0
 10
136.3770337731
 20
128.3452786026
 30
0.0
  0
SPLINE
  5
305
100
AcDbEntity
  8
0
100
AcDbSpline
 62
7
  6
CONTINUOUS
 70
0
 71
3
 72
9
 73
5
 74
0
 42
0.0000001
 43
0.0000001
 44
0.0000000001
 40
0.0
 40
0.0
 40
0.0
 40
0.0
 40
0.1680195226
 40
1.0
 40
1.0
 40
1.0
 40
1.0
 10
136.3770337731
 20
108.3007363751
 30
0.0
 10
136.3601855001
 20
108.2804162592
 30
0.0
 10
136.2447322176
 20
108.1719352829
 30
0.0
 10
136.0747279825
 20
108.1340984612
 30
0.0
 10
135.9440210712
 20
108.1340984612
 30
0.0
  0
SPLINE
  5
306
100
AcDbEntity
  8
0
100
AcDbSpline
 62
7
  6
CONTINUOUS
 70
0
 71
3
 72
12
 73
8
 74
0
 42
0.0000001
 43
0.0000001
 44
0.0000000001
 40
0.0
 40
0.0
 40
0.0
 40
0.0
 40
0.2460454262
 40
0.4936983158
 40
0.7439199328
 40
0.8713555617
 40
1.0
 40
1.0
 40
1.0
 40
1.0
 10
132.5883586385
 20
128.3452786026
 30
0.0
 10
132.6039364511
 20
128.4022241523
 30
0.0
 10
132.6416184707
 20
128.5149846578
 30
0.0
 10
132.7229942187
 20
128.6745013258
 30
0.0
 10
132.8223988305
 20
128.7912288586
 30
0.0
 10
132.9285946469
 20
128.853176697
 30
0.0
 10
132.9905035166
 20
128.865469907
 30
0.0
 10
133.0213713404
 20
128.865469907
 30
0.0
  0
SPLINE
  5
307
100
AcDbEntity
  8
0
100
AcDbSpline
 62
7
  6
CONTINUOUS
 70
0
 71
3
 72
9
 73
5
 74
0
 42
0.0000001
 43
0.0000001
 44
0.0000000001
 40
0.0
 40
0.0
 40
0.0
 40
0.0
 40
0.3641598889
 40
1.0
 40
1.0
 40
1.0
 40
1.0
 10
133.0213713404
 20
108.1340984612
 30
0.0
 10
132.9639949186
 20
108.1340984612
 30
0.0
 10
132.8078085855
 20
108.1502175552
 30
0.0
 10
132.6523025949
 20
108.2236157941
 30
0.0
 10
132.5883586385
 20
108.3007363751
 30
0.0
  0
SPLINE
  5
308
100
AcDbEntity
  8
0
100
AcDbSpline
 62
7
  6
CONTINUOUS
 70
0
 71
3
 72
9
 73
5
 74
0
 42
0.0000001
 43
0.0000001
 44
0.0000000001
 40
0.0
 40
0.0
 40
0.0
 40
0.0
 40
0.3642526053
 40
1.0
 40
1.0
 40
1.0
 40
1.0
 10
135.9440210712
 20
168.2952839819
 30
0.0
 10
136.0014124777
 20
168.2952839819
 30
0.0
 10
136.1576019363
 20
168.2791694263
 30
0.0
 10
136.3130987216
 20
168.2057559092
 30
0.0
 10
136.3770337731
 20
168.128646068
 30
0.0
  0
SPLINE
  5
309
100
AcDbEntity
  8
0
100
AcDbSpline
 62
7
  6
CONTINUOUS
 70
0
 71
3
 72
21
 73
17
 74
0
 42
0.0000001
 43
0.0000001
 44
0.0000000001
 40
0.0
 40
0.0
 40
0.0
 40
0.0
 40
0.0152736556
 40
0.0307400416
 40
0.0615944727
 40
0.0924597446
 40
0.1233512662
 40
0.1852330485
 40
0.2472659363
 40
0.3094463907
 40
0.3717660941
 40
0.4967787028
 40
0.6222117836
 40
0.747963109
 40
0.8739278454
 40
1.0
 40
1.0
 40
1.0
 40
1.0
 10
120.4877193169
 20
146.4006344083
 30
0.0
 10
120.4724570017
 20
146.400571989
 30
0.0
 10
120.4467688369
 20
146.3745748343
 30
0.0
 10
120.4210277442
 20
146.3208222984
 30
0.0
 10
120.3973802144
 20
146.2460504054
 30
0.0
 10
120.377581841
 20
146.155955581
 30
0.0
 10
120.356604166
 20
146.0340582169
 30
0.0
 10
120.3377007659
 20
145.8805094134
 30
0.0
 10
120.3214731258
 20
145.6952254612
 30
0.0
 10
120.3097039312
 20
145.5091913939
 30
0.0
 10
120.2982492913
 20
145.2601155416
 30
0.0
 10
120.2898355272
 20
144.9476700224
 30
0.0
 10
120.285083079
 20
144.5717745425
 30
0.0
 10
120.2832686564
 20
144.1949044863
 30
0.0
 10
120.2827953183
 20
143.8173938533
 30
0.0
 10
120.2827592949
 20
143.5655419544
 30
0.0
 10
120.2827592949
 20
143.4395623521
 30
0.0
  0
SPLINE
  5
30A
100
AcDbEntity
  8
0
100
AcDbSpline
 62
7
  6
CONTINUOUS
 70
0
 71
3
 72
17
 73
13
 74
0
 42
0.0000001
 43
0.0000001
 44
0.0000000001
 40
0.0
 40
0.0
 40
0.0
 40
0.0
 40
0.125135549
 40
0.2502986125
 40
0.3754807531
 40
0.5006727147
 40
0.6258456077
 40
0.6884746641
 40
0.7511065344
 40
0.8746656069
 40
0.9373062378
 40
1.0
 40
1.0
 40
1.0
 40
1.0
 10
121.1755894246
 20
144.6292309823
 30
0.0
 10
121.1926577683
 20
144.5579046737
 30
0.0
 10
121.2289243301
 20
144.4157309921
 30
0.0
 10
121.2909708037
 20
144.2045374822
 30
0.0
 10
121.3625519629
 20
143.9962997924
 30
0.0
 10
121.4468920178
 20
143.7927971843
 30
0.0
 10
121.5320613714
 20
143.6299142895
 30
0.0
 10
121.6157157778
 20
143.5086027418
 30
0.0
 10
121.7105508982
 20
143.3992755893
 30
0.0
 10
121.8451592803
 20
143.3131994506
 30
0.0
 10
121.995686312
 20
143.3347923389
 30
0.0
 10
122.0589941312
 20
143.3747292934
 30
0.0
 10
122.0877193169
 20
143.3976416747
 30
0.0
  0
SPLINE
  5
30B
100
AcDbEntity
  8
0
100
AcDbSpline
 62
7
  6
CONTINUOUS
 70
0
 71
3
 72
13
 73
9
 74
0
 42
0.0000001
 43
0.0000001
 44
0.0000000001
 40
0.0
 40
0.0
 40
0.0
 40
0.0
 40
0.1670510693
 40
0.3289369806
 40
0.4609641718
 40
0.578209763
 40
0.7939442568
 40
1.0
 40
1.0
 40
1.0
 40
1.0
 10
122.0877193169
 20
154.5591695085
 30
0.0
 10
122.0232858662
 20
154.5834046135
 30
0.0
 10
121.8840848732
 20
154.605338956
 30
0.0
 10
121.6974768849
 20
154.5488627837
 30
0.0
 10
121.5560158468
 20
154.4532993291
 30
0.0
 10
121.4184872494
 20
154.3189318601
 30
0.0
 10
121.2890675449
 20
154.1365596014
 30
0.0
 10
121.2100675783
 20
153.9813073603
 30
0.0
 10
121.1755894246
 20
153.9037081117
 30
0.0
  0
SPLINE
  5
30C
100
AcDbEntity
  8
0
100
AcDbSpline
 62
7
  6
CONTINUOUS
 70
0
 71
3
 72
16
 73
12
 74
0
 42
0.0000001
 43
0.0000001
 44
0.0000000001
 40
0.0
 40
0.0
 40
0.0
 40
0.0
 40
0.0735401093
 40
0.1545841369
 40
0.2292313659
 40
0.2978973002
 40
0.4259913051
 40
0.5473045002
 40
0.6644420892
 40
0.7785599955
 40
1.0
 40
1.0
 40
1.0
 40
1.0
 10
122.0877193169
 20
154.5591695085
 30
0.0
 10
122.1001711357
 20
154.554486054
 30
0.0
 10
122.1293213764
 20
154.5504055451
 30
0.0
 10
122.16879093
 20
154.5686475551
 30
0.0
 10
122.1963523961
 20
154.5990509067
 30
0.0
 10
122.2222483089
 20
154.6409283391
 30
0.0
 10
122.2433280947
 20
154.6948602747
 30
0.0
 10
122.2598569363
 20
154.7591311656
 30
0.0
 10
122.2706728832
 20
154.8220496785
 30
0.0
 10
122.27976105
 20
154.9034648081
 30
0.0
 10
122.282266917
 20
154.9642016627
 30
0.0
 10
122.2826099991
 20
155.0042589089
 30
0.0
  0
SPLINE
  5
30D
100
AcDbEntity
  8
0
100
AcDbSpline
 62
7
  6
CONTINUOUS
 70
0
 71
3
 72
17
 73
13
 74
0
 42
0.0000001
 43
0.0000001
 44
0.0000000001
 40
0.0
 40
0.0
 40
0.0
 40
0.0
 40
0.2841775711
 40
0.4146661432
 40
0.5373502072
 40
0.652341305
 40
0.7602377654
 40
0.8121867936
 40
0.8638391814
 40
0.9180398508
 40
0.9497831112
 40
1.0
 40
1.0
 40
1.0
 40
1.0
 10
120.2827592949
 20
116.5322893423
 30
0.0
 10
120.2827592949
 20
116.412715905
 30
0.0
 10
120.2826164816
 20
116.2382332453
 30
0.0
 10
120.2849964768
 20
116.0121431613
 30
0.0
 10
120.2896160446
 20
115.857273659
 30
0.0
 10
120.2995436218
 20
115.712174538
 30
0.0
 10
120.3156579372
 20
115.5974130643
 30
0.0
 10
120.3376263391
 20
115.5110359709
 30
0.0
 10
120.3609304662
 20
115.448736352
 30
0.0
 10
120.3910651657
 20
115.3983913303
 30
0.0
 10
120.4321547138
 20
115.3581440649
 30
0.0
 10
120.4665954122
 20
115.3443035506
 30
0.0
 10
120.4877193169
 20
115.34380583
 30
0.0
  0
SPLINE
  5
30E
100
AcDbEntity
  8
0
100
AcDbSpline
 62
7
  6
CONTINUOUS
 70
0
 71
3
 72
9
 73
5
 74
0
 42
0.0000001
 43
0.0000001
 44
0.0000000001
 40
0.0
 40
0.0
 40
0.0
 40
0.0
 40
0.2573720101
 40
1.0
 40
1.0
 40
1.0
 40
1.0
 10
121.1755894246
 20
116.1111345706
 30
0.0
 10
121.1404500364
 20
116.0433792765
 30
0.0
 10
121.0014619009
 20
115.7814076255
 30
0.0
 10
120.8524784104
 20
115.5246984754
 30
0.0
 10
120.7357249567
 20
115.3379623462
 30
0.0
  0
SPLINE
  5
30F
100
AcDbEntity
  8
0
100
AcDbSpline
 62
7
  6
CONTINUOUS
 70
0
 71
3
 72
17
 73
13
 74
0
 42
0.0000001
 43
0.0000001
 44
0.0000000001
 40
0.0
 40
0.0
 40
0.0
 40
0.0
 40
0.2182009024
 40
0.3349220057
 40
0.456586696
 40
0.5831112211
 40
0.7144823146
 40
0.7820564401
 40
0.8510300181
 40
0.92186225
 40
0.958727904
 40
1.0
 40
1.0
 40
1.0
 40
1.0
 10
120.2827592949
 20
154.6722219702
 30
0.0
 10
120.2827592949
 20
154.5399429559
 30
0.0
 10
120.2827416075
 20
154.3369032946
 30
0.0
 10
120.2851487164
 20
154.0601145243
 30
0.0
 10
120.2899739099
 20
153.8389421216
 30
0.0
 10
120.300259648
 20
153.6090271407
 30
0.0
 10
120.3163846714
 20
153.4123584456
 30
0.0
 10
120.3379587719
 20
153.2511575739
 30
0.0
 10
120.3605632425
 20
153.1279872819
 30
0.0
 10
120.3901590388
 20
153.0228365512
 30
0.0
 10
120.4245907135
 20
152.943366697
 30
0.0
 10
120.46270385
 20
152.8991463204
 30
0.0
 10
120.4877193169
 20
152.8996334263
 30
0.0
  0
SPLINE
  5
310
100
AcDbEntity
  8
0
100
AcDbSpline
 62
7
  6
CONTINUOUS
 70
0
 71
3
 72
11
 73
7
 74
0
 42
0.0000001
 43
0.0000001
 44
0.0000000001
 40
0.0
 40
0.0
 40
0.0
 40
0.0
 40
0.2163338898
 40
0.4581730139
 40
0.72121324
 40
1.0
 40
1.0
 40
1.0
 40
1.0
 10
120.7357249567
 20
152.9044626542
 30
0.0
 10
120.6500235687
 20
152.4417410985
 30
0.0
 10
120.5277550827
 20
151.4505297012
 30
0.0
 10
120.4731730416
 20
149.8811829903
 30
0.0
 10
120.5378005539
 20
148.1763965589
 30
0.0
 10
120.6571091717
 20
147.002976242
 30
0.0
 10
120.7357249567
 20
146.4016486642
 30
0.0
  0
SPLINE
  5
311
100
AcDbEntity
  8
0
100
AcDbSpline
 62
7
  6
CONTINUOUS
 70
0
 71
3
 72
12
 73
8
 74
0
 42
0.0000001
 43
0.0000001
 44
0.0000000001
 40
0.0
 40
0.0
 40
0.0
 40
0.0
 40
0.2460280129
 40
0.4936634005
 40
0.7438647573
 40
0.8713194616
 40
1.0
 40
1.0
 40
1.0
 40
1.0
 10
136.3770337731
 20
148.0841038405
 30
0.0
 10
136.3614570861
 20
148.0271624052
 30
0.0
 10
136.3237805909
 20
147.9144072304
 30
0.0
 10
136.242404137
 20
147.7549133898
 30
0.0
 10
136.1430343578
 20
147.6381503305
 30
0.0
 10
136.0368123337
 20
147.5762370223
 30
0.0
 10
135.9748975114
 20
147.5639125361
 30
0.0
 10
135.9440210712
 20
147.5639125361
 30
0.0
  0
SPLINE
  5
312
100
AcDbEntity
  8
BEZUGSACHSEN
100
AcDbSpline
 62
7
  6
CONTINUOUS
 70
0
 71
3
 72
13
 73
9
 74
0
 42
0.0000001
 43
0.0000001
 44
0.0000000001
 40
0.0
 40
0.0
 40
0.0
 40
0.0
 40
0.26800019
 40
0.5239616086
 40
0.6465398056
 40
0.7658034364
 40
0.8830813754
 40
1.0
 40
1.0
 40
1.0
 40
1.0
 10
151.4826962058
 20
123.0219588396
 30
0.0
 10
151.159450002
 20
123.0219588396
 30
0.0
 10
150.5227629967
 20
123.1217293447
 30
0.0
 10
149.8195592724
 20
123.4999331547
 30
0.0
 10
149.3946606065
 20
123.9296571908
 30
0.0
 10
149.1597810804
 20
124.2978182987
 30
0.0
 10
149.0149866527
 20
124.7025587429
 30
0.0
 10
148.9827409133
 20
124.9861324052
 30
0.0
 10
148.9827366265
 20
125.1271528334
 30
0.0
  0
SPLINE
  5
313
100
AcDbEntity
  8
BEZUGSACHSEN
100
AcDbSpline
 62
7
  6
CONTINUOUS
 70
0
 71
3
 72
13
 73
9
 74
0
 42
0.0000001
 43
0.0000001
 44
0.0000000001
 40
0.0
 40
0.0
 40
0.0
 40
0.0
 40
0.26800019
 40
0.5239616086
 40
0.6465398056
 40
0.7658034364
 40
0.8830813754
 40
1.0
 40
1.0
 40
1.0
 40
1.0
 10
151.4826962058
 20
153.4074236034
 30
0.0
 10
151.8059424097
 20
153.4074236034
 30
0.0
 10
152.442629415
 20
153.3076530983
 30
0.0
 10
153.1458331393
 20
152.9294492884
 30
0.0
 10
153.5707318052
 20
152.4997252523
 30
0.0
 10
153.8056113312
 20
152.1315641444
 30
0.0
 10
153.9504057589
 20
151.7268237001
 30
0.0
 10
153.9826514984
 20
151.4432500378
 30
0.0
 10
153.9826557852
 20
151.3022296097
 30
0.0
  0
SPLINE
  5
314
100
AcDbEntity
  8
0
100
AcDbSpline
 62
7
  6
CONTINUOUS
 70
0
 71
3
 72
9
 73
5
 74
0
 42
0.0000001
 43
0.0000001
 44
0.0000000001
 40
0.0
 40
0.0
 40
0.0
 40
0.0
 40
0.1680322176
 40
1.0
 40
1.0
 40
1.0
 40
1.0
 10
132.5883586385
 20
168.128646068
 30
0.0
 10
132.6052081975
 20
168.1489677348
 30
0.0
 10
132.7206627743
 20
168.2574477668
 30
0.0
 10
132.8906663234
 20
168.2952839819
 30
0.0
 10
133.0213713404
 20
168.2952839819
 30
0.0
  0
SPLINE
  5
315
100
AcDbEntity
  8
0
100
AcDbSpline
 62
7
  6
CONTINUOUS
 70
0
 71
3
 72
12
 73
8
 74
0
 42
0.0000001
 43
0.0000001
 44
0.0000000001
 40
0.0
 40
0.0
 40
0.0
 40
0.0
 40
0.1286448926
 40
0.256081
 40
0.5063027424
 40
0.7539549585
 40
1.0
 40
1.0
 40
1.0
 40
1.0
 10
133.0213713404
 20
147.5639125361
 30
0.0
 10
132.9905034089
 20
147.5639125361
 30
0.0
 10
132.9285944147
 20
147.5762061599
 30
0.0
 10
132.8223981174
 20
147.6381536235
 30
0.0
 10
132.7229941353
 20
147.7548818255
 30
0.0
 10
132.6416182889
 20
147.9143980636
 30
0.0
 10
132.6039364261
 20
148.0271583821
 30
0.0
 10
132.5883586385
 20
148.0841038405
 30
0.0
  0
SPLINE
  5
316
100
AcDbEntity
  8
BEZUGSACHSEN
100
AcDbSpline
 62
7
  6
CONTINUOUS
 70
0
 71
3
 72
13
 73
9
 74
0
 42
0.0000001
 43
0.0000001
 44
0.0000000001
 40
0.0
 40
0.0
 40
0.0
 40
0.0
 40
0.1169182836
 40
0.2341964603
 40
0.3534585441
 40
0.4760351154
 40
0.7319995187
 40
1.0
 40
1.0
 40
1.0
 40
1.0
 10
148.9827366265
 20
151.302135704
 30
0.0
 10
148.9827323396
 20
151.4431592979
 30
0.0
 10
149.0149708392
 20
151.7267411099
 30
0.0
 10
149.1597454358
 20
152.131497711
 30
0.0
 10
149.3946172965
 20
152.4996736226
 30
0.0
 10
149.8195164056
 20
152.9294184025
 30
0.0
 10
150.5227339733
 20
153.3076462912
 30
0.0
 10
151.1594414516
 20
153.4074236034
 30
0.0
 10
151.4826962058
 20
153.4074236034
 30
0.0
  0
SPLINE
  5
317
100
AcDbEntity
  8
BEZUGSACHSEN
100
AcDbSpline
 62
7
  6
CONTINUOUS
 70
0
 71
3
 72
13
 73
9
 74
0
 42
0.0000001
 43
0.0000001
 44
0.0000000001
 40
0.0
 40
0.0
 40
0.0
 40
0.0
 40
0.1169182836
 40
0.2341964603
 40
0.3534585441
 40
0.4760351154
 40
0.7319995187
 40
1.0
 40
1.0
 40
1.0
 40
1.0
 10
153.9826557852
 20
125.1272467391
 30
0.0
 10
153.982660072
 20
124.9862231452
 30
0.0
 10
153.9504215724
 20
124.7026413331
 30
0.0
 10
153.8056469759
 20
124.2978847321
 30
0.0
 10
153.5707751152
 20
123.9297088205
 30
0.0
 10
153.1458760061
 20
123.4999640406
 30
0.0
 10
152.4426584384
 20
123.1217361519
 30
0.0
 10
151.80595096
 20
123.0219588396
 30
0.0
 10
151.4826962058
 20
123.0219588396
 30
0.0
  0
SPLINE
  5
318
100
AcDbEntity
  8
BEZUGSACHSEN
100
AcDbSpline
 62
7
  6
CONTINUOUS
 70
0
 71
3
 72
9
 73
5
 74
0
 42
0.0000001
 43
0.0000001
 44
0.0000000001
 40
0.0
 40
0.0
 40
0.0
 40
0.0
 40
0.2476143305
 40
1.0
 40
1.0
 40
1.0
 40
1.0
 10
152.6673361256
 20
127.0706315566
 30
0.0
 10
152.5762214783
 20
127.0281587994
 30
0.0
 10
152.1987439074
 20
126.8775634901
 30
0.0
 10
151.788153423
 20
126.8121277121
 30
0.0
 10
151.4826962058
 20
126.8121277121
 30
0.0
  0
SPLINE
  5
319
100
AcDbEntity
  8
0
100
AcDbSpline
 62
7
  6
CONTINUOUS
 70
0
 71
3
 72
8
 73
4
 74
0
 42
0.0000001
 43
0.0000001
 44
0.0000000001
 40
0.0
 40
0.0
 40
0.0
 40
0.0
 40
1.0
 40
1.0
 40
1.0
 40
1.0
 10
122.2825742524
 20
142.8399138815
 30
0.0
 10
122.2822433183
 20
142.8874425892
 30
0.0
 10
122.2810608031
 20
142.9349829981
 30
0.0
 10
122.2785568313
 20
142.9824468548
 30
0.0
  0
SPLINE
  5
31A
100
AcDbEntity
  8
0
100
AcDbSpline
 62
7
  6
CONTINUOUS
 70
0
 71
3
 72
15
 73
11
 74
0
 42
0.0000001
 43
0.0000001
 44
0.0000000001
 40
0.0
 40
0.0
 40
0.0
 40
0.0
 40
0.2532162989
 40
0.3790219793
 40
0.5040739368
 40
0.6282014989
 40
0.7508575768
 40
0.8716570132
 40
0.9343432508
 40
1.0
 40
1.0
 40
1.0
 40
1.0
 10
122.2785568313
 20
142.9824468548
 30
0.0
 10
122.276193413
 20
143.0272464602
 30
0.0
 10
122.2710359682
 20
143.0942524503
 30
0.0
 10
122.2588636446
 20
143.182776711
 30
0.0
 10
122.2462858468
 20
143.2479844541
 30
0.0
 10
122.2283590354
 20
143.3117755499
 30
0.0
 10
122.2032703236
 20
143.371050749
 30
0.0
 10
122.1639910345
 20
143.4159319622
 30
0.0
 10
122.1167306967
 20
143.4176260271
 30
0.0
 10
122.0968130692
 20
143.4048952229
 30
0.0
 10
122.0877193169
 20
143.3976416747
 30
0.0
  0
SPLINE
  5
31B
100
AcDbEntity
  8
BEZUGSACHSEN
100
AcDbSpline
 62
7
  6
CONTINUOUS
 70
0
 71
3
 72
9
 73
5
 74
0
 42
0.0000001
 43
0.0000001
 44
0.0000000001
 40
0.0
 40
0.0
 40
0.0
 40
0.0
 40
0.2476151054
 40
1.0
 40
1.0
 40
1.0
 40
1.0
 10
150.2982144803
 20
127.0705578213
 30
0.0
 10
150.3893192883
 20
127.0280969508
 30
0.0
 10
150.7667518005
 20
126.8775446491
 30
0.0
 10
151.1772826155
 20
126.8121277121
 30
0.0
 10
151.4826962058
 20
126.8121277121
 30
0.0
  0
SPLINE
  5
31C
100
AcDbEntity
  8
BEZUGSACHSEN
100
AcDbSpline
 62
7
  6
CONTINUOUS
 70
0
 71
3
 72
9
 73
5
 74
0
 42
0.0000001
 43
0.0000001
 44
0.0000000001
 40
0.0
 40
0.0
 40
0.0
 40
0.0
 40
0.2524208771
 40
1.0
 40
1.0
 40
1.0
 40
1.0
 10
151.4826962058
 20
149.617254731
 30
0.0
 10
151.3802277353
 20
149.617254731
 30
0.0
 10
150.9746580396
 20
149.5954416165
 30
0.0
 10
150.5731145479
 20
149.4869682819
 30
0.0
 10
150.2980562861
 20
149.3587508865
 30
0.0
  0
SPLINE
  5
31D
100
AcDbEntity
  8
BEZUGSACHSEN
100
AcDbSpline
 62
7
  6
CONTINUOUS
 70
0
 71
3
 72
9
 73
5
 74
0
 42
0.0000001
 43
0.0000001
 44
0.0000000001
 40
0.0
 40
0.0
 40
0.0
 40
0.0
 40
0.2524199069
 40
1.0
 40
1.0
 40
1.0
 40
1.0
 10
151.4826962058
 20
149.617254731
 30
0.0
 10
151.5851497581
 20
149.617254731
 30
0.0
 10
151.9906620811
 20
149.59544775
 30
0.0
 10
152.3921498625
 20
149.4870059049
 30
0.0
 10
152.6671779314
 20
149.3588246218
 30
0.0
  0
SPLINE
  5
31E
100
AcDbEntity
  8
0
100
AcDbSpline
 62
7
  6
CONTINUOUS
 70
0
 71
3
 72
13
 73
9
 74
0
 42
0.0000001
 43
0.0000001
 44
0.0000000001
 40
0.0
 40
0.0
 40
0.0
 40
0.0
 40
0.1753307868
 40
0.3422637982
 40
0.4768046258
 40
0.5947351366
 40
0.8062611466
 40
1.0
 40
1.0
 40
1.0
 40
1.0
 10
122.0877193169
 20
116.6872624814
 30
0.0
 10
122.023806572
 20
116.7142026431
 30
0.0
 10
121.8860295287
 20
116.7429406291
 30
0.0
 10
121.6983825305
 20
116.6941618112
 30
0.0
 10
121.5567978468
 20
116.6053199082
 30
0.0
 10
121.420332624
 20
116.4817172963
 30
0.0
 10
121.2919139375
 20
116.3178406902
 30
0.0
 10
121.2108739405
 20
116.1791696979
 30
0.0
 10
121.1755894246
 20
116.1111345706
 30
0.0
  0
LINE
  5
31F
100
AcDbEntity
  8
0
100
AcDbLine
 62
7
  6
CONTINUOUS
 10
120.4930978376
 20
114.7893064156
 11
120.7357249567
 21
115.3379623462
  0
SPLINE
  5
320
100
AcDbEntity
  8
0
100
AcDbSpline
 62
7
  6
CONTINUOUS
 70
0
 71
3
 72
13
 73
9
 74
0
 42
0.0000001
 43
0.0000001
 44
0.0000000001
 40
0.0
 40
0.0
 40
0.0
 40
0.0
 40
0.286526882
 40
0.4543474408
 40
0.5599589325
 40
0.648267425
 40
0.8182504149
 40
1.0
 40
1.0
 40
1.0
 40
1.0
 10
122.0877193169
 20
116.6872624814
 30
0.0
 10
122.1131056009
 20
116.6765617895
 30
0.0
 10
122.1558308102
 20
116.663762867
 30
0.0
 10
122.2110207035
 20
116.6679667334
 30
0.0
 10
122.2422057642
 20
116.6852528092
 30
0.0
 10
122.2652680689
 20
116.7122644498
 30
0.0
 10
122.2795068605
 20
116.7532430367
 30
0.0
 10
122.2822865345
 20
116.787059983
 30
0.0
 10
122.2826099991
 20
116.8045320964
 30
0.0
  0
ELLIPSE
  5
321
100
AcDbEntity
  8
0
100
AcDbEllipse
 62
7
  6
CONTINUOUS
 10
120.1355420165
 20
138.2146912215
 30
0.0
 11
14.7536831607
 21
31.0932549156
 31
0.0
 40
0.3419987131
 41
-1.0912395858
 42
-0.1578061866
  0
ELLIPSE
  5
322
100
AcDbEntity
  8
0
100
AcDbEllipse
 62
7
  6
CONTINUOUS
 10
148.8298503952
 20
138.2146912215
 30
0.0
 11
-14.7536831607
 21
31.0932549156
 31
0.0
 40
0.3419987131
 41
0.1578061866
 42
1.0912395858
  0
ELLIPSE
  5
323
100
AcDbEntity
  8
0
100
AcDbEllipse
 62
7
  6
CONTINUOUS
 10
148.8298503952
 20
138.2146912215
 30
0.0
 11
14.7536831607
 21
31.0932549156
 31
0.0
 40
0.3419987131
 41
-4.2328322393
 42
-3.2993988402
  0
ELLIPSE
  5
324
100
AcDbEntity
  8
0
100
AcDbEllipse
 62
7
  6
CONTINUOUS
 10
120.1355420165
 20
138.2146912215
 30
0.0
 11
-14.7536831607
 21
31.0932549156
 31
0.0
 40
0.3419987131
 41
-2.9837864669
 42
-2.0503530678
  0
ENDSEC
  0
SECTION
  2
OBJECTS
  0
DICTIONARY
  5
C
100
AcDbDictionary
280
0
281
1
  3
ACAD_GROUP
350
D
  3
ACAD_MLINESTYLE
350
17
  3
ACAD_LAYOUT
350
1A
  3
ACAD_PLOTSETTINGS
350
19
  3
ACAD_PLOTSTYLENAME
350
E
  0
DICTIONARY
  5
D
102
{ACAD_REACTORS
330
C
102
}
100
AcDbDictionary
280
0
281
1
  0
ACDBDICTIONARYWDFLT
  5
E
102
{ACAD_REACTORS
330
C
102
}
100
AcDbDictionary
281
1
  3
Normal
350
F
100
AcDbDictionaryWithDefault
340
F
  0
DICTIONARY
  5
17
102
{ACAD_REACTORS
330
C
102
}
100
AcDbDictionary
280
0
281
1
  3
Standard
350
18
  0
DICTIONARY
  5
19
102
{ACAD_REACTORS
330
C
102
}
100
AcDbDictionary
281
1
  0
DICTIONARY
  5
1A
102
{ACAD_REACTORS
330
C
102
}
100
AcDbDictionary
281
1
  3
Model
350
325
  3
Layout1
350
326
  0
ACDBPLACEHOLDER
  5
F
102
{ACAD_REACTORS
330
E
102
}
  0
MLINESTYLE
  5
18
102
{ACAD_REACTORS
330
17
102
}
100
AcDbMlineStyle
  2
STANDARD
 70
0
  3

 62
256
 51
90.0
 52
90.0
 71
2
 49
0.5
 62
256
  6
BYLAYER
 49
-0.5
 62
256
  6
BYLAYER
  0
LAYOUT
  5
325
102
{ACAD_REACTORS
330
1A
102
}
100
AcDbPlotSettings
  1

  2
none_device
  4
ISO_A4_(297.00_x_210.00_MM)
  6

 40
0.0
 41
0.0
 42
0.0
 43
0.0
 44
297.0
 45
210.0
 46
0.0
 47
0.0
 48
0.0
 49
0.0
140
0.0
141
0.0
142
1.0
143
1.0
 70
1024
 72
1
 73
0
 74
0
  7

 75
0
147
1.0
148
0.0
149
0.0
100
AcDbLayout
  1
Model
 70
0
 71
0
 10
0.0
 20
0.0
 11
297.0
 21
210.0
 12
0.0
 22
0.0
 32
0.0
 14
0.0
 24
0.0
 34
0.0
 15
0.0
 25
0.0
 35
0.0
146
0.0
 13
0.0
 23
0.0
 33
0.0
 16
1.0
 26
0.0
 36
0.0
 17
0.0
 27
1.0
 37
0.0
 76
0
330
217
345
0
346
0
  0
LAYOUT
  5
326
102
{ACAD_REACTORS
330
1A
102
}
100
AcDbPlotSettings
  1

  2
none_device
  4
ISO_A4_(297.00_x_210.00_MM)
  6

 40
0.0
 41
0.0
 42
0.0
 43
0.0
 44
297.0
 45
210.0
 46
0.0
 47
0.0
 48
0.0
 49
0.0
140
0.0
141
0.0
142
1.0
143
1.0
 70
0
 72
1
 73
0
 74
0
  7

 75
0
147
1.0
148
0.0
149
0.0
100
AcDbLayout
  1
Layout1
 70
0
 71
1
 10
0.0
 20
0.0
 11
297.0
 21
210.0
 12
0.0
 22
0.0
 32
0.0
 14
0.0
 24
0.0
 34
0.0
 15
0.0
 25
0.0
 35
0.0
146
0.0
 13
0.0
 23
0.0
 33
0.0
 16
1.0
 26
0.0
 36
0.0
 17
0.0
 27
1.0
 37
0.0
 76
0
330
218
345
0
346
0
  0
ENDSEC
  0
EOF
