999
DXF file: cc6-140-25.dxf
999
Pro/ENGINEER 2010430 by Parametric Technology Corporation
  0
SECTION
  2
HEADER
  9
$ACADVER
  1
AC1021
  9
$DWGCODEPAGE
  3
ANSI_1252
  9
$EXTMAX
 10
297.0
 20
210.0
 30
0.0
  9
$EXTMIN
 10
0.0
 20
0.0
 30
0.0
  9
$LIMMIN
 10
0.0
 20
0.0
  9
$LIMMAX
 10
297.0
 20
210.0
  9
$VIEWCTR
 10
148.5
 20
105.0
  9
$VIEWSIZE
 40
210.0
  9
$CLAYER
  8
0
  9
$LTSCALE
 40
16.335
  9
$CELTYPE
  6
BYLAYER
  9
$DIMSCALE
 40
1.0
  9
$DIMASZ
 40
3.5
  9
$DIMEXO
 40
1.85625
  9
$DIMDLI
 40
11.286
  9
$DIMEXE
 40
5.346
  9
$DIMCEN
 40
2.673
  9
$DIMLFAC
 40
1.0
  9
$DIMBLK
  1
_FILLED
  9
$DIMTXT
 40
3.5
  9
$DIMTOL
 70
1
  9
$DIMLIM
 70
0
  9
$DIMTFAC
 40
1.0
  9
$DIMTP
 40
0.005
  9
$DIMTM
 40
0.005
  9
$PDMODE
 70
3
  9
$PDSIZE
 40
0.3125
  9
$HANDSEED
  5
31F
  9
$TILEMODE
 70
1
  9
$MEASUREMENT
 70
1
  9
$INSUNITS
 70
4
  0
ENDSEC
  0
SECTION
  2
CLASSES
  0
CLASS
  1
ACDBDICTIONARYWDFLT
  2
AcDbDictionaryWithDefault
  3
AutoCAD 2000
 90
0
 91
1
280
0
281
0
  0
CLASS
  1
ACDBPLACEHOLDER
  2
AcDbPlaceHolder
  3
AutoCAD 2000
 90
0
 91
1
280
0
281
0
  0
CLASS
  1
LAYOUT
  2
AcDbLayout
  3
AutoCAD 2000
 90
0
 91
0
280
0
281
0
  0
ENDSEC
  0
SECTION
  2
TABLES
  0
TABLE
  2
VPORT
  5
8
100
AcDbSymbolTable
 70
2
  0
VPORT
  5
1F4
100
AcDbSymbolTableRecord
100
AcDbViewportTableRecord
  2
*ACTIVE
 70
0
 10
0.0
 20
0.0
 11
1.0
 21
1.0
 12
148.5
 22
105.0
 13
0.0
 23
0.0
 14
1.0
 24
1.0
 15
0.0
 25
0.0
 16
0.0
 26
0.0
 36
1.0
 17
0.0
 27
0.0
 37
0.0
 40
210.0
 41
1.4142857143
 42
50.0
 43
0.0
 44
0.0
 50
0.0
 51
0.0
 71
0
 72
100
 73
1
 74
1
 75
0
 76
0
 77
0
 78
0
  0
ENDTAB
  0
TABLE
  2
LTYPE
  5
5
100
AcDbSymbolTable
 70
6
  0
LTYPE
  5
14
100
AcDbSymbolTableRecord
100
AcDbLinetypeTableRecord
  2
BYBLOCK
 70
0
  3

 72
65
 73
0
 40
0.0
  0
LTYPE
  5
15
100
AcDbSymbolTableRecord
100
AcDbLinetypeTableRecord
  2
BYLAYER
 70
0
  3

 72
65
 73
0
 40
0.0
  0
LTYPE
  5
16
100
AcDbSymbolTableRecord
100
AcDbLinetypeTableRecord
  2
CONTINUOUS
 70
64
  3
Solid line
 72
65
 73
0
 40
0.0
  0
LTYPE
  5
1F5
100
AcDbSymbolTableRecord
100
AcDbLinetypeTableRecord
  2
CENTER
 70
64
  3
____ _ ____ _ ____ _ ____ _ ____ _ ____ _ ____
 72
65
 73
4
 40
0.6
 49
0.375
 74
0
 49
-0.075
 74
0
 49
0.075
 74
0
 49
-0.075
 74
0
  0
LTYPE
  5
1F6
100
AcDbSymbolTableRecord
100
AcDbLinetypeTableRecord
  2
HIDDEN
 70
64
  3
- - - - - - - - - - - - - - - - - - - -
 72
65
 73
2
 40
0.2
 49
0.1
 74
0
 49
-0.1
 74
0
  0
LTYPE
  5
1F7
100
AcDbSymbolTableRecord
100
AcDbLinetypeTableRecord
  2
PHANTOM
 70
64
  3
_____ _ _ _____ _ _ _____ _ _ _____
 72
65
 73
6
 40
0.8
 49
0.45
 74
0
 49
-0.05
 74
0
 49
0.1
 74
0
 49
-0.05
 74
0
 49
0.1
 74
0
 49
-0.05
 74
0
  0
LTYPE
  5
1F8
100
AcDbSymbolTableRecord
100
AcDbLinetypeTableRecord
  2
DOT
 70
64
  3
. . . . . . . . . . . . . . . . . . . .
 72
65
 73
2
 40
0.2
 49
0.1
 74
0
 49
-0.1
 74
0
  0
LTYPE
  5
1F9
100
AcDbSymbolTableRecord
100
AcDbLinetypeTableRecord
  2
DASHED
 70
64
  3
- - - - - - - - - - - - - - - - - - - -
 72
65
 73
2
 40
0.2
 49
0.1
 74
0
 49
-0.1
 74
0
  0
ENDTAB
  0
TABLE
  2
LAYER
  5
2
100
AcDbSymbolTable
 70
36
  0
LAYER
  5
10
100
AcDbSymbolTableRecord
100
AcDbLayerTableRecord
  2
0
 70
0
 62
7
  6
CONTINUOUS
370
-3
390
F
  0
LAYER
  5
1FA
100
AcDbSymbolTableRecord
100
AcDbLayerTableRecord
  2
DEFAULT_1
 70
0
 62
7
  6
CENTER
370
-3
390
F
  0
LAYER
  5
1FB
100
AcDbSymbolTableRecord
100
AcDbLayerTableRecord
  2
DEFAULT_2
 70
0
 62
8
  6
HIDDEN
370
-3
390
F
  0
LAYER
  5
1FC
100
AcDbSymbolTableRecord
100
AcDbLayerTableRecord
  2
DEFAULT_3
 70
0
 62
7
  6
PHANTOM
370
-3
390
F
  0
LAYER
  5
1FD
100
AcDbSymbolTableRecord
100
AcDbLayerTableRecord
  2
ACHSEN
 70
0
 62
7
  6
CONTINUOUS
370
-3
390
F
  0
LAYER
  5
1FE
100
AcDbSymbolTableRecord
100
AcDbLayerTableRecord
  2
BEZUGSACHSEN
 70
0
 62
7
  6
CONTINUOUS
370
-3
390
F
  0
LAYER
  5
1FF
100
AcDbSymbolTableRecord
100
AcDbLayerTableRecord
  2
BEZUGSEBENE_B
 70
0
 62
7
  6
CONTINUOUS
370
-3
390
F
  0
LAYER
  5
200
100
AcDbSymbolTableRecord
100
AcDbLayerTableRecord
  2
BOHRUNGEN
 70
0
 62
7
  6
CONTINUOUS
370
-3
390
F
  0
LAYER
  5
201
100
AcDbSymbolTableRecord
100
AcDbLayerTableRecord
  2
EBENEN
 70
0
 62
7
  6
CONTINUOUS
370
-3
390
F
  0
LAYER
  5
202
100
AcDbSymbolTableRecord
100
AcDbLayerTableRecord
  2
FASEN
 70
0
 62
7
  6
CONTINUOUS
370
-3
390
F
  0
LAYER
  5
203
100
AcDbSymbolTableRecord
100
AcDbLayerTableRecord
  2
FLAECHEN
 70
0
 62
7
  6
CONTINUOUS
370
-3
390
F
  0
LAYER
  5
204
100
AcDbSymbolTableRecord
100
AcDbLayerTableRecord
  2
GEWINDE
 70
0
 62
7
  6
CONTINUOUS
370
-3
390
F
  0
LAYER
  5
205
100
AcDbSymbolTableRecord
100
AcDbLayerTableRecord
  2
KOORDSYS
 70
0
 62
7
  6
CONTINUOUS
370
-3
390
F
  0
LAYER
  5
206
100
AcDbSymbolTableRecord
100
AcDbLayerTableRecord
  2
KURVEN
 70
0
 62
7
  6
CONTINUOUS
370
-3
390
F
  0
LAYER
  5
207
100
AcDbSymbolTableRecord
100
AcDbLayerTableRecord
  2
KURVE_FUER_GTOL_DETAILANSICHT
 70
0
 62
7
  6
CONTINUOUS
370
-3
390
F
  0
LAYER
  5
208
100
AcDbSymbolTableRecord
100
AcDbLayerTableRecord
  2
KURVE_GAUGE2_POLIGON_INNENEINST
 70
0
 62
7
  6
CONTINUOUS
370
-3
390
F
  0
LAYER
  5
209
100
AcDbSymbolTableRecord
100
AcDbLayerTableRecord
  2
KURVE_PHANTOM1_GAUGE_PIN_1
 70
0
 62
7
  6
CONTINUOUS
370
-3
390
F
  0
LAYER
  5
20A
100
AcDbSymbolTableRecord
100
AcDbLayerTableRecord
  2
KURVE_PHANTOM2_GAUGE_PIN1
 70
0
 62
7
  6
CONTINUOUS
370
-3
390
F
  0
LAYER
  5
20B
100
AcDbSymbolTableRecord
100
AcDbLayerTableRecord
  2
KURVE_POLIGON_BEMASUNG
 70
0
 62
7
  6
CONTINUOUS
370
-3
390
F
  0
LAYER
  5
20C
100
AcDbSymbolTableRecord
100
AcDbLayerTableRecord
  2
PUNKTE
 70
0
 62
7
  6
CONTINUOUS
370
-3
390
F
  0
LAYER
  5
20D
100
AcDbSymbolTableRecord
100
AcDbLayerTableRecord
  2
RUNDUNGEN
 70
0
 62
7
  6
CONTINUOUS
370
-3
390
F
  0
LAYER
  5
20E
100
AcDbSymbolTableRecord
100
AcDbLayerTableRecord
  2
S_ACHSEN
 70
0
 62
7
  6
CONTINUOUS
370
-3
390
F
  0
LAYER
  5
20F
100
AcDbSymbolTableRecord
100
AcDbLayerTableRecord
  2
S_EBENEN
 70
0
 62
7
  6
CONTINUOUS
370
-3
390
F
  0
LAYER
  5
210
100
AcDbSymbolTableRecord
100
AcDbLayerTableRecord
  2
S_KOORDSYS
 70
0
 62
7
  6
CONTINUOUS
370
-3
390
F
  0
LAYER
  5
211
100
AcDbSymbolTableRecord
100
AcDbLayerTableRecord
  2
TOL_BEZUEGE
 70
0
 62
7
  6
CONTINUOUS
370
-3
390
F
  0
LAYER
  5
212
100
AcDbSymbolTableRecord
100
AcDbLayerTableRecord
  2
VERBFLAECHE
 70
0
 62
7
  6
CONTINUOUS
370
-3
390
F
  0
LAYER
  5
213
100
AcDbSymbolTableRecord
100
AcDbLayerTableRecord
  2
ZEICHNUNGSBEMASSUNGEN
 70
0
 62
7
  6
CONTINUOUS
370
-3
390
F
  0
ENDTAB
  0
TABLE
  2
STYLE
  5
3
100
AcDbSymbolTable
 70
1
  0
STYLE
  5
11
100
AcDbSymbolTableRecord
100
AcDbTextStyleTableRecord
  2
STANDARD
 70
0
 40
0.0
 41
0.7
 50
0.0
 71
0
 42
0.2
  3
txt
  4

  0
STYLE
  5
214
100
AcDbSymbolTableRecord
100
AcDbTextStyleTableRecord
  2
TEXTSTYLE_1
 70
0
 40
0.0
 41
0.8
 50
0.0
 71
0
 42
0.2
  3
gdt
  4

  0
STYLE
  5
215
100
AcDbSymbolTableRecord
100
AcDbTextStyleTableRecord
  2
TEXTSTYLE_2
 70
0
 40
0.0
 41
0.7
 50
0.0
 71
0
 42
0.2
  3
gdt
  4

  0
ENDTAB
  0
TABLE
  2
VIEW
  5
6
100
AcDbSymbolTable
 70
0
  0
ENDTAB
  0
TABLE
  2
UCS
  5
7
100
AcDbSymbolTable
 70
0
  0
ENDTAB
  0
TABLE
  2
APPID
  5
9
100
AcDbSymbolTable
 70
1
  0
APPID
  5
216
100
AcDbSymbolTableRecord
100
AcDbRegAppTableRecord
  2
ACAD
 70
0
  0
ENDTAB
  0
TABLE
  2
BLOCK_RECORD
  5
1
100
AcDbSymbolTable
 70
0
  0
BLOCK_RECORD
  5
217
100
AcDbSymbolTableRecord
100
AcDbBlockTableRecord
  2
*Model_Space
  0
BLOCK_RECORD
  5
218
100
AcDbSymbolTableRecord
100
AcDbBlockTableRecord
  2
*Paper_Space
  0
BLOCK_RECORD
  5
219
100
AcDbSymbolTableRecord
100
AcDbBlockTableRecord
  2
_FILLED
  0
BLOCK_RECORD
  5
21A
100
AcDbSymbolTableRecord
100
AcDbBlockTableRecord
  2
*D0
  0
BLOCK_RECORD
  5
21B
100
AcDbSymbolTableRecord
100
AcDbBlockTableRecord
  2
*D1
  0
BLOCK_RECORD
  5
21C
100
AcDbSymbolTableRecord
100
AcDbBlockTableRecord
  2
*D2
  0
BLOCK_RECORD
  5
21D
100
AcDbSymbolTableRecord
100
AcDbBlockTableRecord
  2
*D3
  0
BLOCK_RECORD
  5
21E
100
AcDbSymbolTableRecord
100
AcDbBlockTableRecord
  2
*D4
  0
BLOCK_RECORD
  5
21F
100
AcDbSymbolTableRecord
100
AcDbBlockTableRecord
  2
*D5
  0
BLOCK_RECORD
  5
220
100
AcDbSymbolTableRecord
100
AcDbBlockTableRecord
  2
*D6
  0
ENDTAB
  0
TABLE
  2
DIMSTYLE
  5
A
100
AcDbSymbolTable
 70
1
100
AcDbDimStyleTable
 71
0
  0
DIMSTYLE
105
221
100
AcDbSymbolTableRecord
100
AcDbDimStyleTableRecord
  2
STANDARD
 70
0
  3

  4

 40
1.0
 41
3.5
 42
0.0625
 43
0.38
 44
0.18
 45
0.0
 46
0.0
 47
0.005
 48
0.005
140
3.5
141
0.09
142
0.0
143
25.4
144
1.0
145
0.0
146
1.0
147
0.09
 71
1.0
 72
0.0
 73
0
 74
0
 75
0
 76
0
 77
1
 78
8
170
0
171
2
172
0
173
0
174
0
175
0
176
0
177
0
178
5
270
2
271
3
272
3
273
2
274
2
275
0
280
0
281
0
282
0
283
1
284
8
285
0
286
0
287
3
288
0
340
11
341
219
342
219
343
219
344
219
  0
DIMSTYLE
105
222
100
AcDbSymbolTableRecord
100
AcDbDimStyleTableRecord
  2
DIMSTYLE_1
 70
0
  3

  4

 40
1.0
 41
3.5
 42
0.0625
 43
0.38
 44
0.18
 45
0.0
 46
0.0
 47
0.0
 48
0.1
140
3.5
141
0.09
142
0.0
143
25.4
144
1.0
145
0.0
146
1.0
147
0.09
 71
0.0
 72
0.0
 73
0
 74
0
 75
0
 76
0
 77
1
 78
8
170
0
171
2
172
0
173
0
174
0
175
0
176
0
177
0
178
5
270
2
271
2
272
2
273
2
274
2
275
0
280
0
281
0
282
0
283
1
284
8
285
0
286
0
287
3
288
0
340
11
341
219
342
219
343
219
344
219
  0
DIMSTYLE
105
223
100
AcDbSymbolTableRecord
100
AcDbDimStyleTableRecord
  2
DIMSTYLE_2
 70
0
  3

  4

 40
1.0
 41
3.5
 42
0.0625
 43
0.38
 44
0.18
 45
0.0
 46
0.0
 47
0.25
 48
0.25
140
3.5
141
0.09
142
0.0
143
25.4
144
1.0
145
0.0
146
1.0
147
0.09
 71
0.0
 72
0.0
 73
0
 74
0
 75
0
 76
0
 77
1
 78
8
170
0
171
2
172
0
173
0
174
0
175
0
176
0
177
0
178
5
270
2
271
2
272
2
273
2
274
2
275
0
280
0
281
0
282
0
283
1
284
8
285
0
286
0
287
3
288
0
340
11
341
219
342
219
343
219
344
219
  0
DIMSTYLE
105
224
100
AcDbSymbolTableRecord
100
AcDbDimStyleTableRecord
  2
DIMSTYLE_3
 70
0
  3

  4

 40
1.0
 41
3.5
 42
0.0625
 43
0.38
 44
0.18
 45
0.0
 46
0.0
 47
0.3
 48
0.3
140
3.5
141
0.09
142
0.0
143
25.4
144
1.0
145
0.0
146
1.0
147
0.09
 71
0.0
 72
0.0
 73
0
 74
0
 75
0
 76
0
 77
1
 78
8
170
0
171
2
172
0
173
0
174
0
175
0
176
0
177
0
178
5
270
2
271
2
272
2
273
2
274
2
275
0
280
0
281
0
282
0
283
1
284
8
285
0
286
0
287
3
288
0
340
11
341
219
342
219
343
219
344
219
  0
DIMSTYLE
105
225
100
AcDbSymbolTableRecord
100
AcDbDimStyleTableRecord
  2
DIMSTYLE_4
 70
0
  3

  4

 40
1.0
 41
3.5
 42
0.0625
 43
0.38
 44
0.18
 45
0.0
 46
0.0
 47
-0.038
 48
0.043
140
3.5
141
0.09
142
0.0
143
25.4
144
1.0
145
0.0
146
1.0
147
0.09
 71
0.0
 72
0.0
 73
0
 74
0
 75
0
 76
0
 77
1
 78
8
170
0
171
2
172
0
173
0
174
0
175
0
176
0
177
0
178
0
270
2
271
3
272
3
273
2
274
2
275
0
280
0
281
0
282
0
283
1
284
8
285
0
286
0
287
3
288
0
340
11
341
219
342
219
343
219
344
219
  0
DIMSTYLE
105
226
100
AcDbSymbolTableRecord
100
AcDbDimStyleTableRecord
  2
DIMSTYLE_5
 70
0
  3

  4

 40
1.0
 41
3.5
 42
0.0625
 43
0.38
 44
0.18
 45
0.0
 46
0.0
 47
0.5
 48
0.5
140
3.5
141
0.09
142
0.0
143
25.4
144
1.0
145
0.0
146
1.0
147
0.09
 71
0.0
 72
0.0
 73
0
 74
0
 75
0
 76
0
 77
1
 78
8
170
0
171
2
172
0
173
0
174
0
175
0
176
0
177
0
178
5
270
2
271
2
272
2
273
2
274
2
275
0
280
0
281
0
282
0
283
1
284
8
285
0
286
0
287
3
288
0
340
11
341
219
342
219
343
219
344
219
  0
ENDTAB
  0
ENDSEC
  0
SECTION
  2
BLOCKS
  0
BLOCK
  5
20
100
AcDbEntity
  8
0
100
AcDbBlockBegin
  2
*Model_Space
 70
0
 10
0.0
 20
0.0
 30
0.0
  3
*Model_Space
  1

  0
ENDBLK
  5
21
100
AcDbEntity
  8
0
100
AcDbBlockEnd
  0
BLOCK
  5
1C
100
AcDbEntity
  8
0
100
AcDbBlockBegin
  2
*Paper_Space
 70
0
 10
0.0
 20
0.0
 30
0.0
  3
*Paper_Space
  1

  0
ENDBLK
  5
1D
100
AcDbEntity
  8
0
100
AcDbBlockEnd
  0
BLOCK
  5
227
100
AcDbEntity
  8
0
100
AcDbBlockBegin
  2
_FILLED
 70
64
 10
0.0
 20
0.0
  3
_FILLED
  1

  0
SOLID
  5
228
100
AcDbEntity
  8
0
  6
BYBLOCK
 62
0
100
AcDbTrace
 10
0.0
 20
0.0
 11
-1.0
 21
0.125
 12
-1.0
 22
-0.125
 13
-1.0
 23
-0.125
  0
ENDBLK
  5
229
100
AcDbEntity
  8
0
  6
BYBLOCK
 62
0
100
AcDbBlockEnd
  0
BLOCK
  5
22A
100
AcDbEntity
  8
0
100
AcDbBlockBegin
 62
2
  6
CONTINUOUS
  2
*D0
 70
65
 10
0.0
 20
0.0
  3
*D0
  1

  0
MTEXT
  5
22B
100
AcDbEntity
  8
0
100
AcDbMText
 62
5
  6
CONTINUOUS
  7
TEXTSTYLE_2
 71
2
 72
1
 10
222.0213210606
 20
125.1505994856
 30
0.0
 11
0.0
 21
1.0
 31
0.0
 44
0.9
  1
{\Fgdt;n}\Ftxt;44
 40
3.5
 41
10.1666666667
  0
LINE
  5
22C
100
AcDbEntity
  8
0
100
AcDbLine
 62
2
  6
CONTINUOUS
 10
203.9050763679
 20
147.1255994856
 11
227.8963210606
 21
147.1255994856
  0
LINE
  5
22D
100
AcDbEntity
  8
0
100
AcDbLine
 62
2
  6
CONTINUOUS
 10
201.6999454262
 20
103.1755994856
 11
227.8963210606
 21
103.1755994856
  0
LINE
  5
22E
100
AcDbEntity
  8
0
100
AcDbLine
 62
2
  6
CONTINUOUS
 10
226.3963210606
 20
147.1255994856
 11
226.3963210606
 21
125.1505994856
  0
LINE
  5
22F
100
AcDbEntity
  8
0
100
AcDbLine
 62
2
  6
CONTINUOUS
 10
226.3963210606
 20
103.1755994856
 11
226.3963210606
 21
125.1505994856
  0
INSERT
  5
230
100
AcDbEntity
  8
0
100
AcDbBlockReference
 62
2
  6
CONTINUOUS
  2
_FILLED
 10
226.3963210606
 20
147.1255994856
 41
3.5
 42
3.5
 43
3.5
 50
90.0
  0
INSERT
  5
231
100
AcDbEntity
  8
0
100
AcDbBlockReference
 62
2
  6
CONTINUOUS
  2
_FILLED
 10
226.3963210606
 20
103.1755994856
 41
3.5
 42
3.5
 43
3.5
 50
270.0
  0
ENDBLK
  5
232
100
AcDbEntity
  8
0
  6
BYBLOCK
 62
0
100
AcDbBlockEnd
  0
BLOCK
  5
233
100
AcDbEntity
  8
0
100
AcDbBlockBegin
 62
2
  6
CONTINUOUS
  2
*D1
 70
65
 10
0.0
 20
0.0
  3
*D1
  1

  0
MTEXT
  5
234
100
AcDbEntity
  8
0
100
AcDbMText
 62
5
  6
CONTINUOUS
  7
STANDARD
 71
2
 72
1
 10
181.0570292067
 20
89.1084200738
 30
0.0
 11
0.2439375
 21
0.9697909548
 31
0.0
 44
0.9
  1
4\Fgdt;{\Fgdt;~}\Ftxt;30'
 40
3.5
 41
12.3333333333
  0
LINE
  5
235
100
AcDbEntity
  8
0
100
AcDbLine
 62
2
  6
CONTINUOUS
 10
172.5227108914
 20
100.9973538875
 11
190.5947176373
 21
102.4196516641
  0
LINE
  5
236
100
AcDbEntity
  8
0
100
AcDbLine
 62
2
  6
CONTINUOUS
 10
144.5220241134
 20
98.6755994856
 11
178.6597692196
 21
98.6755994856
  0
ARC
  5
237
100
AcDbEntity
  8
0
100
AcDbCircle
 62
2
  6
CONTINUOUS
 10
143.0220241134
 20
98.6755994856
 40
46.2197977346
100
AcDbArc
 50
4.5
 51
11.9378230526
  0
ARC
  5
238
100
AcDbEntity
  8
0
100
AcDbCircle
 62
2
  6
CONTINUOUS
 10
143.0220241134
 20
98.6755994856
 40
46.2197977346
100
AcDbArc
 50
345.8809480136
 51
0.0
  0
ARC
  5
239
100
AcDbEntity
  8
0
100
AcDbCircle
 62
2
  6
CONTINUOUS
 10
143.0220241134
 20
98.6755994856
 40
46.2197977346
100
AcDbArc
 50
360.0
 51
4.5
  0
SOLID
  5
23A
100
AcDbEntity
  8
0
100
AcDbTrace
 62
2
  6
CONTINUOUS
 10
188.2583133279
 20
105.7274670176
 11
189.0993416367
 21
102.3019630206
 12
189.1273921059
 22
105.8290892475
 13
189.1273921059
 23
105.8290892475
  0
SOLID
  5
23B
100
AcDbEntity
  8
0
100
AcDbTrace
 62
2
  6
CONTINUOUS
 10
189.5465209813
 20
95.1615470261
 11
189.241821848
 21
98.6755994856
 12
188.6721480949
 22
95.1946688535
 13
188.6721480949
 23
95.1946688535
  0
ENDBLK
  5
23C
100
AcDbEntity
  8
0
  6
BYBLOCK
 62
0
100
AcDbBlockEnd
  0
BLOCK
  5
23D
100
AcDbEntity
  8
0
100
AcDbBlockBegin
 62
2
  6
CONTINUOUS
  2
*D2
 70
65
 10
0.0
 20
0.0
  3
*D2
  1

  0
MTEXT
  5
23E
100
AcDbEntity
  8
0
100
AcDbMText
 62
5
  6
CONTINUOUS
  7
STANDARD
 71
2
 72
1
 10
155.1999454262
 20
176.6610424737
 30
0.0
 11
1.0
 21
0.0
 31
0.0
 44
0.9
  1
90
 40
3.5
 41
5.5
  0
LINE
  5
23F
100
AcDbEntity
  8
0
100
AcDbLine
 62
2
  6
CONTINUOUS
 10
110.1999454262
 20
152.7337167911
 11
110.1999454262
 21
173.7860424737
  0
LINE
  5
240
100
AcDbEntity
  8
0
100
AcDbLine
 62
2
  6
CONTINUOUS
 10
200.1999454262
 20
124.4511741943
 11
200.1999454262
 21
173.7860424737
  0
LINE
  5
241
100
AcDbEntity
  8
0
100
AcDbLine
 62
2
  6
CONTINUOUS
 10
110.1999454262
 20
172.2860424737
 11
155.1999454262
 21
172.2860424737
  0
LINE
  5
242
100
AcDbEntity
  8
0
100
AcDbLine
 62
2
  6
CONTINUOUS
 10
200.1999454262
 20
172.2860424737
 11
155.1999454262
 21
172.2860424737
  0
INSERT
  5
243
100
AcDbEntity
  8
0
100
AcDbBlockReference
 62
2
  6
CONTINUOUS
  2
_FILLED
 10
110.1999454262
 20
172.2860424737
 41
3.5
 42
3.5
 43
3.5
 50
180.0
  0
INSERT
  5
244
100
AcDbEntity
  8
0
100
AcDbBlockReference
 62
2
  6
CONTINUOUS
  2
_FILLED
 10
200.1999454262
 20
172.2860424737
 41
3.5
 42
3.5
 43
3.5
  0
ENDBLK
  5
245
100
AcDbEntity
  8
0
  6
BYBLOCK
 62
0
100
AcDbBlockEnd
  0
BLOCK
  5
246
100
AcDbEntity
  8
0
100
AcDbBlockBegin
 62
1
  6
CONTINUOUS
  2
*D3
 70
65
 10
0.0
 20
0.0
  3
*D3
  1

  0
MTEXT
  5
247
100
AcDbEntity
  8
0
100
AcDbMText
 62
1
  6
CONTINUOUS
  7
TEXTSTYLE_2
 71
2
 72
1
 10
209.9485761267
 20
125.1505994856
 30
0.0
 11
0.0
 21
1.0
 31
0.0
 44
0.9
  1
{\Fgdt;n}\Ftxt;25
 40
3.5
 41
9.9166666667
  0
LINE
  5
248
100
AcDbEntity
  8
0
100
AcDbLine
 62
1
  6
CONTINUOUS
 10
156.3317974769
 20
112.6708494856
 11
215.8235761267
 21
112.6708494856
  0
LINE
  5
249
100
AcDbEntity
  8
0
100
AcDbLine
 62
1
  6
CONTINUOUS
 10
156.2601174769
 20
137.6303494856
 11
215.8235761267
 21
137.6303494856
  0
LINE
  5
24A
100
AcDbEntity
  8
0
100
AcDbLine
 62
1
  6
CONTINUOUS
 10
214.3235761267
 20
112.6708494856
 11
214.3235761267
 21
125.1505994856
  0
LINE
  5
24B
100
AcDbEntity
  8
0
100
AcDbLine
 62
1
  6
CONTINUOUS
 10
214.3235761267
 20
137.6303494856
 11
214.3235761267
 21
125.1505994856
  0
INSERT
  5
24C
100
AcDbEntity
  8
0
100
AcDbBlockReference
 62
1
  6
CONTINUOUS
  2
_FILLED
 10
214.3235761267
 20
112.6708494856
 41
3.5
 42
3.5
 43
3.5
 50
270.0
  0
INSERT
  5
24D
100
AcDbEntity
  8
0
100
AcDbBlockReference
 62
1
  6
CONTINUOUS
  2
_FILLED
 10
214.3235761267
 20
137.6303494856
 41
3.5
 42
3.5
 43
3.5
 50
90.0
  0
ENDBLK
  5
24E
100
AcDbEntity
  8
0
  6
BYBLOCK
 62
0
100
AcDbBlockEnd
  0
BLOCK
  5
24F
100
AcDbEntity
  8
0
100
AcDbBlockBegin
 62
2
  6
CONTINUOUS
  2
*D4
 70
65
 10
0.0
 20
0.0
  3
*D4
  1

  0
MTEXT
  5
250
100
AcDbEntity
  8
0
100
AcDbMText
 62
5
  6
CONTINUOUS
  7
STANDARD
 71
2
 72
1
 10
166.1999454262
 20
169.8305100572
 30
0.0
 11
1.0
 21
0.0
 31
0.0
 44
0.9
  1
68
 40
3.5
 41
5.5
  0
LINE
  5
251
100
AcDbEntity
  8
0
100
AcDbLine
 62
2
  6
CONTINUOUS
 10
200.1999454262
 20
104.6755994856
 11
200.1999454262
 21
166.9555100572
  0
LINE
  5
252
100
AcDbEntity
  8
0
100
AcDbLine
 62
2
  6
CONTINUOUS
 10
132.1999454262
 20
154.382207146
 11
132.1999454262
 21
166.9555100572
  0
LINE
  5
253
100
AcDbEntity
  8
0
100
AcDbLine
 62
2
  6
CONTINUOUS
 10
200.1999454262
 20
165.4555100572
 11
166.1999454262
 21
165.4555100572
  0
LINE
  5
254
100
AcDbEntity
  8
0
100
AcDbLine
 62
2
  6
CONTINUOUS
 10
132.1999454262
 20
165.4555100572
 11
166.1999454262
 21
165.4555100572
  0
INSERT
  5
255
100
AcDbEntity
  8
0
100
AcDbBlockReference
 62
2
  6
CONTINUOUS
  2
_FILLED
 10
200.1999454262
 20
165.4555100572
 41
3.5
 42
3.5
 43
3.5
  0
INSERT
  5
256
100
AcDbEntity
  8
0
100
AcDbBlockReference
 62
2
  6
CONTINUOUS
  2
_FILLED
 10
132.1999454262
 20
165.4555100572
 41
3.5
 42
3.5
 43
3.5
 50
180.0
  0
ENDBLK
  5
257
100
AcDbEntity
  8
0
  6
BYBLOCK
 62
0
100
AcDbBlockEnd
  0
BLOCK
  5
258
100
AcDbEntity
  8
0
100
AcDbBlockBegin
 62
2
  6
CONTINUOUS
  2
*D5
 70
65
 10
0.0
 20
0.0
  3
*D5
  1

  0
MTEXT
  5
259
100
AcDbEntity
  8
0
100
AcDbMText
 62
5
  6
CONTINUOUS
  7
STANDARD
 71
2
 72
1
 10
136.1999454262
 20
184.8222141611
 30
0.0
 11
1.0
 21
0.0
 31
0.0
 44
0.9
  1
128
 40
3.5
 41
7.5
  0
LINE
  5
25A
100
AcDbEntity
  8
0
100
AcDbLine
 62
2
  6
CONTINUOUS
 10
200.1999454262
 20
104.6755994856
 11
200.1999454262
 21
181.9472141611
  0
LINE
  5
25B
100
AcDbEntity
  8
0
100
AcDbLine
 62
2
  6
CONTINUOUS
 10
72.1999454262
 20
106.4644837162
 11
72.1999454262
 21
181.9472141611
  0
LINE
  5
25C
100
AcDbEntity
  8
0
100
AcDbLine
 62
2
  6
CONTINUOUS
 10
200.1999454262
 20
180.4472141611
 11
136.1999454262
 21
180.4472141611
  0
LINE
  5
25D
100
AcDbEntity
  8
0
100
AcDbLine
 62
2
  6
CONTINUOUS
 10
72.1999454262
 20
180.4472141611
 11
136.1999454262
 21
180.4472141611
  0
INSERT
  5
25E
100
AcDbEntity
  8
0
100
AcDbBlockReference
 62
2
  6
CONTINUOUS
  2
_FILLED
 10
200.1999454262
 20
180.4472141611
 41
3.5
 42
3.5
 43
3.5
  0
INSERT
  5
25F
100
AcDbEntity
  8
0
100
AcDbBlockReference
 62
2
  6
CONTINUOUS
  2
_FILLED
 10
72.1999454262
 20
180.4472141611
 41
3.5
 42
3.5
 43
3.5
 50
180.0
  0
ENDBLK
  5
260
100
AcDbEntity
  8
0
  6
BYBLOCK
 62
0
100
AcDbBlockEnd
  0
BLOCK
  5
261
100
AcDbEntity
  8
0
100
AcDbBlockBegin
 62
2
  6
CONTINUOUS
  2
*D6
 70
65
 10
0.0
 20
0.0
  3
*D6
  1

  0
MTEXT
  5
262
100
AcDbEntity
  8
0
100
AcDbMText
 62
5
  6
CONTINUOUS
  7
TEXTSTYLE_2
 71
2
 72
1
 10
235.7390065844
 20
125.1505994856
 30
0.0
 11
0.0
 21
1.0
 31
0.0
 44
0.9
  1
{\Fgdt;n}\Ftxt;53
 40
3.5
 41
9.6666666667
  0
LINE
  5
263
100
AcDbEntity
  8
0
100
AcDbLine
 62
2
  6
CONTINUOUS
 10
144.5220241134
 20
151.6255994856
 11
198.1557327414
 21
151.6255994856
  0
LINE
  5
264
100
AcDbEntity
  8
0
100
AcDbLine
 62
2
  6
CONTINUOUS
 10
201.7037536383
 20
151.6255994856
 11
241.6140065844
 21
151.6255994856
  0
LINE
  5
265
100
AcDbEntity
  8
0
100
AcDbLine
 62
2
  6
CONTINUOUS
 10
144.5220241134
 20
98.6755994856
 11
241.6140065844
 21
98.6755994856
  0
LINE
  5
266
100
AcDbEntity
  8
0
100
AcDbLine
 62
2
  6
CONTINUOUS
 10
240.1140065844
 20
151.6255994856
 11
240.1140065844
 21
125.1505994856
  0
LINE
  5
267
100
AcDbEntity
  8
0
100
AcDbLine
 62
2
  6
CONTINUOUS
 10
240.1140065844
 20
98.6755994856
 11
240.1140065844
 21
125.1505994856
  0
INSERT
  5
268
100
AcDbEntity
  8
0
100
AcDbBlockReference
 62
2
  6
CONTINUOUS
  2
_FILLED
 10
240.1140065844
 20
151.6255994856
 41
3.5
 42
3.5
 43
3.5
 50
90.0
  0
INSERT
  5
269
100
AcDbEntity
  8
0
100
AcDbBlockReference
 62
2
  6
CONTINUOUS
  2
_FILLED
 10
240.1140065844
 20
98.6755994856
 41
3.5
 42
3.5
 43
3.5
 50
270.0
  0
ENDBLK
  5
26A
100
AcDbEntity
  8
0
  6
BYBLOCK
 62
0
100
AcDbBlockEnd
  0
ENDSEC
  0
SECTION
  2
ENTITIES
  0
DIMENSION
  5
26B
100
AcDbEntity
  8
0
100
AcDbDimension
 62
2
  6
CONTINUOUS
  2
*D0
 10
226.3963210606
 20
103.1755994856
 11
224.9101748349
 21
122.8783579656
 70
160
 71
2
 42
43.95
  1
%%c<>
  3
DIMSTYLE_1
100
AcDbAlignedDimension
 13
203.9050763679
 23
147.1255994856
 14
201.6999454262
 24
103.1755994856
 50
270.0
100
AcDbRotatedDimension
  0
DIMENSION
  5
26C
100
AcDbEntity
  8
0
100
AcDbDimension
 62
2
  6
CONTINUOUS
  2
*D1
 10
178.6597692196
 20
98.6755994856
 11
180.3678276812
 21
87.5210446398
 70
162
 71
2
 42
0.0785398163
  3
DIMSTYLE_2
100
AcDb2LineAngularDimension
 13
190.5947176373
 23
102.4196516641
 14
172.5227108914
 24
100.9973538875
 15
144.5220241134
 25
98.6755994856
 16
189.206188059
 26
100.4901802291
  0
DIMENSION
  5
26D
100
AcDbEntity
  8
0
100
AcDbDimension
 62
2
  6
CONTINUOUS
  2
*D2
 10
200.1999454262
 20
172.2860424737
 11
152.4499454262
 21
174.9110424737
 70
160
 71
2
 42
90.0
  3
DIMSTYLE_3
100
AcDbAlignedDimension
 13
110.1999454262
 23
152.7337167911
 14
200.1999454262
 24
124.4511741943
100
AcDbRotatedDimension
  0
DIMENSION
  5
26E
100
AcDbEntity
  8
0
100
AcDbDimension
 62
1
  6
CONTINUOUS
  2
*D3
 10
214.3235761267
 20
137.6303494856
 11
212.8094253001
 21
122.9342327571
 70
160
 71
2
 42
24.9595
  1
%%c<>
  3
DIMSTYLE_4
100
AcDbAlignedDimension
 13
156.3317974769
 23
112.6708494856
 14
156.2601174769
 24
137.6303494856
 50
90.0
100
AcDbRotatedDimension
  0
DIMENSION
  5
26F
100
AcDbEntity
  8
0
100
AcDbDimension
 62
2
  6
CONTINUOUS
  2
*D4
 10
132.1999454262
 20
165.4555100572
 11
163.4499454262
 21
168.0805100572
 70
160
 71
2
 42
68.0
  3
DIMSTYLE_3
100
AcDbAlignedDimension
 13
200.1999454262
 23
104.6755994856
 14
132.1999454262
 24
154.382207146
 50
180.0
100
AcDbRotatedDimension
  0
DIMENSION
  5
270
100
AcDbEntity
  8
0
100
AcDbDimension
 62
2
  6
CONTINUOUS
  2
*D5
 10
72.1999454262
 20
180.4472141611
 11
132.4499454262
 21
183.0722141611
 70
160
 71
2
 42
128.0
  3
DIMSTYLE_5
100
AcDbAlignedDimension
 13
200.1999454262
 23
104.6755994856
 14
72.1999454262
 24
106.4644837162
 50
180.0
100
AcDbRotatedDimension
  0
DIMENSION
  5
271
100
AcDbEntity
  8
0
100
AcDbDimension
 62
2
  6
CONTINUOUS
  2
*D6
 10
240.1140065844
 20
98.6755994856
 11
238.5718511567
 21
122.9901075485
 70
160
 71
2
 42
52.95
  1
%%c<>
  3
DIMSTYLE_1
100
AcDbAlignedDimension
 13
144.5220241134
 23
151.6255994856
 14
144.5220241134
 24
98.6755994856
 50
270.0
100
AcDbRotatedDimension
  0
MTEXT
  5
272
100
AcDbEntity
  8
0
100
AcDbMText
 62
5
  6
CONTINUOUS
  7
STANDARD
 71
1
 72
1
 10
12.9671632017
 20
82.2227983368
 30
0.0
 11
1.0
 21
0.0
 31
0.0
 44
0.9
  3
Für diese Unterlage behalten wir das Ur-\Pheberrecht. Sie darf nur für den von uns \Pbestimmten Zweck benutzt und ohne unsere \PZustimmung weder vervielfältigt noch\PDritten zugänglich gemacht werden\P \PWe own the copyright of this document. It \Pde
  1
termined and may neither be copied or \Pmade accessible to outsiders without our\Ppermission.\P \PCe plan reste notre propriété. Il ne peut\Pêtre utilisé, copié ou reproduit sans notre\Paccord.\P 
 40
3.5
 41
104.8333333333
  0
LINE
  5
273
100
AcDbEntity
  8
0
100
AcDbLine
 62
7
  6
CONTINUOUS
 10
0.0
 20
0.0
 11
0.0
 21
210.0
  0
LINE
  5
274
100
AcDbEntity
  8
0
100
AcDbLine
 62
7
  6
CONTINUOUS
 10
0.0
 20
0.0
 11
297.0
 21
0.0
  0
LINE
  5
275
100
AcDbEntity
  8
0
100
AcDbLine
 62
7
  6
CONTINUOUS
 10
0.0
 20
210.0
 11
297.0
 21
210.0
  0
LINE
  5
276
100
AcDbEntity
  8
0
100
AcDbLine
 62
7
  6
CONTINUOUS
 10
297.0
 20
0.0
 11
297.0
 21
210.0
  0
LINE
  5
277
100
AcDbEntity
  8
0
100
AcDbLine
 62
7
  6
CONTINUOUS
 10
72.1999454262
 20
103.4582614927
 11
72.1999454262
 21
140.1118441243
  0
LINE
  5
278
100
AcDbEntity
  8
KURVEN
100
AcDbLine
 62
4
  6
CONTINUOUS
 10
72.1999454262
 20
102.6299213099
 11
72.1999454262
 21
144.1941097836
  0
LINE
  5
279
100
AcDbEntity
  8
ACHSEN
100
AcDbLine
 62
7
  6
CONTINUOUS
 10
72.1999454262
 20
140.1118441243
 11
72.1999454262
 21
143.8990787995
  0
LINE
  5
27A
100
AcDbEntity
  8
ACHSEN
100
AcDbLine
 62
7
  6
CONTINUOUS
 10
73.6999454262
 20
144.6475890991
 11
73.6999454262
 21
140.8618441243
  0
LINE
  5
27B
100
AcDbEntity
  8
0
100
AcDbLine
 62
7
  6
CONTINUOUS
 10
73.6999454262
 20
140.8618441243
 11
73.6999454262
 21
102.5922360889
  0
LINE
  5
27C
100
AcDbEntity
  8
0
100
AcDbLine
 62
7
  6
CONTINUOUS
 10
110.1999472622
 20
156.3505975782
 11
110.499947352
 21
156.6505976321
  0
LINE
  5
27D
100
AcDbEntity
  8
0
100
AcDbLine
 62
9
  6
CONTINUOUS
 10
73.6999454262
 20
140.8618441243
 11
72.1999454262
 21
140.1118441243
  0
LINE
  5
27E
100
AcDbEntity
  8
0
100
AcDbLine
 62
7
  6
CONTINUOUS
 10
73.6999454262
 20
102.5922360889
 11
72.1999454262
 21
103.4582614927
  0
LINE
  5
27F
100
AcDbEntity
  8
ACHSEN
100
AcDbLine
 62
7
  6
CENTER
 10
94.6999454262
 20
102.2171139785
 11
94.6999454262
 21
149.3389700501
  0
LINE
  5
280
100
AcDbEntity
  8
0
100
AcDbLine
 62
9
  6
CONTINUOUS
 10
73.6999454262
 20
104.2144837162
 11
72.1999454262
 21
104.9644837162
  0
LINE
  5
281
100
AcDbEntity
  8
0
100
AcDbLine
 62
7
  6
CONTINUOUS
 10
110.1999472622
 20
93.9506013929
 11
110.499947352
 21
93.650601339
  0
LINE
  5
282
100
AcDbEntity
  8
0
100
AcDbLine
 62
7
  6
CONTINUOUS
 10
108.0000085153
 20
145.7706998551
 11
108.0000085153
 21
141.6081302342
  0
LINE
  5
283
100
AcDbEntity
  8
0
100
AcDbLine
 62
7
  6
CONTINUOUS
 10
108.0000085153
 20
130.3754706162
 11
108.0000085153
 21
103.4681976063
  0
LINE
  5
284
100
AcDbEntity
  8
0
100
AcDbLine
 62
9
  6
CONTINUOUS
 10
108.2049685373
 20
145.5757860553
 11
108.2049685373
 21
139.8355416903
  0
LINE
  5
285
100
AcDbEntity
  8
0
100
AcDbLine
 62
9
  6
CONTINUOUS
 10
108.2049685373
 20
133.3365426723
 11
108.2049685373
 21
102.2797140941
  0
LINE
  5
286
100
AcDbEntity
  8
0
100
AcDbLine
 62
9
  6
CONTINUOUS
 10
108.892838645
 20
102.4077062668
 11
108.892838645
 21
103.0470428346
  0
LINE
  5
287
100
AcDbEntity
  8
0
100
AcDbLine
 62
9
  6
CONTINUOUS
 10
108.892838645
 20
131.5651392463
 11
108.892838645
 21
140.8396163758
  0
LINE
  5
288
100
AcDbEntity
  8
0
100
AcDbLine
 62
9
  6
CONTINUOUS
 10
109.8049685373
 20
145.6159836244
 11
109.8049685373
 21
141.4950777725
  0
LINE
  5
289
100
AcDbEntity
  8
0
100
AcDbLine
 62
9
  6
CONTINUOUS
 10
109.8049685373
 20
130.3335499387
 11
109.8049685373
 21
103.6231707455
  0
LINE
  5
28A
100
AcDbEntity
  8
0
100
AcDbLine
 62
7
  6
CONTINUOUS
 10
132.1999454262
 20
93.6505994856
 11
110.4999454986
 21
93.6505994856
  0
LINE
  5
28B
100
AcDbEntity
  8
0
100
AcDbLine
 62
7
  6
CONTINUOUS
 10
110.1999454262
 20
93.9508751551
 11
110.1999454262
 21
156.350323816
  0
LINE
  5
28C
100
AcDbEntity
  8
0
100
AcDbLine
 62
7
  6
CONTINUOUS
 10
110.4999454998
 20
93.6505994856
 11
110.4999454998
 21
156.6505994856
  0
LINE
  5
28D
100
AcDbEntity
  8
0
100
AcDbLine
 62
7
  6
CONTINUOUS
 10
109.9998805744
 20
141.9401740713
 11
109.9999454262
 21
147.6840843466
  0
LINE
  5
28E
100
AcDbEntity
  8
0
100
AcDbLine
 62
7
  6
CONTINUOUS
 10
109.9998805744
 20
103.7404313941
 11
109.9999454262
 21
129.7389310332
  0
LINE
  5
28F
100
AcDbEntity
  8
RUNDUNGEN
100
AcDbLine
 62
7
  6
CONTINUOUS
 10
143.11597083
 20
151.4327791625
 11
143.398610869
 21
151.5959614651
  0
LINE
  5
290
100
AcDbEntity
  8
0
100
AcDbLine
 62
7
  6
CONTINUOUS
 10
199.2784045219
 20
103.1030726435
 11
143.398610869
 21
98.705237506
  0
LINE
  5
291
100
AcDbEntity
  8
0
100
AcDbLine
 62
7
  6
CONTINUOUS
 10
123.6612702916
 20
95.0700067253
 11
120.7386205608
 21
95.0700067253
  0
LINE
  5
292
100
AcDbEntity
  8
0
100
AcDbLine
 62
7
  6
CONTINUOUS
 10
134.9499454262
 20
98.6755994856
 11
133.1999454262
 21
98.6755994856
  0
LINE
  5
293
100
AcDbEntity
  8
0
100
AcDbLine
 62
7
  6
CONTINUOUS
 10
135.6839200224
 20
98.9755994856
 11
136.6999454262
 21
98.9755994856
  0
LINE
  5
294
100
AcDbEntity
  8
0
100
AcDbLine
 62
7
  6
CONTINUOUS
 10
141.6999454262
 20
98.9755994856
 11
142.71597083
 21
98.9755994856
  0
LINE
  5
295
100
AcDbEntity
  8
0
100
AcDbLine
 62
9
  6
CONTINUOUS
 10
120.3056078589
 20
155.064554332
 11
120.3056078589
 21
135.0200121045
  0
LINE
  5
296
100
AcDbEntity
  8
0
100
AcDbLine
 62
9
  6
CONTINUOUS
 10
120.3056078589
 20
115.2811868666
 11
120.3056078589
 21
95.2366446391
  0
LINE
  5
297
100
AcDbEntity
  8
0
100
AcDbLine
 62
9
  6
CONTINUOUS
 10
108.0000085153
 20
103.4681976063
 11
73.6999454262
 21
104.2144837162
  0
LINE
  5
298
100
AcDbEntity
  8
0
100
AcDbLine
 62
7
  6
CONTINUOUS
 10
108.452974177
 20
102.2738706102
 11
108.2049685373
 21
102.2797140941
  0
LINE
  5
299
100
AcDbEntity
  8
0
100
AcDbLine
 62
7
  6
CONTINUOUS
 10
73.6999454262
 20
102.5922360889
 11
108.210348249
 21
101.7252146498
  0
LINE
  5
29A
100
AcDbEntity
  8
0
100
AcDbLine
 62
9
  6
CONTINUOUS
 10
120.7386205608
 20
155.2311922459
 11
120.7386205608
 21
134.4998208001
  0
LINE
  5
29B
100
AcDbEntity
  8
0
100
AcDbLine
 62
9
  6
CONTINUOUS
 10
120.7386205608
 20
115.801378171
 11
120.7386205608
 21
95.0700067253
  0
LINE
  5
29C
100
AcDbEntity
  8
ACHSEN
100
AcDbLine
 62
7
  6
CENTER
 10
122.1999454262
 20
148.5677076103
 11
122.1999454262
 21
159.6505994856
  0
LINE
  5
29D
100
AcDbEntity
  8
0
100
AcDbLine
 62
9
  6
CONTINUOUS
 10
123.6612702916
 20
155.2311922459
 11
123.6612702916
 21
134.4998208001
  0
LINE
  5
29E
100
AcDbEntity
  8
0
100
AcDbLine
 62
9
  6
CONTINUOUS
 10
123.6612702916
 20
115.801378171
 11
123.6612702916
 21
95.0700067253
  0
LINE
  5
29F
100
AcDbEntity
  8
0
100
AcDbLine
 62
9
  6
CONTINUOUS
 10
124.0942829935
 20
155.064554332
 11
124.0942829935
 21
135.0200121045
  0
LINE
  5
2A0
100
AcDbEntity
  8
0
100
AcDbLine
 62
9
  6
CONTINUOUS
 10
124.0942829935
 20
115.2811868666
 11
124.0942829935
 21
95.2366446391
  0
LINE
  5
2A1
100
AcDbEntity
  8
0
100
AcDbLine
 62
7
  6
CONTINUOUS
 10
143.11597083
 20
98.8684198086
 11
143.398610869
 21
98.705237506
  0
LINE
  5
2A2
100
AcDbEntity
  8
0
100
AcDbLine
 62
7
  6
CONTINUOUS
 10
108.892838645
 20
102.4077062668
 11
108.2103482487
 21
101.7252158705
  0
LINE
  5
2A3
100
AcDbEntity
  8
DEFAULT_2
100
AcDbLine
 62
8
  6
HIDDEN
 10
140.7497103098
 20
112.3208494856
 11
151.814736145
 21
112.3208494856
  0
LINE
  5
2A4
100
AcDbEntity
  8
BOHRUNGEN
100
AcDbLine
 62
8
  6
HIDDEN
 10
153.1999454262
 20
112.6708494856
 11
196.0999454262
 21
112.6708494856
  0
LINE
  5
2A5
100
AcDbEntity
  8
0
100
AcDbLine
 62
7
  6
CONTINUOUS
 10
132.1999454262
 20
93.6505994856
 11
132.1999454262
 21
156.6505994856
  0
LINE
  5
2A6
100
AcDbEntity
  8
RUNDUNGEN
100
AcDbLine
 62
9
  6
CONTINUOUS
 10
133.1999454262
 20
151.6255994856
 11
133.1999454262
 21
98.6755994856
  0
LINE
  5
2A7
100
AcDbEntity
  8
0
100
AcDbLine
 62
7
  6
CONTINUOUS
 10
134.9499454262
 20
151.6255994856
 11
134.9499454262
 21
98.6755994856
  0
LINE
  5
2A8
100
AcDbEntity
  8
RUNDUNGEN
100
AcDbLine
 62
9
  6
CONTINUOUS
 10
135.2839200224
 20
98.8684198086
 11
135.2839200224
 21
151.4327791625
  0
LINE
  5
2A9
100
AcDbEntity
  8
RUNDUNGEN
100
AcDbLine
 62
9
  6
CONTINUOUS
 10
135.6839200224
 20
98.9755994856
 11
135.6839200224
 21
151.3255994856
  0
LINE
  5
2AA
100
AcDbEntity
  8
0
100
AcDbLine
 62
7
  6
CONTINUOUS
 10
123.6612702916
 20
115.801378171
 11
120.7386205608
 21
115.801378171
  0
LINE
  5
2AB
100
AcDbEntity
  8
BEZUGSACHSEN
100
AcDbLine
 62
7
  6
CENTER
 10
139.1999454262
 20
154.3255994856
 11
139.1999454262
 21
140.6255994856
  0
LINE
  5
2AC
100
AcDbEntity
  8
BEZUGSACHSEN
100
AcDbLine
 62
7
  6
CENTER
 10
139.1999454262
 20
95.9755994856
 11
139.1999454262
 21
109.6755994856
  0
LINE
  5
2AD
100
AcDbEntity
  8
RUNDUNGEN
100
AcDbLine
 62
9
  6
CONTINUOUS
 10
140.7497103098
 20
112.3208494856
 11
140.7497103098
 21
137.9803494856
  0
LINE
  5
2AE
100
AcDbEntity
  8
S_ACHSEN
100
AcDbLine
 62
7
  6
CENTER
 10
69.1999454262
 20
125.1505994856
 11
203.1999454262
 21
125.1505994856
  0
LINE
  5
2AF
100
AcDbEntity
  8
RUNDUNGEN
100
AcDbLine
 62
9
  6
CONTINUOUS
 10
142.71597083
 20
98.9755994856
 11
142.71597083
 21
151.3255994856
  0
LINE
  5
2B0
100
AcDbEntity
  8
RUNDUNGEN
100
AcDbLine
 62
9
  6
CONTINUOUS
 10
143.11597083
 20
98.8684198086
 11
143.11597083
 21
151.4327791625
  0
LINE
  5
2B1
100
AcDbEntity
  8
0
100
AcDbLine
 62
7
  6
CONTINUOUS
 10
143.398610869
 20
151.5959614651
 11
143.398610869
 21
98.705237506
  0
LINE
  5
2B2
100
AcDbEntity
  8
0
100
AcDbLine
 62
9
  6
CONTINUOUS
 10
72.1999454262
 20
130.3754706162
 11
108.0000085153
 21
130.3754706162
  0
LINE
  5
2B3
100
AcDbEntity
  8
0
100
AcDbLine
 62
7
  6
CONTINUOUS
 10
108.2049685373
 20
133.3365426723
 11
108.452974177
 21
133.3375569282
  0
LINE
  5
2B4
100
AcDbEntity
  8
0
100
AcDbLine
 62
7
  6
CONTINUOUS
 10
123.6612702916
 20
134.4998208001
 11
120.7386205608
 21
134.4998208001
  0
LINE
  5
2B5
100
AcDbEntity
  8
0
100
AcDbLine
 62
7
  6
CONTINUOUS
 10
134.9499454262
 20
98.6755994856
 11
135.2839200224
 21
98.8684198086
  0
LINE
  5
2B6
100
AcDbEntity
  8
RUNDUNGEN
100
AcDbLine
 62
7
  6
CONTINUOUS
 10
134.9499454262
 20
98.6755994856
 11
135.2839200224
 21
98.8684198086
  0
LINE
  5
2B7
100
AcDbEntity
  8
0
100
AcDbLine
 62
9
  6
CONTINUOUS
 10
73.6999454262
 20
140.8618441243
 11
108.0000085153
 21
141.6081302342
  0
LINE
  5
2B8
100
AcDbEntity
  8
0
100
AcDbLine
 62
7
  6
CONTINUOUS
 10
108.452974177
 20
139.8403709182
 11
108.2049685373
 21
139.8355416903
  0
LINE
  5
2B9
100
AcDbEntity
  8
BOHRUNGEN
100
AcDbLine
 62
8
  6
HIDDEN
 10
153.1999454262
 20
137.6303494856
 11
196.0999454262
 21
137.6303494856
  0
LINE
  5
2BA
100
AcDbEntity
  8
RUNDUNGEN
100
AcDbLine
 62
8
  6
HIDDEN
 10
151.814736145
 20
137.9803494856
 11
140.7497103098
 21
137.9803494856
  0
LINE
  5
2BB
100
AcDbEntity
  8
DEFAULT_2
100
AcDbLine
 62
8
  6
HIDDEN
 10
140.7497103098
 20
137.9803494856
 11
151.814736145
 21
137.9803494856
  0
LINE
  5
2BC
100
AcDbEntity
  8
0
100
AcDbLine
 62
7
  6
CONTINUOUS
 10
108.2049685373
 20
145.5757860553
 11
109.8049685373
 21
145.6159836244
  0
LINE
  5
2BD
100
AcDbEntity
  8
0
100
AcDbLine
 62
7
  6
CONTINUOUS
 10
80.4635501803
 20
145.0788881757
 11
90.2499454262
 21
145.3247564878
  0
LINE
  5
2BE
100
AcDbEntity
  8
0
100
AcDbLine
 62
7
  6
CONTINUOUS
 10
99.3793067594
 20
145.554117821
 11
108.0000085153
 21
145.7706998551
  0
LINE
  5
2BF
100
AcDbEntity
  8
0
100
AcDbLine
 62
7
  6
CONTINUOUS
 10
134.9499454262
 20
151.6255994856
 11
135.2839200224
 21
151.4327791625
  0
LINE
  5
2C0
100
AcDbEntity
  8
RUNDUNGEN
100
AcDbLine
 62
7
  6
CONTINUOUS
 10
134.9499454262
 20
151.6255994856
 11
135.2839200224
 21
151.4327791625
  0
LINE
  5
2C1
100
AcDbEntity
  8
0
100
AcDbLine
 62
7
  6
CONTINUOUS
 10
135.6839200224
 20
151.3255994856
 11
136.6999454262
 21
151.3255994856
  0
LINE
  5
2C2
100
AcDbEntity
  8
BEZUGSACHSEN
100
AcDbLine
 62
7
  6
CONTINUOUS
 10
135.6839200224
 20
151.3255994856
 11
136.6999454262
 21
151.3255994856
  0
LINE
  5
2C3
100
AcDbEntity
  8
0
100
AcDbLine
 62
7
  6
CONTINUOUS
 10
141.6999454262
 20
151.3255994856
 11
142.71597083
 21
151.3255994856
  0
LINE
  5
2C4
100
AcDbEntity
  8
BEZUGSACHSEN
100
AcDbLine
 62
7
  6
CONTINUOUS
 10
141.6999454262
 20
151.3255994856
 11
142.71597083
 21
151.3255994856
  0
LINE
  5
2C5
100
AcDbEntity
  8
0
100
AcDbLine
 62
7
  6
CONTINUOUS
 10
133.1999454262
 20
151.6255994856
 11
134.9499454262
 21
151.6255994856
  0
LINE
  5
2C6
100
AcDbEntity
  8
0
100
AcDbLine
 62
7
  6
CONTINUOUS
 10
143.398610869
 20
151.5959614651
 11
199.2784045219
 21
147.1981263276
  0
LINE
  5
2C7
100
AcDbEntity
  8
0
100
AcDbLine
 62
7
  6
CONTINUOUS
 10
123.6612702916
 20
155.2311922459
 11
120.7386205608
 21
155.2311922459
  0
LINE
  5
2C8
100
AcDbEntity
  8
0
100
AcDbLine
 62
7
  6
CONTINUOUS
 10
132.1999454262
 20
156.6505994856
 11
127.4217074996
 21
156.6505994856
  0
LINE
  5
2C9
100
AcDbEntity
  8
0
100
AcDbLine
 62
7
  6
CONTINUOUS
 10
116.9781829012
 20
156.6505994856
 11
110.4999454986
 21
156.6505994856
  0
LINE
  5
2CA
100
AcDbEntity
  8
RUNDUNGEN
100
AcDbLine
 62
9
  6
CONTINUOUS
 10
199.2784045219
 20
103.1030726435
 11
199.2784045219
 21
147.1981263276
  0
LINE
  5
2CB
100
AcDbEntity
  8
RUNDUNGEN
100
AcDbLine
 62
7
  6
CONTINUOUS
 10
200.1999454262
 20
146.2012089939
 11
200.1999454262
 21
104.0999899772
  0
ARC
  5
2CC
100
AcDbEntity
  8
0
100
AcDbCircle
 62
7
  6
CONTINUOUS
 10
254.4341181968
 20
76.176401616
 40
159.2595221537
100
AcDbArc
 50
156.0446773748
 51
156.4374589831
  0
ARC
  5
2CD
100
AcDbEntity
  8
ACHSEN
100
AcDbCircle
 62
7
  6
CONTINUOUS
 10
8.4417284483
 20
273.546539038
 40
144.4768984249
100
AcDbArc
 50
296.187103939
 51
296.8519184685
  0
ARC
  5
2CE
100
AcDbEntity
  8
0
100
AcDbCircle
 62
7
  6
CONTINUOUS
 10
1.4479342308
 20
105.8411106563
 40
110.4813700652
100
AcDbArc
 50
13.4640903998
 51
14.4111621352
  0
ARC
  5
2CF
100
AcDbEntity
  8
FASEN
100
AcDbCircle
 62
7
  6
CONTINUOUS
 10
122.517877993
 20
189.6716402453
 40
33.4826545533
100
AcDbArc
 50
260.7444022813
 51
261.5263651107
  0
ARC
  5
2D0
100
AcDbEntity
  8
FASEN
100
AcDbCircle
 62
7
  6
CONTINUOUS
 10
121.9110832127
 20
189.4695320765
 40
33.2784726794
100
AcDbArc
 50
278.4785532392
 51
278.9328894737
  0
ARC
  5
2D1
100
AcDbEntity
  8
FASEN
100
AcDbCircle
 62
7
  6
CONTINUOUS
 10
122.1605833192
 20
187.7453188902
 40
31.5363179927
100
AcDbArc
 50
270.0715138397
 51
278.4920762864
  0
ARC
  5
2D2
100
AcDbEntity
  8
FASEN
100
AcDbCircle
 62
7
  6
CONTINUOUS
 10
122.2127656268
 20
187.3903090848
 40
31.1812862579
100
AcDbArc
 50
261.4631875358
 51
269.9764428125
  0
ARC
  5
2D3
100
AcDbEntity
  8
BEZUGSACHSEN
100
AcDbCircle
 62
7
  6
CONTINUOUS
 10
139.1882136122
 20
177.603319589
 40
26.3974879589
100
AcDbArc
 50
270.7318405035
 51
275.4599769119
  0
ARC
  5
2D4
100
AcDbEntity
  8
BEZUGSACHSEN
100
AcDbCircle
 62
7
  6
CONTINUOUS
 10
139.2116741806
 20
72.6979389604
 40
26.3974283598
100
AcDbArc
 50
90.7320990824
 51
95.4599826057
  0
ARC
  5
2D5
100
AcDbEntity
  8
BEZUGSACHSEN
100
AcDbCircle
 62
7
  6
CONTINUOUS
 10
139.1949226448
 20
72.8219070695
 40
26.2733851289
100
AcDbArc
 50
84.5288517583
 51
89.2785234985
  0
ARC
  5
2D6
100
AcDbEntity
  8
BEZUGSACHSEN
100
AcDbCircle
 62
7
  6
CONTINUOUS
 10
139.2049669786
 20
177.4792673513
 40
26.2733605732
100
AcDbArc
 50
264.5288493216
 51
269.278754498
  0
ARC
  5
2D7
100
AcDbEntity
  8
BEZUGSACHSEN
100
AcDbCircle
 62
7
  6
CONTINUOUS
 10
139.1987571744
 20
73.0468544519
 40
26.0484073159
100
AcDbArc
 50
89.2807268955
 51
90.7187103992
  0
ARC
  5
2D8
100
AcDbEntity
  8
BEZUGSACHSEN
100
AcDbCircle
 62
7
  6
CONTINUOUS
 10
139.2011326626
 20
177.2543385897
 40
26.0484013863
100
AcDbArc
 50
269.2809599365
 51
270.7184407621
  0
ARC
  5
2D9
100
AcDbEntity
  8
RUNDUNGEN
100
AcDbCircle
 62
7
  6
CONTINUOUS
 10
199.1999454262
 20
146.2012089939
 40
1.0
100
AcDbArc
 50
0.0
 51
85.4999999999
  0
ARC
  5
2DA
100
AcDbEntity
  8
RUNDUNGEN
100
AcDbCircle
 62
7
  6
CONTINUOUS
 10
199.1999454262
 20
104.0999899772
 40
1.0
100
AcDbArc
 50
274.5000000001
 51
360.0
  0
ARC
  5
2DB
100
AcDbEntity
  8
RUNDUNGEN
100
AcDbCircle
 62
7
  6
CONTINUOUS
 10
133.1999454262
 20
152.6255994856
 40
1.0
100
AcDbArc
 50
180.0000000001
 51
270.0
  0
ARC
  5
2DC
100
AcDbEntity
  8
RUNDUNGEN
100
AcDbCircle
 62
7
  6
CONTINUOUS
 10
133.1999454262
 20
97.6755994856
 40
1.0
100
AcDbArc
 50
90.0
 51
179.9999999997
  0
ARC
  5
2DD
100
AcDbEntity
  8
0
100
AcDbCircle
 62
7
  6
CONTINUOUS
 10
109.5999454262
 20
101.7005994856
 40
1.0
100
AcDbArc
 50
53.0400606802
 51
135.0
  0
ARC
  5
2DE
100
AcDbEntity
  8
0
100
AcDbCircle
 62
7
  6
CONTINUOUS
 10
109.5999454262
 20
148.6005994856
 40
1.0
100
AcDbArc
 50
293.5781784782
 51
306.9599393198
  0
ARC
  5
2DF
100
AcDbEntity
  8
RUNDUNGEN
100
AcDbCircle
 62
7
  6
CONTINUOUS
 10
142.71597083
 20
152.1255994856
 40
0.8
100
AcDbArc
 50
270.0
 51
300.0000000009
  0
ARC
  5
2E0
100
AcDbEntity
  8
RUNDUNGEN
100
AcDbCircle
 62
7
  6
CONTINUOUS
 10
142.71597083
 20
98.1755994856
 40
0.8
100
AcDbArc
 50
59.9999999989
 51
90.0
  0
ARC
  5
2E1
100
AcDbEntity
  8
RUNDUNGEN
100
AcDbCircle
 62
7
  6
CONTINUOUS
 10
135.6839200224
 20
152.1255994856
 40
0.8
100
AcDbArc
 50
239.999999999
 51
270.0
  0
ARC
  5
2E2
100
AcDbEntity
  8
RUNDUNGEN
100
AcDbCircle
 62
7
  6
CONTINUOUS
 10
135.6839200224
 20
98.1755994856
 40
0.8
100
AcDbArc
 50
90.0
 51
120.000000001
  0
ARC
  5
2E3
100
AcDbEntity
  8
0
100
AcDbCircle
 62
7
  6
CONTINUOUS
 10
109.7999454262
 20
145.8159205354
 40
0.2
100
AcDbArc
 50
271.439166666
 51
360.0
  0
ARC
  5
2E4
100
AcDbEntity
  8
0
100
AcDbCircle
 62
7
  6
CONTINUOUS
 10
108.1999454262
 20
145.7757229663
 40
0.2
100
AcDbArc
 50
181.439166666
 51
271.439166666
  0
SPLINE
  5
2E5
100
AcDbEntity
  8
0
100
AcDbSpline
 62
2
  6
CONTINUOUS
 70
0
 71
3
 72
18
 73
14
 74
0
 42
0.0000001
 43
0.0000001
 44
0.0000000001
 40
0.0
 40
0.0
 40
0.0
 40
0.0
 40
0.0909090909
 40
0.1818181818
 40
0.2727272727
 40
0.3636363636
 40
0.4545454545
 40
0.5454545455
 40
0.6363636364
 40
0.7272727273
 40
0.8181818182
 40
0.9090909091
 40
1.0
 40
1.0
 40
1.0
 40
1.0
 10
139.1999454262
 20
135.5537792232
 30
0.0
 10
139.4839747232
 20
135.5537792232
 30
0.0
 10
140.0525932318
 20
135.6290952333
 30
0.0
 10
140.8368949236
 20
135.9563573603
 30
0.0
 10
141.4946912646
 20
136.473065457
 30
0.0
 10
141.9590517709
 20
137.1206144943
 30
0.0
 10
142.2058765159
 20
137.8380985986
 30
0.0
 10
142.2140821728
 20
138.6092881136
 30
0.0
 10
141.9591334439
 20
139.3320487126
 30
0.0
 10
141.4946109621
 20
139.9287887742
 30
0.0
 10
140.8365366638
 20
140.395872113
 30
0.0
 10
140.0527776903
 20
140.6840445219
 30
0.0
 10
139.4840680007
 20
140.7499316459
 30
0.0
 10
139.1999454262
 20
140.7499316459
 30
0.0
  0
SPLINE
  5
2E6
100
AcDbEntity
  8
0
100
AcDbSpline
 62
7
  6
CONTINUOUS
 70
0
 71
3
 72
21
 73
17
 74
0
 42
0.0000001
 43
0.0000001
 44
0.0000000001
 40
0.0
 40
0.0
 40
0.0
 40
0.0
 40
0.125
 40
0.1875
 40
0.25
 40
0.3125
 40
0.375
 40
0.4375
 40
0.5
 40
0.5625
 40
0.625
 40
0.6875
 40
0.75
 40
0.8125
 40
0.875
 40
1.0
 40
1.0
 40
1.0
 40
1.0
 10
141.0945007697
 20
136.8007194054
 30
0.0
 10
141.031495993
 20
136.855612832
 30
0.0
 10
140.9381526923
 20
136.9390858294
 30
0.0
 10
140.8090395005
 20
137.0458517292
 30
0.0
 10
140.6986538838
 20
137.1122239734
 30
0.0
 10
140.5944201536
 20
137.1856091428
 30
0.0
 10
140.4791296001
 20
137.2446447921
 30
0.0
 10
140.360295596
 20
137.2982931066
 30
0.0
 10
140.2458827895
 20
137.3599540352
 30
0.0
 10
140.1173286432
 20
137.3949518421
 30
0.0
 10
139.9929066922
 20
137.4380749347
 30
0.0
 10
139.8660972999
 20
137.4753600062
 30
0.0
 10
139.7338341707
 20
137.4960319973
 30
0.0
 10
139.6040308171
 20
137.5253145721
 30
0.0
 10
139.4251125254
 20
137.5405856657
 30
0.0
 10
139.2898719808
 20
137.5475309983
 30
0.0
 10
139.1999453569
 20
137.553162995
 30
0.0
  0
SPLINE
  5
2E7
100
AcDbEntity
  8
0
100
AcDbSpline
 62
7
  6
CONTINUOUS
 70
0
 71
3
 72
21
 73
17
 74
0
 42
0.0000001
 43
0.0000001
 44
0.0000000001
 40
0.0
 40
0.0
 40
0.0
 40
0.0
 40
0.125
 40
0.1875
 40
0.25
 40
0.3125
 40
0.375
 40
0.4375
 40
0.5
 40
0.5625
 40
0.625
 40
0.6875
 40
0.75
 40
0.8125
 40
0.875
 40
1.0
 40
1.0
 40
1.0
 40
1.0
 10
139.1999454262
 20
137.553162995
 30
0.0
 10
139.1108023426
 20
137.5476292177
 30
0.0
 10
138.976855778
 20
137.5408315336
 30
0.0
 10
138.7991881156
 20
137.5257560271
 30
0.0
 10
138.6690862459
 20
137.4966160088
 30
0.0
 10
138.536861529
 20
137.4760890927
 30
0.0
 10
138.4099793236
 20
137.438943156
 30
0.0
 10
138.2854993733
 20
137.3959566404
 30
0.0
 10
138.1568926182
 20
137.3610996812
 30
0.0
 10
138.0423908273
 20
137.2995650753
 30
0.0
 10
137.9234755195
 20
137.2460443167
 30
0.0
 10
137.8081093151
 20
137.1871458153
 30
0.0
 10
137.7037288377
 20
137.1138353873
 30
0.0
 10
137.5933935965
 20
137.0477323076
 30
0.0
 10
137.463391046
 20
136.9403715792
 30
0.0
 10
137.3691744487
 20
136.8562464355
 30
0.0
 10
137.3056333137
 20
136.800964028
 30
0.0
  0
SPLINE
  5
2E8
100
AcDbEntity
  8
0
100
AcDbSpline
 62
2
  6
CONTINUOUS
 70
0
 71
3
 72
18
 73
14
 74
0
 42
0.0000001
 43
0.0000001
 44
0.0000000001
 40
0.0
 40
0.0
 40
0.0
 40
0.0
 40
0.0909090909
 40
0.1818181818
 40
0.2727272727
 40
0.3636363636
 40
0.4545454545
 40
0.5454545455
 40
0.6363636364
 40
0.7272727273
 40
0.8181818182
 40
0.9090909091
 40
1.0
 40
1.0
 40
1.0
 40
1.0
 10
139.1999454262
 20
140.7499316459
 30
0.0
 10
138.9163312478
 20
140.7499316459
 30
0.0
 10
138.3485633539
 20
140.6843894669
 30
0.0
 10
137.5653030099
 20
140.3965075505
 30
0.0
 10
136.9079572817
 20
139.9321264862
 30
0.0
 10
136.4433431245
 20
139.3325425272
 30
0.0
 10
136.1941508013
 20
138.6428304021
 30
0.0
 10
136.1857751149
 20
137.8649009299
 30
0.0
 10
136.4431249789
 20
137.1125635357
 30
0.0
 10
136.9080374383
 20
136.4712698556
 30
0.0
 10
137.5656630439
 20
135.9546907864
 30
0.0
 10
138.3483749801
 20
135.6290397913
 30
0.0
 10
138.9162362153
 20
135.5537792232
 30
0.0
 10
139.1999454262
 20
135.5537792232
 30
0.0
  0
SPLINE
  5
2E9
100
AcDbEntity
  8
0
100
AcDbSpline
 62
2
  6
CONTINUOUS
 70
0
 71
3
 72
18
 73
14
 74
0
 42
0.0000001
 43
0.0000001
 44
0.0000000001
 40
0.0
 40
0.0
 40
0.0
 40
0.0
 40
0.0909090909
 40
0.1818181818
 40
0.2727272727
 40
0.3636363636
 40
0.4545454545
 40
0.5454545455
 40
0.6363636364
 40
0.7272727273
 40
0.8181818182
 40
0.9090909091
 40
1.0
 40
1.0
 40
1.0
 40
1.0
 10
139.1999454262
 20
109.5512673253
 30
0.0
 10
139.4839747232
 20
109.5512673253
 30
0.0
 10
140.0525932318
 20
109.6170005767
 30
0.0
 10
140.8368949236
 20
109.905764224
 30
0.0
 10
141.4946912646
 20
110.3715090375
 30
0.0
 10
141.9590517709
 20
110.9728861554
 30
0.0
 10
142.2058765159
 20
111.6624600414
 30
0.0
 10
142.2140821728
 20
112.4327113535
 30
0.0
 10
141.9591334439
 20
113.1843337925
 30
0.0
 10
141.4946109621
 20
113.8272364148
 30
0.0
 10
140.8365366638
 20
114.3453011352
 30
0.0
 10
140.0527776903
 20
114.6719395869
 30
0.0
 10
139.4840680007
 20
114.747419748
 30
0.0
 10
139.1999454262
 20
114.747419748
 30
0.0
  0
SPLINE
  5
2EA
100
AcDbEntity
  8
0
100
AcDbSpline
 62
7
  6
CONTINUOUS
 70
0
 71
3
 72
21
 73
17
 74
0
 42
0.0000001
 43
0.0000001
 44
0.0000000001
 40
0.0
 40
0.0
 40
0.0
 40
0.0
 40
0.125
 40
0.1875
 40
0.25
 40
0.3125
 40
0.375
 40
0.4375
 40
0.5
 40
0.5625
 40
0.625
 40
0.6875
 40
0.75
 40
0.8125
 40
0.875
 40
1.0
 40
1.0
 40
1.0
 40
1.0
 10
139.1999454262
 20
112.7480359761
 30
0.0
 10
139.2890885098
 20
112.7535697535
 30
0.0
 10
139.4230350744
 20
112.7603674376
 30
0.0
 10
139.6007027368
 20
112.775442944
 30
0.0
 10
139.7308046065
 20
112.8045829624
 30
0.0
 10
139.8630293234
 20
112.8251098784
 30
0.0
 10
139.9899115288
 20
112.8622558152
 30
0.0
 10
140.1143914791
 20
112.9052423308
 30
0.0
 10
140.2429982342
 20
112.9400992899
 30
0.0
 10
140.3575000251
 20
113.0016338959
 30
0.0
 10
140.4764153329
 20
113.0551546544
 30
0.0
 10
140.5917815372
 20
113.1140531558
 30
0.0
 10
140.6961620146
 20
113.1873635838
 30
0.0
 10
140.8064972559
 20
113.2534666636
 30
0.0
 10
140.9364998063
 20
113.3608273919
 30
0.0
 10
141.0307164037
 20
113.4449525356
 30
0.0
 10
141.0942575387
 20
113.5002349431
 30
0.0
  0
SPLINE
  5
2EB
100
AcDbEntity
  8
0
100
AcDbSpline
 62
7
  6
CONTINUOUS
 70
0
 71
3
 72
21
 73
17
 74
0
 42
0.0000001
 43
0.0000001
 44
0.0000000001
 40
0.0
 40
0.0
 40
0.0
 40
0.0
 40
0.125
 40
0.1875
 40
0.25
 40
0.3125
 40
0.375
 40
0.4375
 40
0.5
 40
0.5625
 40
0.625
 40
0.6875
 40
0.75
 40
0.8125
 40
0.875
 40
1.0
 40
1.0
 40
1.0
 40
1.0
 10
137.3053900827
 20
113.5004795658
 30
0.0
 10
137.3683948594
 20
113.4455861392
 30
0.0
 10
137.4617381601
 20
113.3621131417
 30
0.0
 10
137.5908513519
 20
113.255347242
 30
0.0
 10
137.7012369686
 20
113.1889749977
 30
0.0
 10
137.8054706988
 20
113.1155898283
 30
0.0
 10
137.9207612523
 20
113.056554179
 30
0.0
 10
138.0395952564
 20
113.0029058645
 30
0.0
 10
138.1540080629
 20
112.9412449359
 30
0.0
 10
138.2825622092
 20
112.906247129
 30
0.0
 10
138.4069841602
 20
112.8631240364
 30
0.0
 10
138.5337935525
 20
112.825838965
 30
0.0
 10
138.6660566816
 20
112.8051669739
 30
0.0
 10
138.7958600353
 20
112.775884399
 30
0.0
 10
138.974778327
 20
112.7606133055
 30
0.0
 10
139.1100188716
 20
112.7536679729
 30
0.0
 10
139.1999454955
 20
112.7480359761
 30
0.0
  0
SPLINE
  5
2EC
100
AcDbEntity
  8
0
100
AcDbSpline
 62
2
  6
CONTINUOUS
 70
0
 71
3
 72
18
 73
14
 74
0
 42
0.0000001
 43
0.0000001
 44
0.0000000001
 40
0.0
 40
0.0
 40
0.0
 40
0.0
 40
0.0909090909
 40
0.1818181818
 40
0.2727272727
 40
0.3636363636
 40
0.4545454545
 40
0.5454545455
 40
0.6363636364
 40
0.7272727273
 40
0.8181818182
 40
0.9090909091
 40
1.0
 40
1.0
 40
1.0
 40
1.0
 10
139.1999454262
 20
114.747419748
 30
0.0
 10
138.9163312478
 20
114.747419748
 30
0.0
 10
138.3485633539
 20
114.6723233202
 30
0.0
 10
137.5653030099
 20
114.34605243
 30
0.0
 10
136.9079572817
 20
113.8308108477
 30
0.0
 10
136.4433431245
 20
113.1850854854
 30
0.0
 10
136.1941508013
 20
112.4672099022
 30
0.0
 10
136.1857751149
 20
111.6883224776
 30
0.0
 10
136.4431249789
 20
110.9651062608
 30
0.0
 10
136.9080374383
 20
110.3699587662
 30
0.0
 10
137.5656630439
 20
109.9042577477
 30
0.0
 10
138.3483749801
 20
109.6169632595
 30
0.0
 10
138.9162362153
 20
109.5512673253
 30
0.0
 10
139.1999454262
 20
109.5512673253
 30
0.0
  0
SPLINE
  5
2ED
100
AcDbEntity
  8
0
100
AcDbSpline
 62
2
  6
CONTINUOUS
 70
0
 71
3
 72
13
 73
9
 74
0
 42
0.0000001
 43
0.0000001
 44
0.0000000001
 40
0.0
 40
0.0
 40
0.0
 40
0.0
 40
0.1666666667
 40
0.3333333333
 40
0.5
 40
0.6666666667
 40
0.8333333333
 40
1.0
 40
1.0
 40
1.0
 40
1.0
 10
142.1999454262
 20
98.9755994856
 30
0.0
 10
142.1999454262
 20
98.9755994856
 30
0.0
 10
142.131034569
 20
98.983654638
 30
0.0
 10
141.8203789732
 20
99.0173418714
 30
0.0
 10
141.3427975197
 20
99.0619223372
 30
0.0
 10
140.7097324039
 20
99.1073104222
 30
0.0
 10
139.982243435
 20
99.1400388478
 30
0.0
 10
139.4605968423
 20
99.1480875877
 30
0.0
 10
139.1999454262
 20
99.1480875877
 30
0.0
  0
SPLINE
  5
2EE
100
AcDbEntity
  8
0
100
AcDbSpline
 62
2
  6
CONTINUOUS
 70
0
 71
3
 72
13
 73
9
 74
0
 42
0.0000001
 43
0.0000001
 44
0.0000000001
 40
0.0
 40
0.0
 40
0.0
 40
0.0
 40
0.1666666667
 40
0.3333333333
 40
0.5
 40
0.6666666667
 40
0.8333333333
 40
1.0
 40
1.0
 40
1.0
 40
1.0
 10
139.1999454262
 20
99.1480875877
 30
0.0
 10
138.9393819374
 20
99.1480875877
 30
0.0
 10
138.4178849081
 20
99.1400435907
 30
0.0
 10
137.6905750804
 20
99.1073348219
 30
0.0
 10
137.0573976662
 20
99.0619466582
 30
0.0
 10
136.5800484401
 20
99.017396299
 30
0.0
 10
136.2688268072
 20
98.9836527959
 30
0.0
 10
136.1999454262
 20
98.9755994856
 30
0.0
 10
136.1999454262
 20
98.9755994856
 30
0.0
  0
SPLINE
  5
2EF
100
AcDbEntity
  8
0
100
AcDbSpline
 62
2
  6
CONTINUOUS
 70
0
 71
3
 72
13
 73
9
 74
0
 42
0.0000001
 43
0.0000001
 44
0.0000000001
 40
0.0
 40
0.0
 40
0.0
 40
0.0
 40
0.1666666667
 40
0.3333333333
 40
0.5
 40
0.6666666667
 40
0.8333333333
 40
1.0
 40
1.0
 40
1.0
 40
1.0
 10
139.1999454262
 20
151.1531113835
 30
0.0
 10
139.4607291426
 20
151.1531113835
 30
0.0
 10
139.9827151166
 20
151.161159146
 30
0.0
 10
140.7118735984
 20
151.1940106189
 30
0.0
 10
141.3439549644
 20
151.2393744188
 30
0.0
 10
141.8223323726
 20
151.2840520655
 30
0.0
 10
142.131608446
 20
151.3176139654
 30
0.0
 10
142.1999454262
 20
151.3255994856
 30
0.0
 10
142.1999454262
 20
151.3255994856
 30
0.0
  0
SPLINE
  5
2F0
100
AcDbEntity
  8
0
100
AcDbSpline
 62
2
  6
CONTINUOUS
 70
0
 71
3
 72
13
 73
9
 74
0
 42
0.0000001
 43
0.0000001
 44
0.0000000001
 40
0.0
 40
0.0
 40
0.0
 40
0.0
 40
0.1666666667
 40
0.3333333333
 40
0.5
 40
0.6666666667
 40
0.8333333333
 40
1.0
 40
1.0
 40
1.0
 40
1.0
 10
136.1999454262
 20
151.3255994856
 30
0.0
 10
136.1999454262
 20
151.3255994856
 30
0.0
 10
136.2683256952
 20
151.3176105707
 30
0.0
 10
136.5770453842
 20
151.2841039875
 30
0.0
 10
137.0556950309
 20
151.2393935044
 30
0.0
 10
137.6876408306
 20
151.194032824
 30
0.0
 10
138.4169821804
 20
151.1611626687
 30
0.0
 10
138.9390903774
 20
151.1531113835
 30
0.0
 10
139.1999454262
 20
151.1531113835
 30
0.0
  0
LINE
  5
2F1
100
AcDbEntity
  8
FASEN
100
AcDbLine
 62
7
  6
CONTINUOUS
 10
117.1325615509
 20
156.6249078386
 11
117.0139644098
 21
156.6444866879
  0
LINE
  5
2F2
100
AcDbEntity
  8
FASEN
100
AcDbLine
 62
7
  6
CONTINUOUS
 10
117.0139644098
 20
156.6444866879
 11
116.977504195
 21
156.650563922
  0
LINE
  5
2F3
100
AcDbEntity
  8
FASEN
100
AcDbLine
 62
7
  6
CONTINUOUS
 10
127.3859225613
 20
156.6444860526
 11
127.4223865687
 21
156.6505639193
  0
LINE
  5
2F4
100
AcDbEntity
  8
ACHSEN
100
AcDbLine
 62
7
  6
CONTINUOUS
 10
78.5499454262
 20
144.7546507842
 11
73.6999454262
 21
144.6475890991
  0
LINE
  5
2F5
100
AcDbEntity
  8
ACHSEN
100
AcDbLine
 62
7
  6
CONTINUOUS
 10
80.4635647741
 20
145.0771515614
 11
80.4785157122
 21
145.0792572908
  0
SPLINE
  5
2F6
100
AcDbEntity
  8
BEZUGSACHSEN
100
AcDbSpline
 62
7
  6
CONTINUOUS
 70
0
 71
3
 72
13
 73
9
 74
0
 42
0.0000001
 43
0.0000001
 44
0.0000000001
 40
0.0
 40
0.0
 40
0.0
 40
0.0
 40
0.1157958354
 40
0.2340338773
 40
0.3553731409
 40
0.4799868575
 40
0.7365620493
 40
1.0
 40
1.0
 40
1.0
 40
1.0
 10
141.6999050016
 20
138.2381352882
 30
0.0
 10
141.6999091413
 20
138.0956092205
 30
0.0
 10
141.6667187441
 20
137.8065837683
 30
0.0
 10
141.5219275111
 20
137.3904503004
 30
0.0
 10
141.2880653768
 20
137.0042300176
 30
0.0
 10
140.8670561868
 20
136.5463672859
 30
0.0
 10
140.1699275489
 20
136.1284966708
 30
0.0
 10
139.5241952155
 20
136.0132048486
 30
0.0
 10
139.1999454262
 20
136.0132048486
 30
0.0
  0
SPLINE
  5
2F7
100
AcDbEntity
  8
BEZUGSACHSEN
100
AcDbSpline
 62
7
  6
CONTINUOUS
 70
0
 71
3
 72
13
 73
9
 74
0
 42
0.0000001
 43
0.0000001
 44
0.0000000001
 40
0.0
 40
0.0
 40
0.0
 40
0.0
 40
0.1157958354
 40
0.2340338773
 40
0.3553731409
 40
0.4799868575
 40
0.7365620493
 40
1.0
 40
1.0
 40
1.0
 40
1.0
 10
136.6999858508
 20
112.0630636829
 30
0.0
 10
136.6999817111
 20
112.2055897506
 30
0.0
 10
136.7331721083
 20
112.4946152028
 30
0.0
 10
136.8779633413
 20
112.9107486708
 30
0.0
 10
137.1118254756
 20
113.2969689535
 30
0.0
 10
137.5328346656
 20
113.7548316852
 30
0.0
 10
138.2299633035
 20
114.1727023004
 30
0.0
 10
138.8756956369
 20
114.2879941226
 30
0.0
 10
139.1999454262
 20
114.2879941226
 30
0.0
  0
SPLINE
  5
2F8
100
AcDbEntity
  8
BEZUGSACHSEN
100
AcDbSpline
 62
7
  6
CONTINUOUS
 70
0
 71
3
 72
13
 73
9
 74
0
 42
0.0000001
 43
0.0000001
 44
0.0000000001
 40
0.0
 40
0.0
 40
0.0
 40
0.0
 40
0.2634374141
 40
0.520009163
 40
0.6446244219
 40
0.7659652004
 40
0.8842034944
 40
1.0
 40
1.0
 40
1.0
 40
1.0
 10
139.1999454262
 20
114.2879941226
 30
0.0
 10
139.5241869626
 20
114.2879941226
 30
0.0
 10
140.169899143
 20
114.1727107948
 30
0.0
 10
140.8670149809
 20
113.7548640248
 30
0.0
 10
141.2880241372
 20
113.2970216071
 30
0.0
 10
141.5218937846
 20
112.9108143143
 30
0.0
 10
141.6667037497
 20
112.4946947037
 30
0.0
 10
141.6999008621
 20
112.2056759749
 30
0.0
 10
141.6999050016
 20
112.0631524195
 30
0.0
  0
SPLINE
  5
2F9
100
AcDbEntity
  8
BEZUGSACHSEN
100
AcDbSpline
 62
7
  6
CONTINUOUS
 70
0
 71
3
 72
13
 73
9
 74
0
 42
0.0000001
 43
0.0000001
 44
0.0000000001
 40
0.0
 40
0.0
 40
0.0
 40
0.0
 40
0.2634374141
 40
0.520009163
 40
0.6446244219
 40
0.7659652004
 40
0.8842034944
 40
1.0
 40
1.0
 40
1.0
 40
1.0
 10
139.1999454262
 20
136.0132048486
 30
0.0
 10
138.8757038898
 20
136.0132048486
 30
0.0
 10
138.2299917094
 20
136.1284881763
 30
0.0
 10
137.5328758715
 20
136.5463349463
 30
0.0
 10
137.1118667152
 20
137.0041773641
 30
0.0
 10
136.8779970678
 20
137.3903846568
 30
0.0
 10
136.7331871027
 20
137.8065042675
 30
0.0
 10
136.6999899903
 20
138.0955229962
 30
0.0
 10
136.6999858508
 20
138.2380465516
 30
0.0
  0
SPLINE
  5
2FA
100
AcDbEntity
  8
FASEN
100
AcDbSpline
 62
7
  6
CONTINUOUS
 70
0
 71
3
 72
14
 73
10
 74
0
 42
0.0000001
 43
0.0000001
 44
0.0000000001
 40
0.0
 40
0.0
 40
0.0
 40
0.0
 40
0.0157906289
 40
0.0631414844
 40
0.142049231
 40
0.2523647496
 40
0.3937122535
 40
0.5656968089
 40
1.0
 40
1.0
 40
1.0
 40
1.0
 10
127.422386568
 20
156.6505639195
 30
0.0
 10
127.4205713966
 20
156.6508253438
 30
0.0
 10
127.4133526487
 20
156.6482524975
 30
0.0
 10
127.3970651206
 20
156.6468637709
 30
0.0
 10
127.3699718218
 20
156.6415931529
 30
0.0
 10
127.3320954792
 20
156.6356324845
 30
0.0
 10
127.2835483793
 20
156.6275126667
 30
0.0
 10
127.1978456411
 20
156.6136289073
 30
0.0
 10
127.1283085117
 20
156.6025269653
 30
0.0
 10
127.078480555
 20
156.5946974978
 30
0.0
  0
SPLINE
  5
2FB
100
AcDbEntity
  8
ACHSEN
100
AcDbSpline
 62
7
  6
CONTINUOUS
 70
0
 71
3
 72
11
 73
7
 74
0
 42
0.0000001
 43
0.0000001
 44
0.0000000001
 40
0.0
 40
0.0
 40
0.0
 40
0.0
 40
0.1537099379
 40
0.500508937
 40
0.8472910559
 40
1.0
 40
1.0
 40
1.0
 40
1.0
 10
99.3793067594
 20
145.554117821
 30
0.0
 10
98.9157214903
 20
145.4828408662
 30
0.0
 10
97.4014891761
 20
145.2787830939
 30
0.0
 10
94.8187147486
 20
145.0932740619
 30
0.0
 10
92.2326687187
 20
145.1462212807
 30
0.0
 10
90.7133795359
 20
145.2759877734
 30
0.0
 10
90.2499454262
 20
145.3247564878
 30
0.0
  0
SPLINE
  5
2FC
100
AcDbEntity
  8
ACHSEN
100
AcDbSpline
 62
7
  6
CONTINUOUS
 70
0
 71
3
 72
10
 73
6
 74
0
 42
0.0000001
 43
0.0000001
 44
0.0000000001
 40
0.0
 40
0.0
 40
0.0
 40
0.0
 40
0.0929965444
 40
0.3287693884
 40
1.0
 40
1.0
 40
1.0
 40
1.0
 10
80.4785157118
 20
145.0792572908
 30
0.0
 10
80.4184141369
 20
145.0712737934
 30
0.0
 10
80.2063617065
 20
145.039957126
 30
0.0
 10
79.5616641942
 20
144.9430096242
 30
0.0
 10
78.9793629469
 20
144.8389393309
 30
0.0
 10
78.5499454262
 20
144.7546507842
 30
0.0
  0
SPLINE
  5
2FD
100
AcDbEntity
  8
0
100
AcDbSpline
 62
7
  6
CONTINUOUS
 70
0
 71
3
 72
13
 73
9
 74
0
 42
0.0000001
 43
0.0000001
 44
0.0000000001
 40
0.0
 40
0.0
 40
0.0
 40
0.0
 40
0.1670510693
 40
0.3289369806
 40
0.4609641718
 40
0.578209763
 40
0.7939442568
 40
1.0
 40
1.0
 40
1.0
 40
1.0
 10
109.8049685373
 20
141.4950777725
 30
0.0
 10
109.7405350865
 20
141.5193128775
 30
0.0
 10
109.6013340936
 20
141.54124722
 30
0.0
 10
109.4147261053
 20
141.4847710478
 30
0.0
 10
109.2732650671
 20
141.3892075931
 30
0.0
 10
109.1357364698
 20
141.2548401241
 30
0.0
 10
109.0063167653
 20
141.0724678655
 30
0.0
 10
108.9273167987
 20
140.9172156244
 30
0.0
 10
108.892838645
 20
140.8396163758
 30
0.0
  0
SPLINE
  5
2FE
100
AcDbEntity
  8
0
100
AcDbSpline
 62
7
  6
CONTINUOUS
 70
0
 71
3
 72
16
 73
12
 74
0
 42
0.0000001
 43
0.0000001
 44
0.0000000001
 40
0.0
 40
0.0
 40
0.0
 40
0.0
 40
0.0735401093
 40
0.1545841369
 40
0.2292313659
 40
0.2978973002
 40
0.4259913051
 40
0.5473045002
 40
0.6644420892
 40
0.7785599955
 40
1.0
 40
1.0
 40
1.0
 40
1.0
 10
109.8049685373
 20
141.4950777725
 30
0.0
 10
109.8174203561
 20
141.490394318
 30
0.0
 10
109.8465705967
 20
141.4863138091
 30
0.0
 10
109.8860401504
 20
141.5045558192
 30
0.0
 10
109.9136016165
 20
141.5349591707
 30
0.0
 10
109.9394975293
 20
141.5768366032
 30
0.0
 10
109.9605773151
 20
141.6307685387
 30
0.0
 10
109.9771061567
 20
141.6950394296
 30
0.0
 10
109.9879221036
 20
141.7579579425
 30
0.0
 10
109.9970102703
 20
141.8393730722
 30
0.0
 10
109.9995161374
 20
141.9001099267
 30
0.0
 10
109.9998592195
 20
141.940167173
 30
0.0
  0
SPLINE
  5
2FF
100
AcDbEntity
  8
0
100
AcDbSpline
 62
7
  6
CONTINUOUS
 70
0
 71
3
 72
17
 73
13
 74
0
 42
0.0000001
 43
0.0000001
 44
0.0000000001
 40
0.0
 40
0.0
 40
0.0
 40
0.0
 40
0.2841775711
 40
0.4146661432
 40
0.5373502072
 40
0.652341305
 40
0.7602377654
 40
0.8121867936
 40
0.8638391814
 40
0.9180398508
 40
0.9497831112
 40
1.0
 40
1.0
 40
1.0
 40
1.0
 10
108.0000085153
 20
103.4681976063
 30
0.0
 10
108.0000085153
 20
103.348624169
 30
0.0
 10
107.9998657019
 20
103.1741415093
 30
0.0
 10
108.0022456972
 20
102.9480514253
 30
0.0
 10
108.006865265
 20
102.793181923
 30
0.0
 10
108.0167928421
 20
102.648082802
 30
0.0
 10
108.0329071576
 20
102.5333213283
 30
0.0
 10
108.0548755594
 20
102.4469442349
 30
0.0
 10
108.0781796866
 20
102.384644616
 30
0.0
 10
108.1083143861
 20
102.3342995943
 30
0.0
 10
108.1494039342
 20
102.2940523289
 30
0.0
 10
108.1838446326
 20
102.2802118146
 30
0.0
 10
108.2049685373
 20
102.2797140941
 30
0.0
  0
SPLINE
  5
300
100
AcDbEntity
  8
0
100
AcDbSpline
 62
7
  6
CONTINUOUS
 70
0
 71
3
 72
9
 73
5
 74
0
 42
0.0000001
 43
0.0000001
 44
0.0000000001
 40
0.0
 40
0.0
 40
0.0
 40
0.0
 40
0.2573720101
 40
1.0
 40
1.0
 40
1.0
 40
1.0
 10
108.892838645
 20
103.0470428346
 30
0.0
 10
108.8576992568
 20
102.9792875405
 30
0.0
 10
108.7187111213
 20
102.7173158895
 30
0.0
 10
108.5697276307
 20
102.4606067395
 30
0.0
 10
108.452974177
 20
102.2738706102
 30
0.0
  0
SPLINE
  5
301
100
AcDbEntity
  8
0
100
AcDbSpline
 62
7
  6
CONTINUOUS
 70
0
 71
3
 72
12
 73
8
 74
0
 42
0.0000001
 43
0.0000001
 44
0.0000000001
 40
0.0
 40
0.0
 40
0.0
 40
0.0
 40
0.128679218
 40
0.2561331636
 40
0.5063352459
 40
0.7539715031
 40
1.0
 40
1.0
 40
1.0
 40
1.0
 10
123.6612702916
 20
115.801378171
 30
0.0
 10
123.6921464172
 20
115.801378171
 30
0.0
 10
123.7540610437
 20
115.7890549446
 30
0.0
 10
123.8602819708
 20
115.7271401535
 30
0.0
 10
123.9596532441
 20
115.6103785884
 30
0.0
 10
124.0410295347
 20
115.4508837797
 30
0.0
 10
124.0787062747
 20
115.338128418
 30
0.0
 10
124.0942829935
 20
115.2811868666
 30
0.0
  0
SPLINE
  5
302
100
AcDbEntity
  8
0
100
AcDbSpline
 62
7
  6
CONTINUOUS
 70
0
 71
3
 72
9
 73
5
 74
0
 42
0.0000001
 43
0.0000001
 44
0.0000000001
 40
0.0
 40
0.0
 40
0.0
 40
0.0
 40
0.1680195226
 40
1.0
 40
1.0
 40
1.0
 40
1.0
 10
124.0942829935
 20
95.2366446391
 30
0.0
 10
124.0774347205
 20
95.2163245232
 30
0.0
 10
123.9619814379
 20
95.107843547
 30
0.0
 10
123.7919772029
 20
95.0700067253
 30
0.0
 10
123.6612702916
 20
95.0700067253
 30
0.0
  0
SPLINE
  5
303
100
AcDbEntity
  8
0
100
AcDbSpline
 62
7
  6
CONTINUOUS
 70
0
 71
3
 72
12
 73
8
 74
0
 42
0.0000001
 43
0.0000001
 44
0.0000000001
 40
0.0
 40
0.0
 40
0.0
 40
0.0
 40
0.2460454262
 40
0.4936983158
 40
0.7439199328
 40
0.8713555617
 40
1.0
 40
1.0
 40
1.0
 40
1.0
 10
120.3056078589
 20
115.2811868666
 30
0.0
 10
120.3211856714
 20
115.3381324164
 30
0.0
 10
120.3588676911
 20
115.4508929218
 30
0.0
 10
120.440243439
 20
115.6104095898
 30
0.0
 10
120.5396480508
 20
115.7271371226
 30
0.0
 10
120.6458438672
 20
115.789084961
 30
0.0
 10
120.707752737
 20
115.801378171
 30
0.0
 10
120.7386205608
 20
115.801378171
 30
0.0
  0
SPLINE
  5
304
100
AcDbEntity
  8
0
100
AcDbSpline
 62
7
  6
CONTINUOUS
 70
0
 71
3
 72
9
 73
5
 74
0
 42
0.0000001
 43
0.0000001
 44
0.0000000001
 40
0.0
 40
0.0
 40
0.0
 40
0.0
 40
0.3641598889
 40
1.0
 40
1.0
 40
1.0
 40
1.0
 10
120.7386205608
 20
95.0700067253
 30
0.0
 10
120.681244139
 20
95.0700067253
 30
0.0
 10
120.5250578059
 20
95.0861258193
 30
0.0
 10
120.3695518152
 20
95.1595240582
 30
0.0
 10
120.3056078589
 20
95.2366446391
 30
0.0
  0
SPLINE
  5
305
100
AcDbEntity
  8
0
100
AcDbSpline
 62
7
  6
CONTINUOUS
 70
0
 71
3
 72
9
 73
5
 74
0
 42
0.0000001
 43
0.0000001
 44
0.0000000001
 40
0.0
 40
0.0
 40
0.0
 40
0.0
 40
0.3642526053
 40
1.0
 40
1.0
 40
1.0
 40
1.0
 10
123.6612702916
 20
155.2311922459
 30
0.0
 10
123.7186616981
 20
155.2311922459
 30
0.0
 10
123.8748511567
 20
155.2150776904
 30
0.0
 10
124.0303479419
 20
155.1416641732
 30
0.0
 10
124.0942829935
 20
155.064554332
 30
0.0
  0
SPLINE
  5
306
100
AcDbEntity
  8
0
100
AcDbSpline
 62
7
  6
CONTINUOUS
 70
0
 71
3
 72
21
 73
17
 74
0
 42
0.0000001
 43
0.0000001
 44
0.0000000001
 40
0.0
 40
0.0
 40
0.0
 40
0.0
 40
0.0152736556
 40
0.0307400416
 40
0.0615944727
 40
0.0924597446
 40
0.1233512662
 40
0.1852330485
 40
0.2472659363
 40
0.3094463907
 40
0.3717660941
 40
0.4967787028
 40
0.6222117836
 40
0.747963109
 40
0.8739278454
 40
1.0
 40
1.0
 40
1.0
 40
1.0
 10
108.2049685373
 20
133.3365426723
 30
0.0
 10
108.1897062221
 20
133.336480253
 30
0.0
 10
108.1640180572
 20
133.3104830983
 30
0.0
 10
108.1382769646
 20
133.2567305625
 30
0.0
 10
108.1146294347
 20
133.1819586694
 30
0.0
 10
108.0948310613
 20
133.0918638451
 30
0.0
 10
108.0738533864
 20
132.9699664809
 30
0.0
 10
108.0549499863
 20
132.8164176775
 30
0.0
 10
108.0387223461
 20
132.6311337253
 30
0.0
 10
108.0269531516
 20
132.4450996579
 30
0.0
 10
108.0154985117
 20
132.1960238056
 30
0.0
 10
108.0070847476
 20
131.8835782865
 30
0.0
 10
108.0023322994
 20
131.5076828065
 30
0.0
 10
108.0005178768
 20
131.1308127503
 30
0.0
 10
108.0000445386
 20
130.7533021173
 30
0.0
 10
108.0000085153
 20
130.5014502184
 30
0.0
 10
108.0000085153
 20
130.3754706162
 30
0.0
  0
SPLINE
  5
307
100
AcDbEntity
  8
0
100
AcDbSpline
 62
7
  6
CONTINUOUS
 70
0
 71
3
 72
17
 73
13
 74
0
 42
0.0000001
 43
0.0000001
 44
0.0000000001
 40
0.0
 40
0.0
 40
0.0
 40
0.0
 40
0.2182009024
 40
0.3349220057
 40
0.456586696
 40
0.5831112211
 40
0.7144823146
 40
0.7820564401
 40
0.8510300181
 40
0.92186225
 40
0.958727904
 40
1.0
 40
1.0
 40
1.0
 40
1.0
 10
108.0000085153
 20
141.6081302342
 30
0.0
 10
108.0000085153
 20
141.47585122
 30
0.0
 10
107.9999908279
 20
141.2728115586
 30
0.0
 10
108.0023979367
 20
140.9960227883
 30
0.0
 10
108.0072231302
 20
140.7748503856
 30
0.0
 10
108.0175088683
 20
140.5449354047
 30
0.0
 10
108.0336338917
 20
140.3482667096
 30
0.0
 10
108.0552079923
 20
140.187065838
 30
0.0
 10
108.0778124628
 20
140.0638955459
 30
0.0
 10
108.1074082591
 20
139.9587448152
 30
0.0
 10
108.1418399339
 20
139.879274961
 30
0.0
 10
108.1799530704
 20
139.8350545844
 30
0.0
 10
108.2049685373
 20
139.8355416903
 30
0.0
  0
SPLINE
  5
308
100
AcDbEntity
  8
0
100
AcDbSpline
 62
7
  6
CONTINUOUS
 70
0
 71
3
 72
11
 73
7
 74
0
 42
0.0000001
 43
0.0000001
 44
0.0000000001
 40
0.0
 40
0.0
 40
0.0
 40
0.0
 40
0.2163338898
 40
0.4581730139
 40
0.72121324
 40
1.0
 40
1.0
 40
1.0
 40
1.0
 10
108.452974177
 20
139.8403709182
 30
0.0
 10
108.3672727891
 20
139.3776493626
 30
0.0
 10
108.2450043031
 20
138.3864379652
 30
0.0
 10
108.1904222619
 20
136.8170912543
 30
0.0
 10
108.2550497743
 20
135.1123048229
 30
0.0
 10
108.3743583921
 20
133.9388845061
 30
0.0
 10
108.452974177
 20
133.3375569282
 30
0.0
  0
SPLINE
  5
309
100
AcDbEntity
  8
BEZUGSACHSEN
100
AcDbSpline
 62
7
  6
CONTINUOUS
 70
0
 71
3
 72
13
 73
9
 74
0
 42
0.0000001
 43
0.0000001
 44
0.0000000001
 40
0.0
 40
0.0
 40
0.0
 40
0.0
 40
0.26800021
 40
0.5239615242
 40
0.6465397851
 40
0.7658033883
 40
0.8830813465
 40
1.0
 40
1.0
 40
1.0
 40
1.0
 10
139.1999454262
 20
109.9578671037
 30
0.0
 10
138.8766989669
 20
109.9578671037
 30
0.0
 10
138.2400114916
 20
110.0576374534
 30
0.0
 10
137.536807686
 20
110.4358422151
 30
0.0
 10
137.1119087635
 20
110.8655665068
 30
0.0
 10
136.8770295215
 20
111.2337282662
 30
0.0
 10
136.7322353212
 20
111.6384691378
 30
0.0
 10
136.6999899467
 20
111.9220431189
 30
0.0
 10
136.6999858508
 20
112.0630636829
 30
0.0
  0
SPLINE
  5
30A
100
AcDbEntity
  8
0
100
AcDbSpline
 62
7
  6
CONTINUOUS
 70
0
 71
3
 72
13
 73
9
 74
0
 42
0.0000001
 43
0.0000001
 44
0.0000000001
 40
0.0
 40
0.0
 40
0.0
 40
0.0
 40
0.1753307868
 40
0.3422637982
 40
0.4768046258
 40
0.5947351366
 40
0.8062611466
 40
1.0
 40
1.0
 40
1.0
 40
1.0
 10
109.8049685373
 20
103.6231707455
 30
0.0
 10
109.7410557924
 20
103.6501109071
 30
0.0
 10
109.6032787491
 20
103.6788488931
 30
0.0
 10
109.4156317508
 20
103.6300700752
 30
0.0
 10
109.2740470672
 20
103.5412281722
 30
0.0
 10
109.1375818444
 20
103.4176255603
 30
0.0
 10
109.0091631578
 20
103.2537489542
 30
0.0
 10
108.9281231609
 20
103.1150779619
 30
0.0
 10
108.892838645
 20
103.0470428346
 30
0.0
  0
SPLINE
  5
30B
100
AcDbEntity
  8
BEZUGSACHSEN
100
AcDbSpline
 62
7
  6
CONTINUOUS
 70
0
 71
3
 72
13
 73
9
 74
0
 42
0.0000001
 43
0.0000001
 44
0.0000000001
 40
0.0
 40
0.0
 40
0.0
 40
0.0
 40
0.26800021
 40
0.5239615242
 40
0.6465397851
 40
0.7658033883
 40
0.8830813465
 40
1.0
 40
1.0
 40
1.0
 40
1.0
 10
139.1999454262
 20
140.3433318675
 30
0.0
 10
139.5231918855
 20
140.3433318675
 30
0.0
 10
140.1598793608
 20
140.2435615177
 30
0.0
 10
140.8630831664
 20
139.8653567561
 30
0.0
 10
141.2879820889
 20
139.4356324644
 30
0.0
 10
141.5228613309
 20
139.0674707049
 30
0.0
 10
141.6676555312
 20
138.6627298333
 30
0.0
 10
141.6999009057
 20
138.3791558522
 30
0.0
 10
141.6999050016
 20
138.2381352882
 30
0.0
  0
SPLINE
  5
30C
100
AcDbEntity
  8
0
100
AcDbSpline
 62
7
  6
CONTINUOUS
 70
0
 71
3
 72
13
 73
9
 74
0
 42
0.0000001
 43
0.0000001
 44
0.0000000001
 40
0.0
 40
0.0
 40
0.0
 40
0.0
 40
0.286526882
 40
0.4543474408
 40
0.5599589325
 40
0.648267425
 40
0.8182504149
 40
1.0
 40
1.0
 40
1.0
 40
1.0
 10
109.8049685373
 20
103.6231707455
 30
0.0
 10
109.8303548212
 20
103.6124700536
 30
0.0
 10
109.8730800306
 20
103.5996711311
 30
0.0
 10
109.9282699238
 20
103.6038749975
 30
0.0
 10
109.9594549845
 20
103.6211610732
 30
0.0
 10
109.9825172893
 20
103.6481727138
 30
0.0
 10
109.9967560808
 20
103.6891513008
 30
0.0
 10
109.9995357549
 20
103.7229682471
 30
0.0
 10
109.9998592195
 20
103.7404403604
 30
0.0
  0
SPLINE
  5
30D
100
AcDbEntity
  8
0
100
AcDbSpline
 62
7
  6
CONTINUOUS
 70
0
 71
3
 72
17
 73
13
 74
0
 42
0.0000001
 43
0.0000001
 44
0.0000000001
 40
0.0
 40
0.0
 40
0.0
 40
0.0
 40
0.125135549
 40
0.2502986125
 40
0.3754807531
 40
0.5006727147
 40
0.6258456077
 40
0.6884746641
 40
0.7511065344
 40
0.8746656069
 40
0.9373062378
 40
1.0
 40
1.0
 40
1.0
 40
1.0
 10
108.892838645
 20
131.5651392463
 30
0.0
 10
108.9099069887
 20
131.4938129377
 30
0.0
 10
108.9461735505
 20
131.3516392562
 30
0.0
 10
109.0082200241
 20
131.1404457463
 30
0.0
 10
109.0798011832
 20
130.9322080565
 30
0.0
 10
109.1641412382
 20
130.7287054483
 30
0.0
 10
109.2493105918
 20
130.5658225535
 30
0.0
 10
109.3329649982
 20
130.4445110058
 30
0.0
 10
109.4278001186
 20
130.3351838533
 30
0.0
 10
109.5624085007
 20
130.2491077146
 30
0.0
 10
109.7129355324
 20
130.270700603
 30
0.0
 10
109.7762433515
 20
130.3106375574
 30
0.0
 10
109.8049685373
 20
130.3335499387
 30
0.0
  0
SPLINE
  5
30E
100
AcDbEntity
  8
0
100
AcDbSpline
 62
7
  6
CONTINUOUS
 70
0
 71
3
 72
12
 73
8
 74
0
 42
0.0000001
 43
0.0000001
 44
0.0000000001
 40
0.0
 40
0.0
 40
0.0
 40
0.0
 40
0.2460280129
 40
0.4936634005
 40
0.7438647573
 40
0.8713194616
 40
1.0
 40
1.0
 40
1.0
 40
1.0
 10
124.0942829935
 20
135.0200121045
 30
0.0
 10
124.0787063065
 20
134.9630706693
 30
0.0
 10
124.0410298113
 20
134.8503154945
 30
0.0
 10
123.9596533574
 20
134.6908216538
 30
0.0
 10
123.8602835782
 20
134.5740585945
 30
0.0
 10
123.7540615541
 20
134.5121452863
 30
0.0
 10
123.6921467318
 20
134.4998208001
 30
0.0
 10
123.6612702916
 20
134.4998208001
 30
0.0
  0
SPLINE
  5
30F
100
AcDbEntity
  8
0
100
AcDbSpline
 62
7
  6
CONTINUOUS
 70
0
 71
3
 72
9
 73
5
 74
0
 42
0.0000001
 43
0.0000001
 44
0.0000000001
 40
0.0
 40
0.0
 40
0.0
 40
0.0
 40
0.1680322176
 40
1.0
 40
1.0
 40
1.0
 40
1.0
 10
120.3056078589
 20
155.064554332
 30
0.0
 10
120.3224574179
 20
155.0848759989
 30
0.0
 10
120.4379119947
 20
155.1933560309
 30
0.0
 10
120.6079155438
 20
155.2311922459
 30
0.0
 10
120.7386205608
 20
155.2311922459
 30
0.0
  0
SPLINE
  5
310
100
AcDbEntity
  8
0
100
AcDbSpline
 62
7
  6
CONTINUOUS
 70
0
 71
3
 72
12
 73
8
 74
0
 42
0.0000001
 43
0.0000001
 44
0.0000000001
 40
0.0
 40
0.0
 40
0.0
 40
0.0
 40
0.1286448926
 40
0.256081
 40
0.5063027424
 40
0.7539549585
 40
1.0
 40
1.0
 40
1.0
 40
1.0
 10
120.7386205608
 20
134.4998208001
 30
0.0
 10
120.7077526293
 20
134.4998208001
 30
0.0
 10
120.645843635
 20
134.5121144239
 30
0.0
 10
120.5396473378
 20
134.5740618876
 30
0.0
 10
120.4402433557
 20
134.6907900896
 30
0.0
 10
120.3588675093
 20
134.8503063276
 30
0.0
 10
120.3211856464
 20
134.9630666462
 30
0.0
 10
120.3056078589
 20
135.0200121045
 30
0.0
  0
SPLINE
  5
311
100
AcDbEntity
  8
BEZUGSACHSEN
100
AcDbSpline
 62
7
  6
CONTINUOUS
 70
0
 71
3
 72
9
 73
5
 74
0
 42
0.0000001
 43
0.0000001
 44
0.0000000001
 40
0.0
 40
0.0
 40
0.0
 40
0.0
 40
0.2524209486
 40
1.0
 40
1.0
 40
1.0
 40
1.0
 10
139.1999454262
 20
136.553162995
 30
0.0
 10
139.0974758557
 20
136.553162995
 30
0.0
 10
138.6919019299
 20
136.5313494283
 30
0.0
 10
138.2903543307
 20
136.4228737717
 30
0.0
 10
138.0152938428
 20
136.2946537136
 30
0.0
  0
SPLINE
  5
312
100
AcDbEntity
  8
BEZUGSACHSEN
100
AcDbSpline
 62
7
  6
CONTINUOUS
 70
0
 71
3
 72
9
 73
5
 74
0
 42
0.0000001
 43
0.0000001
 44
0.0000000001
 40
0.0
 40
0.0
 40
0.0
 40
0.0
 40
0.2524199137
 40
1.0
 40
1.0
 40
1.0
 40
1.0
 10
139.1999454262
 20
136.553162995
 30
0.0
 10
139.302399083
 20
136.553162995
 30
0.0
 10
139.7079118078
 20
136.5313559711
 30
0.0
 10
140.1093999794
 20
136.4229139054
 30
0.0
 10
140.3844282598
 20
136.2947323694
 30
0.0
  0
SPLINE
  5
313
100
AcDbEntity
  8
0
100
AcDbSpline
 62
7
  6
CONTINUOUS
 70
0
 71
3
 72
16
 73
12
 74
0
 42
0.0000001
 43
0.0000001
 44
0.0000000001
 40
0.0
 40
0.0
 40
0.0
 40
0.0
 40
0.2537061586
 40
0.3798181994
 40
0.5052514003
 40
0.6297642598
 40
0.7529383547
 40
0.8138894569
 40
0.8744647729
 40
0.9358391589
 40
1.0
 40
1.0
 40
1.0
 40
1.0
 10
109.9999535664
 20
129.7275536808
 30
0.0
 10
109.9999967233
 20
129.7886645758
 30
0.0
 10
109.9987939921
 20
129.8802047163
 30
0.0
 10
109.9906401756
 20
130.0016523346
 30
0.0
 10
109.9806587679
 20
130.0917521227
 30
0.0
 10
109.9649340229
 20
130.1802265288
 30
0.0
 10
109.9447513132
 20
130.2522895506
 30
0.0
 10
109.9188297194
 20
130.3052662057
 30
0.0
 10
109.8925415815
 20
130.3416299401
 30
0.0
 10
109.8461761612
 20
130.3591929869
 30
0.0
 10
109.8170504445
 20
130.3431869613
 30
0.0
 10
109.8049685373
 20
130.3335499387
 30
0.0
  0
SPLINE
  5
314
100
AcDbEntity
  8
BEZUGSACHSEN
100
AcDbSpline
 62
7
  6
CONTINUOUS
 70
0
 71
3
 72
13
 73
9
 74
0
 42
0.0000001
 43
0.0000001
 44
0.0000000001
 40
0.0
 40
0.0
 40
0.0
 40
0.0
 40
0.1169182543
 40
0.2341963781
 40
0.3534584519
 40
0.4760350455
 40
0.7319994485
 40
1.0
 40
1.0
 40
1.0
 40
1.0
 10
136.6999858508
 20
138.2380465516
 30
0.0
 10
136.6999817548
 20
138.3790700108
 30
0.0
 10
136.7322205898
 20
138.6626514743
 30
0.0
 10
136.8769954207
 20
139.0674075426
 30
0.0
 10
137.1118674113
 20
139.4355829436
 30
0.0
 10
137.5367664714
 20
139.8653271743
 30
0.0
 10
138.2399836917
 20
140.2435546954
 30
0.0
 10
138.876690815
 20
140.3433318675
 30
0.0
 10
139.1999454262
 20
140.3433318675
 30
0.0
  0
SPLINE
  5
315
100
AcDbEntity
  8
BEZUGSACHSEN
100
AcDbSpline
 62
7
  6
CONTINUOUS
 70
0
 71
3
 72
13
 73
9
 74
0
 42
0.0000001
 43
0.0000001
 44
0.0000000001
 40
0.0
 40
0.0
 40
0.0
 40
0.0
 40
0.1169182543
 40
0.2341963781
 40
0.3534584519
 40
0.4760350455
 40
0.7319994485
 40
1.0
 40
1.0
 40
1.0
 40
1.0
 10
141.6999050016
 20
112.0631524195
 30
0.0
 10
141.6999090976
 20
111.9221289604
 30
0.0
 10
141.6676702626
 20
111.6385474969
 30
0.0
 10
141.5228954317
 20
111.2337914285
 30
0.0
 10
141.2880234411
 20
110.8656160275
 30
0.0
 10
140.863124381
 20
110.4358717968
 30
0.0
 10
140.1599071607
 20
110.0576442758
 30
0.0
 10
139.5232000374
 20
109.9578671037
 30
0.0
 10
139.1999454262
 20
109.9578671037
 30
0.0
  0
SPLINE
  5
316
100
AcDbEntity
  8
BEZUGSACHSEN
100
AcDbSpline
 62
7
  6
CONTINUOUS
 70
0
 71
3
 72
9
 73
5
 74
0
 42
0.0000001
 43
0.0000001
 44
0.0000000001
 40
0.0
 40
0.0
 40
0.0
 40
0.0
 40
0.2476142733
 40
1.0
 40
1.0
 40
1.0
 40
1.0
 10
140.3845970096
 20
114.0065452576
 30
0.0
 10
140.2934816369
 20
113.964071624
 30
0.0
 10
139.9160007439
 20
113.8134731434
 30
0.0
 10
139.5054058601
 20
113.7480359761
 30
0.0
 10
139.1999454262
 20
113.7480359761
 30
0.0
  0
SPLINE
  5
317
100
AcDbEntity
  8
BEZUGSACHSEN
100
AcDbSpline
 62
7
  6
CONTINUOUS
 70
0
 71
3
 72
9
 73
5
 74
0
 42
0.0000001
 43
0.0000001
 44
0.0000000001
 40
0.0
 40
0.0
 40
0.0
 40
0.0
 40
0.2476150999
 40
1.0
 40
1.0
 40
1.0
 40
1.0
 10
138.0154625926
 20
114.0064666017
 30
0.0
 10
138.1065674696
 20
113.964005648
 30
0.0
 10
138.4840002974
 20
113.8134530451
 30
0.0
 10
138.8945315303
 20
113.7480359761
 30
0.0
 10
139.1999454262
 20
113.7480359761
 30
0.0
  0
LINE
  5
318
100
AcDbEntity
  8
0
100
AcDbLine
 62
7
  6
CONTINUOUS
 10
108.2103470579
 20
101.7252146797
 11
108.452974177
 21
102.2738706102
  0
ELLIPSE
  5
319
100
AcDbEntity
  8
0
100
AcDbEllipse
 62
7
  6
CONTINUOUS
 10
107.8527912368
 20
125.1505994856
 30
0.0
 11
14.7536831607
 21
31.0932549156
 31
0.0
 40
0.3419987131
 41
-1.0912395858
 42
-0.1578061866
  0
ELLIPSE
  5
31A
100
AcDbEntity
  8
0
100
AcDbEllipse
 62
7
  6
CONTINUOUS
 10
136.5470996156
 20
125.1505994856
 30
0.0
 11
-14.7536831607
 21
31.0932549156
 31
0.0
 40
0.3419987131
 41
0.1578061866
 42
1.0912395858
  0
ELLIPSE
  5
31B
100
AcDbEntity
  8
0
100
AcDbEllipse
 62
7
  6
CONTINUOUS
 10
136.5470996156
 20
125.1505994856
 30
0.0
 11
14.7536831607
 21
31.0932549156
 31
0.0
 40
0.3419987131
 41
-4.2328322393
 42
-3.2993988402
  0
ELLIPSE
  5
31C
100
AcDbEntity
  8
0
100
AcDbEllipse
 62
7
  6
CONTINUOUS
 10
107.8527912368
 20
125.1505994856
 30
0.0
 11
-14.7536831607
 21
31.0932549156
 31
0.0
 40
0.3419987131
 41
-2.9837864669
 42
-2.0503530678
  0
ENDSEC
  0
SECTION
  2
OBJECTS
  0
DICTIONARY
  5
C
100
AcDbDictionary
280
0
281
1
  3
ACAD_GROUP
350
D
  3
ACAD_MLINESTYLE
350
17
  3
ACAD_LAYOUT
350
1A
  3
ACAD_PLOTSETTINGS
350
19
  3
ACAD_PLOTSTYLENAME
350
E
  0
DICTIONARY
  5
D
102
{ACAD_REACTORS
330
C
102
}
100
AcDbDictionary
280
0
281
1
  0
ACDBDICTIONARYWDFLT
  5
E
102
{ACAD_REACTORS
330
C
102
}
100
AcDbDictionary
281
1
  3
Normal
350
F
100
AcDbDictionaryWithDefault
340
F
  0
DICTIONARY
  5
17
102
{ACAD_REACTORS
330
C
102
}
100
AcDbDictionary
280
0
281
1
  3
Standard
350
18
  0
DICTIONARY
  5
19
102
{ACAD_REACTORS
330
C
102
}
100
AcDbDictionary
281
1
  0
DICTIONARY
  5
1A
102
{ACAD_REACTORS
330
C
102
}
100
AcDbDictionary
281
1
  3
Model
350
31D
  3
Layout1
350
31E
  0
ACDBPLACEHOLDER
  5
F
102
{ACAD_REACTORS
330
E
102
}
  0
MLINESTYLE
  5
18
102
{ACAD_REACTORS
330
17
102
}
100
AcDbMlineStyle
  2
STANDARD
 70
0
  3

 62
256
 51
90.0
 52
90.0
 71
2
 49
0.5
 62
256
  6
BYLAYER
 49
-0.5
 62
256
  6
BYLAYER
  0
LAYOUT
  5
31D
102
{ACAD_REACTORS
330
1A
102
}
100
AcDbPlotSettings
  1

  2
none_device
  4
ISO_A4_(297.00_x_210.00_MM)
  6

 40
0.0
 41
0.0
 42
0.0
 43
0.0
 44
297.0
 45
210.0
 46
0.0
 47
0.0
 48
0.0
 49
0.0
140
0.0
141
0.0
142
1.0
143
1.0
 70
1024
 72
1
 73
0
 74
0
  7

 75
0
147
1.0
148
0.0
149
0.0
100
AcDbLayout
  1
Model
 70
0
 71
0
 10
0.0
 20
0.0
 11
297.0
 21
210.0
 12
0.0
 22
0.0
 32
0.0
 14
0.0
 24
0.0
 34
0.0
 15
0.0
 25
0.0
 35
0.0
146
0.0
 13
0.0
 23
0.0
 33
0.0
 16
1.0
 26
0.0
 36
0.0
 17
0.0
 27
1.0
 37
0.0
 76
0
330
217
345
0
346
0
  0
LAYOUT
  5
31E
102
{ACAD_REACTORS
330
1A
102
}
100
AcDbPlotSettings
  1

  2
none_device
  4
ISO_A4_(297.00_x_210.00_MM)
  6

 40
0.0
 41
0.0
 42
0.0
 43
0.0
 44
297.0
 45
210.0
 46
0.0
 47
0.0
 48
0.0
 49
0.0
140
0.0
141
0.0
142
1.0
143
1.0
 70
0
 72
1
 73
0
 74
0
  7

 75
0
147
1.0
148
0.0
149
0.0
100
AcDbLayout
  1
Layout1
 70
0
 71
1
 10
0.0
 20
0.0
 11
297.0
 21
210.0
 12
0.0
 22
0.0
 32
0.0
 14
0.0
 24
0.0
 34
0.0
 15
0.0
 25
0.0
 35
0.0
146
0.0
 13
0.0
 23
0.0
 33
0.0
 16
1.0
 26
0.0
 36
0.0
 17
0.0
 27
1.0
 37
0.0
 76
0
330
218
345
0
346
0
  0
ENDSEC
  0
EOF
