999
DXF file: cc6-140-16.dxf
999
Pro/ENGINEER 2010430 by Parametric Technology Corporation
  0
SECTION
  2
HEADER
  9
$ACADVER
  1
AC1021
  9
$DWGCODEPAGE
  3
ANSI_1252
  9
$EXTMAX
 10
297.0
 20
210.0
 30
0.0
  9
$EXTMIN
 10
0.0
 20
0.0
 30
0.0
  9
$LIMMIN
 10
0.0
 20
0.0
  9
$LIMMAX
 10
297.0
 20
210.0
  9
$VIEWCTR
 10
148.5
 20
105.0
  9
$VIEWSIZE
 40
210.0
  9
$CLAYER
  8
0
  9
$LTSCALE
 40
16.335
  9
$CELTYPE
  6
BYLAYER
  9
$DIMSCALE
 40
1.0
  9
$DIMASZ
 40
3.5
  9
$DIMEXO
 40
1.85625
  9
$DIMDLI
 40
11.286
  9
$DIMEXE
 40
5.346
  9
$DIMCEN
 40
2.673
  9
$DIMLFAC
 40
1.0
  9
$DIMBLK
  1
_FILLED
  9
$DIMTXT
 40
3.5
  9
$DIMTOL
 70
1
  9
$DIMLIM
 70
0
  9
$DIMTFAC
 40
1.0
  9
$DIMTP
 40
0.005
  9
$DIMTM
 40
0.005
  9
$PDMODE
 70
3
  9
$PDSIZE
 40
0.3125
  9
$HANDSEED
  5
315
  9
$TILEMODE
 70
1
  9
$MEASUREMENT
 70
1
  9
$INSUNITS
 70
4
  0
ENDSEC
  0
SECTION
  2
CLASSES
  0
CLASS
  1
ACDBDICTIONARYWDFLT
  2
AcDbDictionaryWithDefault
  3
AutoCAD 2000
 90
0
 91
1
280
0
281
0
  0
CLASS
  1
ACDBPLACEHOLDER
  2
AcDbPlaceHolder
  3
AutoCAD 2000
 90
0
 91
1
280
0
281
0
  0
CLASS
  1
LAYOUT
  2
AcDbLayout
  3
AutoCAD 2000
 90
0
 91
0
280
0
281
0
  0
ENDSEC
  0
SECTION
  2
TABLES
  0
TABLE
  2
VPORT
  5
8
100
AcDbSymbolTable
 70
2
  0
VPORT
  5
1F4
100
AcDbSymbolTableRecord
100
AcDbViewportTableRecord
  2
*ACTIVE
 70
0
 10
0.0
 20
0.0
 11
1.0
 21
1.0
 12
148.5
 22
105.0
 13
0.0
 23
0.0
 14
1.0
 24
1.0
 15
0.0
 25
0.0
 16
0.0
 26
0.0
 36
1.0
 17
0.0
 27
0.0
 37
0.0
 40
210.0
 41
1.4142857143
 42
50.0
 43
0.0
 44
0.0
 50
0.0
 51
0.0
 71
0
 72
100
 73
1
 74
1
 75
0
 76
0
 77
0
 78
0
  0
ENDTAB
  0
TABLE
  2
LTYPE
  5
5
100
AcDbSymbolTable
 70
6
  0
LTYPE
  5
14
100
AcDbSymbolTableRecord
100
AcDbLinetypeTableRecord
  2
BYBLOCK
 70
0
  3

 72
65
 73
0
 40
0.0
  0
LTYPE
  5
15
100
AcDbSymbolTableRecord
100
AcDbLinetypeTableRecord
  2
BYLAYER
 70
0
  3

 72
65
 73
0
 40
0.0
  0
LTYPE
  5
16
100
AcDbSymbolTableRecord
100
AcDbLinetypeTableRecord
  2
CONTINUOUS
 70
64
  3
Solid line
 72
65
 73
0
 40
0.0
  0
LTYPE
  5
1F5
100
AcDbSymbolTableRecord
100
AcDbLinetypeTableRecord
  2
CENTER
 70
64
  3
____ _ ____ _ ____ _ ____ _ ____ _ ____ _ ____
 72
65
 73
4
 40
0.6
 49
0.375
 74
0
 49
-0.075
 74
0
 49
0.075
 74
0
 49
-0.075
 74
0
  0
LTYPE
  5
1F6
100
AcDbSymbolTableRecord
100
AcDbLinetypeTableRecord
  2
HIDDEN
 70
64
  3
- - - - - - - - - - - - - - - - - - - -
 72
65
 73
2
 40
0.2
 49
0.1
 74
0
 49
-0.1
 74
0
  0
LTYPE
  5
1F7
100
AcDbSymbolTableRecord
100
AcDbLinetypeTableRecord
  2
PHANTOM
 70
64
  3
_____ _ _ _____ _ _ _____ _ _ _____
 72
65
 73
6
 40
0.8
 49
0.45
 74
0
 49
-0.05
 74
0
 49
0.1
 74
0
 49
-0.05
 74
0
 49
0.1
 74
0
 49
-0.05
 74
0
  0
LTYPE
  5
1F8
100
AcDbSymbolTableRecord
100
AcDbLinetypeTableRecord
  2
DOT
 70
64
  3
. . . . . . . . . . . . . . . . . . . .
 72
65
 73
2
 40
0.2
 49
0.1
 74
0
 49
-0.1
 74
0
  0
LTYPE
  5
1F9
100
AcDbSymbolTableRecord
100
AcDbLinetypeTableRecord
  2
DASHED
 70
64
  3
- - - - - - - - - - - - - - - - - - - -
 72
65
 73
2
 40
0.2
 49
0.1
 74
0
 49
-0.1
 74
0
  0
ENDTAB
  0
TABLE
  2
LAYER
  5
2
100
AcDbSymbolTable
 70
36
  0
LAYER
  5
10
100
AcDbSymbolTableRecord
100
AcDbLayerTableRecord
  2
0
 70
0
 62
7
  6
CONTINUOUS
370
-3
390
F
  0
LAYER
  5
1FA
100
AcDbSymbolTableRecord
100
AcDbLayerTableRecord
  2
DEFAULT_1
 70
0
 62
7
  6
CENTER
370
-3
390
F
  0
LAYER
  5
1FB
100
AcDbSymbolTableRecord
100
AcDbLayerTableRecord
  2
DEFAULT_2
 70
0
 62
8
  6
HIDDEN
370
-3
390
F
  0
LAYER
  5
1FC
100
AcDbSymbolTableRecord
100
AcDbLayerTableRecord
  2
DEFAULT_3
 70
0
 62
7
  6
PHANTOM
370
-3
390
F
  0
LAYER
  5
1FD
100
AcDbSymbolTableRecord
100
AcDbLayerTableRecord
  2
ACHSEN
 70
0
 62
7
  6
CONTINUOUS
370
-3
390
F
  0
LAYER
  5
1FE
100
AcDbSymbolTableRecord
100
AcDbLayerTableRecord
  2
BEZUGSACHSEN
 70
0
 62
7
  6
CONTINUOUS
370
-3
390
F
  0
LAYER
  5
1FF
100
AcDbSymbolTableRecord
100
AcDbLayerTableRecord
  2
BEZUGSEBENE_B
 70
0
 62
7
  6
CONTINUOUS
370
-3
390
F
  0
LAYER
  5
200
100
AcDbSymbolTableRecord
100
AcDbLayerTableRecord
  2
BOHRUNGEN
 70
0
 62
7
  6
CONTINUOUS
370
-3
390
F
  0
LAYER
  5
201
100
AcDbSymbolTableRecord
100
AcDbLayerTableRecord
  2
EBENEN
 70
0
 62
7
  6
CONTINUOUS
370
-3
390
F
  0
LAYER
  5
202
100
AcDbSymbolTableRecord
100
AcDbLayerTableRecord
  2
FASEN
 70
0
 62
7
  6
CONTINUOUS
370
-3
390
F
  0
LAYER
  5
203
100
AcDbSymbolTableRecord
100
AcDbLayerTableRecord
  2
FLAECHEN
 70
0
 62
7
  6
CONTINUOUS
370
-3
390
F
  0
LAYER
  5
204
100
AcDbSymbolTableRecord
100
AcDbLayerTableRecord
  2
GEWINDE
 70
0
 62
7
  6
CONTINUOUS
370
-3
390
F
  0
LAYER
  5
205
100
AcDbSymbolTableRecord
100
AcDbLayerTableRecord
  2
KOORDSYS
 70
0
 62
7
  6
CONTINUOUS
370
-3
390
F
  0
LAYER
  5
206
100
AcDbSymbolTableRecord
100
AcDbLayerTableRecord
  2
KURVEN
 70
0
 62
7
  6
CONTINUOUS
370
-3
390
F
  0
LAYER
  5
207
100
AcDbSymbolTableRecord
100
AcDbLayerTableRecord
  2
KURVE_FUER_GTOL_DETAILANSICHT
 70
0
 62
7
  6
CONTINUOUS
370
-3
390
F
  0
LAYER
  5
208
100
AcDbSymbolTableRecord
100
AcDbLayerTableRecord
  2
KURVE_GAUGE2_POLIGON_INNENEINST
 70
0
 62
7
  6
CONTINUOUS
370
-3
390
F
  0
LAYER
  5
209
100
AcDbSymbolTableRecord
100
AcDbLayerTableRecord
  2
KURVE_PHANTOM1_GAUGE_PIN_1
 70
0
 62
7
  6
CONTINUOUS
370
-3
390
F
  0
LAYER
  5
20A
100
AcDbSymbolTableRecord
100
AcDbLayerTableRecord
  2
KURVE_PHANTOM2_GAUGE_PIN1
 70
0
 62
7
  6
CONTINUOUS
370
-3
390
F
  0
LAYER
  5
20B
100
AcDbSymbolTableRecord
100
AcDbLayerTableRecord
  2
KURVE_POLIGON_BEMASUNG
 70
0
 62
7
  6
CONTINUOUS
370
-3
390
F
  0
LAYER
  5
20C
100
AcDbSymbolTableRecord
100
AcDbLayerTableRecord
  2
PUNKTE
 70
0
 62
7
  6
CONTINUOUS
370
-3
390
F
  0
LAYER
  5
20D
100
AcDbSymbolTableRecord
100
AcDbLayerTableRecord
  2
RUNDUNGEN
 70
0
 62
7
  6
CONTINUOUS
370
-3
390
F
  0
LAYER
  5
20E
100
AcDbSymbolTableRecord
100
AcDbLayerTableRecord
  2
S_ACHSEN
 70
0
 62
7
  6
CONTINUOUS
370
-3
390
F
  0
LAYER
  5
20F
100
AcDbSymbolTableRecord
100
AcDbLayerTableRecord
  2
S_EBENEN
 70
0
 62
7
  6
CONTINUOUS
370
-3
390
F
  0
LAYER
  5
210
100
AcDbSymbolTableRecord
100
AcDbLayerTableRecord
  2
S_KOORDSYS
 70
0
 62
7
  6
CONTINUOUS
370
-3
390
F
  0
LAYER
  5
211
100
AcDbSymbolTableRecord
100
AcDbLayerTableRecord
  2
TOL_BEZUEGE
 70
0
 62
7
  6
CONTINUOUS
370
-3
390
F
  0
LAYER
  5
212
100
AcDbSymbolTableRecord
100
AcDbLayerTableRecord
  2
VERBFLAECHE
 70
0
 62
7
  6
CONTINUOUS
370
-3
390
F
  0
LAYER
  5
213
100
AcDbSymbolTableRecord
100
AcDbLayerTableRecord
  2
ZEICHNUNGSBEMASSUNGEN
 70
0
 62
7
  6
CONTINUOUS
370
-3
390
F
  0
ENDTAB
  0
TABLE
  2
STYLE
  5
3
100
AcDbSymbolTable
 70
1
  0
STYLE
  5
11
100
AcDbSymbolTableRecord
100
AcDbTextStyleTableRecord
  2
STANDARD
 70
0
 40
0.0
 41
0.7
 50
0.0
 71
0
 42
0.2
  3
txt
  4

  0
STYLE
  5
214
100
AcDbSymbolTableRecord
100
AcDbTextStyleTableRecord
  2
TEXTSTYLE_1
 70
0
 40
0.0
 41
0.8
 50
0.0
 71
0
 42
0.2
  3
gdt
  4

  0
STYLE
  5
215
100
AcDbSymbolTableRecord
100
AcDbTextStyleTableRecord
  2
TEXTSTYLE_2
 70
0
 40
0.0
 41
0.7
 50
0.0
 71
0
 42
0.2
  3
gdt
  4

  0
ENDTAB
  0
TABLE
  2
VIEW
  5
6
100
AcDbSymbolTable
 70
0
  0
ENDTAB
  0
TABLE
  2
UCS
  5
7
100
AcDbSymbolTable
 70
0
  0
ENDTAB
  0
TABLE
  2
APPID
  5
9
100
AcDbSymbolTable
 70
1
  0
APPID
  5
216
100
AcDbSymbolTableRecord
100
AcDbRegAppTableRecord
  2
ACAD
 70
0
  0
ENDTAB
  0
TABLE
  2
BLOCK_RECORD
  5
1
100
AcDbSymbolTable
 70
0
  0
BLOCK_RECORD
  5
217
100
AcDbSymbolTableRecord
100
AcDbBlockTableRecord
  2
*Model_Space
  0
BLOCK_RECORD
  5
218
100
AcDbSymbolTableRecord
100
AcDbBlockTableRecord
  2
*Paper_Space
  0
BLOCK_RECORD
  5
219
100
AcDbSymbolTableRecord
100
AcDbBlockTableRecord
  2
_FILLED
  0
BLOCK_RECORD
  5
21A
100
AcDbSymbolTableRecord
100
AcDbBlockTableRecord
  2
*D0
  0
BLOCK_RECORD
  5
21B
100
AcDbSymbolTableRecord
100
AcDbBlockTableRecord
  2
*D1
  0
BLOCK_RECORD
  5
21C
100
AcDbSymbolTableRecord
100
AcDbBlockTableRecord
  2
*D2
  0
BLOCK_RECORD
  5
21D
100
AcDbSymbolTableRecord
100
AcDbBlockTableRecord
  2
*D3
  0
BLOCK_RECORD
  5
21E
100
AcDbSymbolTableRecord
100
AcDbBlockTableRecord
  2
*D4
  0
BLOCK_RECORD
  5
21F
100
AcDbSymbolTableRecord
100
AcDbBlockTableRecord
  2
*D5
  0
BLOCK_RECORD
  5
220
100
AcDbSymbolTableRecord
100
AcDbBlockTableRecord
  2
*D6
  0
ENDTAB
  0
TABLE
  2
DIMSTYLE
  5
A
100
AcDbSymbolTable
 70
1
100
AcDbDimStyleTable
 71
0
  0
DIMSTYLE
105
221
100
AcDbSymbolTableRecord
100
AcDbDimStyleTableRecord
  2
STANDARD
 70
0
  3

  4

 40
1.0
 41
3.5
 42
0.0625
 43
0.38
 44
0.18
 45
0.0
 46
0.0
 47
0.005
 48
0.005
140
3.5
141
0.09
142
0.0
143
25.4
144
1.0
145
0.0
146
1.0
147
0.09
 71
1.0
 72
0.0
 73
0
 74
0
 75
0
 76
0
 77
1
 78
8
170
0
171
2
172
0
173
0
174
0
175
0
176
0
177
0
178
5
270
2
271
3
272
3
273
2
274
2
275
0
280
0
281
0
282
0
283
1
284
8
285
0
286
0
287
3
288
0
340
11
341
219
342
219
343
219
344
219
  0
DIMSTYLE
105
222
100
AcDbSymbolTableRecord
100
AcDbDimStyleTableRecord
  2
DIMSTYLE_1
 70
0
  3

  4

 40
1.0
 41
3.5
 42
0.0625
 43
0.38
 44
0.18
 45
0.0
 46
0.0
 47
0.0
 48
0.1
140
3.5
141
0.09
142
0.0
143
25.4
144
1.0
145
0.0
146
1.0
147
0.09
 71
0.0
 72
0.0
 73
0
 74
0
 75
0
 76
0
 77
1
 78
8
170
0
171
2
172
0
173
0
174
0
175
0
176
0
177
0
178
5
270
2
271
2
272
2
273
2
274
2
275
0
280
0
281
0
282
0
283
1
284
8
285
0
286
0
287
3
288
0
340
11
341
219
342
219
343
219
344
219
  0
DIMSTYLE
105
223
100
AcDbSymbolTableRecord
100
AcDbDimStyleTableRecord
  2
DIMSTYLE_2
 70
0
  3

  4

 40
1.0
 41
3.5
 42
0.0625
 43
0.38
 44
0.18
 45
0.0
 46
0.0
 47
0.25
 48
0.25
140
3.5
141
0.09
142
0.0
143
25.4
144
1.0
145
0.0
146
1.0
147
0.09
 71
0.0
 72
0.0
 73
0
 74
0
 75
0
 76
0
 77
1
 78
8
170
0
171
2
172
0
173
0
174
0
175
0
176
0
177
0
178
5
270
2
271
2
272
2
273
2
274
2
275
0
280
0
281
0
282
0
283
1
284
8
285
0
286
0
287
3
288
0
340
11
341
219
342
219
343
219
344
219
  0
DIMSTYLE
105
224
100
AcDbSymbolTableRecord
100
AcDbDimStyleTableRecord
  2
DIMSTYLE_3
 70
0
  3

  4

 40
1.0
 41
3.5
 42
0.0625
 43
0.38
 44
0.18
 45
0.0
 46
0.0
 47
0.3
 48
0.3
140
3.5
141
0.09
142
0.0
143
25.4
144
1.0
145
0.0
146
1.0
147
0.09
 71
0.0
 72
0.0
 73
0
 74
0
 75
0
 76
0
 77
1
 78
8
170
0
171
2
172
0
173
0
174
0
175
0
176
0
177
0
178
5
270
2
271
2
272
2
273
2
274
2
275
0
280
0
281
0
282
0
283
1
284
8
285
0
286
0
287
3
288
0
340
11
341
219
342
219
343
219
344
219
  0
DIMSTYLE
105
225
100
AcDbSymbolTableRecord
100
AcDbDimStyleTableRecord
  2
DIMSTYLE_4
 70
0
  3

  4

 40
1.0
 41
3.5
 42
0.0625
 43
0.38
 44
0.18
 45
0.0
 46
0.0
 47
-0.027
 48
0.032
140
3.5
141
0.09
142
0.0
143
25.4
144
1.0
145
0.0
146
1.0
147
0.09
 71
0.0
 72
0.0
 73
0
 74
0
 75
0
 76
0
 77
1
 78
8
170
0
171
2
172
0
173
0
174
0
175
0
176
0
177
0
178
5
270
2
271
3
272
3
273
2
274
2
275
0
280
0
281
0
282
0
283
1
284
8
285
0
286
0
287
3
288
0
340
11
341
219
342
219
343
219
344
219
  0
DIMSTYLE
105
226
100
AcDbSymbolTableRecord
100
AcDbDimStyleTableRecord
  2
DIMSTYLE_5
 70
0
  3

  4

 40
1.0
 41
3.5
 42
0.0625
 43
0.38
 44
0.18
 45
0.0
 46
0.0
 47
0.5
 48
0.5
140
3.5
141
0.09
142
0.0
143
25.4
144
1.0
145
0.0
146
1.0
147
0.09
 71
0.0
 72
0.0
 73
0
 74
0
 75
0
 76
0
 77
1
 78
8
170
0
171
2
172
0
173
0
174
0
175
0
176
0
177
0
178
5
270
2
271
2
272
2
273
2
274
2
275
0
280
0
281
0
282
0
283
1
284
8
285
0
286
0
287
3
288
0
340
11
341
219
342
219
343
219
344
219
  0
ENDTAB
  0
ENDSEC
  0
SECTION
  2
BLOCKS
  0
BLOCK
  5
20
100
AcDbEntity
  8
0
100
AcDbBlockBegin
  2
*Model_Space
 70
0
 10
0.0
 20
0.0
 30
0.0
  3
*Model_Space
  1

  0
ENDBLK
  5
21
100
AcDbEntity
  8
0
100
AcDbBlockEnd
  0
BLOCK
  5
1C
100
AcDbEntity
  8
0
100
AcDbBlockBegin
  2
*Paper_Space
 70
0
 10
0.0
 20
0.0
 30
0.0
  3
*Paper_Space
  1

  0
ENDBLK
  5
1D
100
AcDbEntity
  8
0
100
AcDbBlockEnd
  0
BLOCK
  5
227
100
AcDbEntity
  8
0
100
AcDbBlockBegin
  2
_FILLED
 70
64
 10
0.0
 20
0.0
  3
_FILLED
  1

  0
SOLID
  5
228
100
AcDbEntity
  8
0
  6
BYBLOCK
 62
0
100
AcDbTrace
 10
0.0
 20
0.0
 11
-1.0
 21
0.125
 12
-1.0
 22
-0.125
 13
-1.0
 23
-0.125
  0
ENDBLK
  5
229
100
AcDbEntity
  8
0
  6
BYBLOCK
 62
0
100
AcDbBlockEnd
  0
BLOCK
  5
22A
100
AcDbEntity
  8
0
100
AcDbBlockBegin
 62
2
  6
CONTINUOUS
  2
*D0
 70
65
 10
0.0
 20
0.0
  3
*D0
  1

  0
MTEXT
  5
22B
100
AcDbEntity
  8
0
100
AcDbMText
 62
5
  6
CONTINUOUS
  7
TEXTSTYLE_2
 71
2
 72
1
 10
230.1458231396
 20
123.1061283317
 30
0.0
 11
0.0
 21
1.0
 31
0.0
 44
0.9
  1
{\Fgdt;n}\Ftxt;27
 40
3.5
 41
10.1666666667
  0
LINE
  5
22C
100
AcDbEntity
  8
0
100
AcDbLine
 62
2
  6
CONTINUOUS
 10
202.2870670124
 20
136.5811283317
 11
205.3322005553
 21
136.5811283317
  0
LINE
  5
22D
100
AcDbEntity
  8
0
100
AcDbLine
 62
2
  6
CONTINUOUS
 10
209.4946332165
 20
136.5811283317
 11
236.0208231396
 21
136.5811283317
  0
LINE
  5
22E
100
AcDbEntity
  8
0
100
AcDbLine
 62
2
  6
CONTINUOUS
 10
200.0819360707
 20
109.6311283317
 11
228.682432557
 21
109.6311283317
  0
LINE
  5
22F
100
AcDbEntity
  8
0
100
AcDbLine
 62
2
  6
CONTINUOUS
 10
232.4895356007
 20
109.6311283317
 11
236.0208231396
 21
109.6311283317
  0
LINE
  5
230
100
AcDbEntity
  8
0
100
AcDbLine
 62
2
  6
CONTINUOUS
 10
234.5208231396
 20
136.5811283317
 11
234.5208231396
 21
123.1061283317
  0
LINE
  5
231
100
AcDbEntity
  8
0
100
AcDbLine
 62
2
  6
CONTINUOUS
 10
234.5208231396
 20
109.6311283317
 11
234.5208231396
 21
123.1061283317
  0
INSERT
  5
232
100
AcDbEntity
  8
0
100
AcDbBlockReference
 62
2
  6
CONTINUOUS
  2
_FILLED
 10
234.5208231396
 20
136.5811283317
 41
3.5
 42
3.5
 43
3.5
 50
90.0
  0
INSERT
  5
233
100
AcDbEntity
  8
0
100
AcDbBlockReference
 62
2
  6
CONTINUOUS
  2
_FILLED
 10
234.5208231396
 20
109.6311283317
 41
3.5
 42
3.5
 43
3.5
 50
270.0
  0
ENDBLK
  5
234
100
AcDbEntity
  8
0
  6
BYBLOCK
 62
0
100
AcDbBlockEnd
  0
BLOCK
  5
235
100
AcDbEntity
  8
0
100
AcDbBlockBegin
 62
2
  6
CONTINUOUS
  2
*D1
 70
65
 10
0.0
 20
0.0
  3
*D1
  1

  0
MTEXT
  5
236
100
AcDbEntity
  8
0
100
AcDbMText
 62
5
  6
CONTINUOUS
  7
STANDARD
 71
2
 72
1
 10
172.1714003141
 20
94.8856801318
 30
0.0
 11
0.5285519263
 21
0.8489009726
 31
0.0
 44
0.9
  1
4\Fgdt;{\Fgdt;~}\Ftxt;30'
 40
3.5
 41
12.3333333333
  0
LINE
  5
237
100
AcDbEntity
  8
0
100
AcDbLine
 62
2
  6
CONTINUOUS
 10
180.8036354256
 20
108.2319457265
 11
183.610906272
 21
108.4528827336
  0
LINE
  5
238
100
AcDbEntity
  8
0
100
AcDbLine
 62
2
  6
CONTINUOUS
 10
155.6102194941
 20
106.1311283317
 11
183.8861767658
 21
106.1311283317
  0
ARC
  5
239
100
AcDbEntity
  8
0
100
AcDbCircle
 62
2
  6
CONTINUOUS
 10
154.1102194941
 20
106.1311283317
 40
28.2759572718
100
AcDbArc
 50
4.5
 51
16.6578439865
  0
ARC
  5
23A
100
AcDbEntity
  8
0
100
AcDbCircle
 62
2
  6
CONTINUOUS
 10
154.1102194941
 20
106.1311283317
 40
28.2759572718
100
AcDbArc
 50
328.0923335615
 51
0.0
  0
ARC
  5
23B
100
AcDbEntity
  8
0
100
AcDbCircle
 62
2
  6
CONTINUOUS
 10
154.1102194941
 20
106.1311283317
 40
28.2759572718
100
AcDbArc
 50
360.0
 51
4.5
  0
SOLID
  5
23C
100
AcDbEntity
  8
0
100
AcDbTrace
 62
2
  6
CONTINUOUS
 10
181.3759275926
 20
111.7539437694
 11
182.2990114262
 21
108.3496343701
 12
182.2423140243
 22
111.8764164239
 13
182.2423140243
 23
111.8764164239
  0
SOLID
  5
23D
100
AcDbEntity
  8
0
100
AcDbTrace
 62
2
  6
CONTINUOUS
 10
182.6063622738
 20
102.6107697432
 11
182.3861767658
 21
106.1311283317
 12
181.7330375287
 22
102.6648889593
 13
181.7330375287
 23
102.6648889593
  0
ENDBLK
  5
23E
100
AcDbEntity
  8
0
  6
BYBLOCK
 62
0
100
AcDbBlockEnd
  0
BLOCK
  5
23F
100
AcDbEntity
  8
0
100
AcDbBlockBegin
 62
2
  6
CONTINUOUS
  2
*D2
 70
65
 10
0.0
 20
0.0
  3
*D2
  1

  0
MTEXT
  5
240
100
AcDbEntity
  8
0
100
AcDbMText
 62
5
  6
CONTINUOUS
  7
STANDARD
 71
2
 72
1
 10
156.0819360707
 20
185.6541140285
 30
0.0
 11
1.0
 21
0.0
 31
0.0
 44
0.9
  1
85
 40
3.5
 41
5.25
  0
LINE
  5
241
100
AcDbEntity
  8
0
100
AcDbLine
 62
2
  6
CONTINUOUS
 10
113.5819360707
 20
147.5723030405
 11
113.5819360707
 21
182.7791140285
  0
LINE
  5
242
100
AcDbEntity
  8
0
100
AcDbLine
 62
2
  6
CONTINUOUS
 10
198.5819360707
 20
130.9067030405
 11
198.5819360707
 21
182.7791140285
  0
LINE
  5
243
100
AcDbEntity
  8
0
100
AcDbLine
 62
2
  6
CONTINUOUS
 10
113.5819360707
 20
181.2791140285
 11
156.0819360707
 21
181.2791140285
  0
LINE
  5
244
100
AcDbEntity
  8
0
100
AcDbLine
 62
2
  6
CONTINUOUS
 10
198.5819360707
 20
181.2791140285
 11
156.0819360707
 21
181.2791140285
  0
INSERT
  5
245
100
AcDbEntity
  8
0
100
AcDbBlockReference
 62
2
  6
CONTINUOUS
  2
_FILLED
 10
113.5819360707
 20
181.2791140285
 41
3.5
 42
3.5
 43
3.5
 50
180.0
  0
INSERT
  5
246
100
AcDbEntity
  8
0
100
AcDbBlockReference
 62
2
  6
CONTINUOUS
  2
_FILLED
 10
198.5819360707
 20
181.2791140285
 41
3.5
 42
3.5
 43
3.5
  0
ENDBLK
  5
247
100
AcDbEntity
  8
0
  6
BYBLOCK
 62
0
100
AcDbBlockEnd
  0
BLOCK
  5
248
100
AcDbEntity
  8
0
100
AcDbBlockBegin
 62
2
  6
CONTINUOUS
  2
*D3
 70
65
 10
0.0
 20
0.0
  3
*D3
  1

  0
MTEXT
  5
249
100
AcDbEntity
  8
0
100
AcDbMText
 62
5
  6
CONTINUOUS
  7
TEXTSTYLE_2
 71
2
 72
1
 10
215.1473781223
 20
123.1061283317
 30
0.0
 11
0.0
 21
1.0
 31
0.0
 44
0.9
  1
{\Fgdt;n}\Ftxt;16
 40
3.5
 41
9.4166666667
  0
LINE
  5
24A
100
AcDbEntity
  8
0
100
AcDbLine
 62
2
  6
CONTINUOUS
 10
179.8456401721
 20
115.1208783317
 11
221.0223781223
 21
115.1208783317
  0
LINE
  5
24B
100
AcDbEntity
  8
0
100
AcDbLine
 62
2
  6
CONTINUOUS
 10
179.7022801721
 20
131.0913783317
 11
221.0223781223
 21
131.0913783317
  0
LINE
  5
24C
100
AcDbEntity
  8
0
100
AcDbLine
 62
2
  6
CONTINUOUS
 10
219.5223781223
 20
115.1208783317
 11
219.5223781223
 21
123.1061283317
  0
LINE
  5
24D
100
AcDbEntity
  8
0
100
AcDbLine
 62
2
  6
CONTINUOUS
 10
219.5223781223
 20
131.0913783317
 11
219.5223781223
 21
123.1061283317
  0
INSERT
  5
24E
100
AcDbEntity
  8
0
100
AcDbBlockReference
 62
2
  6
CONTINUOUS
  2
_FILLED
 10
219.5223781223
 20
115.1208783317
 41
3.5
 42
3.5
 43
3.5
 50
270.0
  0
INSERT
  5
24F
100
AcDbEntity
  8
0
100
AcDbBlockReference
 62
2
  6
CONTINUOUS
  2
_FILLED
 10
219.5223781223
 20
131.0913783317
 41
3.5
 42
3.5
 43
3.5
 50
90.0
  0
ENDBLK
  5
250
100
AcDbEntity
  8
0
  6
BYBLOCK
 62
0
100
AcDbBlockEnd
  0
BLOCK
  5
251
100
AcDbEntity
  8
0
100
AcDbBlockBegin
 62
2
  6
CONTINUOUS
  2
*D4
 70
65
 10
0.0
 20
0.0
  3
*D4
  1

  0
MTEXT
  5
252
100
AcDbEntity
  8
0
100
AcDbMText
 62
5
  6
CONTINUOUS
  7
STANDARD
 71
2
 72
1
 10
167.0819360707
 20
178.823581612
 30
0.0
 11
1.0
 21
0.0
 31
0.0
 44
0.9
  1
63
 40
3.5
 41
5.25
  0
LINE
  5
253
100
AcDbEntity
  8
0
100
AcDbLine
 62
2
  6
CONTINUOUS
 10
198.5819360707
 20
111.1311283317
 11
198.5819360707
 21
175.948581612
  0
LINE
  5
254
100
AcDbEntity
  8
0
100
AcDbLine
 62
2
  6
CONTINUOUS
 10
135.5819360707
 20
145.9595030405
 11
135.5819360707
 21
175.948581612
  0
LINE
  5
255
100
AcDbEntity
  8
0
100
AcDbLine
 62
2
  6
CONTINUOUS
 10
198.5819360707
 20
174.448581612
 11
167.0819360707
 21
174.448581612
  0
LINE
  5
256
100
AcDbEntity
  8
0
100
AcDbLine
 62
2
  6
CONTINUOUS
 10
135.5819360707
 20
174.448581612
 11
167.0819360707
 21
174.448581612
  0
INSERT
  5
257
100
AcDbEntity
  8
0
100
AcDbBlockReference
 62
2
  6
CONTINUOUS
  2
_FILLED
 10
198.5819360707
 20
174.448581612
 41
3.5
 42
3.5
 43
3.5
  0
INSERT
  5
258
100
AcDbEntity
  8
0
100
AcDbBlockReference
 62
2
  6
CONTINUOUS
  2
_FILLED
 10
135.5819360707
 20
174.448581612
 41
3.5
 42
3.5
 43
3.5
 50
180.0
  0
ENDBLK
  5
259
100
AcDbEntity
  8
0
  6
BYBLOCK
 62
0
100
AcDbBlockEnd
  0
BLOCK
  5
25A
100
AcDbEntity
  8
0
100
AcDbBlockBegin
 62
2
  6
CONTINUOUS
  2
*D5
 70
65
 10
0.0
 20
0.0
  3
*D5
  1

  0
MTEXT
  5
25B
100
AcDbEntity
  8
0
100
AcDbMText
 62
5
  6
CONTINUOUS
  7
STANDARD
 71
2
 72
1
 10
137.0819360707
 20
193.815285716
 30
0.0
 11
1.0
 21
0.0
 31
0.0
 44
0.9
  1
123
 40
3.5
 41
7.25
  0
LINE
  5
25C
100
AcDbEntity
  8
0
100
AcDbLine
 62
2
  6
CONTINUOUS
 10
198.5819360707
 20
111.1311283317
 11
198.5819360707
 21
190.940285716
  0
LINE
  5
25D
100
AcDbEntity
  8
0
100
AcDbLine
 62
2
  6
CONTINUOUS
 10
75.5819360707
 20
104.4200125624
 11
75.5819360707
 21
190.940285716
  0
LINE
  5
25E
100
AcDbEntity
  8
0
100
AcDbLine
 62
2
  6
CONTINUOUS
 10
198.5819360707
 20
189.440285716
 11
137.0819360707
 21
189.440285716
  0
LINE
  5
25F
100
AcDbEntity
  8
0
100
AcDbLine
 62
2
  6
CONTINUOUS
 10
75.5819360707
 20
189.440285716
 11
137.0819360707
 21
189.440285716
  0
INSERT
  5
260
100
AcDbEntity
  8
0
100
AcDbBlockReference
 62
2
  6
CONTINUOUS
  2
_FILLED
 10
198.5819360707
 20
189.440285716
 41
3.5
 42
3.5
 43
3.5
  0
INSERT
  5
261
100
AcDbEntity
  8
0
100
AcDbBlockReference
 62
2
  6
CONTINUOUS
  2
_FILLED
 10
75.5819360707
 20
189.440285716
 41
3.5
 42
3.5
 43
3.5
 50
180.0
  0
ENDBLK
  5
262
100
AcDbEntity
  8
0
  6
BYBLOCK
 62
0
100
AcDbBlockEnd
  0
BLOCK
  5
263
100
AcDbEntity
  8
0
100
AcDbBlockBegin
 62
2
  6
CONTINUOUS
  2
*D6
 70
65
 10
0.0
 20
0.0
  3
*D6
  1

  0
MTEXT
  5
264
100
AcDbEntity
  8
0
100
AcDbMText
 62
5
  6
CONTINUOUS
  7
TEXTSTYLE_2
 71
2
 72
1
 10
243.8635086634
 20
123.1061283317
 30
0.0
 11
0.0
 21
1.0
 31
0.0
 44
0.9
  1
{\Fgdt;n}\Ftxt;34
 40
3.5
 41
9.9166666667
  0
LINE
  5
265
100
AcDbEntity
  8
0
100
AcDbLine
 62
2
  6
CONTINUOUS
 10
155.6102194941
 20
140.0811283317
 11
190.7801370911
 21
140.0811283317
  0
LINE
  5
266
100
AcDbEntity
  8
0
100
AcDbLine
 62
2
  6
CONTINUOUS
 10
212.5014217676
 20
140.0811283317
 11
249.7385086634
 21
140.0811283317
  0
LINE
  5
267
100
AcDbEntity
  8
0
100
AcDbLine
 62
2
  6
CONTINUOUS
 10
155.6102194941
 20
106.1311283317
 11
195.7100929525
 21
106.1311283317
  0
LINE
  5
268
100
AcDbEntity
  8
0
100
AcDbLine
 62
2
  6
CONTINUOUS
 10
205.0812757701
 20
106.1311283317
 11
249.7385086634
 21
106.1311283317
  0
LINE
  5
269
100
AcDbEntity
  8
0
100
AcDbLine
 62
2
  6
CONTINUOUS
 10
248.2385086634
 20
140.0811283317
 11
248.2385086634
 21
123.1061283317
  0
LINE
  5
26A
100
AcDbEntity
  8
0
100
AcDbLine
 62
2
  6
CONTINUOUS
 10
248.2385086634
 20
106.1311283317
 11
248.2385086634
 21
123.1061283317
  0
INSERT
  5
26B
100
AcDbEntity
  8
0
100
AcDbBlockReference
 62
2
  6
CONTINUOUS
  2
_FILLED
 10
248.2385086634
 20
140.0811283317
 41
3.5
 42
3.5
 43
3.5
 50
90.0
  0
INSERT
  5
26C
100
AcDbEntity
  8
0
100
AcDbBlockReference
 62
2
  6
CONTINUOUS
  2
_FILLED
 10
248.2385086634
 20
106.1311283317
 41
3.5
 42
3.5
 43
3.5
 50
270.0
  0
ENDBLK
  5
26D
100
AcDbEntity
  8
0
  6
BYBLOCK
 62
0
100
AcDbBlockEnd
  0
ENDSEC
  0
SECTION
  2
ENTITIES
  0
DIMENSION
  5
26E
100
AcDbEntity
  8
0
100
AcDbDimension
 62
2
  6
CONTINUOUS
  2
*D0
 10
234.5208231396
 20
109.6311283317
 11
233.0346769139
 21
120.8338868117
 70
160
 71
2
 42
26.95
  1
%%c<>
  3
DIMSTYLE_1
100
AcDbAlignedDimension
 13
202.2870670124
 23
136.5811283317
 14
200.0819360707
 24
109.6311283317
 50
270.0
100
AcDbRotatedDimension
  0
DIMENSION
  5
26F
100
AcDbEntity
  8
0
100
AcDbDimension
 62
2
  6
CONTINUOUS
  2
*D1
 10
183.8861767658
 20
106.1311283317
 11
173.5891590119
 21
91.4616342864
 70
162
 71
2
 42
0.0785398163
  3
DIMSTYLE_2
100
AcDb2LineAngularDimension
 13
183.610906272
 23
108.4528827336
 14
180.8036354256
 24
108.2319457265
 15
155.6102194941
 25
106.1311283317
 16
182.3643770275
 26
107.2412372046
  0
DIMENSION
  5
270
100
AcDbEntity
  8
0
100
AcDbDimension
 62
2
  6
CONTINUOUS
  2
*D2
 10
198.5819360707
 20
181.2791140285
 11
153.4569360707
 21
183.9041140285
 70
160
 71
2
 42
85.0
  3
DIMSTYLE_3
100
AcDbAlignedDimension
 13
113.5819360707
 23
147.5723030405
 14
198.5819360707
 24
130.9067030405
100
AcDbRotatedDimension
  0
DIMENSION
  5
271
100
AcDbEntity
  8
0
100
AcDbDimension
 62
2
  6
CONTINUOUS
  2
*D3
 10
219.5223781223
 20
131.0913783317
 11
217.9522180936
 21
121.0015111862
 70
160
 71
2
 42
15.9705
  1
%%c<>
  3
DIMSTYLE_4
100
AcDbAlignedDimension
 13
179.8456401721
 23
115.1208783317
 14
179.7022801721
 24
131.0913783317
 50
90.0
100
AcDbRotatedDimension
  0
DIMENSION
  5
272
100
AcDbEntity
  8
0
100
AcDbDimension
 62
2
  6
CONTINUOUS
  2
*D4
 10
135.5819360707
 20
174.448581612
 11
164.4569360707
 21
177.073581612
 70
160
 71
2
 42
63.0
  3
DIMSTYLE_3
100
AcDbAlignedDimension
 13
198.5819360707
 23
111.1311283317
 14
135.5819360707
 24
145.9595030405
 50
180.0
100
AcDbRotatedDimension
  0
DIMENSION
  5
273
100
AcDbEntity
  8
0
100
AcDbDimension
 62
2
  6
CONTINUOUS
  2
*D5
 10
75.5819360707
 20
189.440285716
 11
133.4569360707
 21
192.065285716
 70
160
 71
2
 42
123.0
  3
DIMSTYLE_5
100
AcDbAlignedDimension
 13
198.5819360707
 23
111.1311283317
 14
75.5819360707
 24
104.4200125624
 50
180.0
100
AcDbRotatedDimension
  0
DIMENSION
  5
274
100
AcDbEntity
  8
0
100
AcDbDimension
 62
2
  6
CONTINUOUS
  2
*D6
 10
248.2385086634
 20
106.1311283317
 11
246.7243578367
 21
120.8897616032
 70
160
 71
2
 42
33.95
  1
%%c<>
  3
DIMSTYLE_1
100
AcDbAlignedDimension
 13
155.6102194941
 23
140.0811283317
 14
155.6102194941
 24
106.1311283317
 50
270.0
100
AcDbRotatedDimension
  0
MTEXT
  5
275
100
AcDbEntity
  8
0
100
AcDbMText
 62
5
  6
CONTINUOUS
  7
STANDARD
 71
1
 72
1
 10
13.5097453222
 20
82.5561655405
 30
0.0
 11
1.0
 21
0.0
 31
0.0
 44
0.9
  3
Für diese Unterlage behalten wir das Ur-\Pheberrecht. Sie darf nur für den von uns \Pbestimmten Zweck benutzt und ohne unsere \PZustimmung weder vervielfältigt noch\PDritten zugänglich gemacht werden\P \PWe own the copyright of this document. It \Pde
  1
termined and may neither be copied or \Pmade accessible to outsiders without our\Ppermission.\P \PCe plan reste notre propriété. Il ne peut\Pêtre utilisé, copié ou reproduit sans notre\Paccord.\P 
 40
3.5
 41
104.8333333333
  0
LINE
  5
276
100
AcDbEntity
  8
0
100
AcDbLine
 62
7
  6
CONTINUOUS
 10
0.0
 20
0.0
 11
0.0
 21
210.0
  0
LINE
  5
277
100
AcDbEntity
  8
0
100
AcDbLine
 62
7
  6
CONTINUOUS
 10
0.0
 20
0.0
 11
297.0
 21
0.0
  0
LINE
  5
278
100
AcDbEntity
  8
0
100
AcDbLine
 62
7
  6
CONTINUOUS
 10
0.0
 20
210.0
 11
297.0
 21
210.0
  0
LINE
  5
279
100
AcDbEntity
  8
0
100
AcDbLine
 62
7
  6
CONTINUOUS
 10
297.0
 20
0.0
 11
297.0
 21
210.0
  0
LINE
  5
27A
100
AcDbEntity
  8
0
100
AcDbLine
 62
7
  6
CONTINUOUS
 10
75.5819360707
 20
101.4137903388
 11
75.5819360707
 21
138.0673729704
  0
LINE
  5
27B
100
AcDbEntity
  8
ACHSEN
100
AcDbLine
 62
7
  6
CONTINUOUS
 10
75.5819360707
 20
138.0673729704
 11
75.5819360707
 21
141.8546076457
  0
LINE
  5
27C
100
AcDbEntity
  8
ACHSEN
100
AcDbLine
 62
7
  6
CONTINUOUS
 10
77.0819360707
 20
142.6031179453
 11
77.0819360707
 21
138.8173729704
  0
LINE
  5
27D
100
AcDbEntity
  8
0
100
AcDbLine
 62
7
  6
CONTINUOUS
 10
77.0819360707
 20
138.8173729704
 11
77.0819360707
 21
100.5477649351
  0
LINE
  5
27E
100
AcDbEntity
  8
0
100
AcDbLine
 62
7
  6
CONTINUOUS
 10
113.5819379066
 20
154.3061264244
 11
113.8819379965
 21
154.6061264783
  0
LINE
  5
27F
100
AcDbEntity
  8
0
100
AcDbLine
 62
9
  6
CONTINUOUS
 10
77.0819360707
 20
138.8173729704
 11
75.5819360707
 21
138.0673729704
  0
LINE
  5
280
100
AcDbEntity
  8
0
100
AcDbLine
 62
7
  6
CONTINUOUS
 10
77.0819360707
 20
100.5477649351
 11
75.5819360707
 21
101.4137903388
  0
LINE
  5
281
100
AcDbEntity
  8
ACHSEN
100
AcDbLine
 62
7
  6
CENTER
 10
98.0819360707
 20
100.1726428247
 11
98.0819360707
 21
147.2944988963
  0
LINE
  5
282
100
AcDbEntity
  8
0
100
AcDbLine
 62
9
  6
CONTINUOUS
 10
77.0819360707
 20
102.1700125624
 11
75.5819360707
 21
102.9200125624
  0
LINE
  5
283
100
AcDbEntity
  8
0
100
AcDbLine
 62
7
  6
CONTINUOUS
 10
113.5819379066
 20
91.9061302391
 11
113.8819379965
 21
91.6061301852
  0
LINE
  5
284
100
AcDbEntity
  8
0
100
AcDbLine
 62
7
  6
CONTINUOUS
 10
135.5819360707
 20
91.6061283317
 11
113.8819361431
 21
91.6061283317
  0
LINE
  5
285
100
AcDbEntity
  8
0
100
AcDbLine
 62
7
  6
CONTINUOUS
 10
111.3819991598
 20
143.7262287013
 11
111.3819991598
 21
139.5636590804
  0
LINE
  5
286
100
AcDbEntity
  8
0
100
AcDbLine
 62
7
  6
CONTINUOUS
 10
111.3819991598
 20
128.3309994623
 11
111.3819991598
 21
101.4237264525
  0
LINE
  5
287
100
AcDbEntity
  8
0
100
AcDbLine
 62
9
  6
CONTINUOUS
 10
111.5869591818
 20
143.5313149015
 11
111.5869591818
 21
137.7910705365
  0
LINE
  5
288
100
AcDbEntity
  8
0
100
AcDbLine
 62
9
  6
CONTINUOUS
 10
111.5869591818
 20
131.2920715185
 11
111.5869591818
 21
100.2352429402
  0
LINE
  5
289
100
AcDbEntity
  8
0
100
AcDbLine
 62
9
  6
CONTINUOUS
 10
112.2748292895
 20
100.3632351129
 11
112.2748292895
 21
101.0025716808
  0
LINE
  5
28A
100
AcDbEntity
  8
0
100
AcDbLine
 62
9
  6
CONTINUOUS
 10
112.2748292895
 20
129.5206680925
 11
112.2748292895
 21
138.7951452219
  0
LINE
  5
28B
100
AcDbEntity
  8
0
100
AcDbLine
 62
9
  6
CONTINUOUS
 10
113.1869591818
 20
143.5715124706
 11
113.1869591818
 21
139.4506066187
  0
LINE
  5
28C
100
AcDbEntity
  8
0
100
AcDbLine
 62
9
  6
CONTINUOUS
 10
113.1869591818
 20
128.2890787849
 11
113.1869591818
 21
101.5786995916
  0
LINE
  5
28D
100
AcDbEntity
  8
0
100
AcDbLine
 62
7
  6
CONTINUOUS
 10
113.5819360707
 20
91.9064040013
 11
113.5819360707
 21
154.3058526622
  0
LINE
  5
28E
100
AcDbEntity
  8
0
100
AcDbLine
 62
7
  6
CONTINUOUS
 10
113.8819361442
 20
91.6061283317
 11
113.8819361442
 21
154.6061283317
  0
LINE
  5
28F
100
AcDbEntity
  8
0
100
AcDbLine
 62
7
  6
CONTINUOUS
 10
113.3818712189
 20
139.8957029175
 11
113.3819360707
 21
145.6396131927
  0
LINE
  5
290
100
AcDbEntity
  8
0
100
AcDbLine
 62
7
  6
CONTINUOUS
 10
113.3818712189
 20
101.6959602403
 11
113.3819360707
 21
127.6944598794
  0
LINE
  5
291
100
AcDbEntity
  8
0
100
AcDbLine
 62
7
  6
CONTINUOUS
 10
127.0432609361
 20
93.0255355714
 11
124.1206112053
 21
93.0255355714
  0
LINE
  5
292
100
AcDbEntity
  8
0
100
AcDbLine
 62
9
  6
CONTINUOUS
 10
111.3819991598
 20
101.4237264525
 11
77.0819360707
 21
102.1700125624
  0
LINE
  5
293
100
AcDbEntity
  8
0
100
AcDbLine
 62
7
  6
CONTINUOUS
 10
111.8349648215
 20
100.2293994564
 11
111.5869591818
 21
100.2352429402
  0
LINE
  5
294
100
AcDbEntity
  8
0
100
AcDbLine
 62
7
  6
CONTINUOUS
 10
77.0819360707
 20
100.5477649351
 11
111.5923388935
 21
99.6807434959
  0
LINE
  5
295
100
AcDbEntity
  8
0
100
AcDbLine
 62
9
  6
CONTINUOUS
 10
123.6875985034
 20
153.0200831782
 11
123.6875985034
 21
132.9755409507
  0
LINE
  5
296
100
AcDbEntity
  8
0
100
AcDbLine
 62
9
  6
CONTINUOUS
 10
123.6875985034
 20
113.2367157128
 11
123.6875985034
 21
93.1921734853
  0
LINE
  5
297
100
AcDbEntity
  8
0
100
AcDbLine
 62
9
  6
CONTINUOUS
 10
124.1206112053
 20
153.186721092
 11
124.1206112053
 21
132.4553496462
  0
LINE
  5
298
100
AcDbEntity
  8
0
100
AcDbLine
 62
9
  6
CONTINUOUS
 10
124.1206112053
 20
113.7569070172
 11
124.1206112053
 21
93.0255355714
  0
LINE
  5
299
100
AcDbEntity
  8
ACHSEN
100
AcDbLine
 62
7
  6
CENTER
 10
125.5819360707
 20
150.4044070937
 11
125.5819360707
 21
157.6061283317
  0
LINE
  5
29A
100
AcDbEntity
  8
0
100
AcDbLine
 62
9
  6
CONTINUOUS
 10
127.0432609361
 20
153.186721092
 11
127.0432609361
 21
132.4553496462
  0
LINE
  5
29B
100
AcDbEntity
  8
0
100
AcDbLine
 62
9
  6
CONTINUOUS
 10
127.0432609361
 20
113.7569070172
 11
127.0432609361
 21
93.0255355714
  0
LINE
  5
29C
100
AcDbEntity
  8
0
100
AcDbLine
 62
7
  6
CONTINUOUS
 10
147.4979614745
 20
139.8883080087
 11
147.8319360707
 21
140.0811283317
  0
LINE
  5
29D
100
AcDbEntity
  8
RUNDUNGEN
100
AcDbLine
 62
7
  6
CONTINUOUS
 10
147.4979614745
 20
139.8883080087
 11
147.8319360707
 21
140.0811283317
  0
LINE
  5
29E
100
AcDbEntity
  8
RUNDUNGEN
100
AcDbLine
 62
7
  6
CONTINUOUS
 10
197.6603951664
 20
109.5586014896
 11
154.1102194941
 21
106.1311283317
  0
LINE
  5
29F
100
AcDbEntity
  8
0
100
AcDbLine
 62
7
  6
CONTINUOUS
 10
154.1102194941
 20
106.1311283317
 11
197.6603951664
 21
109.5586014896
  0
LINE
  5
2A0
100
AcDbEntity
  8
0
100
AcDbLine
 62
7
  6
CONTINUOUS
 10
154.1102194941
 20
106.1311283317
 11
147.8319360707
 21
106.1311283317
  0
LINE
  5
2A1
100
AcDbEntity
  8
0
100
AcDbLine
 62
7
  6
CONTINUOUS
 10
139.3319360707
 20
106.1311283317
 11
137.5819360707
 21
106.1311283317
  0
LINE
  5
2A2
100
AcDbEntity
  8
0
100
AcDbLine
 62
7
  6
CONTINUOUS
 10
140.0659106669
 20
106.4311283317
 11
141.0819360707
 21
106.4311283317
  0
LINE
  5
2A3
100
AcDbEntity
  8
0
100
AcDbLine
 62
7
  6
CONTINUOUS
 10
146.0819360707
 20
106.4311283317
 11
147.0979614745
 21
106.4311283317
  0
LINE
  5
2A4
100
AcDbEntity
  8
0
100
AcDbLine
 62
9
  6
CONTINUOUS
 10
127.476273638
 20
153.0200831782
 11
127.476273638
 21
132.9755409507
  0
LINE
  5
2A5
100
AcDbEntity
  8
0
100
AcDbLine
 62
9
  6
CONTINUOUS
 10
127.476273638
 20
113.2367157128
 11
127.476273638
 21
93.1921734853
  0
LINE
  5
2A6
100
AcDbEntity
  8
0
100
AcDbLine
 62
7
  6
CONTINUOUS
 10
112.2748292895
 20
100.3632351129
 11
111.5923388932
 21
99.6807447166
  0
LINE
  5
2A7
100
AcDbEntity
  8
0
100
AcDbLine
 62
7
  6
CONTINUOUS
 10
147.4979614745
 20
106.3239486548
 11
147.8319360707
 21
106.1311283317
  0
LINE
  5
2A8
100
AcDbEntity
  8
0
100
AcDbLine
 62
7
  6
CONTINUOUS
 10
135.5819360707
 20
91.6061283317
 11
135.5819360707
 21
154.6061283317
  0
LINE
  5
2A9
100
AcDbEntity
  8
RUNDUNGEN
100
AcDbLine
 62
9
  6
CONTINUOUS
 10
137.5819360707
 20
140.0811283317
 11
137.5819360707
 21
106.1311283317
  0
LINE
  5
2AA
100
AcDbEntity
  8
0
100
AcDbLine
 62
7
  6
CONTINUOUS
 10
127.0432609361
 20
113.7569070172
 11
124.1206112053
 21
113.7569070172
  0
LINE
  5
2AB
100
AcDbEntity
  8
DEFAULT_2
100
AcDbLine
 62
8
  6
HIDDEN
 10
148.1317009543
 20
114.7708783317
 11
158.1967267895
 21
114.7708783317
  0
LINE
  5
2AC
100
AcDbEntity
  8
BOHRUNGEN
100
AcDbLine
 62
8
  6
HIDDEN
 10
159.5819360707
 20
115.1208783317
 11
196.4819360707
 21
115.1208783317
  0
LINE
  5
2AD
100
AcDbEntity
  8
0
100
AcDbLine
 62
7
  6
CONTINUOUS
 10
139.3319360707
 20
140.0811283317
 11
139.3319360707
 21
106.1311283317
  0
LINE
  5
2AE
100
AcDbEntity
  8
RUNDUNGEN
100
AcDbLine
 62
9
  6
CONTINUOUS
 10
139.6659106669
 20
106.3239486548
 11
139.6659106669
 21
139.8883080087
  0
LINE
  5
2AF
100
AcDbEntity
  8
RUNDUNGEN
100
AcDbLine
 62
9
  6
CONTINUOUS
 10
140.0659106669
 20
106.4311283317
 11
140.0659106669
 21
139.7811283317
  0
LINE
  5
2B0
100
AcDbEntity
  8
S_ACHSEN
100
AcDbLine
 62
7
  6
CENTER
 10
72.5819360707
 20
123.1061283317
 11
201.5819360707
 21
123.1061283317
  0
LINE
  5
2B1
100
AcDbEntity
  8
BEZUGSACHSEN
100
AcDbLine
 62
7
  6
CENTER
 10
143.5819360707
 20
142.7811283317
 11
143.5819360707
 21
129.0811283317
  0
LINE
  5
2B2
100
AcDbEntity
  8
BEZUGSACHSEN
100
AcDbLine
 62
7
  6
CENTER
 10
143.5819360707
 20
103.4311283317
 11
143.5819360707
 21
117.1311283317
  0
LINE
  5
2B3
100
AcDbEntity
  8
RUNDUNGEN
100
AcDbLine
 62
9
  6
CONTINUOUS
 10
147.0979614745
 20
106.4311283317
 11
147.0979614745
 21
139.7811283317
  0
LINE
  5
2B4
100
AcDbEntity
  8
RUNDUNGEN
100
AcDbLine
 62
9
  6
CONTINUOUS
 10
147.4979614745
 20
106.3239486548
 11
147.4979614745
 21
139.8883080087
  0
LINE
  5
2B5
100
AcDbEntity
  8
0
100
AcDbLine
 62
7
  6
CONTINUOUS
 10
147.8319360707
 20
140.0811283317
 11
147.8319360707
 21
106.1311283317
  0
LINE
  5
2B6
100
AcDbEntity
  8
RUNDUNGEN
100
AcDbLine
 62
9
  6
CONTINUOUS
 10
148.1317009543
 20
114.7708783317
 11
148.1317009543
 21
131.4413783317
  0
LINE
  5
2B7
100
AcDbEntity
  8
0
100
AcDbLine
 62
9
  6
CONTINUOUS
 10
75.5819360707
 20
128.3309994623
 11
111.3819991598
 21
128.3309994623
  0
LINE
  5
2B8
100
AcDbEntity
  8
0
100
AcDbLine
 62
7
  6
CONTINUOUS
 10
139.3319360707
 20
106.1311283317
 11
139.6659106669
 21
106.3239486548
  0
LINE
  5
2B9
100
AcDbEntity
  8
RUNDUNGEN
100
AcDbLine
 62
7
  6
CONTINUOUS
 10
139.3319360707
 20
106.1311283317
 11
139.6659106669
 21
106.3239486548
  0
LINE
  5
2BA
100
AcDbEntity
  8
0
100
AcDbLine
 62
7
  6
CONTINUOUS
 10
111.5869591818
 20
131.2920715185
 11
111.8349648215
 21
131.2930857744
  0
LINE
  5
2BB
100
AcDbEntity
  8
BOHRUNGEN
100
AcDbLine
 62
8
  6
HIDDEN
 10
159.5819360707
 20
131.0913783317
 11
196.4819360707
 21
131.0913783317
  0
LINE
  5
2BC
100
AcDbEntity
  8
RUNDUNGEN
100
AcDbLine
 62
8
  6
HIDDEN
 10
158.1967267895
 20
131.4413783317
 11
148.1317009543
 21
131.4413783317
  0
LINE
  5
2BD
100
AcDbEntity
  8
DEFAULT_2
100
AcDbLine
 62
8
  6
HIDDEN
 10
148.1317009543
 20
131.4413783317
 11
158.1967267895
 21
131.4413783317
  0
LINE
  5
2BE
100
AcDbEntity
  8
0
100
AcDbLine
 62
7
  6
CONTINUOUS
 10
127.0432609361
 20
132.4553496462
 11
124.1206112053
 21
132.4553496462
  0
LINE
  5
2BF
100
AcDbEntity
  8
0
100
AcDbLine
 62
7
  6
CONTINUOUS
 10
154.1102194941
 20
106.1311283317
 11
154.1102194941
 21
140.0811283317
  0
LINE
  5
2C0
100
AcDbEntity
  8
0
100
AcDbLine
 62
7
  6
CONTINUOUS
 10
111.8349648215
 20
137.7958997644
 11
111.5869591818
 21
137.7910705365
  0
LINE
  5
2C1
100
AcDbEntity
  8
0
100
AcDbLine
 62
7
  6
CONTINUOUS
 10
140.0659106669
 20
139.7811283317
 11
141.0819360707
 21
139.7811283317
  0
LINE
  5
2C2
100
AcDbEntity
  8
BEZUGSACHSEN
100
AcDbLine
 62
7
  6
CONTINUOUS
 10
140.0659106669
 20
139.7811283317
 11
141.0819360707
 21
139.7811283317
  0
LINE
  5
2C3
100
AcDbEntity
  8
0
100
AcDbLine
 62
7
  6
CONTINUOUS
 10
146.0819360707
 20
139.7811283317
 11
147.0979614745
 21
139.7811283317
  0
LINE
  5
2C4
100
AcDbEntity
  8
BEZUGSACHSEN
100
AcDbLine
 62
7
  6
CONTINUOUS
 10
146.0819360707
 20
139.7811283317
 11
147.0979614745
 21
139.7811283317
  0
LINE
  5
2C5
100
AcDbEntity
  8
0
100
AcDbLine
 62
7
  6
CONTINUOUS
 10
139.3319360707
 20
140.0811283317
 11
139.6659106669
 21
139.8883080087
  0
LINE
  5
2C6
100
AcDbEntity
  8
RUNDUNGEN
100
AcDbLine
 62
7
  6
CONTINUOUS
 10
139.3319360707
 20
140.0811283317
 11
139.6659106669
 21
139.8883080087
  0
LINE
  5
2C7
100
AcDbEntity
  8
0
100
AcDbLine
 62
7
  6
CONTINUOUS
 10
111.5869591818
 20
143.5313149015
 11
113.1869591818
 21
143.5715124706
  0
LINE
  5
2C8
100
AcDbEntity
  8
0
100
AcDbLine
 62
7
  6
CONTINUOUS
 10
83.8455408248
 20
143.0344170219
 11
93.6319360707
 21
143.2802853339
  0
LINE
  5
2C9
100
AcDbEntity
  8
0
100
AcDbLine
 62
7
  6
CONTINUOUS
 10
102.7612974039
 20
143.5096466671
 11
111.3819991598
 21
143.7262287013
  0
LINE
  5
2CA
100
AcDbEntity
  8
0
100
AcDbLine
 62
9
  6
CONTINUOUS
 10
77.0819360707
 20
138.8173729704
 11
111.3819991598
 21
139.5636590804
  0
LINE
  5
2CB
100
AcDbEntity
  8
0
100
AcDbLine
 62
7
  6
CONTINUOUS
 10
154.1102194941
 20
140.0811283317
 11
147.8319360707
 21
140.0811283317
  0
LINE
  5
2CC
100
AcDbEntity
  8
0
100
AcDbLine
 62
7
  6
CONTINUOUS
 10
139.3319360707
 20
140.0811283317
 11
137.5819360707
 21
140.0811283317
  0
LINE
  5
2CD
100
AcDbEntity
  8
RUNDUNGEN
100
AcDbLine
 62
7
  6
CONTINUOUS
 10
197.6603951664
 20
136.6536551738
 11
154.1102194941
 21
140.0811283317
  0
LINE
  5
2CE
100
AcDbEntity
  8
0
100
AcDbLine
 62
7
  6
CONTINUOUS
 10
154.1102194941
 20
140.0811283317
 11
197.6603951664
 21
136.6536551738
  0
LINE
  5
2CF
100
AcDbEntity
  8
0
100
AcDbLine
 62
7
  6
CONTINUOUS
 10
127.0432609361
 20
153.186721092
 11
124.1206112053
 21
153.186721092
  0
LINE
  5
2D0
100
AcDbEntity
  8
0
100
AcDbLine
 62
7
  6
CONTINUOUS
 10
135.5819360707
 20
154.6061283317
 11
130.803698747
 21
154.6061283317
  0
LINE
  5
2D1
100
AcDbEntity
  8
0
100
AcDbLine
 62
7
  6
CONTINUOUS
 10
120.360172957
 20
154.6061283317
 11
113.8819361431
 21
154.6061283317
  0
LINE
  5
2D2
100
AcDbEntity
  8
RUNDUNGEN
100
AcDbLine
 62
9
  6
CONTINUOUS
 10
197.6603951664
 20
109.5586014896
 11
197.6603951664
 21
136.6536551738
  0
LINE
  5
2D3
100
AcDbEntity
  8
RUNDUNGEN
100
AcDbLine
 62
7
  6
CONTINUOUS
 10
198.5819360707
 20
110.5555188234
 11
198.5819360707
 21
135.6567378401
  0
ARC
  5
2D4
100
AcDbEntity
  8
0
100
AcDbCircle
 62
7
  6
CONTINUOUS
 10
4.8299248744
 20
103.7966395022
 40
110.4813700661
100
AcDbArc
 50
13.4640903998
 51
14.4111621352
  0
ARC
  5
2D5
100
AcDbEntity
  8
0
100
AcDbCircle
 62
7
  6
CONTINUOUS
 10
112.9819360707
 20
99.6561283317
 40
1.0
100
AcDbArc
 50
53.0400606802
 51
135.0
  0
ARC
  5
2D6
100
AcDbEntity
  8
0
100
AcDbCircle
 62
7
  6
CONTINUOUS
 10
112.9819360707
 20
146.5561283317
 40
1.0
100
AcDbArc
 50
293.5781784782
 51
306.9599393198
  0
ARC
  5
2D7
100
AcDbEntity
  8
0
100
AcDbCircle
 62
7
  6
CONTINUOUS
 10
113.1819360707
 20
143.7714493815
 40
0.2
100
AcDbArc
 50
271.439166666
 51
360.0
  0
ARC
  5
2D8
100
AcDbEntity
  8
0
100
AcDbCircle
 62
7
  6
CONTINUOUS
 10
111.5819360707
 20
143.7312518124
 40
0.2
100
AcDbArc
 50
181.439166666
 51
271.439166666
  0
ARC
  5
2D9
100
AcDbEntity
  8
ACHSEN
100
AcDbCircle
 62
7
  6
CONTINUOUS
 10
11.8237190926
 20
271.5020678845
 40
144.4768984253
100
AcDbArc
 50
296.187103939
 51
296.8519184685
  0
ARC
  5
2DA
100
AcDbEntity
  8
FASEN
100
AcDbCircle
 62
7
  6
CONTINUOUS
 10
125.8997415086
 20
187.6263707819
 40
33.4818461893
100
AcDbArc
 50
260.7443796899
 51
261.5263706686
  0
ARC
  5
2DB
100
AcDbEntity
  8
FASEN
100
AcDbCircle
 62
7
  6
CONTINUOUS
 10
125.2931318962
 20
187.4248213889
 40
33.2782271002
100
AcDbArc
 50
278.4784448517
 51
278.93281294
  0
ARC
  5
2DC
100
AcDbEntity
  8
FASEN
100
AcDbCircle
 62
7
  6
CONTINUOUS
 10
125.5425784535
 20
185.700777216
 40
31.5362474668
100
AcDbArc
 50
270.0715058424
 51
278.4920128945
  0
ARC
  5
2DD
100
AcDbEntity
  8
FASEN
100
AcDbCircle
 62
7
  6
CONTINUOUS
 10
125.5947426283
 20
185.3456528726
 40
31.1811011939
100
AcDbArc
 50
261.4631529206
 51
269.9764677418
  0
ARC
  5
2DE
100
AcDbEntity
  8
0
100
AcDbCircle
 62
7
  6
CONTINUOUS
 10
257.8161088475
 20
74.1319304595
 40
159.2595221605
100
AcDbArc
 50
156.0446773748
 51
156.4374589831
  0
ARC
  5
2DF
100
AcDbEntity
  8
BEZUGSACHSEN
100
AcDbCircle
 62
7
  6
CONTINUOUS
 10
143.5502671908
 20
156.6449444281
 40
17.0527898201
100
AcDbArc
 50
271.1982644716
 51
278.5377316062
  0
ARC
  5
2E0
100
AcDbEntity
  8
BEZUGSACHSEN
100
AcDbCircle
 62
7
  6
CONTINUOUS
 10
143.6136037831
 20
89.5673366686
 40
17.0527654843
100
AcDbArc
 50
91.1986846754
 51
98.5377399149
  0
ARC
  5
2E1
100
AcDbEntity
  8
BEZUGSACHSEN
100
AcDbCircle
 62
7
  6
CONTINUOUS
 10
143.5683611691
 20
89.7797643303
 40
16.8400113389
100
AcDbArc
 50
81.415835303
 51
88.846342494
  0
ARC
  5
2E2
100
AcDbEntity
  8
BEZUGSACHSEN
100
AcDbCircle
 62
7
  6
CONTINUOUS
 10
143.5955081939
 20
156.4324609509
 40
16.8399798935
100
AcDbArc
 50
261.4158287128
 51
268.8467253685
  0
ARC
  5
2E3
100
AcDbEntity
  8
BEZUGSACHSEN
100
AcDbCircle
 62
7
  6
CONTINUOUS
 10
143.5831616847
 20
90.1339358755
 40
16.4856639102
100
AcDbArc
 50
88.8644473295
 51
91.1341014074
  0
ARC
  5
2E4
100
AcDbEntity
  8
BEZUGSACHSEN
100
AcDbCircle
 62
7
  6
CONTINUOUS
 10
143.5807117989
 20
156.0783144306
 40
16.4856575528
100
AcDbArc
 50
268.8648345555
 51
271.1336602412
  0
ARC
  5
2E5
100
AcDbEntity
  8
0
100
AcDbCircle
 62
2
  6
CONTINUOUS
 10
143.5819360707
 20
123.1061283317
 40
3.0
100
AcDbArc
 50
255.0506124543
 51
194.9967235175
  0
CIRCLE
  5
2E6
100
AcDbEntity
  8
BEZUGSACHSEN
100
AcDbCircle
 62
7
  6
CONTINUOUS
 10
143.5819360707
 20
123.1061283317
 40
2.5
  0
ARC
  5
2E7
100
AcDbEntity
  8
RUNDUNGEN
100
AcDbCircle
 62
7
  6
CONTINUOUS
 10
137.5819360707
 20
142.0811283317
 40
2.0
100
AcDbArc
 50
180.0000000011
 51
270.0
  0
ARC
  5
2E8
100
AcDbEntity
  8
RUNDUNGEN
100
AcDbCircle
 62
7
  6
CONTINUOUS
 10
137.5819360707
 20
104.1311283317
 40
2.0
100
AcDbArc
 50
90.0
 51
179.999999997
  0
ARC
  5
2E9
100
AcDbEntity
  8
RUNDUNGEN
100
AcDbCircle
 62
7
  6
CONTINUOUS
 10
197.5819360707
 20
110.5555188234
 40
1.0
100
AcDbArc
 50
274.5000000019
 51
360.0
  0
ARC
  5
2EA
100
AcDbEntity
  8
RUNDUNGEN
100
AcDbCircle
 62
7
  6
CONTINUOUS
 10
197.5819360707
 20
135.6567378401
 40
1.0
100
AcDbArc
 50
0.0
 51
85.4999999981
  0
ARC
  5
2EB
100
AcDbEntity
  8
RUNDUNGEN
100
AcDbCircle
 62
7
  6
CONTINUOUS
 10
147.0979614745
 20
140.5811283317
 40
0.8
100
AcDbArc
 50
270.0
 51
300.0000000016
  0
ARC
  5
2EC
100
AcDbEntity
  8
RUNDUNGEN
100
AcDbCircle
 62
7
  6
CONTINUOUS
 10
147.0979614745
 20
105.6311283317
 40
0.8
100
AcDbArc
 50
59.9999999833
 51
90.0
  0
ARC
  5
2ED
100
AcDbEntity
  8
RUNDUNGEN
100
AcDbCircle
 62
7
  6
CONTINUOUS
 10
140.0659106669
 20
140.5811283317
 40
0.8
100
AcDbArc
 50
239.9999999984
 51
270.0
  0
ARC
  5
2EE
100
AcDbEntity
  8
RUNDUNGEN
100
AcDbCircle
 62
7
  6
CONTINUOUS
 10
140.0659106669
 20
105.6311283317
 40
0.8
100
AcDbArc
 50
90.0
 51
120.0000000164
  0
SPLINE
  5
2EF
100
AcDbEntity
  8
0
100
AcDbSpline
 62
2
  6
CONTINUOUS
 70
0
 71
3
 72
13
 73
9
 74
0
 42
0.0000001
 43
0.0000001
 44
0.0000000001
 40
0.0
 40
0.0
 40
0.0
 40
0.0
 40
0.1666666667
 40
0.3333333333
 40
0.5
 40
0.6666666667
 40
0.8333333333
 40
1.0
 40
1.0
 40
1.0
 40
1.0
 10
146.5819360707
 20
106.4311283317
 30
0.0
 10
146.5819360707
 20
106.4311283317
 30
0.0
 10
146.513375169
 20
106.4437051875
 30
0.0
 10
146.2024439515
 20
106.4966979159
 30
0.0
 10
145.7241690437
 20
106.5670117292
 30
0.0
 10
145.0906870784
 20
106.6387316059
 30
0.0
 10
144.3622247939
 20
106.6905445032
 30
0.0
 10
143.841729305
 20
106.7032131945
 30
0.0
 10
143.5819360707
 20
106.7032131945
 30
0.0
  0
SPLINE
  5
2F0
100
AcDbEntity
  8
0
100
AcDbSpline
 62
2
  6
CONTINUOUS
 70
0
 71
3
 72
13
 73
9
 74
0
 42
0.0000001
 43
0.0000001
 44
0.0000000001
 40
0.0
 40
0.0
 40
0.0
 40
0.0
 40
0.1666666667
 40
0.3333333333
 40
0.5
 40
0.6666666667
 40
0.8333333333
 40
1.0
 40
1.0
 40
1.0
 40
1.0
 10
143.5819360707
 20
106.7032131945
 30
0.0
 10
143.3222119899
 20
106.7032131945
 30
0.0
 10
142.8018412408
 20
106.6905500174
 30
0.0
 10
142.0735752372
 20
106.6387673928
 30
0.0
 10
141.4399990058
 20
106.5670489053
 30
0.0
 10
140.9619631092
 20
106.4967832415
 30
0.0
 10
140.6504709568
 20
106.4437028634
 30
0.0
 10
140.5819360707
 20
106.4311283317
 30
0.0
 10
140.5819360707
 20
106.4311283317
 30
0.0
  0
SPLINE
  5
2F1
100
AcDbEntity
  8
0
100
AcDbSpline
 62
2
  6
CONTINUOUS
 70
0
 71
3
 72
13
 73
9
 74
0
 42
0.0000001
 43
0.0000001
 44
0.0000000001
 40
0.0
 40
0.0
 40
0.0
 40
0.0
 40
0.1666666667
 40
0.3333333333
 40
0.5
 40
0.6666666667
 40
0.8333333333
 40
1.0
 40
1.0
 40
1.0
 40
1.0
 10
143.5819360707
 20
139.509043469
 30
0.0
 10
143.8419126256
 20
139.509043469
 30
0.0
 10
144.3628460849
 20
139.5217157553
 30
0.0
 10
145.0930836391
 20
139.5737402953
 30
0.0
 10
145.7256337614
 20
139.6454390555
 30
0.0
 10
146.2046405891
 20
139.7159050442
 30
0.0
 10
146.5140200021
 20
139.7686738511
 30
0.0
 10
146.5819360707
 20
139.7811283317
 30
0.0
 10
146.5819360707
 20
139.7811283317
 30
0.0
  0
SPLINE
  5
2F2
100
AcDbEntity
  8
0
100
AcDbSpline
 62
2
  6
CONTINUOUS
 70
0
 71
3
 72
13
 73
9
 74
0
 42
0.0000001
 43
0.0000001
 44
0.0000000001
 40
0.0
 40
0.0
 40
0.0
 40
0.0
 40
0.1666666667
 40
0.3333333333
 40
0.5
 40
0.6666666667
 40
0.8333333333
 40
1.0
 40
1.0
 40
1.0
 40
1.0
 10
140.5819360707
 20
139.7811283317
 30
0.0
 10
140.5819360707
 20
139.7811283317
 30
0.0
 10
140.6498901681
 20
139.7686694031
 30
0.0
 10
140.9587189735
 20
139.7159866239
 30
0.0
 10
141.4380038228
 20
139.6454682266
 30
0.0
 10
142.0704422796
 20
139.5737721867
 30
0.0
 10
142.8008822154
 20
139.5217190671
 30
0.0
 10
143.3219097191
 20
139.509043469
 30
0.0
 10
143.5819360707
 20
139.509043469
 30
0.0
  0
LINE
  5
2F3
100
AcDbEntity
  8
FASEN
100
AcDbLine
 62
7
  6
CONTINUOUS
 10
120.5145420532
 20
154.5804383383
 11
120.3959616521
 21
154.6000144571
  0
LINE
  5
2F4
100
AcDbEntity
  8
FASEN
100
AcDbLine
 62
7
  6
CONTINUOUS
 10
120.3959616521
 20
154.6000144571
 11
120.3594947333
 21
154.6060927705
  0
LINE
  5
2F5
100
AcDbEntity
  8
FASEN
100
AcDbLine
 62
7
  6
CONTINUOUS
 10
130.7679068322
 20
154.6000138588
 11
130.8043773217
 21
154.6060927679
  0
LINE
  5
2F6
100
AcDbEntity
  8
ACHSEN
100
AcDbLine
 62
7
  6
CONTINUOUS
 10
81.9319360707
 20
142.7101796304
 11
77.0819360707
 21
142.6031179453
  0
LINE
  5
2F7
100
AcDbEntity
  8
ACHSEN
100
AcDbLine
 62
7
  6
CONTINUOUS
 10
83.8455554186
 20
143.0326804076
 11
83.8605063567
 21
143.034786137
  0
SPLINE
  5
2F8
100
AcDbEntity
  8
ACHSEN
100
AcDbSpline
 62
7
  6
CONTINUOUS
 70
0
 71
3
 72
10
 73
6
 74
0
 42
0.0000001
 43
0.0000001
 44
0.0000000001
 40
0.0
 40
0.0
 40
0.0
 40
0.0
 40
0.0929965444
 40
0.3287693884
 40
1.0
 40
1.0
 40
1.0
 40
1.0
 10
83.8605063563
 20
143.034786137
 30
0.0
 10
83.8004047813
 20
143.0268026396
 30
0.0
 10
83.588352351
 20
142.9954859721
 30
0.0
 10
82.9436548387
 20
142.8985384704
 30
0.0
 10
82.3613535914
 20
142.7944681771
 30
0.0
 10
81.9319360707
 20
142.7101796304
 30
0.0
  0
SPLINE
  5
2F9
100
AcDbEntity
  8
ACHSEN
100
AcDbSpline
 62
7
  6
CONTINUOUS
 70
0
 71
3
 72
11
 73
7
 74
0
 42
0.0000001
 43
0.0000001
 44
0.0000000001
 40
0.0
 40
0.0
 40
0.0
 40
0.0
 40
0.1537099379
 40
0.500508937
 40
0.8472910559
 40
1.0
 40
1.0
 40
1.0
 40
1.0
 10
102.7612974039
 20
143.5096466671
 30
0.0
 10
102.2977121348
 20
143.4383697124
 30
0.0
 10
100.7834798206
 20
143.23431194
 30
0.0
 10
98.2007053931
 20
143.0488029081
 30
0.0
 10
95.6146593632
 20
143.1017501268
 30
0.0
 10
94.0953701804
 20
143.2315166196
 30
0.0
 10
93.6319360707
 20
143.2802853339
 30
0.0
  0
SPLINE
  5
2FA
100
AcDbEntity
  8
FASEN
100
AcDbSpline
 62
7
  6
CONTINUOUS
 70
0
 71
3
 72
14
 73
10
 74
0
 42
0.0000001
 43
0.0000001
 44
0.0000000001
 40
0.0
 40
0.0
 40
0.0
 40
0.0
 40
0.0157903393
 40
0.0631409109
 40
0.1420484115
 40
0.252363788
 40
0.3937112849
 40
0.5656959862
 40
1.0
 40
1.0
 40
1.0
 40
1.0
 10
130.8043773211
 20
154.6060927682
 30
0.0
 10
130.8025624673
 20
154.6063570477
 30
0.0
 10
130.7953422873
 20
154.6037770679
 30
0.0
 10
130.779054676
 20
154.6023949561
 30
0.0
 10
130.7519590104
 20
154.5971201336
 30
0.0
 10
130.7140803022
 20
154.591160733
 30
0.0
 10
130.6655297068
 20
154.5830396932
 30
0.0
 10
130.5798208915
 20
154.5691552889
 30
0.0
 10
130.5102787463
 20
154.5580524751
 30
0.0
 10
130.4604471929
 20
154.5502225083
 30
0.0
  0
SPLINE
  5
2FB
100
AcDbEntity
  8
0
100
AcDbSpline
 62
7
  6
CONTINUOUS
 70
0
 71
3
 72
13
 73
9
 74
0
 42
0.0000001
 43
0.0000001
 44
0.0000000001
 40
0.0
 40
0.0
 40
0.0
 40
0.0
 40
0.1753307868
 40
0.3422637982
 40
0.4768046258
 40
0.5947351366
 40
0.8062611466
 40
1.0
 40
1.0
 40
1.0
 40
1.0
 10
113.1869591818
 20
101.5786995916
 30
0.0
 10
113.1230464369
 20
101.6056397533
 30
0.0
 10
112.9852693936
 20
101.6343777393
 30
0.0
 10
112.7976223953
 20
101.5855989213
 30
0.0
 10
112.6560377117
 20
101.4967570184
 30
0.0
 10
112.5195724889
 20
101.3731544065
 30
0.0
 10
112.3911538023
 20
101.2092778004
 30
0.0
 10
112.3101138054
 20
101.0706068081
 30
0.0
 10
112.2748292895
 20
101.0025716808
 30
0.0
  0
SPLINE
  5
2FC
100
AcDbEntity
  8
0
100
AcDbSpline
 62
7
  6
CONTINUOUS
 70
0
 71
3
 72
13
 73
9
 74
0
 42
0.0000001
 43
0.0000001
 44
0.0000000001
 40
0.0
 40
0.0
 40
0.0
 40
0.0
 40
0.286526882
 40
0.4543474408
 40
0.5599589325
 40
0.648267425
 40
0.8182504149
 40
1.0
 40
1.0
 40
1.0
 40
1.0
 10
113.1869591818
 20
101.5786995916
 30
0.0
 10
113.2123454657
 20
101.5679988997
 30
0.0
 10
113.2550706751
 20
101.5551999772
 30
0.0
 10
113.3102605683
 20
101.5594038436
 30
0.0
 10
113.341445629
 20
101.5766899194
 30
0.0
 10
113.3645079338
 20
101.60370156
 30
0.0
 10
113.3787467253
 20
101.6446801469
 30
0.0
 10
113.3815263993
 20
101.6784970932
 30
0.0
 10
113.381849864
 20
101.6959692065
 30
0.0
  0
SPLINE
  5
2FD
100
AcDbEntity
  8
0
100
AcDbSpline
 62
7
  6
CONTINUOUS
 70
0
 71
3
 72
17
 73
13
 74
0
 42
0.0000001
 43
0.0000001
 44
0.0000000001
 40
0.0
 40
0.0
 40
0.0
 40
0.0
 40
0.125135549
 40
0.2502986125
 40
0.3754807531
 40
0.5006727147
 40
0.6258456077
 40
0.6884746641
 40
0.7511065344
 40
0.8746656069
 40
0.9373062378
 40
1.0
 40
1.0
 40
1.0
 40
1.0
 10
112.2748292895
 20
129.5206680925
 30
0.0
 10
112.2918976332
 20
129.4493417839
 30
0.0
 10
112.328164195
 20
129.3071681023
 30
0.0
 10
112.3902106686
 20
129.0959745924
 30
0.0
 10
112.4617918277
 20
128.8877369026
 30
0.0
 10
112.5461318827
 20
128.6842342945
 30
0.0
 10
112.6313012363
 20
128.5213513996
 30
0.0
 10
112.7149556427
 20
128.4000398519
 30
0.0
 10
112.8097907631
 20
128.2907126995
 30
0.0
 10
112.9443991452
 20
128.2046365608
 30
0.0
 10
113.0949261769
 20
128.2262294491
 30
0.0
 10
113.158233996
 20
128.2661664035
 30
0.0
 10
113.1869591818
 20
128.2890787849
 30
0.0
  0
SPLINE
  5
2FE
100
AcDbEntity
  8
0
100
AcDbSpline
 62
7
  6
CONTINUOUS
 70
0
 71
3
 72
13
 73
9
 74
0
 42
0.0000001
 43
0.0000001
 44
0.0000000001
 40
0.0
 40
0.0
 40
0.0
 40
0.0
 40
0.1670510693
 40
0.3289369806
 40
0.4609641718
 40
0.578209763
 40
0.7939442568
 40
1.0
 40
1.0
 40
1.0
 40
1.0
 10
113.1869591818
 20
139.4506066187
 30
0.0
 10
113.122525731
 20
139.4748417237
 30
0.0
 10
112.9833247381
 20
139.4967760661
 30
0.0
 10
112.7967167498
 20
139.4402998939
 30
0.0
 10
112.6552557116
 20
139.3447364393
 30
0.0
 10
112.5177271143
 20
139.2103689703
 30
0.0
 10
112.3883074098
 20
139.0279967116
 30
0.0
 10
112.3093074432
 20
138.8727444705
 30
0.0
 10
112.2748292895
 20
138.7951452219
 30
0.0
  0
SPLINE
  5
2FF
100
AcDbEntity
  8
0
100
AcDbSpline
 62
7
  6
CONTINUOUS
 70
0
 71
3
 72
16
 73
12
 74
0
 42
0.0000001
 43
0.0000001
 44
0.0000000001
 40
0.0
 40
0.0
 40
0.0
 40
0.0
 40
0.0735401093
 40
0.1545841369
 40
0.2292313659
 40
0.2978973002
 40
0.4259913051
 40
0.5473045002
 40
0.6644420892
 40
0.7785599955
 40
1.0
 40
1.0
 40
1.0
 40
1.0
 10
113.1869591818
 20
139.4506066187
 30
0.0
 10
113.1994110006
 20
139.4459231642
 30
0.0
 10
113.2285612412
 20
139.4418426553
 30
0.0
 10
113.2680307949
 20
139.4600846653
 30
0.0
 10
113.2955922609
 20
139.4904880169
 30
0.0
 10
113.3214881738
 20
139.5323654493
 30
0.0
 10
113.3425679596
 20
139.5862973848
 30
0.0
 10
113.3590968012
 20
139.6505682758
 30
0.0
 10
113.3699127481
 20
139.7134867887
 30
0.0
 10
113.3790009148
 20
139.7949019183
 30
0.0
 10
113.3815067819
 20
139.8556387729
 30
0.0
 10
113.381849864
 20
139.8956960191
 30
0.0
  0
SPLINE
  5
300
100
AcDbEntity
  8
0
100
AcDbSpline
 62
7
  6
CONTINUOUS
 70
0
 71
3
 72
17
 73
13
 74
0
 42
0.0000001
 43
0.0000001
 44
0.0000000001
 40
0.0
 40
0.0
 40
0.0
 40
0.0
 40
0.2841775711
 40
0.4146661432
 40
0.5373502072
 40
0.652341305
 40
0.7602377654
 40
0.8121867936
 40
0.8638391814
 40
0.9180398508
 40
0.9497831112
 40
1.0
 40
1.0
 40
1.0
 40
1.0
 10
111.3819991598
 20
101.4237264525
 30
0.0
 10
111.3819991598
 20
101.3041530152
 30
0.0
 10
111.3818563464
 20
101.1296703555
 30
0.0
 10
111.3842363417
 20
100.9035802715
 30
0.0
 10
111.3888559094
 20
100.7487107692
 30
0.0
 10
111.3987834866
 20
100.6036116482
 30
0.0
 10
111.4148978021
 20
100.4888501744
 30
0.0
 10
111.4368662039
 20
100.4024730811
 30
0.0
 10
111.4601703311
 20
100.3401734622
 30
0.0
 10
111.4903050306
 20
100.2898284405
 30
0.0
 10
111.5313945787
 20
100.2495811751
 30
0.0
 10
111.5658352771
 20
100.2357406608
 30
0.0
 10
111.5869591818
 20
100.2352429402
 30
0.0
  0
SPLINE
  5
301
100
AcDbEntity
  8
0
100
AcDbSpline
 62
7
  6
CONTINUOUS
 70
0
 71
3
 72
9
 73
5
 74
0
 42
0.0000001
 43
0.0000001
 44
0.0000000001
 40
0.0
 40
0.0
 40
0.0
 40
0.0
 40
0.2573720101
 40
1.0
 40
1.0
 40
1.0
 40
1.0
 10
112.2748292895
 20
101.0025716808
 30
0.0
 10
112.2396899013
 20
100.9348163867
 30
0.0
 10
112.1007017658
 20
100.6728447356
 30
0.0
 10
111.9517182752
 20
100.4161355856
 30
0.0
 10
111.8349648215
 20
100.2293994564
 30
0.0
  0
SPLINE
  5
302
100
AcDbEntity
  8
0
100
AcDbSpline
 62
7
  6
CONTINUOUS
 70
0
 71
3
 72
12
 73
8
 74
0
 42
0.0000001
 43
0.0000001
 44
0.0000000001
 40
0.0
 40
0.0
 40
0.0
 40
0.0
 40
0.128679218
 40
0.2561331636
 40
0.5063352459
 40
0.7539715031
 40
1.0
 40
1.0
 40
1.0
 40
1.0
 10
127.0432609361
 20
113.7569070172
 30
0.0
 10
127.0741370617
 20
113.7569070172
 30
0.0
 10
127.1360516882
 20
113.7445837908
 30
0.0
 10
127.2422726153
 20
113.6826689996
 30
0.0
 10
127.3416438886
 20
113.5659074346
 30
0.0
 10
127.4230201792
 20
113.4064126258
 30
0.0
 10
127.4606969192
 20
113.2936572642
 30
0.0
 10
127.476273638
 20
113.2367157128
 30
0.0
  0
SPLINE
  5
303
100
AcDbEntity
  8
0
100
AcDbSpline
 62
7
  6
CONTINUOUS
 70
0
 71
3
 72
16
 73
12
 74
0
 42
0.0000001
 43
0.0000001
 44
0.0000000001
 40
0.0
 40
0.0
 40
0.0
 40
0.0
 40
0.2537061586
 40
0.3798181994
 40
0.5052514003
 40
0.6297642598
 40
0.7529383547
 40
0.8138894569
 40
0.8744647729
 40
0.9358391589
 40
1.0
 40
1.0
 40
1.0
 40
1.0
 10
113.3819442109
 20
127.6830825269
 30
0.0
 10
113.3819873678
 20
127.744193422
 30
0.0
 10
113.3807846366
 20
127.8357335624
 30
0.0
 10
113.3726308201
 20
127.9571811808
 30
0.0
 10
113.3626494124
 20
128.0472809688
 30
0.0
 10
113.3469246674
 20
128.1357553749
 30
0.0
 10
113.3267419577
 20
128.2078183967
 30
0.0
 10
113.3008203639
 20
128.2607950518
 30
0.0
 10
113.274532226
 20
128.2971587863
 30
0.0
 10
113.2281668057
 20
128.3147218331
 30
0.0
 10
113.199041089
 20
128.2987158075
 30
0.0
 10
113.1869591818
 20
128.2890787849
 30
0.0
  0
SPLINE
  5
304
100
AcDbEntity
  8
0
100
AcDbSpline
 62
7
  6
CONTINUOUS
 70
0
 71
3
 72
9
 73
5
 74
0
 42
0.0000001
 43
0.0000001
 44
0.0000000001
 40
0.0
 40
0.0
 40
0.0
 40
0.0
 40
0.1680195226
 40
1.0
 40
1.0
 40
1.0
 40
1.0
 10
127.476273638
 20
93.1921734853
 30
0.0
 10
127.4594253649
 20
93.1718533693
 30
0.0
 10
127.3439720824
 20
93.0633723931
 30
0.0
 10
127.1739678474
 20
93.0255355714
 30
0.0
 10
127.0432609361
 20
93.0255355714
 30
0.0
  0
SPLINE
  5
305
100
AcDbEntity
  8
0
100
AcDbSpline
 62
7
  6
CONTINUOUS
 70
0
 71
3
 72
12
 73
8
 74
0
 42
0.0000001
 43
0.0000001
 44
0.0000000001
 40
0.0
 40
0.0
 40
0.0
 40
0.0
 40
0.2460454262
 40
0.4936983158
 40
0.7439199328
 40
0.8713555617
 40
1.0
 40
1.0
 40
1.0
 40
1.0
 10
123.6875985034
 20
113.2367157128
 30
0.0
 10
123.7031763159
 20
113.2936612625
 30
0.0
 10
123.7408583356
 20
113.4064217679
 30
0.0
 10
123.8222340835
 20
113.565938436
 30
0.0
 10
123.9216386953
 20
113.6826659688
 30
0.0
 10
124.0278345117
 20
113.7446138072
 30
0.0
 10
124.0897433815
 20
113.7569070172
 30
0.0
 10
124.1206112053
 20
113.7569070172
 30
0.0
  0
SPLINE
  5
306
100
AcDbEntity
  8
0
100
AcDbSpline
 62
7
  6
CONTINUOUS
 70
0
 71
3
 72
9
 73
5
 74
0
 42
0.0000001
 43
0.0000001
 44
0.0000000001
 40
0.0
 40
0.0
 40
0.0
 40
0.0
 40
0.3641598889
 40
1.0
 40
1.0
 40
1.0
 40
1.0
 10
124.1206112053
 20
93.0255355714
 30
0.0
 10
124.0632347835
 20
93.0255355714
 30
0.0
 10
123.9070484504
 20
93.0416546654
 30
0.0
 10
123.7515424597
 20
93.1150529043
 30
0.0
 10
123.6875985034
 20
93.1921734853
 30
0.0
  0
SPLINE
  5
307
100
AcDbEntity
  8
0
100
AcDbSpline
 62
7
  6
CONTINUOUS
 70
0
 71
3
 72
9
 73
5
 74
0
 42
0.0000001
 43
0.0000001
 44
0.0000000001
 40
0.0
 40
0.0
 40
0.0
 40
0.0
 40
0.3642526053
 40
1.0
 40
1.0
 40
1.0
 40
1.0
 10
127.0432609361
 20
153.186721092
 30
0.0
 10
127.1006523426
 20
153.186721092
 30
0.0
 10
127.2568418012
 20
153.1706065365
 30
0.0
 10
127.4123385864
 20
153.0971930194
 30
0.0
 10
127.476273638
 20
153.0200831782
 30
0.0
  0
SPLINE
  5
308
100
AcDbEntity
  8
0
100
AcDbSpline
 62
7
  6
CONTINUOUS
 70
0
 71
3
 72
21
 73
17
 74
0
 42
0.0000001
 43
0.0000001
 44
0.0000000001
 40
0.0
 40
0.0
 40
0.0
 40
0.0
 40
0.0152736556
 40
0.0307400416
 40
0.0615944727
 40
0.0924597446
 40
0.1233512662
 40
0.1852330485
 40
0.2472659363
 40
0.3094463907
 40
0.3717660941
 40
0.4967787028
 40
0.6222117836
 40
0.747963109
 40
0.8739278454
 40
1.0
 40
1.0
 40
1.0
 40
1.0
 10
111.5869591818
 20
131.2920715185
 30
0.0
 10
111.5716968666
 20
131.2920090991
 30
0.0
 10
111.5460087017
 20
131.2660119445
 30
0.0
 10
111.5202676091
 20
131.2122594086
 30
0.0
 10
111.4966200792
 20
131.1374875156
 30
0.0
 10
111.4768217058
 20
131.0473926912
 30
0.0
 10
111.4558440309
 20
130.9254953271
 30
0.0
 10
111.4369406307
 20
130.7719465236
 30
0.0
 10
111.4207129906
 20
130.5866625714
 30
0.0
 10
111.4089437961
 20
130.4006285041
 30
0.0
 10
111.3974891562
 20
130.1515526517
 30
0.0
 10
111.3890753921
 20
129.8391071326
 30
0.0
 10
111.3843229439
 20
129.4632116527
 30
0.0
 10
111.3825085212
 20
129.0863415965
 30
0.0
 10
111.3820351831
 20
128.7088309635
 30
0.0
 10
111.3819991598
 20
128.4569790646
 30
0.0
 10
111.3819991598
 20
128.3309994623
 30
0.0
  0
SPLINE
  5
309
100
AcDbEntity
  8
0
100
AcDbSpline
 62
7
  6
CONTINUOUS
 70
0
 71
3
 72
17
 73
13
 74
0
 42
0.0000001
 43
0.0000001
 44
0.0000000001
 40
0.0
 40
0.0
 40
0.0
 40
0.0
 40
0.2182009024
 40
0.3349220057
 40
0.456586696
 40
0.5831112211
 40
0.7144823146
 40
0.7820564401
 40
0.8510300181
 40
0.92186225
 40
0.958727904
 40
1.0
 40
1.0
 40
1.0
 40
1.0
 10
111.3819991598
 20
139.5636590804
 30
0.0
 10
111.3819991598
 20
139.4313800661
 30
0.0
 10
111.3819814723
 20
139.2283404048
 30
0.0
 10
111.3843885812
 20
138.9515516345
 30
0.0
 10
111.3892137747
 20
138.7303792318
 30
0.0
 10
111.3994995128
 20
138.5004642509
 30
0.0
 10
111.4156245362
 20
138.3037955558
 30
0.0
 10
111.4371986368
 20
138.1425946841
 30
0.0
 10
111.4598031073
 20
138.0194243921
 30
0.0
 10
111.4893989036
 20
137.9142736614
 30
0.0
 10
111.5238305784
 20
137.8348038072
 30
0.0
 10
111.5619437149
 20
137.7905834306
 30
0.0
 10
111.5869591818
 20
137.7910705365
 30
0.0
  0
SPLINE
  5
30A
100
AcDbEntity
  8
0
100
AcDbSpline
 62
7
  6
CONTINUOUS
 70
0
 71
3
 72
11
 73
7
 74
0
 42
0.0000001
 43
0.0000001
 44
0.0000000001
 40
0.0
 40
0.0
 40
0.0
 40
0.0
 40
0.2163338898
 40
0.4581730139
 40
0.72121324
 40
1.0
 40
1.0
 40
1.0
 40
1.0
 10
111.8349648215
 20
137.7958997644
 30
0.0
 10
111.7492634336
 20
137.3331782087
 30
0.0
 10
111.6269949476
 20
136.3419668114
 30
0.0
 10
111.5724129064
 20
134.7726201005
 30
0.0
 10
111.6370404188
 20
133.0678336691
 30
0.0
 10
111.7563490365
 20
131.8944133522
 30
0.0
 10
111.8349648215
 20
131.2930857744
 30
0.0
  0
SPLINE
  5
30B
100
AcDbEntity
  8
0
100
AcDbSpline
 62
7
  6
CONTINUOUS
 70
0
 71
3
 72
12
 73
8
 74
0
 42
0.0000001
 43
0.0000001
 44
0.0000000001
 40
0.0
 40
0.0
 40
0.0
 40
0.0
 40
0.2460280129
 40
0.4936634005
 40
0.7438647573
 40
0.8713194616
 40
1.0
 40
1.0
 40
1.0
 40
1.0
 10
127.476273638
 20
132.9755409507
 30
0.0
 10
127.460696951
 20
132.9185995154
 30
0.0
 10
127.4230204558
 20
132.8058443406
 30
0.0
 10
127.3416440018
 20
132.6463504999
 30
0.0
 10
127.2422742227
 20
132.5295874407
 30
0.0
 10
127.1360521986
 20
132.4676741325
 30
0.0
 10
127.0741373763
 20
132.4553496462
 30
0.0
 10
127.0432609361
 20
132.4553496462
 30
0.0
  0
SPLINE
  5
30C
100
AcDbEntity
  8
0
100
AcDbSpline
 62
7
  6
CONTINUOUS
 70
0
 71
3
 72
9
 73
5
 74
0
 42
0.0000001
 43
0.0000001
 44
0.0000000001
 40
0.0
 40
0.0
 40
0.0
 40
0.0
 40
0.1680322176
 40
1.0
 40
1.0
 40
1.0
 40
1.0
 10
123.6875985034
 20
153.0200831782
 30
0.0
 10
123.7044480623
 20
153.040404845
 30
0.0
 10
123.8199026392
 20
153.148884877
 30
0.0
 10
123.9899061882
 20
153.186721092
 30
0.0
 10
124.1206112053
 20
153.186721092
 30
0.0
  0
SPLINE
  5
30D
100
AcDbEntity
  8
0
100
AcDbSpline
 62
7
  6
CONTINUOUS
 70
0
 71
3
 72
12
 73
8
 74
0
 42
0.0000001
 43
0.0000001
 44
0.0000000001
 40
0.0
 40
0.0
 40
0.0
 40
0.0
 40
0.1286448926
 40
0.256081
 40
0.5063027424
 40
0.7539549585
 40
1.0
 40
1.0
 40
1.0
 40
1.0
 10
124.1206112053
 20
132.4553496462
 30
0.0
 10
124.0897432738
 20
132.4553496462
 30
0.0
 10
124.0278342795
 20
132.4676432701
 30
0.0
 10
123.9216379822
 20
132.5295907337
 30
0.0
 10
123.8222340002
 20
132.6463189357
 30
0.0
 10
123.7408581538
 20
132.8058351738
 30
0.0
 10
123.7031762909
 20
132.9185954923
 30
0.0
 10
123.6875985034
 20
132.9755409507
 30
0.0
  0
LINE
  5
30E
100
AcDbEntity
  8
0
100
AcDbLine
 62
7
  6
CONTINUOUS
 10
111.5923377024
 20
99.6807435258
 11
111.8349648215
 21
100.2293994564
  0
ELLIPSE
  5
30F
100
AcDbEntity
  8
0
100
AcDbEllipse
 62
7
  6
CONTINUOUS
 10
111.2347818813
 20
123.1061283317
 30
0.0
 11
14.7536831607
 21
31.0932549156
 31
0.0
 40
0.3419987131
 41
-1.0912395858
 42
-0.1578061866
  0
ELLIPSE
  5
310
100
AcDbEntity
  8
0
100
AcDbEllipse
 62
7
  6
CONTINUOUS
 10
139.92909026
 20
123.1061283317
 30
0.0
 11
-14.7536831607
 21
31.0932549156
 31
0.0
 40
0.3419987131
 41
0.1578061866
 42
1.0912395858
  0
ELLIPSE
  5
311
100
AcDbEntity
  8
0
100
AcDbEllipse
 62
7
  6
CONTINUOUS
 10
139.92909026
 20
123.1061283317
 30
0.0
 11
14.7536831607
 21
31.0932549156
 31
0.0
 40
0.3419987131
 41
-4.2328322393
 42
-3.2993988402
  0
ELLIPSE
  5
312
100
AcDbEntity
  8
0
100
AcDbEllipse
 62
7
  6
CONTINUOUS
 10
111.2347818813
 20
123.1061283317
 30
0.0
 11
-14.7536831607
 21
31.0932549156
 31
0.0
 40
0.3419987131
 41
-2.9837864669
 42
-2.0503530678
  0
ENDSEC
  0
SECTION
  2
OBJECTS
  0
DICTIONARY
  5
C
100
AcDbDictionary
280
0
281
1
  3
ACAD_GROUP
350
D
  3
ACAD_MLINESTYLE
350
17
  3
ACAD_LAYOUT
350
1A
  3
ACAD_PLOTSETTINGS
350
19
  3
ACAD_PLOTSTYLENAME
350
E
  0
DICTIONARY
  5
D
102
{ACAD_REACTORS
330
C
102
}
100
AcDbDictionary
280
0
281
1
  0
ACDBDICTIONARYWDFLT
  5
E
102
{ACAD_REACTORS
330
C
102
}
100
AcDbDictionary
281
1
  3
Normal
350
F
100
AcDbDictionaryWithDefault
340
F
  0
DICTIONARY
  5
17
102
{ACAD_REACTORS
330
C
102
}
100
AcDbDictionary
280
0
281
1
  3
Standard
350
18
  0
DICTIONARY
  5
19
102
{ACAD_REACTORS
330
C
102
}
100
AcDbDictionary
281
1
  0
DICTIONARY
  5
1A
102
{ACAD_REACTORS
330
C
102
}
100
AcDbDictionary
281
1
  3
Model
350
313
  3
Layout1
350
314
  0
ACDBPLACEHOLDER
  5
F
102
{ACAD_REACTORS
330
E
102
}
  0
MLINESTYLE
  5
18
102
{ACAD_REACTORS
330
17
102
}
100
AcDbMlineStyle
  2
STANDARD
 70
0
  3

 62
256
 51
90.0
 52
90.0
 71
2
 49
0.5
 62
256
  6
BYLAYER
 49
-0.5
 62
256
  6
BYLAYER
  0
LAYOUT
  5
313
102
{ACAD_REACTORS
330
1A
102
}
100
AcDbPlotSettings
  1

  2
none_device
  4
ISO_A4_(297.00_x_210.00_MM)
  6

 40
0.0
 41
0.0
 42
0.0
 43
0.0
 44
297.0
 45
210.0
 46
0.0
 47
0.0
 48
0.0
 49
0.0
140
0.0
141
0.0
142
1.0
143
1.0
 70
1024
 72
1
 73
0
 74
0
  7

 75
0
147
1.0
148
0.0
149
0.0
100
AcDbLayout
  1
Model
 70
0
 71
0
 10
0.0
 20
0.0
 11
297.0
 21
210.0
 12
0.0
 22
0.0
 32
0.0
 14
0.0
 24
0.0
 34
0.0
 15
0.0
 25
0.0
 35
0.0
146
0.0
 13
0.0
 23
0.0
 33
0.0
 16
1.0
 26
0.0
 36
0.0
 17
0.0
 27
1.0
 37
0.0
 76
0
330
217
345
0
346
0
  0
LAYOUT
  5
314
102
{ACAD_REACTORS
330
1A
102
}
100
AcDbPlotSettings
  1

  2
none_device
  4
ISO_A4_(297.00_x_210.00_MM)
  6

 40
0.0
 41
0.0
 42
0.0
 43
0.0
 44
297.0
 45
210.0
 46
0.0
 47
0.0
 48
0.0
 49
0.0
140
0.0
141
0.0
142
1.0
143
1.0
 70
0
 72
1
 73
0
 74
0
  7

 75
0
147
1.0
148
0.0
149
0.0
100
AcDbLayout
  1
Layout1
 70
0
 71
1
 10
0.0
 20
0.0
 11
297.0
 21
210.0
 12
0.0
 22
0.0
 32
0.0
 14
0.0
 24
0.0
 34
0.0
 15
0.0
 25
0.0
 35
0.0
146
0.0
 13
0.0
 23
0.0
 33
0.0
 16
1.0
 26
0.0
 36
0.0
 17
0.0
 27
1.0
 37
0.0
 76
0
330
218
345
0
346
0
  0
ENDSEC
  0
EOF
