999
DXF file: cc6-140-14.dxf
999
Pro/ENGINEER 2010430 by Parametric Technology Corporation
  0
SECTION
  2
HEADER
  9
$ACADVER
  1
AC1021
  9
$DWGCODEPAGE
  3
ANSI_1252
  9
$EXTMAX
 10
297.0
 20
210.0
 30
0.0
  9
$EXTMIN
 10
0.0
 20
0.0
 30
0.0
  9
$LIMMIN
 10
0.0
 20
0.0
  9
$LIMMAX
 10
297.0
 20
210.0
  9
$VIEWCTR
 10
148.5
 20
105.0
  9
$VIEWSIZE
 40
210.0
  9
$CLAYER
  8
0
  9
$LTSCALE
 40
16.335
  9
$CELTYPE
  6
BYLAYER
  9
$DIMSCALE
 40
1.0
  9
$DIMASZ
 40
3.5
  9
$DIMEXO
 40
1.85625
  9
$DIMDLI
 40
11.286
  9
$DIMEXE
 40
5.346
  9
$DIMCEN
 40
2.673
  9
$DIMLFAC
 40
1.0
  9
$DIMBLK
  1
_FILLED
  9
$DIMTXT
 40
3.5
  9
$DIMTOL
 70
1
  9
$DIMLIM
 70
0
  9
$DIMTFAC
 40
1.0
  9
$DIMTP
 40
0.005
  9
$DIMTM
 40
0.005
  9
$PDMODE
 70
3
  9
$PDSIZE
 40
0.3125
  9
$HANDSEED
  5
313
  9
$TILEMODE
 70
1
  9
$MEASUREMENT
 70
1
  9
$INSUNITS
 70
4
  0
ENDSEC
  0
SECTION
  2
CLASSES
  0
CLASS
  1
ACDBDICTIONARYWDFLT
  2
AcDbDictionaryWithDefault
  3
AutoCAD 2000
 90
0
 91
1
280
0
281
0
  0
CLASS
  1
ACDBPLACEHOLDER
  2
AcDbPlaceHolder
  3
AutoCAD 2000
 90
0
 91
1
280
0
281
0
  0
CLASS
  1
LAYOUT
  2
AcDbLayout
  3
AutoCAD 2000
 90
0
 91
0
280
0
281
0
  0
ENDSEC
  0
SECTION
  2
TABLES
  0
TABLE
  2
VPORT
  5
8
100
AcDbSymbolTable
 70
2
  0
VPORT
  5
1F4
100
AcDbSymbolTableRecord
100
AcDbViewportTableRecord
  2
*ACTIVE
 70
0
 10
0.0
 20
0.0
 11
1.0
 21
1.0
 12
148.5
 22
105.0
 13
0.0
 23
0.0
 14
1.0
 24
1.0
 15
0.0
 25
0.0
 16
0.0
 26
0.0
 36
1.0
 17
0.0
 27
0.0
 37
0.0
 40
210.0
 41
1.4142857143
 42
50.0
 43
0.0
 44
0.0
 50
0.0
 51
0.0
 71
0
 72
100
 73
1
 74
1
 75
0
 76
0
 77
0
 78
0
  0
ENDTAB
  0
TABLE
  2
LTYPE
  5
5
100
AcDbSymbolTable
 70
6
  0
LTYPE
  5
14
100
AcDbSymbolTableRecord
100
AcDbLinetypeTableRecord
  2
BYBLOCK
 70
0
  3

 72
65
 73
0
 40
0.0
  0
LTYPE
  5
15
100
AcDbSymbolTableRecord
100
AcDbLinetypeTableRecord
  2
BYLAYER
 70
0
  3

 72
65
 73
0
 40
0.0
  0
LTYPE
  5
16
100
AcDbSymbolTableRecord
100
AcDbLinetypeTableRecord
  2
CONTINUOUS
 70
64
  3
Solid line
 72
65
 73
0
 40
0.0
  0
LTYPE
  5
1F5
100
AcDbSymbolTableRecord
100
AcDbLinetypeTableRecord
  2
CENTER
 70
64
  3
____ _ ____ _ ____ _ ____ _ ____ _ ____ _ ____
 72
65
 73
4
 40
0.6
 49
0.375
 74
0
 49
-0.075
 74
0
 49
0.075
 74
0
 49
-0.075
 74
0
  0
LTYPE
  5
1F6
100
AcDbSymbolTableRecord
100
AcDbLinetypeTableRecord
  2
HIDDEN
 70
64
  3
- - - - - - - - - - - - - - - - - - - -
 72
65
 73
2
 40
0.2
 49
0.1
 74
0
 49
-0.1
 74
0
  0
LTYPE
  5
1F7
100
AcDbSymbolTableRecord
100
AcDbLinetypeTableRecord
  2
PHANTOM
 70
64
  3
_____ _ _ _____ _ _ _____ _ _ _____
 72
65
 73
6
 40
0.8
 49
0.45
 74
0
 49
-0.05
 74
0
 49
0.1
 74
0
 49
-0.05
 74
0
 49
0.1
 74
0
 49
-0.05
 74
0
  0
LTYPE
  5
1F8
100
AcDbSymbolTableRecord
100
AcDbLinetypeTableRecord
  2
DOT
 70
64
  3
. . . . . . . . . . . . . . . . . . . .
 72
65
 73
2
 40
0.2
 49
0.1
 74
0
 49
-0.1
 74
0
  0
LTYPE
  5
1F9
100
AcDbSymbolTableRecord
100
AcDbLinetypeTableRecord
  2
DASHED
 70
64
  3
- - - - - - - - - - - - - - - - - - - -
 72
65
 73
2
 40
0.2
 49
0.1
 74
0
 49
-0.1
 74
0
  0
ENDTAB
  0
TABLE
  2
LAYER
  5
2
100
AcDbSymbolTable
 70
36
  0
LAYER
  5
10
100
AcDbSymbolTableRecord
100
AcDbLayerTableRecord
  2
0
 70
0
 62
7
  6
CONTINUOUS
370
-3
390
F
  0
LAYER
  5
1FA
100
AcDbSymbolTableRecord
100
AcDbLayerTableRecord
  2
DEFAULT_1
 70
0
 62
7
  6
CENTER
370
-3
390
F
  0
LAYER
  5
1FB
100
AcDbSymbolTableRecord
100
AcDbLayerTableRecord
  2
DEFAULT_2
 70
0
 62
8
  6
HIDDEN
370
-3
390
F
  0
LAYER
  5
1FC
100
AcDbSymbolTableRecord
100
AcDbLayerTableRecord
  2
DEFAULT_3
 70
0
 62
7
  6
PHANTOM
370
-3
390
F
  0
LAYER
  5
1FD
100
AcDbSymbolTableRecord
100
AcDbLayerTableRecord
  2
ACHSEN
 70
0
 62
7
  6
CONTINUOUS
370
-3
390
F
  0
LAYER
  5
1FE
100
AcDbSymbolTableRecord
100
AcDbLayerTableRecord
  2
BEZUGSACHSEN
 70
0
 62
7
  6
CONTINUOUS
370
-3
390
F
  0
LAYER
  5
1FF
100
AcDbSymbolTableRecord
100
AcDbLayerTableRecord
  2
BEZUGSEBENE_B
 70
0
 62
7
  6
CONTINUOUS
370
-3
390
F
  0
LAYER
  5
200
100
AcDbSymbolTableRecord
100
AcDbLayerTableRecord
  2
BOHRUNGEN
 70
0
 62
7
  6
CONTINUOUS
370
-3
390
F
  0
LAYER
  5
201
100
AcDbSymbolTableRecord
100
AcDbLayerTableRecord
  2
EBENEN
 70
0
 62
7
  6
CONTINUOUS
370
-3
390
F
  0
LAYER
  5
202
100
AcDbSymbolTableRecord
100
AcDbLayerTableRecord
  2
FASEN
 70
0
 62
7
  6
CONTINUOUS
370
-3
390
F
  0
LAYER
  5
203
100
AcDbSymbolTableRecord
100
AcDbLayerTableRecord
  2
FLAECHEN
 70
0
 62
7
  6
CONTINUOUS
370
-3
390
F
  0
LAYER
  5
204
100
AcDbSymbolTableRecord
100
AcDbLayerTableRecord
  2
GEWINDE
 70
0
 62
7
  6
CONTINUOUS
370
-3
390
F
  0
LAYER
  5
205
100
AcDbSymbolTableRecord
100
AcDbLayerTableRecord
  2
KOORDSYS
 70
0
 62
7
  6
CONTINUOUS
370
-3
390
F
  0
LAYER
  5
206
100
AcDbSymbolTableRecord
100
AcDbLayerTableRecord
  2
KURVEN
 70
0
 62
7
  6
CONTINUOUS
370
-3
390
F
  0
LAYER
  5
207
100
AcDbSymbolTableRecord
100
AcDbLayerTableRecord
  2
KURVE_FUER_GTOL_DETAILANSICHT
 70
0
 62
7
  6
CONTINUOUS
370
-3
390
F
  0
LAYER
  5
208
100
AcDbSymbolTableRecord
100
AcDbLayerTableRecord
  2
KURVE_GAUGE2_POLIGON_INNENEINST
 70
0
 62
7
  6
CONTINUOUS
370
-3
390
F
  0
LAYER
  5
209
100
AcDbSymbolTableRecord
100
AcDbLayerTableRecord
  2
KURVE_PHANTOM1_GAUGE_PIN_1
 70
0
 62
7
  6
CONTINUOUS
370
-3
390
F
  0
LAYER
  5
20A
100
AcDbSymbolTableRecord
100
AcDbLayerTableRecord
  2
KURVE_PHANTOM2_GAUGE_PIN1
 70
0
 62
7
  6
CONTINUOUS
370
-3
390
F
  0
LAYER
  5
20B
100
AcDbSymbolTableRecord
100
AcDbLayerTableRecord
  2
KURVE_POLIGON_BEMASUNG
 70
0
 62
7
  6
CONTINUOUS
370
-3
390
F
  0
LAYER
  5
20C
100
AcDbSymbolTableRecord
100
AcDbLayerTableRecord
  2
PUNKTE
 70
0
 62
7
  6
CONTINUOUS
370
-3
390
F
  0
LAYER
  5
20D
100
AcDbSymbolTableRecord
100
AcDbLayerTableRecord
  2
RUNDUNGEN
 70
0
 62
7
  6
CONTINUOUS
370
-3
390
F
  0
LAYER
  5
20E
100
AcDbSymbolTableRecord
100
AcDbLayerTableRecord
  2
S_ACHSEN
 70
0
 62
7
  6
CONTINUOUS
370
-3
390
F
  0
LAYER
  5
20F
100
AcDbSymbolTableRecord
100
AcDbLayerTableRecord
  2
S_EBENEN
 70
0
 62
7
  6
CONTINUOUS
370
-3
390
F
  0
LAYER
  5
210
100
AcDbSymbolTableRecord
100
AcDbLayerTableRecord
  2
S_KOORDSYS
 70
0
 62
7
  6
CONTINUOUS
370
-3
390
F
  0
LAYER
  5
211
100
AcDbSymbolTableRecord
100
AcDbLayerTableRecord
  2
TOL_BEZUEGE
 70
0
 62
7
  6
CONTINUOUS
370
-3
390
F
  0
LAYER
  5
212
100
AcDbSymbolTableRecord
100
AcDbLayerTableRecord
  2
VERBFLAECHE
 70
0
 62
7
  6
CONTINUOUS
370
-3
390
F
  0
LAYER
  5
213
100
AcDbSymbolTableRecord
100
AcDbLayerTableRecord
  2
ZEICHNUNGSBEMASSUNGEN
 70
0
 62
7
  6
CONTINUOUS
370
-3
390
F
  0
ENDTAB
  0
TABLE
  2
STYLE
  5
3
100
AcDbSymbolTable
 70
1
  0
STYLE
  5
11
100
AcDbSymbolTableRecord
100
AcDbTextStyleTableRecord
  2
STANDARD
 70
0
 40
0.0
 41
0.7
 50
0.0
 71
0
 42
0.2
  3
txt
  4

  0
STYLE
  5
214
100
AcDbSymbolTableRecord
100
AcDbTextStyleTableRecord
  2
TEXTSTYLE_1
 70
0
 40
0.0
 41
0.8
 50
0.0
 71
0
 42
0.2
  3
gdt
  4

  0
STYLE
  5
215
100
AcDbSymbolTableRecord
100
AcDbTextStyleTableRecord
  2
TEXTSTYLE_2
 70
0
 40
0.0
 41
0.7
 50
0.0
 71
0
 42
0.2
  3
gdt
  4

  0
ENDTAB
  0
TABLE
  2
VIEW
  5
6
100
AcDbSymbolTable
 70
0
  0
ENDTAB
  0
TABLE
  2
UCS
  5
7
100
AcDbSymbolTable
 70
0
  0
ENDTAB
  0
TABLE
  2
APPID
  5
9
100
AcDbSymbolTable
 70
1
  0
APPID
  5
216
100
AcDbSymbolTableRecord
100
AcDbRegAppTableRecord
  2
ACAD
 70
0
  0
ENDTAB
  0
TABLE
  2
BLOCK_RECORD
  5
1
100
AcDbSymbolTable
 70
0
  0
BLOCK_RECORD
  5
217
100
AcDbSymbolTableRecord
100
AcDbBlockTableRecord
  2
*Model_Space
  0
BLOCK_RECORD
  5
218
100
AcDbSymbolTableRecord
100
AcDbBlockTableRecord
  2
*Paper_Space
  0
BLOCK_RECORD
  5
219
100
AcDbSymbolTableRecord
100
AcDbBlockTableRecord
  2
_FILLED
  0
BLOCK_RECORD
  5
21A
100
AcDbSymbolTableRecord
100
AcDbBlockTableRecord
  2
*D0
  0
BLOCK_RECORD
  5
21B
100
AcDbSymbolTableRecord
100
AcDbBlockTableRecord
  2
*D1
  0
BLOCK_RECORD
  5
21C
100
AcDbSymbolTableRecord
100
AcDbBlockTableRecord
  2
*D2
  0
BLOCK_RECORD
  5
21D
100
AcDbSymbolTableRecord
100
AcDbBlockTableRecord
  2
*D3
  0
BLOCK_RECORD
  5
21E
100
AcDbSymbolTableRecord
100
AcDbBlockTableRecord
  2
*D4
  0
BLOCK_RECORD
  5
21F
100
AcDbSymbolTableRecord
100
AcDbBlockTableRecord
  2
*D5
  0
BLOCK_RECORD
  5
220
100
AcDbSymbolTableRecord
100
AcDbBlockTableRecord
  2
*D6
  0
ENDTAB
  0
TABLE
  2
DIMSTYLE
  5
A
100
AcDbSymbolTable
 70
1
100
AcDbDimStyleTable
 71
0
  0
DIMSTYLE
105
221
100
AcDbSymbolTableRecord
100
AcDbDimStyleTableRecord
  2
STANDARD
 70
0
  3

  4

 40
1.0
 41
3.5
 42
0.0625
 43
0.38
 44
0.18
 45
0.0
 46
0.0
 47
0.005
 48
0.005
140
3.5
141
0.09
142
0.0
143
25.4
144
1.0
145
0.0
146
1.0
147
0.09
 71
1.0
 72
0.0
 73
0
 74
0
 75
0
 76
0
 77
1
 78
8
170
0
171
2
172
0
173
0
174
0
175
0
176
0
177
0
178
5
270
2
271
3
272
3
273
2
274
2
275
0
280
0
281
0
282
0
283
1
284
8
285
0
286
0
287
3
288
0
340
11
341
219
342
219
343
219
344
219
  0
DIMSTYLE
105
222
100
AcDbSymbolTableRecord
100
AcDbDimStyleTableRecord
  2
DIMSTYLE_1
 70
0
  3

  4

 40
1.0
 41
3.5
 42
0.0625
 43
0.38
 44
0.18
 45
0.0
 46
0.0
 47
0.0
 48
0.1
140
3.5
141
0.09
142
0.0
143
25.4
144
1.0
145
0.0
146
1.0
147
0.09
 71
0.0
 72
0.0
 73
0
 74
0
 75
0
 76
0
 77
1
 78
8
170
0
171
2
172
0
173
0
174
0
175
0
176
0
177
0
178
5
270
2
271
2
272
2
273
2
274
2
275
0
280
0
281
0
282
0
283
1
284
8
285
0
286
0
287
3
288
0
340
11
341
219
342
219
343
219
344
219
  0
DIMSTYLE
105
223
100
AcDbSymbolTableRecord
100
AcDbDimStyleTableRecord
  2
DIMSTYLE_2
 70
0
  3

  4

 40
1.0
 41
3.5
 42
0.0625
 43
0.38
 44
0.18
 45
0.0
 46
0.0
 47
0.25
 48
0.25
140
3.5
141
0.09
142
0.0
143
25.4
144
1.0
145
0.0
146
1.0
147
0.09
 71
0.0
 72
0.0
 73
0
 74
0
 75
0
 76
0
 77
1
 78
8
170
0
171
2
172
0
173
0
174
0
175
0
176
0
177
0
178
5
270
2
271
2
272
2
273
2
274
2
275
0
280
0
281
0
282
0
283
1
284
8
285
0
286
0
287
3
288
0
340
11
341
219
342
219
343
219
344
219
  0
DIMSTYLE
105
224
100
AcDbSymbolTableRecord
100
AcDbDimStyleTableRecord
  2
DIMSTYLE_3
 70
0
  3

  4

 40
1.0
 41
3.5
 42
0.0625
 43
0.38
 44
0.18
 45
0.0
 46
0.0
 47
0.3
 48
0.3
140
3.5
141
0.09
142
0.0
143
25.4
144
1.0
145
0.0
146
1.0
147
0.09
 71
0.0
 72
0.0
 73
0
 74
0
 75
0
 76
0
 77
1
 78
8
170
0
171
2
172
0
173
0
174
0
175
0
176
0
177
0
178
5
270
2
271
2
272
2
273
2
274
2
275
0
280
0
281
0
282
0
283
1
284
8
285
0
286
0
287
3
288
0
340
11
341
219
342
219
343
219
344
219
  0
DIMSTYLE
105
225
100
AcDbSymbolTableRecord
100
AcDbDimStyleTableRecord
  2
DIMSTYLE_4
 70
0
  3

  4

 40
1.0
 41
3.5
 42
0.0625
 43
0.38
 44
0.18
 45
0.0
 46
0.0
 47
-0.025
 48
0.03
140
3.5
141
0.09
142
0.0
143
25.4
144
1.0
145
0.0
146
1.0
147
0.09
 71
0.0
 72
0.0
 73
0
 74
0
 75
0
 76
0
 77
1
 78
8
170
0
171
2
172
0
173
0
174
0
175
0
176
0
177
0
178
5
270
2
271
3
272
3
273
2
274
2
275
0
280
0
281
0
282
0
283
1
284
8
285
0
286
0
287
3
288
0
340
11
341
219
342
219
343
219
344
219
  0
DIMSTYLE
105
226
100
AcDbSymbolTableRecord
100
AcDbDimStyleTableRecord
  2
DIMSTYLE_5
 70
0
  3

  4

 40
1.0
 41
3.5
 42
0.0625
 43
0.38
 44
0.18
 45
0.0
 46
0.0
 47
0.5
 48
0.5
140
3.5
141
0.09
142
0.0
143
25.4
144
1.0
145
0.0
146
1.0
147
0.09
 71
0.0
 72
0.0
 73
0
 74
0
 75
0
 76
0
 77
1
 78
8
170
0
171
2
172
0
173
0
174
0
175
0
176
0
177
0
178
5
270
2
271
2
272
2
273
2
274
2
275
0
280
0
281
0
282
0
283
1
284
8
285
0
286
0
287
3
288
0
340
11
341
219
342
219
343
219
344
219
  0
ENDTAB
  0
ENDSEC
  0
SECTION
  2
BLOCKS
  0
BLOCK
  5
20
100
AcDbEntity
  8
0
100
AcDbBlockBegin
  2
*Model_Space
 70
0
 10
0.0
 20
0.0
 30
0.0
  3
*Model_Space
  1

  0
ENDBLK
  5
21
100
AcDbEntity
  8
0
100
AcDbBlockEnd
  0
BLOCK
  5
1C
100
AcDbEntity
  8
0
100
AcDbBlockBegin
  2
*Paper_Space
 70
0
 10
0.0
 20
0.0
 30
0.0
  3
*Paper_Space
  1

  0
ENDBLK
  5
1D
100
AcDbEntity
  8
0
100
AcDbBlockEnd
  0
BLOCK
  5
227
100
AcDbEntity
  8
0
100
AcDbBlockBegin
  2
_FILLED
 70
64
 10
0.0
 20
0.0
  3
_FILLED
  1

  0
SOLID
  5
228
100
AcDbEntity
  8
0
  6
BYBLOCK
 62
0
100
AcDbTrace
 10
0.0
 20
0.0
 11
-1.0
 21
0.125
 12
-1.0
 22
-0.125
 13
-1.0
 23
-0.125
  0
ENDBLK
  5
229
100
AcDbEntity
  8
0
  6
BYBLOCK
 62
0
100
AcDbBlockEnd
  0
BLOCK
  5
22A
100
AcDbEntity
  8
0
100
AcDbBlockBegin
 62
2
  6
CONTINUOUS
  2
*D0
 70
65
 10
0.0
 20
0.0
  3
*D0
  1

  0
MTEXT
  5
22B
100
AcDbEntity
  8
0
100
AcDbMText
 62
5
  6
CONTINUOUS
  7
TEXTSTYLE_2
 71
2
 72
1
 10
215.386520125
 20
132.8074991737
 30
0.0
 11
0.0
 21
1.0
 31
0.0
 44
0.9
  1
{\Fgdt;n}\Ftxt;27
 40
3.5
 41
10.1666666667
  0
LINE
  5
22C
100
AcDbEntity
  8
0
100
AcDbLine
 62
2
  6
CONTINUOUS
 10
195.9773606714
 20
146.2824991737
 11
221.261520125
 21
146.2824991737
  0
LINE
  5
22D
100
AcDbEntity
  8
0
100
AcDbLine
 62
2
  6
CONTINUOUS
 10
193.7722297297
 20
119.3324991737
 11
221.261520125
 21
119.3324991737
  0
LINE
  5
22E
100
AcDbEntity
  8
0
100
AcDbLine
 62
2
  6
CONTINUOUS
 10
219.761520125
 20
146.2824991737
 11
219.761520125
 21
132.8074991737
  0
LINE
  5
22F
100
AcDbEntity
  8
0
100
AcDbLine
 62
2
  6
CONTINUOUS
 10
219.761520125
 20
119.3324991737
 11
219.761520125
 21
132.8074991737
  0
INSERT
  5
230
100
AcDbEntity
  8
0
100
AcDbBlockReference
 62
2
  6
CONTINUOUS
  2
_FILLED
 10
219.761520125
 20
146.2824991737
 41
3.5
 42
3.5
 43
3.5
 50
90.0
  0
INSERT
  5
231
100
AcDbEntity
  8
0
100
AcDbBlockReference
 62
2
  6
CONTINUOUS
  2
_FILLED
 10
219.761520125
 20
119.3324991737
 41
3.5
 42
3.5
 43
3.5
 50
270.0
  0
ENDBLK
  5
232
100
AcDbEntity
  8
0
  6
BYBLOCK
 62
0
100
AcDbBlockEnd
  0
BLOCK
  5
233
100
AcDbEntity
  8
0
100
AcDbBlockBegin
 62
2
  6
CONTINUOUS
  2
*D1
 70
65
 10
0.0
 20
0.0
  3
*D1
  1

  0
MTEXT
  5
234
100
AcDbEntity
  8
0
100
AcDbMText
 62
5
  6
CONTINUOUS
  7
STANDARD
 71
2
 72
1
 10
170.0821688117
 20
103.2690540924
 30
0.0
 11
0.4911523124
 21
0.8710737087
 31
0.0
 44
0.9
  1
4\Fgdt;{\Fgdt;~}\Ftxt;30'
 40
3.5
 41
12.3333333333
  0
LINE
  5
235
100
AcDbEntity
  8
0
100
AcDbLine
 62
2
  6
CONTINUOUS
 10
177.3011999311
 20
118.1542535756
 11
181.7749868714
 21
118.5063482438
  0
LINE
  5
236
100
AcDbEntity
  8
0
100
AcDbLine
 62
2
  6
CONTINUOUS
 10
149.3005131531
 20
115.8324991737
 11
181.8800426875
 21
115.8324991737
  0
ARC
  5
237
100
AcDbEntity
  8
0
100
AcDbCircle
 62
2
  6
CONTINUOUS
 10
147.8005131531
 20
115.8324991737
 40
32.5795295344
100
AcDbArc
 50
4.5
 51
15.0518613065
  0
ARC
  5
238
100
AcDbEntity
  8
0
100
AcDbCircle
 62
2
  6
CONTINUOUS
 10
147.8005131531
 20
115.8324991737
 40
32.5795295344
100
AcDbArc
 50
330.583652101
 51
0.0
  0
ARC
  5
239
100
AcDbEntity
  8
0
100
AcDbCircle
 62
2
  6
CONTINUOUS
 10
147.8005131531
 20
115.8324991737
 40
32.5795295344
100
AcDbArc
 50
360.0
 51
4.5
  0
SOLID
  5
23A
100
AcDbEntity
  8
0
100
AcDbTrace
 62
2
  6
CONTINUOUS
 10
179.3843889101
 20
121.8004016613
 11
180.2796108708
 21
118.3886596002
 12
180.2517476317
 22
121.9157873113
 13
180.2517476317
 23
121.9157873113
  0
SOLID
  5
23B
100
AcDbEntity
  8
0
100
AcDbTrace
 62
2
  6
CONTINUOUS
 10
180.6290005921
 20
112.3140582958
 11
180.3800426875
 21
115.8324991737
 12
179.7552625943
 22
112.3610360693
 13
179.7552625943
 23
112.3610360693
  0
ENDBLK
  5
23C
100
AcDbEntity
  8
0
  6
BYBLOCK
 62
0
100
AcDbBlockEnd
  0
BLOCK
  5
23D
100
AcDbEntity
  8
0
100
AcDbBlockBegin
 62
2
  6
CONTINUOUS
  2
*D2
 70
65
 10
0.0
 20
0.0
  3
*D2
  1

  0
MTEXT
  5
23E
100
AcDbEntity
  8
0
100
AcDbMText
 62
5
  6
CONTINUOUS
  7
STANDARD
 71
2
 72
1
 10
149.7722297297
 20
182.6012370135
 30
0.0
 11
1.0
 21
0.0
 31
0.0
 44
0.9
  1
85
 40
3.5
 41
5.25
  0
LINE
  5
23F
100
AcDbEntity
  8
0
100
AcDbLine
 62
2
  6
CONTINUOUS
 10
107.2722297297
 20
157.2736738825
 11
107.2722297297
 21
179.7262370135
  0
LINE
  5
240
100
AcDbEntity
  8
0
100
AcDbLine
 62
2
  6
CONTINUOUS
 10
192.2722297297
 20
140.6080738825
 11
192.2722297297
 21
179.7262370135
  0
LINE
  5
241
100
AcDbEntity
  8
0
100
AcDbLine
 62
2
  6
CONTINUOUS
 10
107.2722297297
 20
178.2262370135
 11
149.7722297297
 21
178.2262370135
  0
LINE
  5
242
100
AcDbEntity
  8
0
100
AcDbLine
 62
2
  6
CONTINUOUS
 10
192.2722297297
 20
178.2262370135
 11
149.7722297297
 21
178.2262370135
  0
INSERT
  5
243
100
AcDbEntity
  8
0
100
AcDbBlockReference
 62
2
  6
CONTINUOUS
  2
_FILLED
 10
107.2722297297
 20
178.2262370135
 41
3.5
 42
3.5
 43
3.5
 50
180.0
  0
INSERT
  5
244
100
AcDbEntity
  8
0
100
AcDbBlockReference
 62
2
  6
CONTINUOUS
  2
_FILLED
 10
192.2722297297
 20
178.2262370135
 41
3.5
 42
3.5
 43
3.5
  0
ENDBLK
  5
245
100
AcDbEntity
  8
0
  6
BYBLOCK
 62
0
100
AcDbBlockEnd
  0
BLOCK
  5
246
100
AcDbEntity
  8
0
100
AcDbBlockBegin
 62
2
  6
CONTINUOUS
  2
*D3
 70
65
 10
0.0
 20
0.0
  3
*D3
  1

  0
MTEXT
  5
247
100
AcDbEntity
  8
0
100
AcDbMText
 62
5
  6
CONTINUOUS
  7
TEXTSTYLE_2
 71
2
 72
1
 10
207.0757943531
 20
132.8074991737
 30
0.0
 11
0.0
 21
1.0
 31
0.0
 44
0.9
  1
{\Fgdt;n}\Ftxt;14
 40
3.5
 41
9.4166666667
  0
LINE
  5
248
100
AcDbEntity
  8
0
100
AcDbLine
 62
2
  6
CONTINUOUS
 10
176.5359338312
 20
125.8212491737
 11
212.9507943531
 21
125.8212491737
  0
LINE
  5
249
100
AcDbEntity
  8
0
100
AcDbLine
 62
2
  6
CONTINUOUS
 10
176.3925738312
 20
139.7937491737
 11
212.9507943531
 21
139.7937491737
  0
LINE
  5
24A
100
AcDbEntity
  8
0
100
AcDbLine
 62
2
  6
CONTINUOUS
 10
211.4507943531
 20
125.8212491737
 11
211.4507943531
 21
132.8074991737
  0
LINE
  5
24B
100
AcDbEntity
  8
0
100
AcDbLine
 62
2
  6
CONTINUOUS
 10
211.4507943531
 20
139.7937491737
 11
211.4507943531
 21
132.8074991737
  0
INSERT
  5
24C
100
AcDbEntity
  8
0
100
AcDbBlockReference
 62
2
  6
CONTINUOUS
  2
_FILLED
 10
211.4507943531
 20
125.8212491737
 41
3.5
 42
3.5
 43
3.5
 50
270.0
  0
INSERT
  5
24D
100
AcDbEntity
  8
0
100
AcDbBlockReference
 62
2
  6
CONTINUOUS
  2
_FILLED
 10
211.4507943531
 20
139.7937491737
 41
3.5
 42
3.5
 43
3.5
 50
90.0
  0
ENDBLK
  5
24E
100
AcDbEntity
  8
0
  6
BYBLOCK
 62
0
100
AcDbBlockEnd
  0
BLOCK
  5
24F
100
AcDbEntity
  8
0
100
AcDbBlockBegin
 62
2
  6
CONTINUOUS
  2
*D4
 70
65
 10
0.0
 20
0.0
  3
*D4
  1

  0
MTEXT
  5
250
100
AcDbEntity
  8
0
100
AcDbMText
 62
5
  6
CONTINUOUS
  7
STANDARD
 71
2
 72
1
 10
160.7722297297
 20
175.3161576242
 30
0.0
 11
1.0
 21
0.0
 31
0.0
 44
0.9
  1
63
 40
3.5
 41
5.25
  0
LINE
  5
251
100
AcDbEntity
  8
0
100
AcDbLine
 62
2
  6
CONTINUOUS
 10
192.2722297297
 20
120.8324991737
 11
192.2722297297
 21
172.4411576242
  0
LINE
  5
252
100
AcDbEntity
  8
0
100
AcDbLine
 62
2
  6
CONTINUOUS
 10
129.2722297297
 20
155.6608738825
 11
129.2722297297
 21
172.4411576242
  0
LINE
  5
253
100
AcDbEntity
  8
0
100
AcDbLine
 62
2
  6
CONTINUOUS
 10
192.2722297297
 20
170.9411576242
 11
160.7722297297
 21
170.9411576242
  0
LINE
  5
254
100
AcDbEntity
  8
0
100
AcDbLine
 62
2
  6
CONTINUOUS
 10
129.2722297297
 20
170.9411576242
 11
160.7722297297
 21
170.9411576242
  0
INSERT
  5
255
100
AcDbEntity
  8
0
100
AcDbBlockReference
 62
2
  6
CONTINUOUS
  2
_FILLED
 10
192.2722297297
 20
170.9411576242
 41
3.5
 42
3.5
 43
3.5
  0
INSERT
  5
256
100
AcDbEntity
  8
0
100
AcDbBlockReference
 62
2
  6
CONTINUOUS
  2
_FILLED
 10
129.2722297297
 20
170.9411576242
 41
3.5
 42
3.5
 43
3.5
 50
180.0
  0
ENDBLK
  5
257
100
AcDbEntity
  8
0
  6
BYBLOCK
 62
0
100
AcDbBlockEnd
  0
BLOCK
  5
258
100
AcDbEntity
  8
0
100
AcDbBlockBegin
 62
2
  6
CONTINUOUS
  2
*D5
 70
65
 10
0.0
 20
0.0
  3
*D5
  1

  0
MTEXT
  5
259
100
AcDbEntity
  8
0
100
AcDbMText
 62
5
  6
CONTINUOUS
  7
STANDARD
 71
2
 72
1
 10
130.7722297297
 20
191.8230183043
 30
0.0
 11
1.0
 21
0.0
 31
0.0
 44
0.9
  1
123
 40
3.5
 41
7.25
  0
LINE
  5
25A
100
AcDbEntity
  8
0
100
AcDbLine
 62
2
  6
CONTINUOUS
 10
192.2722297297
 20
120.8324991737
 11
192.2722297297
 21
188.9480183043
  0
LINE
  5
25B
100
AcDbEntity
  8
0
100
AcDbLine
 62
2
  6
CONTINUOUS
 10
69.2722297297
 20
114.1213834044
 11
69.2722297297
 21
188.9480183043
  0
LINE
  5
25C
100
AcDbEntity
  8
0
100
AcDbLine
 62
2
  6
CONTINUOUS
 10
192.2722297297
 20
187.4480183043
 11
130.7722297297
 21
187.4480183043
  0
LINE
  5
25D
100
AcDbEntity
  8
0
100
AcDbLine
 62
2
  6
CONTINUOUS
 10
69.2722297297
 20
187.4480183043
 11
130.7722297297
 21
187.4480183043
  0
INSERT
  5
25E
100
AcDbEntity
  8
0
100
AcDbBlockReference
 62
2
  6
CONTINUOUS
  2
_FILLED
 10
192.2722297297
 20
187.4480183043
 41
3.5
 42
3.5
 43
3.5
  0
INSERT
  5
25F
100
AcDbEntity
  8
0
100
AcDbBlockReference
 62
2
  6
CONTINUOUS
  2
_FILLED
 10
69.2722297297
 20
187.4480183043
 41
3.5
 42
3.5
 43
3.5
 50
180.0
  0
ENDBLK
  5
260
100
AcDbEntity
  8
0
  6
BYBLOCK
 62
0
100
AcDbBlockEnd
  0
BLOCK
  5
261
100
AcDbEntity
  8
0
100
AcDbBlockBegin
 62
2
  6
CONTINUOUS
  2
*D6
 70
65
 10
0.0
 20
0.0
  3
*D6
  1

  0
MTEXT
  5
262
100
AcDbEntity
  8
0
100
AcDbMText
 62
5
  6
CONTINUOUS
  7
TEXTSTYLE_2
 71
2
 72
1
 10
223.0687794534
 20
132.8074991737
 30
0.0
 11
0.0
 21
1.0
 31
0.0
 44
0.9
  1
{\Fgdt;n}\Ftxt;34
 40
3.5
 41
9.9166666667
  0
LINE
  5
263
100
AcDbEntity
  8
0
100
AcDbLine
 62
2
  6
CONTINUOUS
 10
149.3005131531
 20
149.7824991737
 11
184.4704307502
 21
149.7824991737
  0
LINE
  5
264
100
AcDbEntity
  8
0
100
AcDbLine
 62
2
  6
CONTINUOUS
 10
195.5033383576
 20
149.7824991737
 11
228.9437794534
 21
149.7824991737
  0
LINE
  5
265
100
AcDbEntity
  8
0
100
AcDbLine
 62
2
  6
CONTINUOUS
 10
149.3005131531
 20
115.8324991737
 11
228.9437794534
 21
115.8324991737
  0
LINE
  5
266
100
AcDbEntity
  8
0
100
AcDbLine
 62
2
  6
CONTINUOUS
 10
227.4437794534
 20
149.7824991737
 11
227.4437794534
 21
132.8074991737
  0
LINE
  5
267
100
AcDbEntity
  8
0
100
AcDbLine
 62
2
  6
CONTINUOUS
 10
227.4437794534
 20
115.8324991737
 11
227.4437794534
 21
132.8074991737
  0
INSERT
  5
268
100
AcDbEntity
  8
0
100
AcDbBlockReference
 62
2
  6
CONTINUOUS
  2
_FILLED
 10
227.4437794534
 20
149.7824991737
 41
3.5
 42
3.5
 43
3.5
 50
90.0
  0
INSERT
  5
269
100
AcDbEntity
  8
0
100
AcDbBlockReference
 62
2
  6
CONTINUOUS
  2
_FILLED
 10
227.4437794534
 20
115.8324991737
 41
3.5
 42
3.5
 43
3.5
 50
270.0
  0
ENDBLK
  5
26A
100
AcDbEntity
  8
0
  6
BYBLOCK
 62
0
100
AcDbBlockEnd
  0
ENDSEC
  0
SECTION
  2
ENTITIES
  0
DIMENSION
  5
26B
100
AcDbEntity
  8
0
100
AcDbDimension
 62
2
  6
CONTINUOUS
  2
*D0
 10
219.761520125
 20
119.3324991737
 11
218.2753738994
 21
130.5352576537
 70
160
 71
2
 42
26.95
  1
%%c<>
  3
DIMSTYLE_1
100
AcDbAlignedDimension
 13
195.9773606714
 23
146.2824991737
 14
193.7722297297
 24
119.3324991737
 50
270.0
100
AcDbRotatedDimension
  0
DIMENSION
  5
26C
100
AcDbEntity
  8
0
100
AcDbDimension
 62
2
  6
CONTINUOUS
  2
*D1
 10
181.8800426875
 20
115.8324991737
 11
173.1734798782
 21
104.3575426453
 70
162
 71
2
 42
0.0785398163
  3
DIMSTYLE_2
100
AcDb2LineAngularDimension
 13
181.7749868714
 23
118.5063482438
 14
177.3011999311
 24
118.1542535756
 15
149.3005131531
 25
115.8324991737
 16
180.3549250509
 26
117.1115655008
  0
DIMENSION
  5
26D
100
AcDbEntity
  8
0
100
AcDbDimension
 62
2
  6
CONTINUOUS
  2
*D2
 10
192.2722297297
 20
178.2262370135
 11
147.1472297297
 21
180.8512370135
 70
160
 71
2
 42
85.0
  3
DIMSTYLE_3
100
AcDbAlignedDimension
 13
107.2722297297
 23
157.2736738825
 14
192.2722297297
 24
140.6080738825
100
AcDbRotatedDimension
  0
DIMENSION
  5
26E
100
AcDbEntity
  8
0
100
AcDbDimension
 62
2
  6
CONTINUOUS
  2
*D3
 10
211.4507943531
 20
139.7937491737
 11
209.8806343244
 21
130.7028820282
 70
160
 71
2
 42
13.9725
  1
%%c<>
  3
DIMSTYLE_4
100
AcDbAlignedDimension
 13
176.5359338312
 23
125.8212491737
 14
176.3925738312
 24
139.7937491737
 50
90.0
100
AcDbRotatedDimension
  0
DIMENSION
  5
26F
100
AcDbEntity
  8
0
100
AcDbDimension
 62
2
  6
CONTINUOUS
  2
*D4
 10
129.2722297297
 20
170.9411576242
 11
158.1472297297
 21
173.5661576242
 70
160
 71
2
 42
63.0
  3
DIMSTYLE_3
100
AcDbAlignedDimension
 13
192.2722297297
 23
120.8324991737
 14
129.2722297297
 24
155.6608738825
 50
180.0
100
AcDbRotatedDimension
  0
DIMENSION
  5
270
100
AcDbEntity
  8
0
100
AcDbDimension
 62
2
  6
CONTINUOUS
  2
*D5
 10
69.2722297297
 20
187.4480183043
 11
127.1472297297
 21
190.0730183043
 70
160
 71
2
 42
123.0
  3
DIMSTYLE_5
100
AcDbAlignedDimension
 13
192.2722297297
 23
120.8324991737
 14
69.2722297297
 24
114.1213834044
 50
180.0
100
AcDbRotatedDimension
  0
DIMENSION
  5
271
100
AcDbEntity
  8
0
100
AcDbDimension
 62
2
  6
CONTINUOUS
  2
*D6
 10
227.4437794534
 20
115.8324991737
 11
225.9296286268
 21
130.5911324452
 70
160
 71
2
 42
33.95
  1
%%c<>
  3
DIMSTYLE_1
100
AcDbAlignedDimension
 13
149.3005131531
 23
149.7824991737
 14
149.3005131531
 24
115.8324991737
 50
270.0
100
AcDbRotatedDimension
  0
MTEXT
  5
272
100
AcDbEntity
  8
0
100
AcDbMText
 62
5
  6
CONTINUOUS
  7
STANDARD
 71
1
 72
1
 10
39.4656143451
 20
76.8730093555
 30
0.0
 11
1.0
 21
0.0
 31
0.0
 44
0.9
  3
Für diese Unterlage behalten wir das Ur-\Pheberrecht. Sie darf nur für den von uns \Pbestimmten Zweck benutzt und ohne unsere \PZustimmung weder vervielfältigt noch\PDritten zugänglich gemacht werden\P \PWe own the copyright of this document. It \Pde
  1
termined and may neither be copied or \Pmade accessible to outsiders without our\Ppermission.\P \PCe plan reste notre propriété. Il ne peut\Pêtre utilisé, copié ou reproduit sans notre\Paccord.\P 
 40
3.5
 41
104.8333333333
  0
LINE
  5
273
100
AcDbEntity
  8
0
100
AcDbLine
 62
7
  6
CONTINUOUS
 10
0.0
 20
0.0
 11
0.0
 21
210.0
  0
LINE
  5
274
100
AcDbEntity
  8
0
100
AcDbLine
 62
7
  6
CONTINUOUS
 10
0.0
 20
0.0
 11
297.0
 21
0.0
  0
LINE
  5
275
100
AcDbEntity
  8
0
100
AcDbLine
 62
7
  6
CONTINUOUS
 10
0.0
 20
210.0
 11
297.0
 21
210.0
  0
LINE
  5
276
100
AcDbEntity
  8
0
100
AcDbLine
 62
7
  6
CONTINUOUS
 10
297.0
 20
0.0
 11
297.0
 21
210.0
  0
LINE
  5
277
100
AcDbEntity
  8
0
100
AcDbLine
 62
7
  6
CONTINUOUS
 10
69.2722297297
 20
111.1151611808
 11
69.2722297297
 21
147.7687438124
  0
LINE
  5
278
100
AcDbEntity
  8
ACHSEN
100
AcDbLine
 62
7
  6
CONTINUOUS
 10
69.2722297297
 20
147.7687438124
 11
69.2722297297
 21
151.5559784877
  0
LINE
  5
279
100
AcDbEntity
  8
ACHSEN
100
AcDbLine
 62
7
  6
CONTINUOUS
 10
70.7722297297
 20
152.3044887873
 11
70.7722297297
 21
148.5187438124
  0
LINE
  5
27A
100
AcDbEntity
  8
0
100
AcDbLine
 62
7
  6
CONTINUOUS
 10
70.7722297297
 20
148.5187438124
 11
70.7722297297
 21
110.249135777
  0
LINE
  5
27B
100
AcDbEntity
  8
0
100
AcDbLine
 62
7
  6
CONTINUOUS
 10
107.2722315657
 20
164.0074972664
 11
107.5722316556
 21
164.3074973203
  0
LINE
  5
27C
100
AcDbEntity
  8
0
100
AcDbLine
 62
9
  6
CONTINUOUS
 10
70.7722297297
 20
148.5187438124
 11
69.2722297297
 21
147.7687438124
  0
LINE
  5
27D
100
AcDbEntity
  8
0
100
AcDbLine
 62
7
  6
CONTINUOUS
 10
70.7722297297
 20
110.249135777
 11
69.2722297297
 21
111.1151611808
  0
LINE
  5
27E
100
AcDbEntity
  8
ACHSEN
100
AcDbLine
 62
7
  6
CENTER
 10
91.7722297297
 20
109.8740136667
 11
91.7722297297
 21
156.9958697383
  0
LINE
  5
27F
100
AcDbEntity
  8
0
100
AcDbLine
 62
9
  6
CONTINUOUS
 10
70.7722297297
 20
111.8713834044
 11
69.2722297297
 21
112.6213834044
  0
LINE
  5
280
100
AcDbEntity
  8
0
100
AcDbLine
 62
7
  6
CONTINUOUS
 10
107.2722315657
 20
101.6075010811
 11
107.5722316556
 21
101.3075010272
  0
LINE
  5
281
100
AcDbEntity
  8
0
100
AcDbLine
 62
7
  6
CONTINUOUS
 10
129.2722297297
 20
101.3074991737
 11
107.5722298021
 21
101.3074991737
  0
LINE
  5
282
100
AcDbEntity
  8
0
100
AcDbLine
 62
7
  6
CONTINUOUS
 10
105.0722928188
 20
153.4275995433
 11
105.0722928188
 21
149.2650299224
  0
LINE
  5
283
100
AcDbEntity
  8
0
100
AcDbLine
 62
7
  6
CONTINUOUS
 10
105.0722928188
 20
138.0323703043
 11
105.0722928188
 21
111.1250972945
  0
LINE
  5
284
100
AcDbEntity
  8
0
100
AcDbLine
 62
9
  6
CONTINUOUS
 10
105.2772528409
 20
153.2326857435
 11
105.2772528409
 21
147.4924413785
  0
LINE
  5
285
100
AcDbEntity
  8
0
100
AcDbLine
 62
9
  6
CONTINUOUS
 10
105.2772528409
 20
140.9934423605
 11
105.2772528409
 21
109.9366137822
  0
LINE
  5
286
100
AcDbEntity
  8
0
100
AcDbLine
 62
9
  6
CONTINUOUS
 10
105.9651229485
 20
110.0646059549
 11
105.9651229485
 21
110.7039425228
  0
LINE
  5
287
100
AcDbEntity
  8
0
100
AcDbLine
 62
9
  6
CONTINUOUS
 10
105.9651229485
 20
139.2220389345
 11
105.9651229485
 21
148.4965160639
  0
LINE
  5
288
100
AcDbEntity
  8
0
100
AcDbLine
 62
9
  6
CONTINUOUS
 10
106.8772528409
 20
153.2728833126
 11
106.8772528409
 21
149.1519774607
  0
LINE
  5
289
100
AcDbEntity
  8
0
100
AcDbLine
 62
9
  6
CONTINUOUS
 10
106.8772528409
 20
137.9904496269
 11
106.8772528409
 21
111.2800704336
  0
LINE
  5
28A
100
AcDbEntity
  8
0
100
AcDbLine
 62
7
  6
CONTINUOUS
 10
107.2722297297
 20
101.6077748433
 11
107.2722297297
 21
164.0072235042
  0
LINE
  5
28B
100
AcDbEntity
  8
0
100
AcDbLine
 62
7
  6
CONTINUOUS
 10
107.5722298033
 20
101.3074991737
 11
107.5722298033
 21
164.3074991737
  0
LINE
  5
28C
100
AcDbEntity
  8
0
100
AcDbLine
 62
7
  6
CONTINUOUS
 10
107.0721648779
 20
149.5970737595
 11
107.0722297297
 21
155.3409840347
  0
LINE
  5
28D
100
AcDbEntity
  8
0
100
AcDbLine
 62
7
  6
CONTINUOUS
 10
107.0721648779
 20
111.3973310823
 11
107.0722297297
 21
137.3958307213
  0
LINE
  5
28E
100
AcDbEntity
  8
0
100
AcDbLine
 62
7
  6
CONTINUOUS
 10
120.7335545951
 20
102.7269064134
 11
117.8109048643
 21
102.7269064134
  0
LINE
  5
28F
100
AcDbEntity
  8
0
100
AcDbLine
 62
9
  6
CONTINUOUS
 10
105.0722928188
 20
111.1250972945
 11
70.7722297297
 21
111.8713834044
  0
LINE
  5
290
100
AcDbEntity
  8
0
100
AcDbLine
 62
7
  6
CONTINUOUS
 10
105.5252584806
 20
109.9307702984
 11
105.2772528409
 21
109.9366137822
  0
LINE
  5
291
100
AcDbEntity
  8
0
100
AcDbLine
 62
7
  6
CONTINUOUS
 10
70.7722297297
 20
110.249135777
 11
105.2826325525
 21
109.3821143379
  0
LINE
  5
292
100
AcDbEntity
  8
0
100
AcDbLine
 62
9
  6
CONTINUOUS
 10
117.3778921624
 20
162.7214540202
 11
117.3778921624
 21
142.6769117927
  0
LINE
  5
293
100
AcDbEntity
  8
0
100
AcDbLine
 62
9
  6
CONTINUOUS
 10
117.3778921624
 20
122.9380865548
 11
117.3778921624
 21
102.8935443273
  0
LINE
  5
294
100
AcDbEntity
  8
0
100
AcDbLine
 62
9
  6
CONTINUOUS
 10
117.8109048643
 20
162.888091934
 11
117.8109048643
 21
142.1567204882
  0
LINE
  5
295
100
AcDbEntity
  8
0
100
AcDbLine
 62
9
  6
CONTINUOUS
 10
117.8109048643
 20
123.4582778592
 11
117.8109048643
 21
102.7269064134
  0
LINE
  5
296
100
AcDbEntity
  8
ACHSEN
100
AcDbLine
 62
7
  6
CENTER
 10
119.2722297297
 20
160.1057779357
 11
119.2722297297
 21
167.3074991737
  0
LINE
  5
297
100
AcDbEntity
  8
0
100
AcDbLine
 62
9
  6
CONTINUOUS
 10
120.7335545951
 20
162.888091934
 11
120.7335545951
 21
142.1567204882
  0
LINE
  5
298
100
AcDbEntity
  8
0
100
AcDbLine
 62
9
  6
CONTINUOUS
 10
120.7335545951
 20
123.4582778592
 11
120.7335545951
 21
102.7269064134
  0
LINE
  5
299
100
AcDbEntity
  8
0
100
AcDbLine
 62
7
  6
CONTINUOUS
 10
141.1882551335
 20
149.5896788507
 11
141.5222297297
 21
149.7824991737
  0
LINE
  5
29A
100
AcDbEntity
  8
RUNDUNGEN
100
AcDbLine
 62
7
  6
CONTINUOUS
 10
141.1882551335
 20
149.5896788507
 11
141.5222297297
 21
149.7824991737
  0
LINE
  5
29B
100
AcDbEntity
  8
RUNDUNGEN
100
AcDbLine
 62
7
  6
CONTINUOUS
 10
191.3506888255
 20
119.2599723316
 11
147.8005131531
 21
115.8324991737
  0
LINE
  5
29C
100
AcDbEntity
  8
0
100
AcDbLine
 62
7
  6
CONTINUOUS
 10
147.8005131531
 20
115.8324991737
 11
191.3506888255
 21
119.2599723316
  0
LINE
  5
29D
100
AcDbEntity
  8
0
100
AcDbLine
 62
7
  6
CONTINUOUS
 10
147.8005131531
 20
115.8324991737
 11
141.5222297297
 21
115.8324991737
  0
LINE
  5
29E
100
AcDbEntity
  8
0
100
AcDbLine
 62
7
  6
CONTINUOUS
 10
133.0222297297
 20
115.8324991737
 11
131.2722297297
 21
115.8324991737
  0
LINE
  5
29F
100
AcDbEntity
  8
0
100
AcDbLine
 62
7
  6
CONTINUOUS
 10
133.7562043259
 20
116.1324991737
 11
134.7722297297
 21
116.1324991737
  0
LINE
  5
2A0
100
AcDbEntity
  8
0
100
AcDbLine
 62
7
  6
CONTINUOUS
 10
139.7722297297
 20
116.1324991737
 11
140.7882551335
 21
116.1324991737
  0
LINE
  5
2A1
100
AcDbEntity
  8
BEZUGSACHSEN
100
AcDbLine
 62
7
  6
CONTINUOUS
 10
139.7722297297
 20
116.1324991737
 11
140.7882551335
 21
116.1324991737
  0
LINE
  5
2A2
100
AcDbEntity
  8
0
100
AcDbLine
 62
9
  6
CONTINUOUS
 10
121.166567297
 20
162.7214540202
 11
121.166567297
 21
142.6769117927
  0
LINE
  5
2A3
100
AcDbEntity
  8
0
100
AcDbLine
 62
9
  6
CONTINUOUS
 10
121.166567297
 20
122.9380865548
 11
121.166567297
 21
102.8935443273
  0
LINE
  5
2A4
100
AcDbEntity
  8
0
100
AcDbLine
 62
7
  6
CONTINUOUS
 10
105.9651229485
 20
110.0646059549
 11
105.2826325523
 21
109.3821155586
  0
LINE
  5
2A5
100
AcDbEntity
  8
0
100
AcDbLine
 62
7
  6
CONTINUOUS
 10
141.1882551335
 20
116.0253194967
 11
141.5222297297
 21
115.8324991737
  0
LINE
  5
2A6
100
AcDbEntity
  8
0
100
AcDbLine
 62
7
  6
CONTINUOUS
 10
129.2722297297
 20
101.3074991737
 11
129.2722297297
 21
164.3074991737
  0
LINE
  5
2A7
100
AcDbEntity
  8
RUNDUNGEN
100
AcDbLine
 62
9
  6
CONTINUOUS
 10
131.2722297297
 20
149.7824991737
 11
131.2722297297
 21
115.8324991737
  0
LINE
  5
2A8
100
AcDbEntity
  8
0
100
AcDbLine
 62
7
  6
CONTINUOUS
 10
120.7335545951
 20
123.4582778592
 11
117.8109048643
 21
123.4582778592
  0
LINE
  5
2A9
100
AcDbEntity
  8
DEFAULT_2
100
AcDbLine
 62
8
  6
HIDDEN
 10
144.8219946133
 20
125.4712491737
 11
154.8870204485
 21
125.4712491737
  0
LINE
  5
2AA
100
AcDbEntity
  8
BOHRUNGEN
100
AcDbLine
 62
8
  6
HIDDEN
 10
156.2722297297
 20
125.8212491737
 11
189.9722297297
 21
125.8212491737
  0
LINE
  5
2AB
100
AcDbEntity
  8
0
100
AcDbLine
 62
7
  6
CONTINUOUS
 10
133.0222297297
 20
149.7824991737
 11
133.0222297297
 21
115.8324991737
  0
LINE
  5
2AC
100
AcDbEntity
  8
RUNDUNGEN
100
AcDbLine
 62
9
  6
CONTINUOUS
 10
133.3562043259
 20
116.0253194967
 11
133.3562043259
 21
149.5896788507
  0
LINE
  5
2AD
100
AcDbEntity
  8
RUNDUNGEN
100
AcDbLine
 62
9
  6
CONTINUOUS
 10
133.7562043259
 20
116.1324991737
 11
133.7562043259
 21
149.4824991737
  0
LINE
  5
2AE
100
AcDbEntity
  8
S_ACHSEN
100
AcDbLine
 62
7
  6
CENTER
 10
66.2722297297
 20
132.8074991737
 11
195.2722297297
 21
132.8074991737
  0
LINE
  5
2AF
100
AcDbEntity
  8
BEZUGSACHSEN
100
AcDbLine
 62
7
  6
CENTER
 10
137.2722297297
 20
152.4824991737
 11
137.2722297297
 21
138.7824991737
  0
LINE
  5
2B0
100
AcDbEntity
  8
BEZUGSACHSEN
100
AcDbLine
 62
7
  6
CENTER
 10
137.2722297297
 20
113.1324991737
 11
137.2722297297
 21
126.8324991737
  0
LINE
  5
2B1
100
AcDbEntity
  8
RUNDUNGEN
100
AcDbLine
 62
9
  6
CONTINUOUS
 10
140.7882551335
 20
116.1324991737
 11
140.7882551335
 21
149.4824991737
  0
LINE
  5
2B2
100
AcDbEntity
  8
RUNDUNGEN
100
AcDbLine
 62
9
  6
CONTINUOUS
 10
141.1882551335
 20
116.0253194967
 11
141.1882551335
 21
149.5896788507
  0
LINE
  5
2B3
100
AcDbEntity
  8
0
100
AcDbLine
 62
7
  6
CONTINUOUS
 10
141.5222297297
 20
149.7824991737
 11
141.5222297297
 21
115.8324991737
  0
LINE
  5
2B4
100
AcDbEntity
  8
0
100
AcDbLine
 62
9
  6
CONTINUOUS
 10
69.2722297297
 20
138.0323703043
 11
105.0722928188
 21
138.0323703043
  0
LINE
  5
2B5
100
AcDbEntity
  8
RUNDUNGEN
100
AcDbLine
 62
9
  6
CONTINUOUS
 10
144.8219946133
 20
125.4712491737
 11
144.8219946133
 21
140.1437491737
  0
LINE
  5
2B6
100
AcDbEntity
  8
0
100
AcDbLine
 62
7
  6
CONTINUOUS
 10
133.0222297297
 20
115.8324991737
 11
133.3562043259
 21
116.0253194967
  0
LINE
  5
2B7
100
AcDbEntity
  8
RUNDUNGEN
100
AcDbLine
 62
7
  6
CONTINUOUS
 10
133.0222297297
 20
115.8324991737
 11
133.3562043259
 21
116.0253194967
  0
LINE
  5
2B8
100
AcDbEntity
  8
0
100
AcDbLine
 62
7
  6
CONTINUOUS
 10
105.2772528409
 20
140.9934423605
 11
105.5252584806
 21
140.9944566164
  0
LINE
  5
2B9
100
AcDbEntity
  8
BOHRUNGEN
100
AcDbLine
 62
8
  6
HIDDEN
 10
156.2722297297
 20
139.7937491737
 11
189.9722297297
 21
139.7937491737
  0
LINE
  5
2BA
100
AcDbEntity
  8
RUNDUNGEN
100
AcDbLine
 62
8
  6
HIDDEN
 10
154.8870204485
 20
140.1437491737
 11
144.8219946133
 21
140.1437491737
  0
LINE
  5
2BB
100
AcDbEntity
  8
DEFAULT_2
100
AcDbLine
 62
8
  6
HIDDEN
 10
144.8219946133
 20
140.1437491737
 11
154.8870204485
 21
140.1437491737
  0
LINE
  5
2BC
100
AcDbEntity
  8
0
100
AcDbLine
 62
7
  6
CONTINUOUS
 10
120.7335545951
 20
142.1567204882
 11
117.8109048643
 21
142.1567204882
  0
LINE
  5
2BD
100
AcDbEntity
  8
0
100
AcDbLine
 62
7
  6
CONTINUOUS
 10
147.8005131531
 20
115.8324991737
 11
147.8005131531
 21
149.7824991737
  0
LINE
  5
2BE
100
AcDbEntity
  8
0
100
AcDbLine
 62
7
  6
CONTINUOUS
 10
105.5252584806
 20
147.4972706064
 11
105.2772528409
 21
147.4924413785
  0
LINE
  5
2BF
100
AcDbEntity
  8
0
100
AcDbLine
 62
7
  6
CONTINUOUS
 10
133.7562043259
 20
149.4824991737
 11
134.7722297297
 21
149.4824991737
  0
LINE
  5
2C0
100
AcDbEntity
  8
BEZUGSACHSEN
100
AcDbLine
 62
7
  6
CONTINUOUS
 10
133.7562043259
 20
149.4824991737
 11
134.7722297297
 21
149.4824991737
  0
LINE
  5
2C1
100
AcDbEntity
  8
0
100
AcDbLine
 62
7
  6
CONTINUOUS
 10
139.7722297297
 20
149.4824991737
 11
140.7882551335
 21
149.4824991737
  0
LINE
  5
2C2
100
AcDbEntity
  8
BEZUGSACHSEN
100
AcDbLine
 62
7
  6
CONTINUOUS
 10
139.7722297297
 20
149.4824991737
 11
140.7882551335
 21
149.4824991737
  0
LINE
  5
2C3
100
AcDbEntity
  8
0
100
AcDbLine
 62
7
  6
CONTINUOUS
 10
133.0222297297
 20
149.7824991737
 11
133.3562043259
 21
149.5896788507
  0
LINE
  5
2C4
100
AcDbEntity
  8
RUNDUNGEN
100
AcDbLine
 62
7
  6
CONTINUOUS
 10
133.0222297297
 20
149.7824991737
 11
133.3562043259
 21
149.5896788507
  0
LINE
  5
2C5
100
AcDbEntity
  8
0
100
AcDbLine
 62
7
  6
CONTINUOUS
 10
105.2772528409
 20
153.2326857435
 11
106.8772528409
 21
153.2728833126
  0
LINE
  5
2C6
100
AcDbEntity
  8
0
100
AcDbLine
 62
7
  6
CONTINUOUS
 10
77.5358344838
 20
152.7357878639
 11
87.3222297297
 21
152.9816561759
  0
LINE
  5
2C7
100
AcDbEntity
  8
0
100
AcDbLine
 62
7
  6
CONTINUOUS
 10
96.451591063
 20
153.2110175091
 11
105.0722928188
 21
153.4275995433
  0
LINE
  5
2C8
100
AcDbEntity
  8
0
100
AcDbLine
 62
9
  6
CONTINUOUS
 10
70.7722297297
 20
148.5187438124
 11
105.0722928188
 21
149.2650299224
  0
LINE
  5
2C9
100
AcDbEntity
  8
0
100
AcDbLine
 62
7
  6
CONTINUOUS
 10
147.8005131531
 20
149.7824991737
 11
141.5222297297
 21
149.7824991737
  0
LINE
  5
2CA
100
AcDbEntity
  8
0
100
AcDbLine
 62
7
  6
CONTINUOUS
 10
133.0222297297
 20
149.7824991737
 11
131.2722297297
 21
149.7824991737
  0
LINE
  5
2CB
100
AcDbEntity
  8
RUNDUNGEN
100
AcDbLine
 62
7
  6
CONTINUOUS
 10
191.3506888255
 20
146.3550260158
 11
147.8005131531
 21
149.7824991737
  0
LINE
  5
2CC
100
AcDbEntity
  8
0
100
AcDbLine
 62
7
  6
CONTINUOUS
 10
147.8005131531
 20
149.7824991737
 11
191.3506888255
 21
146.3550260158
  0
LINE
  5
2CD
100
AcDbEntity
  8
0
100
AcDbLine
 62
7
  6
CONTINUOUS
 10
120.7335545951
 20
162.888091934
 11
117.8109048643
 21
162.888091934
  0
LINE
  5
2CE
100
AcDbEntity
  8
0
100
AcDbLine
 62
7
  6
CONTINUOUS
 10
129.2722297297
 20
164.3074991737
 11
124.4939924061
 21
164.3074991737
  0
LINE
  5
2CF
100
AcDbEntity
  8
0
100
AcDbLine
 62
7
  6
CONTINUOUS
 10
114.0504666161
 20
164.3074991737
 11
107.5722298021
 21
164.3074991737
  0
LINE
  5
2D0
100
AcDbEntity
  8
RUNDUNGEN
100
AcDbLine
 62
9
  6
CONTINUOUS
 10
191.3506888255
 20
119.2599723316
 11
191.3506888255
 21
146.3550260158
  0
LINE
  5
2D1
100
AcDbEntity
  8
RUNDUNGEN
100
AcDbLine
 62
7
  6
CONTINUOUS
 10
192.2722297297
 20
120.2568896654
 11
192.2722297297
 21
145.3581086821
  0
ARC
  5
2D2
100
AcDbEntity
  8
0
100
AcDbCircle
 62
7
  6
CONTINUOUS
 10
-1.4797814662
 20
113.4980103443
 40
110.4813700658
100
AcDbArc
 50
13.4640903998
 51
14.4111621352
  0
ARC
  5
2D3
100
AcDbEntity
  8
0
100
AcDbCircle
 62
7
  6
CONTINUOUS
 10
106.6722297297
 20
109.3574991737
 40
1.0
100
AcDbArc
 50
53.0400606802
 51
135.0
  0
ARC
  5
2D4
100
AcDbEntity
  8
0
100
AcDbCircle
 62
7
  6
CONTINUOUS
 10
106.6722297297
 20
156.2574991737
 40
1.0
100
AcDbArc
 50
293.5781784782
 51
306.9599393198
  0
ARC
  5
2D5
100
AcDbEntity
  8
0
100
AcDbCircle
 62
7
  6
CONTINUOUS
 10
106.8722297297
 20
153.4728202235
 40
0.2
100
AcDbArc
 50
271.439166666
 51
360.0
  0
ARC
  5
2D6
100
AcDbEntity
  8
0
100
AcDbCircle
 62
7
  6
CONTINUOUS
 10
105.2722297297
 20
153.4326226544
 40
0.2
100
AcDbArc
 50
181.439166666
 51
271.439166666
  0
ARC
  5
2D7
100
AcDbEntity
  8
ACHSEN
100
AcDbCircle
 62
7
  6
CONTINUOUS
 10
5.5140127518
 20
281.2034387262
 40
144.4768984249
100
AcDbArc
 50
296.187103939
 51
296.8519184685
  0
ARC
  5
2D8
100
AcDbEntity
  8
FASEN
100
AcDbCircle
 62
7
  6
CONTINUOUS
 10
119.5900351674
 20
197.327741622
 40
33.4818461874
100
AcDbArc
 50
260.7443796899
 51
261.5263706686
  0
ARC
  5
2D9
100
AcDbEntity
  8
FASEN
100
AcDbCircle
 62
7
  6
CONTINUOUS
 10
118.9834255544
 20
197.1261922366
 40
33.278227106
100
AcDbArc
 50
278.4784448517
 51
278.9328129399
  0
ARC
  5
2DA
100
AcDbEntity
  8
FASEN
100
AcDbCircle
 62
7
  6
CONTINUOUS
 10
119.2328721126
 20
195.4021480579
 40
31.5362474667
100
AcDbArc
 50
270.0715058424
 51
278.4920128945
  0
ARC
  5
2DB
100
AcDbEntity
  8
FASEN
100
AcDbCircle
 62
7
  6
CONTINUOUS
 10
119.2850362874
 20
195.0470237146
 40
31.1811011939
100
AcDbArc
 50
261.4631529206
 51
269.9764677418
  0
ARC
  5
2DC
100
AcDbEntity
  8
0
100
AcDbCircle
 62
7
  6
CONTINUOUS
 10
251.5064025036
 20
83.8333013027
 40
159.2595221573
100
AcDbArc
 50
156.0446773748
 51
156.4374589831
  0
ARC
  5
2DD
100
AcDbEntity
  8
BEZUGSACHSEN
100
AcDbCircle
 62
7
  6
CONTINUOUS
 10
137.2405608499
 20
166.3463152701
 40
17.0527898201
100
AcDbArc
 50
271.1982644716
 51
278.5377316062
  0
ARC
  5
2DE
100
AcDbEntity
  8
BEZUGSACHSEN
100
AcDbCircle
 62
7
  6
CONTINUOUS
 10
137.3038974422
 20
99.2687075106
 40
17.0527654843
100
AcDbArc
 50
91.1986846754
 51
98.5377399149
  0
ARC
  5
2DF
100
AcDbEntity
  8
BEZUGSACHSEN
100
AcDbCircle
 62
7
  6
CONTINUOUS
 10
137.2586548281
 20
99.4811351723
 40
16.8400113389
100
AcDbArc
 50
81.415835303
 51
88.846342494
  0
ARC
  5
2E0
100
AcDbEntity
  8
BEZUGSACHSEN
100
AcDbCircle
 62
7
  6
CONTINUOUS
 10
137.285801853
 20
166.1338317929
 40
16.8399798935
100
AcDbArc
 50
261.4158287128
 51
268.8467253685
  0
ARC
  5
2E1
100
AcDbEntity
  8
BEZUGSACHSEN
100
AcDbCircle
 62
7
  6
CONTINUOUS
 10
137.2734553437
 20
99.8353067171
 40
16.4856639106
100
AcDbArc
 50
88.8644473294
 51
91.1341014074
  0
ARC
  5
2E2
100
AcDbEntity
  8
BEZUGSACHSEN
100
AcDbCircle
 62
7
  6
CONTINUOUS
 10
137.271005458
 20
165.7796852726
 40
16.4856575528
100
AcDbArc
 50
268.8648345555
 51
271.1336602412
  0
ARC
  5
2E3
100
AcDbEntity
  8
0
100
AcDbCircle
 62
2
  6
CONTINUOUS
 10
137.2722297297
 20
132.8074991737
 40
3.0
100
AcDbArc
 50
255.0506124543
 51
194.9967235175
  0
CIRCLE
  5
2E4
100
AcDbEntity
  8
BEZUGSACHSEN
100
AcDbCircle
 62
7
  6
CONTINUOUS
 10
137.2722297297
 20
132.8074991737
 40
2.5
  0
ARC
  5
2E5
100
AcDbEntity
  8
RUNDUNGEN
100
AcDbCircle
 62
7
  6
CONTINUOUS
 10
131.2722297297
 20
151.7824991737
 40
2.0
100
AcDbArc
 50
180.0000000011
 51
270.0
  0
ARC
  5
2E6
100
AcDbEntity
  8
RUNDUNGEN
100
AcDbCircle
 62
7
  6
CONTINUOUS
 10
131.2722297297
 20
113.8324991737
 40
2.0
100
AcDbArc
 50
90.0
 51
179.999999997
  0
ARC
  5
2E7
100
AcDbEntity
  8
RUNDUNGEN
100
AcDbCircle
 62
7
  6
CONTINUOUS
 10
191.2722297297
 20
120.2568896654
 40
1.0
100
AcDbArc
 50
274.5000000019
 51
360.0
  0
ARC
  5
2E8
100
AcDbEntity
  8
RUNDUNGEN
100
AcDbCircle
 62
7
  6
CONTINUOUS
 10
191.2722297297
 20
145.3581086821
 40
1.0
100
AcDbArc
 50
0.0
 51
85.4999999981
  0
ARC
  5
2E9
100
AcDbEntity
  8
RUNDUNGEN
100
AcDbCircle
 62
7
  6
CONTINUOUS
 10
140.7882551335
 20
150.2824991737
 40
0.8
100
AcDbArc
 50
270.0
 51
300.0000000016
  0
ARC
  5
2EA
100
AcDbEntity
  8
RUNDUNGEN
100
AcDbCircle
 62
7
  6
CONTINUOUS
 10
140.7882551335
 20
115.3324991737
 40
0.8
100
AcDbArc
 50
59.9999999833
 51
90.0
  0
ARC
  5
2EB
100
AcDbEntity
  8
RUNDUNGEN
100
AcDbCircle
 62
7
  6
CONTINUOUS
 10
133.7562043259
 20
150.2824991737
 40
0.8
100
AcDbArc
 50
239.9999999984
 51
270.0
  0
ARC
  5
2EC
100
AcDbEntity
  8
RUNDUNGEN
100
AcDbCircle
 62
7
  6
CONTINUOUS
 10
133.7562043259
 20
115.3324991737
 40
0.8
100
AcDbArc
 50
90.0
 51
120.0000000164
  0
SPLINE
  5
2ED
100
AcDbEntity
  8
0
100
AcDbSpline
 62
2
  6
CONTINUOUS
 70
0
 71
3
 72
13
 73
9
 74
0
 42
0.0000001
 43
0.0000001
 44
0.0000000001
 40
0.0
 40
0.0
 40
0.0
 40
0.0
 40
0.1666666667
 40
0.3333333333
 40
0.5
 40
0.6666666667
 40
0.8333333333
 40
1.0
 40
1.0
 40
1.0
 40
1.0
 10
140.2722297297
 20
116.1324991737
 30
0.0
 10
140.2722297297
 20
116.1324991737
 30
0.0
 10
140.203668828
 20
116.1450760295
 30
0.0
 10
139.8927376105
 20
116.1980687579
 30
0.0
 10
139.4144627028
 20
116.2683825712
 30
0.0
 10
138.7809807375
 20
116.3401024479
 30
0.0
 10
138.052518453
 20
116.3919153452
 30
0.0
 10
137.532022964
 20
116.4045840365
 30
0.0
 10
137.2722297297
 20
116.4045840365
 30
0.0
  0
SPLINE
  5
2EE
100
AcDbEntity
  8
0
100
AcDbSpline
 62
2
  6
CONTINUOUS
 70
0
 71
3
 72
13
 73
9
 74
0
 42
0.0000001
 43
0.0000001
 44
0.0000000001
 40
0.0
 40
0.0
 40
0.0
 40
0.0
 40
0.1666666667
 40
0.3333333333
 40
0.5
 40
0.6666666667
 40
0.8333333333
 40
1.0
 40
1.0
 40
1.0
 40
1.0
 10
137.2722297297
 20
116.4045840365
 30
0.0
 10
137.012505649
 20
116.4045840365
 30
0.0
 10
136.4921348999
 20
116.3919208594
 30
0.0
 10
135.7638688963
 20
116.3401382348
 30
0.0
 10
135.1302926648
 20
116.2684197473
 30
0.0
 10
134.6522567682
 20
116.1981540835
 30
0.0
 10
134.3407646158
 20
116.1450737054
 30
0.0
 10
134.2722297297
 20
116.1324991737
 30
0.0
 10
134.2722297297
 20
116.1324991737
 30
0.0
  0
SPLINE
  5
2EF
100
AcDbEntity
  8
0
100
AcDbSpline
 62
2
  6
CONTINUOUS
 70
0
 71
3
 72
13
 73
9
 74
0
 42
0.0000001
 43
0.0000001
 44
0.0000000001
 40
0.0
 40
0.0
 40
0.0
 40
0.0
 40
0.1666666667
 40
0.3333333333
 40
0.5
 40
0.6666666667
 40
0.8333333333
 40
1.0
 40
1.0
 40
1.0
 40
1.0
 10
137.2722297297
 20
149.210414311
 30
0.0
 10
137.5322062847
 20
149.210414311
 30
0.0
 10
138.053139744
 20
149.2230865973
 30
0.0
 10
138.7833772981
 20
149.2751111373
 30
0.0
 10
139.4159274204
 20
149.3468098975
 30
0.0
 10
139.8949342481
 20
149.4172758862
 30
0.0
 10
140.2043136611
 20
149.4700446931
 30
0.0
 10
140.2722297297
 20
149.4824991737
 30
0.0
 10
140.2722297297
 20
149.4824991737
 30
0.0
  0
SPLINE
  5
2F0
100
AcDbEntity
  8
0
100
AcDbSpline
 62
2
  6
CONTINUOUS
 70
0
 71
3
 72
13
 73
9
 74
0
 42
0.0000001
 43
0.0000001
 44
0.0000000001
 40
0.0
 40
0.0
 40
0.0
 40
0.0
 40
0.1666666667
 40
0.3333333333
 40
0.5
 40
0.6666666667
 40
0.8333333333
 40
1.0
 40
1.0
 40
1.0
 40
1.0
 10
134.2722297297
 20
149.4824991737
 30
0.0
 10
134.2722297297
 20
149.4824991737
 30
0.0
 10
134.3401838272
 20
149.4700402451
 30
0.0
 10
134.6490126325
 20
149.4173574659
 30
0.0
 10
135.1282974818
 20
149.3468390686
 30
0.0
 10
135.7607359386
 20
149.2751430287
 30
0.0
 10
136.4911758745
 20
149.2230899091
 30
0.0
 10
137.0122033782
 20
149.210414311
 30
0.0
 10
137.2722297297
 20
149.210414311
 30
0.0
  0
LINE
  5
2F1
100
AcDbEntity
  8
FASEN
100
AcDbLine
 62
7
  6
CONTINUOUS
 10
114.2048357123
 20
164.2818091803
 11
114.0862553112
 21
164.3013852991
  0
LINE
  5
2F2
100
AcDbEntity
  8
FASEN
100
AcDbLine
 62
7
  6
CONTINUOUS
 10
114.0862553112
 20
164.3013852991
 11
114.0497883923
 21
164.3074636125
  0
LINE
  5
2F3
100
AcDbEntity
  8
FASEN
100
AcDbLine
 62
7
  6
CONTINUOUS
 10
124.4582004912
 20
164.3013847008
 11
124.4946709807
 21
164.3074636099
  0
LINE
  5
2F4
100
AcDbEntity
  8
ACHSEN
100
AcDbLine
 62
7
  6
CONTINUOUS
 10
75.6222297297
 20
152.4115504724
 11
70.7722297297
 21
152.3044887873
  0
LINE
  5
2F5
100
AcDbEntity
  8
ACHSEN
100
AcDbLine
 62
7
  6
CONTINUOUS
 10
77.5358490777
 20
152.7340512496
 11
77.5508000157
 21
152.736156979
  0
SPLINE
  5
2F6
100
AcDbEntity
  8
ACHSEN
100
AcDbSpline
 62
7
  6
CONTINUOUS
 70
0
 71
3
 72
10
 73
6
 74
0
 42
0.0000001
 43
0.0000001
 44
0.0000000001
 40
0.0
 40
0.0
 40
0.0
 40
0.0
 40
0.0929965444
 40
0.3287693884
 40
1.0
 40
1.0
 40
1.0
 40
1.0
 10
77.5508000153
 20
152.7361569789
 30
0.0
 10
77.4906984404
 20
152.7281734816
 30
0.0
 10
77.27864601
 20
152.6968568141
 30
0.0
 10
76.6339484977
 20
152.5999093124
 30
0.0
 10
76.0516472505
 20
152.4958390191
 30
0.0
 10
75.6222297297
 20
152.4115504724
 30
0.0
  0
SPLINE
  5
2F7
100
AcDbEntity
  8
ACHSEN
100
AcDbSpline
 62
7
  6
CONTINUOUS
 70
0
 71
3
 72
11
 73
7
 74
0
 42
0.0000001
 43
0.0000001
 44
0.0000000001
 40
0.0
 40
0.0
 40
0.0
 40
0.0
 40
0.1537099379
 40
0.500508937
 40
0.8472910559
 40
1.0
 40
1.0
 40
1.0
 40
1.0
 10
96.451591063
 20
153.2110175091
 30
0.0
 10
95.9880057938
 20
153.1397405544
 30
0.0
 10
94.4737734797
 20
152.935682782
 30
0.0
 10
91.8909990522
 20
152.7501737501
 30
0.0
 10
89.3049530222
 20
152.8031209688
 30
0.0
 10
87.7856638395
 20
152.9328874616
 30
0.0
 10
87.3222297297
 20
152.9816561759
 30
0.0
  0
SPLINE
  5
2F8
100
AcDbEntity
  8
FASEN
100
AcDbSpline
 62
7
  6
CONTINUOUS
 70
0
 71
3
 72
14
 73
10
 74
0
 42
0.0000001
 43
0.0000001
 44
0.0000000001
 40
0.0
 40
0.0
 40
0.0
 40
0.0
 40
0.0157903393
 40
0.0631409109
 40
0.1420484115
 40
0.252363788
 40
0.3937112849
 40
0.5656959862
 40
1.0
 40
1.0
 40
1.0
 40
1.0
 10
124.4946709801
 20
164.3074636102
 30
0.0
 10
124.4928561263
 20
164.3077278897
 30
0.0
 10
124.4856359463
 20
164.3051479099
 30
0.0
 10
124.4693483351
 20
164.3037657981
 30
0.0
 10
124.4422526694
 20
164.2984909756
 30
0.0
 10
124.4043739613
 20
164.292531575
 30
0.0
 10
124.3558233658
 20
164.2844105352
 30
0.0
 10
124.2701145506
 20
164.2705261309
 30
0.0
 10
124.2005724054
 20
164.2594233171
 30
0.0
 10
124.1507408519
 20
164.2515933503
 30
0.0
  0
SPLINE
  5
2F9
100
AcDbEntity
  8
0
100
AcDbSpline
 62
7
  6
CONTINUOUS
 70
0
 71
3
 72
13
 73
9
 74
0
 42
0.0000001
 43
0.0000001
 44
0.0000000001
 40
0.0
 40
0.0
 40
0.0
 40
0.0
 40
0.1753307868
 40
0.3422637982
 40
0.4768046258
 40
0.5947351366
 40
0.8062611466
 40
1.0
 40
1.0
 40
1.0
 40
1.0
 10
106.8772528409
 20
111.2800704336
 30
0.0
 10
106.8133400959
 20
111.3070105953
 30
0.0
 10
106.6755630526
 20
111.3357485813
 30
0.0
 10
106.4879160544
 20
111.2869697633
 30
0.0
 10
106.3463313707
 20
111.1981278604
 30
0.0
 10
106.209866148
 20
111.0745252485
 30
0.0
 10
106.0814474614
 20
110.9106486424
 30
0.0
 10
106.0004074644
 20
110.7719776501
 30
0.0
 10
105.9651229485
 20
110.7039425228
 30
0.0
  0
SPLINE
  5
2FA
100
AcDbEntity
  8
0
100
AcDbSpline
 62
7
  6
CONTINUOUS
 70
0
 71
3
 72
13
 73
9
 74
0
 42
0.0000001
 43
0.0000001
 44
0.0000000001
 40
0.0
 40
0.0
 40
0.0
 40
0.0
 40
0.286526882
 40
0.4543474408
 40
0.5599589325
 40
0.648267425
 40
0.8182504149
 40
1.0
 40
1.0
 40
1.0
 40
1.0
 10
106.8772528409
 20
111.2800704336
 30
0.0
 10
106.9026391248
 20
111.2693697417
 30
0.0
 10
106.9453643341
 20
111.2565708192
 30
0.0
 10
107.0005542274
 20
111.2607746856
 30
0.0
 10
107.0317392881
 20
111.2780607614
 30
0.0
 10
107.0548015928
 20
111.305072402
 30
0.0
 10
107.0690403844
 20
111.3460509889
 30
0.0
 10
107.0718200584
 20
111.3798679352
 30
0.0
 10
107.072143523
 20
111.3973400485
 30
0.0
  0
SPLINE
  5
2FB
100
AcDbEntity
  8
0
100
AcDbSpline
 62
7
  6
CONTINUOUS
 70
0
 71
3
 72
17
 73
13
 74
0
 42
0.0000001
 43
0.0000001
 44
0.0000000001
 40
0.0
 40
0.0
 40
0.0
 40
0.0
 40
0.125135549
 40
0.2502986125
 40
0.3754807531
 40
0.5006727147
 40
0.6258456077
 40
0.6884746641
 40
0.7511065344
 40
0.8746656069
 40
0.9373062378
 40
1.0
 40
1.0
 40
1.0
 40
1.0
 10
105.9651229485
 20
139.2220389345
 30
0.0
 10
105.9821912922
 20
139.1507126259
 30
0.0
 10
106.0184578541
 20
139.0085389443
 30
0.0
 10
106.0805043276
 20
138.7973454344
 30
0.0
 10
106.1520854868
 20
138.5891077446
 30
0.0
 10
106.2364255417
 20
138.3856051365
 30
0.0
 10
106.3215948954
 20
138.2227222416
 30
0.0
 10
106.4052493017
 20
138.1014106939
 30
0.0
 10
106.5000844221
 20
137.9920835415
 30
0.0
 10
106.6346928042
 20
137.9060074028
 30
0.0
 10
106.7852198359
 20
137.9276002911
 30
0.0
 10
106.8485276551
 20
137.9675372455
 30
0.0
 10
106.8772528409
 20
137.9904496269
 30
0.0
  0
SPLINE
  5
2FC
100
AcDbEntity
  8
0
100
AcDbSpline
 62
7
  6
CONTINUOUS
 70
0
 71
3
 72
13
 73
9
 74
0
 42
0.0000001
 43
0.0000001
 44
0.0000000001
 40
0.0
 40
0.0
 40
0.0
 40
0.0
 40
0.1670510693
 40
0.3289369806
 40
0.4609641718
 40
0.578209763
 40
0.7939442568
 40
1.0
 40
1.0
 40
1.0
 40
1.0
 10
106.8772528409
 20
149.1519774607
 30
0.0
 10
106.8128193901
 20
149.1762125657
 30
0.0
 10
106.6736183972
 20
149.1981469081
 30
0.0
 10
106.4870104088
 20
149.1416707359
 30
0.0
 10
106.3455493707
 20
149.0461072813
 30
0.0
 10
106.2080207734
 20
148.9117398123
 30
0.0
 10
106.0786010688
 20
148.7293675536
 30
0.0
 10
105.9996011022
 20
148.5741153125
 30
0.0
 10
105.9651229485
 20
148.4965160639
 30
0.0
  0
SPLINE
  5
2FD
100
AcDbEntity
  8
0
100
AcDbSpline
 62
7
  6
CONTINUOUS
 70
0
 71
3
 72
16
 73
12
 74
0
 42
0.0000001
 43
0.0000001
 44
0.0000000001
 40
0.0
 40
0.0
 40
0.0
 40
0.0
 40
0.0735401093
 40
0.1545841369
 40
0.2292313659
 40
0.2978973002
 40
0.4259913051
 40
0.5473045002
 40
0.6644420892
 40
0.7785599955
 40
1.0
 40
1.0
 40
1.0
 40
1.0
 10
106.8772528409
 20
149.1519774607
 30
0.0
 10
106.8897046596
 20
149.1472940062
 30
0.0
 10
106.9188549003
 20
149.1432134973
 30
0.0
 10
106.9583244539
 20
149.1614555073
 30
0.0
 10
106.98588592
 20
149.1918588589
 30
0.0
 10
107.0117818328
 20
149.2337362913
 30
0.0
 10
107.0328616187
 20
149.2876682268
 30
0.0
 10
107.0493904602
 20
149.3519391178
 30
0.0
 10
107.0602064072
 20
149.4148576307
 30
0.0
 10
107.0692945739
 20
149.4962727603
 30
0.0
 10
107.0718004409
 20
149.5570096149
 30
0.0
 10
107.072143523
 20
149.5970668611
 30
0.0
  0
SPLINE
  5
2FE
100
AcDbEntity
  8
0
100
AcDbSpline
 62
7
  6
CONTINUOUS
 70
0
 71
3
 72
17
 73
13
 74
0
 42
0.0000001
 43
0.0000001
 44
0.0000000001
 40
0.0
 40
0.0
 40
0.0
 40
0.0
 40
0.2841775711
 40
0.4146661432
 40
0.5373502072
 40
0.652341305
 40
0.7602377654
 40
0.8121867936
 40
0.8638391814
 40
0.9180398508
 40
0.9497831112
 40
1.0
 40
1.0
 40
1.0
 40
1.0
 10
105.0722928188
 20
111.1250972945
 30
0.0
 10
105.0722928188
 20
111.0055238572
 30
0.0
 10
105.0721500055
 20
110.8310411975
 30
0.0
 10
105.0745300007
 20
110.6049511135
 30
0.0
 10
105.0791495685
 20
110.4500816112
 30
0.0
 10
105.0890771457
 20
110.3049824902
 30
0.0
 10
105.1051914611
 20
110.1902210164
 30
0.0
 10
105.127159863
 20
110.103843923
 30
0.0
 10
105.1504639901
 20
110.0415443042
 30
0.0
 10
105.1805986896
 20
109.9911992825
 30
0.0
 10
105.2216882377
 20
109.9509520171
 30
0.0
 10
105.2561289362
 20
109.9371115028
 30
0.0
 10
105.2772528409
 20
109.9366137822
 30
0.0
  0
SPLINE
  5
2FF
100
AcDbEntity
  8
0
100
AcDbSpline
 62
7
  6
CONTINUOUS
 70
0
 71
3
 72
9
 73
5
 74
0
 42
0.0000001
 43
0.0000001
 44
0.0000000001
 40
0.0
 40
0.0
 40
0.0
 40
0.0
 40
0.2573720101
 40
1.0
 40
1.0
 40
1.0
 40
1.0
 10
105.9651229485
 20
110.7039425228
 30
0.0
 10
105.9299835603
 20
110.6361872286
 30
0.0
 10
105.7909954248
 20
110.3742155776
 30
0.0
 10
105.6420119343
 20
110.1175064276
 30
0.0
 10
105.5252584806
 20
109.9307702984
 30
0.0
  0
SPLINE
  5
300
100
AcDbEntity
  8
0
100
AcDbSpline
 62
7
  6
CONTINUOUS
 70
0
 71
3
 72
12
 73
8
 74
0
 42
0.0000001
 43
0.0000001
 44
0.0000000001
 40
0.0
 40
0.0
 40
0.0
 40
0.0
 40
0.128679218
 40
0.2561331636
 40
0.5063352459
 40
0.7539715031
 40
1.0
 40
1.0
 40
1.0
 40
1.0
 10
120.7335545951
 20
123.4582778592
 30
0.0
 10
120.7644307207
 20
123.4582778592
 30
0.0
 10
120.8263453473
 20
123.4459546328
 30
0.0
 10
120.9325662744
 20
123.3840398416
 30
0.0
 10
121.0319375477
 20
123.2672782766
 30
0.0
 10
121.1133138382
 20
123.1077834678
 30
0.0
 10
121.1509905783
 20
122.9950281062
 30
0.0
 10
121.166567297
 20
122.9380865548
 30
0.0
  0
SPLINE
  5
301
100
AcDbEntity
  8
0
100
AcDbSpline
 62
7
  6
CONTINUOUS
 70
0
 71
3
 72
9
 73
5
 74
0
 42
0.0000001
 43
0.0000001
 44
0.0000000001
 40
0.0
 40
0.0
 40
0.0
 40
0.0
 40
0.1680195226
 40
1.0
 40
1.0
 40
1.0
 40
1.0
 10
121.166567297
 20
102.8935443273
 30
0.0
 10
121.149719024
 20
102.8732242113
 30
0.0
 10
121.0342657415
 20
102.7647432351
 30
0.0
 10
120.8642615064
 20
102.7269064134
 30
0.0
 10
120.7335545951
 20
102.7269064134
 30
0.0
  0
SPLINE
  5
302
100
AcDbEntity
  8
0
100
AcDbSpline
 62
7
  6
CONTINUOUS
 70
0
 71
3
 72
12
 73
8
 74
0
 42
0.0000001
 43
0.0000001
 44
0.0000000001
 40
0.0
 40
0.0
 40
0.0
 40
0.0
 40
0.2460454262
 40
0.4936983158
 40
0.7439199328
 40
0.8713555617
 40
1.0
 40
1.0
 40
1.0
 40
1.0
 10
117.3778921624
 20
122.9380865548
 30
0.0
 10
117.393469975
 20
122.9950321045
 30
0.0
 10
117.4311519946
 20
123.1077926099
 30
0.0
 10
117.5125277426
 20
123.267309278
 30
0.0
 10
117.6119323544
 20
123.3840368108
 30
0.0
 10
117.7181281708
 20
123.4459846491
 30
0.0
 10
117.7800370405
 20
123.4582778592
 30
0.0
 10
117.8109048643
 20
123.4582778592
 30
0.0
  0
SPLINE
  5
303
100
AcDbEntity
  8
0
100
AcDbSpline
 62
7
  6
CONTINUOUS
 70
0
 71
3
 72
9
 73
5
 74
0
 42
0.0000001
 43
0.0000001
 44
0.0000000001
 40
0.0
 40
0.0
 40
0.0
 40
0.0
 40
0.3641598889
 40
1.0
 40
1.0
 40
1.0
 40
1.0
 10
117.8109048643
 20
102.7269064134
 30
0.0
 10
117.7535284425
 20
102.7269064134
 30
0.0
 10
117.5973421094
 20
102.7430255074
 30
0.0
 10
117.4418361188
 20
102.8164237463
 30
0.0
 10
117.3778921624
 20
102.8935443273
 30
0.0
  0
SPLINE
  5
304
100
AcDbEntity
  8
0
100
AcDbSpline
 62
7
  6
CONTINUOUS
 70
0
 71
3
 72
16
 73
12
 74
0
 42
0.0000001
 43
0.0000001
 44
0.0000000001
 40
0.0
 40
0.0
 40
0.0
 40
0.0
 40
0.2537061586
 40
0.3798181994
 40
0.5052514003
 40
0.6297642598
 40
0.7529383547
 40
0.8138894569
 40
0.8744647729
 40
0.9358391589
 40
1.0
 40
1.0
 40
1.0
 40
1.0
 10
107.0722378699
 20
137.3844533689
 30
0.0
 10
107.0722810268
 20
137.445564264
 30
0.0
 10
107.0710782956
 20
137.5371044044
 30
0.0
 10
107.0629244791
 20
137.6585520228
 30
0.0
 10
107.0529430714
 20
137.7486518108
 30
0.0
 10
107.0372183265
 20
137.8371262169
 30
0.0
 10
107.0170356167
 20
137.9091892387
 30
0.0
 10
106.9911140229
 20
137.9621658938
 30
0.0
 10
106.964825885
 20
137.9985296283
 30
0.0
 10
106.9184604647
 20
138.0160926751
 30
0.0
 10
106.889334748
 20
138.0000866495
 30
0.0
 10
106.8772528409
 20
137.9904496269
 30
0.0
  0
SPLINE
  5
305
100
AcDbEntity
  8
0
100
AcDbSpline
 62
7
  6
CONTINUOUS
 70
0
 71
3
 72
9
 73
5
 74
0
 42
0.0000001
 43
0.0000001
 44
0.0000000001
 40
0.0
 40
0.0
 40
0.0
 40
0.0
 40
0.3642526053
 40
1.0
 40
1.0
 40
1.0
 40
1.0
 10
120.7335545951
 20
162.888091934
 30
0.0
 10
120.7909460016
 20
162.888091934
 30
0.0
 10
120.9471354602
 20
162.8719773785
 30
0.0
 10
121.1026322455
 20
162.7985638614
 30
0.0
 10
121.166567297
 20
162.7214540202
 30
0.0
  0
SPLINE
  5
306
100
AcDbEntity
  8
0
100
AcDbSpline
 62
7
  6
CONTINUOUS
 70
0
 71
3
 72
21
 73
17
 74
0
 42
0.0000001
 43
0.0000001
 44
0.0000000001
 40
0.0
 40
0.0
 40
0.0
 40
0.0
 40
0.0152736556
 40
0.0307400416
 40
0.0615944727
 40
0.0924597446
 40
0.1233512662
 40
0.1852330485
 40
0.2472659363
 40
0.3094463907
 40
0.3717660941
 40
0.4967787028
 40
0.6222117836
 40
0.747963109
 40
0.8739278454
 40
1.0
 40
1.0
 40
1.0
 40
1.0
 10
105.2772528409
 20
140.9934423605
 30
0.0
 10
105.2619905256
 20
140.9933799411
 30
0.0
 10
105.2363023608
 20
140.9673827865
 30
0.0
 10
105.2105612681
 20
140.9136302506
 30
0.0
 10
105.1869137383
 20
140.8388583576
 30
0.0
 10
105.1671153649
 20
140.7487635332
 30
0.0
 10
105.1461376899
 20
140.6268661691
 30
0.0
 10
105.1272342898
 20
140.4733173656
 30
0.0
 10
105.1110066497
 20
140.2880334134
 30
0.0
 10
105.0992374552
 20
140.1019993461
 30
0.0
 10
105.0877828152
 20
139.8529234937
 30
0.0
 10
105.0793690511
 20
139.5404779746
 30
0.0
 10
105.074616603
 20
139.1645824947
 30
0.0
 10
105.0728021803
 20
138.7877124385
 30
0.0
 10
105.0723288422
 20
138.4102018055
 30
0.0
 10
105.0722928188
 20
138.1583499066
 30
0.0
 10
105.0722928188
 20
138.0323703043
 30
0.0
  0
SPLINE
  5
307
100
AcDbEntity
  8
0
100
AcDbSpline
 62
7
  6
CONTINUOUS
 70
0
 71
3
 72
17
 73
13
 74
0
 42
0.0000001
 43
0.0000001
 44
0.0000000001
 40
0.0
 40
0.0
 40
0.0
 40
0.0
 40
0.2182009024
 40
0.3349220057
 40
0.456586696
 40
0.5831112211
 40
0.7144823146
 40
0.7820564401
 40
0.8510300181
 40
0.92186225
 40
0.958727904
 40
1.0
 40
1.0
 40
1.0
 40
1.0
 10
105.0722928188
 20
149.2650299224
 30
0.0
 10
105.0722928188
 20
149.1327509081
 30
0.0
 10
105.0722751314
 20
148.9297112468
 30
0.0
 10
105.0746822403
 20
148.6529224765
 30
0.0
 10
105.0795074338
 20
148.4317500738
 30
0.0
 10
105.0897931719
 20
148.2018350929
 30
0.0
 10
105.1059181953
 20
148.0051663978
 30
0.0
 10
105.1274922958
 20
147.8439655261
 30
0.0
 10
105.1500967664
 20
147.7207952341
 30
0.0
 10
105.1796925627
 20
147.6156445034
 30
0.0
 10
105.2141242374
 20
147.5361746492
 30
0.0
 10
105.2522373739
 20
147.4919542725
 30
0.0
 10
105.2772528409
 20
147.4924413785
 30
0.0
  0
SPLINE
  5
308
100
AcDbEntity
  8
0
100
AcDbSpline
 62
7
  6
CONTINUOUS
 70
0
 71
3
 72
11
 73
7
 74
0
 42
0.0000001
 43
0.0000001
 44
0.0000000001
 40
0.0
 40
0.0
 40
0.0
 40
0.0
 40
0.2163338898
 40
0.4581730139
 40
0.72121324
 40
1.0
 40
1.0
 40
1.0
 40
1.0
 10
105.5252584806
 20
147.4972706064
 30
0.0
 10
105.4395570926
 20
147.0345490507
 30
0.0
 10
105.3172886066
 20
146.0433376534
 30
0.0
 10
105.2627065655
 20
144.4739909425
 30
0.0
 10
105.3273340778
 20
142.7692045111
 30
0.0
 10
105.4466426956
 20
141.5957841942
 30
0.0
 10
105.5252584806
 20
140.9944566164
 30
0.0
  0
SPLINE
  5
309
100
AcDbEntity
  8
0
100
AcDbSpline
 62
7
  6
CONTINUOUS
 70
0
 71
3
 72
12
 73
8
 74
0
 42
0.0000001
 43
0.0000001
 44
0.0000000001
 40
0.0
 40
0.0
 40
0.0
 40
0.0
 40
0.2460280129
 40
0.4936634005
 40
0.7438647573
 40
0.8713194616
 40
1.0
 40
1.0
 40
1.0
 40
1.0
 10
121.166567297
 20
142.6769117927
 30
0.0
 10
121.15099061
 20
142.6199703574
 30
0.0
 10
121.1133141148
 20
142.5072151826
 30
0.0
 10
121.0319376609
 20
142.3477213419
 30
0.0
 10
120.9325678817
 20
142.2309582826
 30
0.0
 10
120.8263458576
 20
142.1690449745
 30
0.0
 10
120.7644310353
 20
142.1567204882
 30
0.0
 10
120.7335545951
 20
142.1567204882
 30
0.0
  0
SPLINE
  5
30A
100
AcDbEntity
  8
0
100
AcDbSpline
 62
7
  6
CONTINUOUS
 70
0
 71
3
 72
9
 73
5
 74
0
 42
0.0000001
 43
0.0000001
 44
0.0000000001
 40
0.0
 40
0.0
 40
0.0
 40
0.0
 40
0.1680322176
 40
1.0
 40
1.0
 40
1.0
 40
1.0
 10
117.3778921624
 20
162.7214540202
 30
0.0
 10
117.3947417214
 20
162.741775687
 30
0.0
 10
117.5101962982
 20
162.850255719
 30
0.0
 10
117.6801998473
 20
162.888091934
 30
0.0
 10
117.8109048643
 20
162.888091934
 30
0.0
  0
SPLINE
  5
30B
100
AcDbEntity
  8
0
100
AcDbSpline
 62
7
  6
CONTINUOUS
 70
0
 71
3
 72
12
 73
8
 74
0
 42
0.0000001
 43
0.0000001
 44
0.0000000001
 40
0.0
 40
0.0
 40
0.0
 40
0.0
 40
0.1286448926
 40
0.256081
 40
0.5063027424
 40
0.7539549585
 40
1.0
 40
1.0
 40
1.0
 40
1.0
 10
117.8109048643
 20
142.1567204882
 30
0.0
 10
117.7800369328
 20
142.1567204882
 30
0.0
 10
117.7181279386
 20
142.169014112
 30
0.0
 10
117.6119316413
 20
142.2309615757
 30
0.0
 10
117.5125276593
 20
142.3476897777
 30
0.0
 10
117.4311518128
 20
142.5072060158
 30
0.0
 10
117.39346995
 20
142.6199663343
 30
0.0
 10
117.3778921624
 20
142.6769117927
 30
0.0
  0
LINE
  5
30C
100
AcDbEntity
  8
0
100
AcDbLine
 62
7
  6
CONTINUOUS
 10
105.2826313615
 20
109.3821143678
 11
105.5252584806
 21
109.9307702984
  0
ELLIPSE
  5
30D
100
AcDbEntity
  8
0
100
AcDbEllipse
 62
7
  6
CONTINUOUS
 10
104.9250755404
 20
132.8074991737
 30
0.0
 11
14.7536831607
 21
31.0932549156
 31
0.0
 40
0.3419987131
 41
-1.0912395858
 42
-0.1578061866
  0
ELLIPSE
  5
30E
100
AcDbEntity
  8
0
100
AcDbEllipse
 62
7
  6
CONTINUOUS
 10
133.6193839191
 20
132.8074991737
 30
0.0
 11
-14.7536831607
 21
31.0932549156
 31
0.0
 40
0.3419987131
 41
0.1578061866
 42
1.0912395858
  0
ELLIPSE
  5
30F
100
AcDbEntity
  8
0
100
AcDbEllipse
 62
7
  6
CONTINUOUS
 10
133.6193839191
 20
132.8074991737
 30
0.0
 11
14.7536831607
 21
31.0932549156
 31
0.0
 40
0.3419987131
 41
-4.2328322393
 42
-3.2993988402
  0
ELLIPSE
  5
310
100
AcDbEntity
  8
0
100
AcDbEllipse
 62
7
  6
CONTINUOUS
 10
104.9250755404
 20
132.8074991737
 30
0.0
 11
-14.7536831607
 21
31.0932549156
 31
0.0
 40
0.3419987131
 41
-2.9837864669
 42
-2.0503530678
  0
ENDSEC
  0
SECTION
  2
OBJECTS
  0
DICTIONARY
  5
C
100
AcDbDictionary
280
0
281
1
  3
ACAD_GROUP
350
D
  3
ACAD_MLINESTYLE
350
17
  3
ACAD_LAYOUT
350
1A
  3
ACAD_PLOTSETTINGS
350
19
  3
ACAD_PLOTSTYLENAME
350
E
  0
DICTIONARY
  5
D
102
{ACAD_REACTORS
330
C
102
}
100
AcDbDictionary
280
0
281
1
  0
ACDBDICTIONARYWDFLT
  5
E
102
{ACAD_REACTORS
330
C
102
}
100
AcDbDictionary
281
1
  3
Normal
350
F
100
AcDbDictionaryWithDefault
340
F
  0
DICTIONARY
  5
17
102
{ACAD_REACTORS
330
C
102
}
100
AcDbDictionary
280
0
281
1
  3
Standard
350
18
  0
DICTIONARY
  5
19
102
{ACAD_REACTORS
330
C
102
}
100
AcDbDictionary
281
1
  0
DICTIONARY
  5
1A
102
{ACAD_REACTORS
330
C
102
}
100
AcDbDictionary
281
1
  3
Model
350
311
  3
Layout1
350
312
  0
ACDBPLACEHOLDER
  5
F
102
{ACAD_REACTORS
330
E
102
}
  0
MLINESTYLE
  5
18
102
{ACAD_REACTORS
330
17
102
}
100
AcDbMlineStyle
  2
STANDARD
 70
0
  3

 62
256
 51
90.0
 52
90.0
 71
2
 49
0.5
 62
256
  6
BYLAYER
 49
-0.5
 62
256
  6
BYLAYER
  0
LAYOUT
  5
311
102
{ACAD_REACTORS
330
1A
102
}
100
AcDbPlotSettings
  1

  2
none_device
  4
ISO_A4_(297.00_x_210.00_MM)
  6

 40
0.0
 41
0.0
 42
0.0
 43
0.0
 44
297.0
 45
210.0
 46
0.0
 47
0.0
 48
0.0
 49
0.0
140
0.0
141
0.0
142
1.0
143
1.0
 70
1024
 72
1
 73
0
 74
0
  7

 75
0
147
1.0
148
0.0
149
0.0
100
AcDbLayout
  1
Model
 70
0
 71
0
 10
0.0
 20
0.0
 11
297.0
 21
210.0
 12
0.0
 22
0.0
 32
0.0
 14
0.0
 24
0.0
 34
0.0
 15
0.0
 25
0.0
 35
0.0
146
0.0
 13
0.0
 23
0.0
 33
0.0
 16
1.0
 26
0.0
 36
0.0
 17
0.0
 27
1.0
 37
0.0
 76
0
330
217
345
0
346
0
  0
LAYOUT
  5
312
102
{ACAD_REACTORS
330
1A
102
}
100
AcDbPlotSettings
  1

  2
none_device
  4
ISO_A4_(297.00_x_210.00_MM)
  6

 40
0.0
 41
0.0
 42
0.0
 43
0.0
 44
297.0
 45
210.0
 46
0.0
 47
0.0
 48
0.0
 49
0.0
140
0.0
141
0.0
142
1.0
143
1.0
 70
0
 72
1
 73
0
 74
0
  7

 75
0
147
1.0
148
0.0
149
0.0
100
AcDbLayout
  1
Layout1
 70
0
 71
1
 10
0.0
 20
0.0
 11
297.0
 21
210.0
 12
0.0
 22
0.0
 32
0.0
 14
0.0
 24
0.0
 34
0.0
 15
0.0
 25
0.0
 35
0.0
146
0.0
 13
0.0
 23
0.0
 33
0.0
 16
1.0
 26
0.0
 36
0.0
 17
0.0
 27
1.0
 37
0.0
 76
0
330
218
345
0
346
0
  0
ENDSEC
  0
EOF
