  0
SECTION
  2
HEADER
  9
$ACADVER
  1
AC1015
  9
$ACADMAINTVER
 70
     6
  9
$DWGCODEPAGE
  3
ANSI_1252
  9
$INSBASE
 10
0.0
 20
0.0
 30
0.0
  9
$EXTMIN
 10
0.0
 20
0.0
 30
0.0
  9
$EXTMAX
 10
297.0
 20
210.0
 30
0.0
  9
$LIMMIN
 10
0.0
 20
0.0
  9
$LIMMAX
 10
12.0
 20
9.0
  9
$ORTHOMODE
 70
     0
  9
$REGENMODE
 70
     1
  9
$FILLMODE
 70
     1
  9
$QTEXTMODE
 70
     0
  9
$MIRRTEXT
 70
     1
  9
$LTSCALE
 40
1.0
  9
$ATTMODE
 70
     1
  9
$TEXTSIZE
 40
0.2
  9
$TRACEWID
 40
0.05
  9
$TEXTSTYLE
  7
Standard
  9
$CLAYER
  8
0
  9
$CELTYPE
  6
ByLayer
  9
$CECOLOR
 62
   256
  9
$CELTSCALE
 40
1.0
  9
$DISPSILH
 70
     0
  9
$DIMSCALE
 40
1.0
  9
$DIMASZ
 40
0.18
  9
$DIMEXO
 40
0.0625
  9
$DIMDLI
 40
0.38
  9
$DIMRND
 40
0.0
  9
$DIMDLE
 40
0.0
  9
$DIMEXE
 40
0.18
  9
$DIMTP
 40
0.0
  9
$DIMTM
 40
0.0
  9
$DIMTXT
 40
0.18
  9
$DIMCEN
 40
0.09
  9
$DIMTSZ
 40
0.0
  9
$DIMTOL
 70
     0
  9
$DIMLIM
 70
     0
  9
$DIMTIH
 70
     1
  9
$DIMTOH
 70
     1
  9
$DIMSE1
 70
     0
  9
$DIMSE2
 70
     0
  9
$DIMTAD
 70
     0
  9
$DIMZIN
 70
     0
  9
$DIMBLK
  1

  9
$DIMASO
 70
     1
  9
$DIMSHO
 70
     1
  9
$DIMPOST
  1

  9
$DIMAPOST
  1

  9
$DIMALT
 70
     0
  9
$DIMALTD
 70
     2
  9
$DIMALTF
 40
25.4
  9
$DIMLFAC
 40
1.0
  9
$DIMTOFL
 70
     0
  9
$DIMTVP
 40
0.0
  9
$DIMTIX
 70
     0
  9
$DIMSOXD
 70
     0
  9
$DIMSAH
 70
     0
  9
$DIMBLK1
  1

  9
$DIMBLK2
  1

  9
$DIMSTYLE
  2
Standard
  9
$DIMCLRD
 70
     0
  9
$DIMCLRE
 70
     0
  9
$DIMCLRT
 70
     0
  9
$DIMTFAC
 40
1.0
  9
$DIMGAP
 40
0.09
  9
$DIMJUST
 70
     0
  9
$DIMSD1
 70
     0
  9
$DIMSD2
 70
     0
  9
$DIMTOLJ
 70
     1
  9
$DIMTZIN
 70
     0
  9
$DIMALTZ
 70
     0
  9
$DIMALTTZ
 70
     0
  9
$DIMUPT
 70
     0
  9
$DIMDEC
 70
     4
  9
$DIMTDEC
 70
     4
  9
$DIMALTU
 70
     2
  9
$DIMALTTD
 70
     2
  9
$DIMTXSTY
  7
Standard
  9
$DIMAUNIT
 70
     0
  9
$DIMADEC
 70
     0
  9
$DIMALTRND
 40
0.0
  9
$DIMAZIN
 70
     0
  9
$DIMDSEP
 70
    46
  9
$DIMATFIT
 70
     3
  9
$DIMFRAC
 70
     0
  9
$DIMLDRBLK
  1

  9
$DIMLUNIT
 70
     2
  9
$DIMLWD
 70
    -2
  9
$DIMLWE
 70
    -2
  9
$DIMTMOVE
 70
     0
  9
$LUNITS
 70
     2
  9
$LUPREC
 70
     4
  9
$SKETCHINC
 40
0.1
  9
$FILLETRAD
 40
0.5
  9
$AUNITS
 70
     0
  9
$AUPREC
 70
     0
  9
$MENU
  1
.
  9
$ELEVATION
 40
0.0
  9
$PELEVATION
 40
0.0
  9
$THICKNESS
 40
0.0
  9
$LIMCHECK
 70
     0
  9
$CHAMFERA
 40
0.5
  9
$CHAMFERB
 40
0.5
  9
$CHAMFERC
 40
1.0
  9
$CHAMFERD
 40
0.0
  9
$SKPOLY
 70
     0
  9
$TDCREATE
 40
2455758.478816621
  9
$TDUCREATE
 40
2455758.395483287
  9
$TDUPDATE
 40
2455758.478816632
  9
$TDUUPDATE
 40
2455758.395483299
  9
$TDINDWG
 40
0.0000000116
  9
$TDUSRTIMER
 40
0.0000000116
  9
$USRTIMER
 70
     1
  9
$ANGBASE
 50
0.0
  9
$ANGDIR
 70
     0
  9
$PDMODE
 70
     0
  9
$PDSIZE
 40
0.0
  9
$PLINEWID
 40
0.0
  9
$SPLFRAME
 70
     0
  9
$SPLINETYPE
 70
     6
  9
$SPLINESEGS
 70
     8
  9
$HANDSEED
  5
160
  9
$SURFTAB1
 70
     6
  9
$SURFTAB2
 70
     6
  9
$SURFTYPE
 70
     6
  9
$SURFU
 70
     6
  9
$SURFV
 70
     6
  9
$UCSBASE
  2

  9
$UCSNAME
  2

  9
$UCSORG
 10
0.0
 20
0.0
 30
0.0
  9
$UCSXDIR
 10
1.0
 20
0.0
 30
0.0
  9
$UCSYDIR
 10
0.0
 20
1.0
 30
0.0
  9
$UCSORTHOREF
  2

  9
$UCSORTHOVIEW
 70
     0
  9
$UCSORGTOP
 10
0.0
 20
0.0
 30
0.0
  9
$UCSORGBOTTOM
 10
0.0
 20
0.0
 30
0.0
  9
$UCSORGLEFT
 10
0.0
 20
0.0
 30
0.0
  9
$UCSORGRIGHT
 10
0.0
 20
0.0
 30
0.0
  9
$UCSORGFRONT
 10
0.0
 20
0.0
 30
0.0
  9
$UCSORGBACK
 10
0.0
 20
0.0
 30
0.0
  9
$PUCSBASE
  2

  9
$PUCSNAME
  2

  9
$PUCSORG
 10
0.0
 20
0.0
 30
0.0
  9
$PUCSXDIR
 10
1.0
 20
0.0
 30
0.0
  9
$PUCSYDIR
 10
0.0
 20
1.0
 30
0.0
  9
$PUCSORTHOREF
  2

  9
$PUCSORTHOVIEW
 70
     0
  9
$PUCSORGTOP
 10
0.0
 20
0.0
 30
0.0
  9
$PUCSORGBOTTOM
 10
0.0
 20
0.0
 30
0.0
  9
$PUCSORGLEFT
 10
0.0
 20
0.0
 30
0.0
  9
$PUCSORGRIGHT
 10
0.0
 20
0.0
 30
0.0
  9
$PUCSORGFRONT
 10
0.0
 20
0.0
 30
0.0
  9
$PUCSORGBACK
 10
0.0
 20
0.0
 30
0.0
  9
$USERI1
 70
     0
  9
$USERI2
 70
     0
  9
$USERI3
 70
     0
  9
$USERI4
 70
     0
  9
$USERI5
 70
     0
  9
$USERR1
 40
16.5
  9
$USERR2
 40
0.0
  9
$USERR3
 40
0.0
  9
$USERR4
 40
0.0
  9
$USERR5
 40
0.0
  9
$WORLDVIEW
 70
     1
  9
$SHADEDGE
 70
     3
  9
$SHADEDIF
 70
    70
  9
$TILEMODE
 70
     1
  9
$MAXACTVP
 70
    64
  9
$PINSBASE
 10
0.0
 20
0.0
 30
0.0
  9
$PLIMCHECK
 70
     0
  9
$PEXTMIN
 10
1.00000000000000E+20
 20
1.00000000000000E+20
 30
1.00000000000000E+20
  9
$PEXTMAX
 10
-1.00000000000000E+20
 20
-1.00000000000000E+20
 30
-1.00000000000000E+20
  9
$PLIMMIN
 10
0.0
 20
0.0
  9
$PLIMMAX
 10
12.0
 20
9.0
  9
$UNITMODE
 70
     0
  9
$VISRETAIN
 70
     1
  9
$PLINEGEN
 70
     0
  9
$PSLTSCALE
 70
     1
  9
$TREEDEPTH
 70
  3020
  9
$CMLSTYLE
  2
Standard
  9
$CMLJUST
 70
     0
  9
$CMLSCALE
 40
1.0
  9
$PROXYGRAPHICS
 70
     1
  9
$MEASUREMENT
 70
     1
  9
$CELWEIGHT
370
    -1
  9
$ENDCAPS
280
     0
  9
$JOINSTYLE
280
     0
  9
$LWDISPLAY
290
     0
  9
$INSUNITS
 70
     1
  9
$HYPERLINKBASE
  1

  9
$STYLESHEET
  1

  9
$XEDIT
290
     1
  9
$CEPSNTYPE
380
     0
  9
$PSTYLEMODE
290
     1
  9
$FINGERPRINTGUID
  2
{4A09560E-E892-4154-9EC6-1148869ED863}
  9
$VERSIONGUID
  2
{FAEB1C32-E019-11D5-929B-00C0DF256EC4}
  9
$EXTNAMES
290
     1
  9
$PSVPSCALE
 40
0.0
  9
$OLESTARTUP
290
     0
  0
ENDSEC
  0
SECTION
  2
CLASSES
  0
CLASS
  1
ACDBDICTIONARYWDFLT
  2
AcDbDictionaryWithDefault
  3
ObjectDBX Classes
 90
        0
280
     0
281
     0
  0
CLASS
  1
VISUALSTYLE
  2
AcDbVisualStyle
  3
ObjectDBX Classes
 90
     4095
280
     0
281
     0
  0
CLASS
  1
SCALE
  2
AcDbScale
  3
ObjectDBX Classes
 90
     1153
280
     0
281
     0
  0
CLASS
  1

  2
exOdDbCircle
  3

 90
        0
280
     0
281
     1
  0
CLASS
  1

  2
exOdDbSpline
  3

 90
        0
280
     0
281
     1
  0
CLASS
  1
DICTIONARYVAR
  2
AcDbDictionaryVar
  3
ObjectDBX Classes
 90
        0
280
     0
281
     0
  0
CLASS
  1
ACDBPLACEHOLDER
  2
AcDbPlaceHolder
  3
ObjectDBX Classes
 90
        0
280
     0
281
     0
  0
CLASS
  1
LAYOUT
  2
AcDbLayout
  3
ObjectDBX Classes
 90
        0
280
     0
281
     0
  0
ENDSEC
  0
SECTION
  2
TABLES
  0
TABLE
  2
VPORT
  5
8
330
0
100
AcDbSymbolTable
 70
     1
  0
VPORT
  5
29
330
8
100
AcDbSymbolTableRecord
100
AcDbViewportTableRecord
  2
*Active
 70
     0
 10
0.0
 20
0.0
 11
1.0
 21
1.0
 12
148.5
 22
105.0
 13
0.0
 23
0.0
 14
0.5
 24
0.5
 15
0.5
 25
0.5
 16
0.0
 26
0.0
 36
1.0
 17
0.0
 27
0.0
 37
0.0
 40
231.0
 41
1.60267857142857
 42
50.0
 43
0.0
 44
0.0
 50
0.0
 51
0.0
 71
     0
 72
   100
 73
     1
 74
     3
 75
     0
 76
     0
 77
     0
 78
     0
281
     0
 65
     1
110
0.0
120
0.0
130
0.0
111
1.0
121
0.0
131
0.0
112
0.0
122
1.0
132
0.0
 79
     0
146
0.0
  0
ENDTAB
  0
TABLE
  2
LTYPE
  5
5
330
0
100
AcDbSymbolTable
 70
    10
  0
LTYPE
  5
14
330
5
100
AcDbSymbolTableRecord
100
AcDbLinetypeTableRecord
  2
ByBlock
 70
     0
  3

 72
    65
 73
     0
 40
0.0
  0
LTYPE
  5
15
330
5
100
AcDbSymbolTableRecord
100
AcDbLinetypeTableRecord
  2
ByLayer
 70
     0
  3

 72
    65
 73
     0
 40
0.0
  0
LTYPE
  5
16
330
5
100
AcDbSymbolTableRecord
100
AcDbLinetypeTableRecord
  2
Continuous
 70
     0
  3
Solid line
 72
    65
 73
     0
 40
0.0
  0
LTYPE
  5
3B
330
5
100
AcDbSymbolTableRecord
100
AcDbLinetypeTableRecord
  2
DASHED
 70
     0
  3
Dashed
 72
    65
 73
     2
 40
15.0
 49
7.0
 74
     0
 49
-8.0
 74
     0
  0
LTYPE
  5
3C
330
5
100
AcDbSymbolTableRecord
100
AcDbLinetypeTableRecord
  2
DOTTED
 70
     0
  3
Dotted
 72
    65
 73
     2
 40
1.0
 49
0.0
 74
     0
 49
-1.0
 74
     0
  0
LTYPE
  5
3D
330
5
100
AcDbSymbolTableRecord
100
AcDbLinetypeTableRecord
  2
DOT_CENTER
 70
     0
  3
Dot_Center
 72
    65
 73
     4
 40
14.0
 49
12.0
 74
     0
 49
-1.0
 74
     0
 49
0.0
 74
     0
 49
-1.0
 74
     0
  0
LTYPE
  5
3E
330
5
100
AcDbSymbolTableRecord
100
AcDbLinetypeTableRecord
  2
LONG_DASHED
 70
     0
  3
Long_Dashed
 72
    65
 73
     2
 40
15.0
 49
10.0
 74
     0
 49
-5.0
 74
     0
  0
LTYPE
  5
3F
330
5
100
AcDbSymbolTableRecord
100
AcDbLinetypeTableRecord
  2
DASH_CENTER
 70
     0
  3
Dash_Center
 72
    65
 73
     4
 40
14.0
 49
11.0
 74
     0
 49
-1.0
 74
     0
 49
1.0
 74
     0
 49
-1.0
 74
     0
  0
LTYPE
  5
40
330
5
100
AcDbSymbolTableRecord
100
AcDbLinetypeTableRecord
  2
PHANTOM
 70
     0
  3
Phantom
 72
    65
 73
     6
 40
13.0
 49
10.0
 74
     0
 49
-1.0
 74
     0
 49
0.0
 74
     0
 49
-1.0
 74
     0
 49
0.0
 74
     0
 49
-1.0
 74
     0
  0
LTYPE
  5
41
330
5
100
AcDbSymbolTableRecord
100
AcDbLinetypeTableRecord
  2
CENTER_DASH_DASH
 70
     0
  3
Center_Dash_Dash
 72
    65
 73
     6
 40
14.0
 49
9.0
 74
     0
 49
-1.0
 74
     0
 49
1.0
 74
     0
 49
-1.0
 74
     0
 49
1.0
 74
     0
 49
-1.0
 74
     0
  0
LTYPE
  5
42
330
5
100
AcDbSymbolTableRecord
100
AcDbLinetypeTableRecord
  2
HIDDEN
 70
     0
  3
HIDDEN
 72
    65
 73
     2
 40
4.0
 49
2.0
 74
     0
 49
-2.0
 74
     0
  0
LTYPE
  5
43
330
5
100
AcDbSymbolTableRecord
100
AcDbLinetypeTableRecord
  2
CENTER
 70
     0
  3
CENTER
 72
    65
 73
     4
 40
13.0
 49
7.0
 74
     0
 49
-2.0
 74
     0
 49
2.0
 74
     0
 49
-2.0
 74
     0
  0
ENDTAB
  0
TABLE
  2
LAYER
  5
2
330
0
100
AcDbSymbolTable
 70
     7
  0
LAYER
  5
10
330
2
100
AcDbSymbolTableRecord
100
AcDbLayerTableRecord
  2
0
 70
     0
 62
     7
  6
Continuous
370
    -3
390
F
  0
LAYER
  5
44
330
2
100
AcDbSymbolTableRecord
100
AcDbLayerTableRecord
  2
ACHSEN
 70
     0
 62
     7
  6
Continuous
370
    -3
390
F
  0
LAYER
  5
45
330
2
100
AcDbSymbolTableRecord
100
AcDbLayerTableRecord
  2
BEZUGSACHSEN
 70
     0
 62
     7
  6
Continuous
370
    -3
390
F
  0
LAYER
  5
46
330
2
100
AcDbSymbolTableRecord
100
AcDbLayerTableRecord
  2
BOHRUNGEN
 70
     0
 62
     7
  6
Continuous
370
    -3
390
F
  0
LAYER
  5
47
330
2
100
AcDbSymbolTableRecord
100
AcDbLayerTableRecord
  2
FASEN
 70
     0
 62
     7
  6
Continuous
370
    -3
390
F
  0
LAYER
  5
48
330
2
100
AcDbSymbolTableRecord
100
AcDbLayerTableRecord
  2
RUNDUNGEN
 70
     0
 62
     7
  6
Continuous
370
    -3
390
F
  0
LAYER
  5
49
330
2
100
AcDbSymbolTableRecord
100
AcDbLayerTableRecord
  2
S_ACHSEN
 70
     0
 62
     7
  6
Continuous
370
    -3
390
F
  0
ENDTAB
  0
TABLE
  2
STYLE
  5
3
330
0
100
AcDbSymbolTable
 70
     2
  0
STYLE
  5
11
330
3
100
AcDbSymbolTableRecord
100
AcDbTextStyleTableRecord
  2
Standard
 70
     0
 40
0.0
 41
1.0
 50
0.0
 71
     0
 42
0.2
  3
txt
  4

  0
STYLE
  5
7B
330
3
100
AcDbSymbolTableRecord
100
AcDbTextStyleTableRecord
  2
CONVERTER_11
 70
     0
 40
0.0
 41
0.7
 50
0.0
 71
     0
 42
0.2
  3
txt.shx
  4

  0
ENDTAB
  0
TABLE
  2
VIEW
  5
6
330
0
100
AcDbSymbolTable
 70
     0
  0
ENDTAB
  0
TABLE
  2
UCS
  5
7
330
0
100
AcDbSymbolTable
 70
     0
  0
ENDTAB
  0
TABLE
  2
APPID
  5
9
330
0
100
AcDbSymbolTable
 70
     1
  0
APPID
  5
12
330
9
100
AcDbSymbolTableRecord
100
AcDbRegAppTableRecord
  2
ACAD
 70
     0
  0
ENDTAB
  0
TABLE
  2
DIMSTYLE
  5
A
330
0
100
AcDbSymbolTable
 70
     7
100
AcDbDimStyleTable
  0
DIMSTYLE
105
27
330
A
100
AcDbSymbolTableRecord
100
AcDbDimStyleTableRecord
  2
Standard
 70
     0
340
11
  0
DIMSTYLE
105
122
102
{ACAD_REACTORS
330
123
102
}
330
A
100
AcDbSymbolTableRecord
100
AcDbDimStyleTableRecord
  2
ME10_DIM_10
 70
     0
  3
{\Fgdt;n}<>
 41
3.5
 73
     0
 74
     0
 77
     1
 78
    12
140
3.5
172
     1
173
     1
176
     2
177
     2
178
     5
271
     2
340
7B
  0
DIMSTYLE
105
12D
102
{ACAD_REACTORS
330
12E
102
}
330
A
100
AcDbSymbolTableRecord
100
AcDbDimStyleTableRecord
  2
ME10_DIM_11
 70
     0
 41
3.5
 73
     0
 74
     0
 77
     1
 78
    12
140
3.5
172
     1
173
     1
176
     2
177
     2
178
     5
271
     2
340
7B
  0
DIMSTYLE
105
138
102
{ACAD_REACTORS
330
139
102
}
330
A
100
AcDbSymbolTableRecord
100
AcDbDimStyleTableRecord
  2
ME10_DIM_12
 70
     0
 41
3.5
 73
     0
 74
     0
 77
     1
 78
    12
140
3.5
172
     1
173
     1
176
     2
177
     2
178
     5
271
     2
340
7B
  0
DIMSTYLE
105
144
102
{ACAD_REACTORS
330
145
102
}
330
A
100
AcDbSymbolTableRecord
100
AcDbDimStyleTableRecord
  2
ME10_DIM_13
 70
     0
  3
{\Fgdt;n}<>
 41
3.5
 73
     0
 74
     0
 77
     1
 78
    12
140
3.5
172
     1
173
     1
176
     2
177
     2
178
     5
271
     3
340
7B
  0
DIMSTYLE
105
14F
102
{ACAD_REACTORS
330
150
102
}
330
A
100
AcDbSymbolTableRecord
100
AcDbDimStyleTableRecord
  2
ME10_DIM_14
 70
     0
 41
3.5
 73
     0
 74
     0
 77
     1
 78
    12
140
3.5
172
     1
173
     1
176
     2
177
     2
178
     5
271
     2
340
7B
  0
DIMSTYLE
105
15A
102
{ACAD_REACTORS
330
15B
102
}
330
A
100
AcDbSymbolTableRecord
100
AcDbDimStyleTableRecord
  2
ME10_DIM_15
 70
     0
  3
{\Fgdt;n}<>
 41
3.5
 73
     0
 74
     0
 77
     1
 78
    12
140
3.5
172
     1
173
     1
176
     2
177
     2
178
     5
271
     2
340
7B
  0
ENDTAB
  0
TABLE
  2
BLOCK_RECORD
  5
1
330
0
100
AcDbSymbolTable
 70
     8
  0
BLOCK_RECORD
  5
1F
330
1
100
AcDbSymbolTableRecord
100
AcDbBlockTableRecord
  2
*Model_Space
340
22
  0
BLOCK_RECORD
  5
1B
330
1
100
AcDbSymbolTableRecord
100
AcDbBlockTableRecord
  2
*Paper_Space
340
1E
  0
BLOCK_RECORD
  5
23
330
1
100
AcDbSymbolTableRecord
100
AcDbBlockTableRecord
  2
*Paper_Space0
340
26
  0
BLOCK_RECORD
  5
4A
330
1
100
AcDbSymbolTableRecord
100
AcDbBlockTableRecord
  2
_D2
340
0
102
{BLKREFS
331
6F
102
}
  0
BLOCK_RECORD
  5
119
330
1
100
AcDbSymbolTableRecord
100
AcDbBlockTableRecord
  2
*D2
340
0
  0
BLOCK_RECORD
  5
124
330
1
100
AcDbSymbolTableRecord
100
AcDbBlockTableRecord
  2
*D3
340
0
  0
BLOCK_RECORD
  5
12F
330
1
100
AcDbSymbolTableRecord
100
AcDbBlockTableRecord
  2
*D4
340
0
  0
BLOCK_RECORD
  5
13A
330
1
100
AcDbSymbolTableRecord
100
AcDbBlockTableRecord
  2
*D5
340
0
  0
BLOCK_RECORD
  5
146
330
1
100
AcDbSymbolTableRecord
100
AcDbBlockTableRecord
  2
*D6
340
0
  0
BLOCK_RECORD
  5
151
330
1
100
AcDbSymbolTableRecord
100
AcDbBlockTableRecord
  2
*D7
340
0
  0
ENDTAB
  0
ENDSEC
  0
SECTION
  2
BLOCKS
  0
BLOCK
  5
20
330
1F
100
AcDbEntity
  8
0
100
AcDbBlockBegin
  2
*Model_Space
 70
     0
 10
0.0
 20
0.0
 30
0.0
  3
*Model_Space
  1

  0
ENDBLK
  5
21
330
1F
100
AcDbEntity
  8
0
100
AcDbBlockEnd
  0
BLOCK
  5
1C
330
1B
100
AcDbEntity
 67
     1
  8
0
100
AcDbBlockBegin
  2
*Paper_Space
 70
     0
 10
0.0
 20
0.0
 30
0.0
  3
*Paper_Space
  1

  0
ENDBLK
  5
1D
330
1B
100
AcDbEntity
 67
     1
  8
0
100
AcDbBlockEnd
  0
BLOCK
  5
24
330
23
100
AcDbEntity
  8
0
100
AcDbBlockBegin
  2
*Paper_Space0
 70
     0
 10
0.0
 20
0.0
 30
0.0
  3
*Paper_Space0
  1

  0
ENDBLK
  5
25
330
23
100
AcDbEntity
  8
0
100
AcDbBlockEnd
  0
BLOCK
  5
4B
330
4A
100
AcDbEntity
  8
0
100
AcDbBlockBegin
  2
_D2
 70
     0
 10
0.0
 20
0.0
 30
0.0
  3
_D2
  1

  0
LINE
  5
70
102
{ACAD_REACTORS
330
7D
330
7D
102
}
330
4A
100
AcDbEntity
  8
0
  6
Continuous
 62
     2
100
AcDbLine
 10
206.2534795665
 20
102.0156850568
 30
0.0
 11
206.8479139424
 21
105.4924729454
 31
0.0
  0
LINE
  5
71
102
{ACAD_REACTORS
330
7D
330
7D
102
}
330
4A
100
AcDbEntity
  8
0
  6
Continuous
 62
     2
100
AcDbLine
 10
207.127594566
 20
101.9763408377
 30
0.0
 11
206.2534795665
 21
102.0156850568
 31
0.0
  0
LINE
  5
72
102
{ACAD_REACTORS
330
7D
330
7D
102
}
330
4A
100
AcDbEntity
  8
0
  6
Continuous
 62
     2
100
AcDbLine
 10
206.8479139424
 20
105.4924729454
 30
0.0
 11
207.127594566
 21
101.9763408377
 31
0.0
  0
LINE
  5
73
102
{ACAD_REACTORS
330
7E
330
7E
102
}
330
4A
100
AcDbEntity
  8
0
  6
Continuous
 62
     2
100
AcDbLine
 10
206.7309250547
 20
112.0722540719
 30
0.0
 11
206.727979138742
 21
108.545017537218
 31
0.0
  0
LINE
  5
74
102
{ACAD_REACTORS
330
7E
330
7E
102
}
330
4A
100
AcDbEntity
  8
0
  6
Continuous
 62
     2
100
AcDbLine
 10
205.8625915719
 20
111.9644488655
 30
0.0
 11
206.7309250547
 21
112.0722540719
 31
0.0
  0
LINE
  5
75
102
{ACAD_REACTORS
330
7E
330
7E
102
}
330
4A
100
AcDbEntity
  8
0
  6
Continuous
 62
     2
100
AcDbLine
 10
206.727979138742
 20
108.545017537218
 30
0.0
 11
205.8625915719
 21
111.9644488655
 31
0.0
  0
LINE
  5
76
330
4A
100
AcDbEntity
  8
0
  6
Continuous
 62
     2
100
AcDbLine
 10
169.4417225888
 20
105.4924729454
 30
0.0
 11
208.3479139425
 21
105.4924729454
 31
0.0
  0
LINE
  5
77
330
4A
100
AcDbEntity
  8
0
  6
Continuous
 62
     2
100
AcDbLine
 10
197.4424093668
 20
107.8142273473
 30
0.0
 11
208.2233551394
 21
108.6627061808
 31
0.0
  0
ARC
  5
78
330
4A
100
AcDbEntity
  8
0
  6
Continuous
 62
     2
100
AcDbCircle
 10
167.9417225888
 20
105.4924729454
 30
0.0
 40
38.90619135360001
100
AcDbArc
 50
0.0
 51
4.50000000000005
  0
ARC
  5
79
330
4A
100
AcDbEntity
  8
0
  6
Continuous
 62
     2
100
AcDbCircle
 10
167.9417225888
 20
105.4924729454
 30
0.0
 40
38.90619135360014
100
AcDbArc
 50
339.2260725865
 51
0.0
  0
ARC
  5
7A
330
4A
100
AcDbEntity
  8
0
  6
Continuous
 62
     2
100
AcDbCircle
 10
167.9417225888
 20
105.4924729454
 30
0.0
 40
38.90619135360022
100
AcDbArc
 50
4.50000000000005
 51
13.33598895490039
  0
MTEXT
  5
7C
330
4A
100
AcDbEntity
  8
0
 62
     5
100
AcDbMText
 10
197.7736022088
 20
94.1759361505
 30
0.0
 40
3.5
 41
0.0
 71
     2
 72
     1
  1
4{\Fgdt;~}30'
  7
CONVERTER_11
 11
0.354681530903701
 21
0.9349871719097578
 31
0.0
 73
     1
 44
1.0
  0
HATCH
  5
7D
330
4A
100
AcDbEntity
  8
0
  6
Continuous
 62
     2
100
AcDbHatch
 10
0.0
 20
0.0
 30
0.0
210
0.0
220
0.0
230
1.0
  2
SOLID
 70
     1
 71
     1
 91
        1
 92
        1
 93
        3
 72
     1
 10
207.127594566
 20
101.9763408377
 11
206.2534795665
 21
102.0156850568
 72
     1
 10
206.2534795665
 20
102.0156850568
 11
206.8479139424
 21
105.4924729454
 72
     1
 10
206.8479139424
 20
105.4924729454
 11
207.127594566
 21
101.9763408377
 97
        3
330
70
330
71
330
72
 75
     0
 76
     1
 98
        1
 10
0.0
 20
0.0
  0
HATCH
  5
7E
330
4A
100
AcDbEntity
  8
0
  6
Continuous
 62
     2
100
AcDbHatch
 10
0.0
 20
0.0
 30
0.0
210
0.0
220
0.0
230
1.0
  2
SOLID
 70
     1
 71
     1
 91
        1
 92
        1
 93
        3
 72
     1
 10
205.8625915719
 20
111.9644488655
 11
206.7309250547
 21
112.0722540719
 72
     1
 10
206.7309250547
 20
112.0722540719
 11
206.727979138742
 21
108.545017537218
 72
     1
 10
206.727979138742
 20
108.545017537218
 11
205.8625915719
 21
111.9644488655
 97
        3
330
73
330
74
330
75
 75
     0
 76
     1
 98
        1
 10
0.0
 20
0.0
  0
ENDBLK
  5
4C
330
4A
100
AcDbEntity
  8
0
100
AcDbBlockEnd
  0
BLOCK
  5
120
330
119
100
AcDbEntity
  8
0
100
AcDbBlockBegin
  2
*D2
 70
     1
 10
0.0
 20
0.0
 30
0.0
  3
*D2
  1

  0
LINE
  5
11A
330
119
100
AcDbEntity
  8
0
  6
Continuous
 62
     2
100
AcDbLine
 10
249.1996380879
 20
105.4924729454
 30
0.0
 11
249.1996380879
 21
137.4424729454
 31
0.0
  0
LINE
  5
11B
330
119
100
AcDbEntity
  8
0
  6
Continuous
 62
     2
100
AcDbLine
 10
169.5042225888
 20
105.4924729454
 30
0.0
 11
249.3796380879
 21
105.4924729454
 31
0.0
  0
LINE
  5
11C
330
119
100
AcDbEntity
  8
0
  6
Continuous
 62
     2
100
AcDbLine
 10
169.5042225888
 20
137.4424729454
 30
0.0
 11
249.3796380879
 21
137.4424729454
 31
0.0
  0
SOLID
  5
11D
330
119
100
AcDbEntity
  8
0
 62
     2
100
AcDbTrace
 10
249.6604218294559
 20
133.9424729454
 30
0.0
 11
248.7388543463441
 21
133.9424729454
 31
0.0
 12
249.1996380879
 22
137.4424729454
 32
0.0
 13
249.1996380879
 23
137.4424729454
 33
0.0
  0
SOLID
  5
11E
330
119
100
AcDbEntity
  8
0
 62
     2
100
AcDbTrace
 10
248.7388543463441
 20
108.9924729454
 30
0.0
 11
249.6604218294559
 21
108.9924729454
 31
0.0
 12
249.1996380879
 22
105.4924729454
 32
0.0
 13
249.1996380879
 23
105.4924729454
 33
0.0
  0
MTEXT
  5
11F
330
119
100
AcDbEntity
  8
0
 62
     5
100
AcDbMText
 10
246.5746380879
 20
113.8619729454
 30
0.0
 40
3.5
 41
0.0
 71
     7
 72
     1
  1
\C5;{\Fgdt;n}\C5;32
  7
CONVERTER_11
 11
0.0
 21
1.0
 31
0.0
 73
     1
 44
0.60024009603842
  0
ENDBLK
  5
121
330
119
100
AcDbEntity
  8
0
100
AcDbBlockEnd
  0
BLOCK
  5
12B
330
124
100
AcDbEntity
  8
0
100
AcDbBlockBegin
  2
*D3
 70
     1
 10
0.0
 20
0.0
 30
0.0
  3
*D3
  1

  0
LINE
  5
125
330
124
100
AcDbEntity
  8
0
  6
Continuous
 62
     2
100
AcDbLine
 10
100.7665415335
 20
187.8016303297
 30
0.0
 11
218.7665415335
 21
187.8016303297
 31
0.0
  0
LINE
  5
126
330
124
100
AcDbEntity
  8
0
  6
Continuous
 62
     2
100
AcDbLine
 10
100.7665415335
 20
102.8438571761
 30
0.0
 11
100.7665415335
 21
187.9816303297
 31
0.0
  0
LINE
  5
127
330
124
100
AcDbEntity
  8
0
  6
Continuous
 62
     2
100
AcDbLine
 10
218.7665415335
 20
111.0549729454
 30
0.0
 11
218.7665415335
 21
187.9816303297
 31
0.0
  0
SOLID
  5
128
330
124
100
AcDbEntity
  8
0
 62
     2
100
AcDbTrace
 10
215.2665415335
 20
187.3408465881441
 30
0.0
 11
215.2665415335
 21
188.2624140712559
 31
0.0
 12
218.7665415335
 22
187.8016303297
 32
0.0
 13
218.7665415335
 23
187.8016303297
 33
0.0
  0
SOLID
  5
129
330
124
100
AcDbEntity
  8
0
 62
     2
100
AcDbTrace
 10
104.2665415335
 20
188.2624140712559
 30
0.0
 11
104.2665415335
 21
187.3408465881441
 31
0.0
 12
100.7665415335
 22
187.8016303297
 32
0.0
 13
100.7665415335
 23
187.8016303297
 33
0.0
  0
MTEXT
  5
12A
330
124
100
AcDbEntity
  8
0
 62
     5
100
AcDbMText
 10
156.7530415335
 20
190.4266303297
 30
0.0
 40
3.5
 41
0.0
 71
     7
 72
     1
  1
118
  7
CONVERTER_11
 11
0.9999999999970619
 21
2.424068405545306E-6
 31
0.0
 73
     1
 44
0.60024009603842
  0
ENDBLK
  5
12C
330
124
100
AcDbEntity
  8
0
100
AcDbBlockEnd
  0
BLOCK
  5
136
330
12F
100
AcDbEntity
  8
0
100
AcDbBlockBegin
  2
*D4
 70
     1
 10
0.0
 20
0.0
 30
0.0
  3
*D4
  1

  0
LINE
  5
130
330
12F
100
AcDbEntity
  8
0
  6
Continuous
 62
     2
100
AcDbLine
 10
160.7665415335
 20
171.2947696495
 30
0.0
 11
218.7665415335
 21
171.2947696495
 31
0.0
  0
LINE
  5
131
330
12F
100
AcDbEntity
  8
0
  6
Continuous
 62
     2
100
AcDbLine
 10
160.7665415335
 20
145.8833476542
 30
0.0
 11
160.7665415335
 21
171.4747696495
 31
0.0
  0
LINE
  5
132
330
12F
100
AcDbEntity
  8
0
  6
Continuous
 62
     2
100
AcDbLine
 10
218.7665415335
 20
111.0549729454
 30
0.0
 11
218.7665415335
 21
171.4747696495
 31
0.0
  0
SOLID
  5
133
330
12F
100
AcDbEntity
  8
0
 62
     2
100
AcDbTrace
 10
215.2665415335
 20
170.8339859079441
 30
0.0
 11
215.2665415335
 21
171.7555533910559
 31
0.0
 12
218.7665415335
 22
171.2947696495
 32
0.0
 13
218.7665415335
 23
171.2947696495
 33
0.0
  0
SOLID
  5
134
330
12F
100
AcDbEntity
  8
0
 62
     2
100
AcDbTrace
 10
164.2665415335
 20
171.7555533910559
 30
0.0
 11
164.2665415335
 21
170.8339859079441
 31
0.0
 12
160.7665415335
 22
171.2947696495
 32
0.0
 13
160.7665415335
 23
171.2947696495
 33
0.0
  0
MTEXT
  5
135
330
12F
100
AcDbEntity
  8
0
 62
     5
100
AcDbMText
 10
187.7575415335
 20
173.9197696495
 30
0.0
 40
3.5
 41
0.0
 71
     7
 72
     1
  1
58
  7
CONVERTER_11
 11
0.9999999999970619
 21
2.424068405545306E-6
 31
0.0
 73
     1
 44
0.60024009603842
  0
ENDBLK
  5
137
330
12F
100
AcDbEntity
  8
0
100
AcDbBlockEnd
  0
BLOCK
  5
142
330
13A
100
AcDbEntity
  8
0
100
AcDbBlockBegin
  2
*D5
 70
     1
 10
0.0
 20
0.0
 30
0.0
  3
*D5
  1

  0
LINE
  5
13B
330
13A
100
AcDbEntity
  8
0
  6
Continuous
 62
     2
100
AcDbLine
 10
231.5933335247
 20
116.4777229454
 30
0.0
 11
231.5933335247
 21
109.4777229454
 31
0.0
  0
LINE
  5
13C
330
13A
100
AcDbEntity
  8
0
  6
Continuous
 62
     2
100
AcDbLine
 10
231.5933335247
 20
126.4572229454
 30
0.0
 11
231.5933335247
 21
133.4572229454
 31
0.0
  0
LINE
  5
13D
330
13A
100
AcDbEntity
  8
0
  6
Continuous
 62
     2
100
AcDbLine
 10
207.949385635
 20
126.4572229454
 30
0.0
 11
231.7733335247
 21
126.4572229454
 31
0.0
  0
LINE
  5
13E
330
13A
100
AcDbEntity
  8
0
  6
Continuous
 62
     2
100
AcDbLine
 10
208.092745635
 20
116.4777229454
 30
0.0
 11
231.7733335247
 21
116.4777229454
 31
0.0
  0
SOLID
  5
13F
330
13A
100
AcDbEntity
  8
0
 62
     2
100
AcDbTrace
 10
232.0541172662559
 20
112.9777229454
 30
0.0
 11
231.1325497831441
 21
112.9777229454
 31
0.0
 12
231.5933335247
 22
116.4777229454
 32
0.0
 13
231.5933335247
 23
116.4777229454
 33
0.0
  0
SOLID
  5
140
330
13A
100
AcDbEntity
  8
0
 62
     2
100
AcDbTrace
 10
231.1325497831441
 20
129.9572229454
 30
0.0
 11
232.0541172662559
 21
129.9572229454
 31
0.0
 12
231.5933335247
 22
126.4572229454
 32
0.0
 13
231.5933335247
 23
126.4572229454
 33
0.0
  0
MTEXT
  5
141
330
13A
100
AcDbEntity
  8
0
 62
     5
100
AcDbMText
 10
228.9683335247
 20
113.8619729454
 30
0.0
 40
3.5
 41
0.0
 71
     7
 72
     1
  1
\C5;{\Fgdt;n}\C5;10
  7
CONVERTER_11
 11
0.0
 21
1.0
 31
0.0
 73
     1
 44
0.60024009603842
  0
ENDBLK
  5
143
330
13A
100
AcDbEntity
  8
0
100
AcDbBlockEnd
  0
BLOCK
  5
14D
330
146
100
AcDbEntity
  8
0
100
AcDbBlockBegin
  2
*D6
 70
     1
 10
0.0
 20
0.0
 30
0.0
  3
*D6
  1

  0
LINE
  5
147
330
146
100
AcDbEntity
  8
0
  6
Continuous
 62
     2
100
AcDbLine
 10
218.7665415335
 20
178.5798490389
 30
0.0
 11
138.7665415335
 21
178.5798490389
 31
0.0
  0
LINE
  5
148
330
146
100
AcDbEntity
  8
0
  6
Continuous
 62
     2
100
AcDbLine
 10
218.7665415335
 20
130.8305476542
 30
0.0
 11
218.7665415335
 21
178.7598490389
 31
0.0
  0
LINE
  5
149
330
146
100
AcDbEntity
  8
0
  6
Continuous
 62
     2
100
AcDbLine
 10
138.7665415335
 20
147.4961476542
 30
0.0
 11
138.7665415335
 21
178.7598490389
 31
0.0
  0
SOLID
  5
14A
330
146
100
AcDbEntity
  8
0
 62
     2
100
AcDbTrace
 10
142.2665415335
 20
179.0406327804559
 30
0.0
 11
142.2665415335
 21
178.1190652973441
 31
0.0
 12
138.7665415335
 22
178.5798490389
 32
0.0
 13
138.7665415335
 23
178.5798490389
 33
0.0
  0
SOLID
  5
14B
330
146
100
AcDbEntity
  8
0
 62
     2
100
AcDbTrace
 10
215.2665415335
 20
178.1190652973441
 30
0.0
 11
215.2665415335
 21
179.0406327804559
 31
0.0
 12
218.7665415335
 22
178.5798490389
 32
0.0
 13
218.7665415335
 23
178.5798490389
 33
0.0
  0
MTEXT
  5
14C
330
146
100
AcDbEntity
  8
0
 62
     5
100
AcDbMText
 10
176.7575415335
 20
181.2048490389
 30
0.0
 40
3.5
 41
0.0
 71
     7
 72
     1
  1
80
  7
CONVERTER_11
 11
0.9999999999970619
 21
2.424068405545306E-6
 31
0.0
 73
     1
 44
0.60024009603842
  0
ENDBLK
  5
14E
330
146
100
AcDbEntity
  8
0
100
AcDbBlockEnd
  0
BLOCK
  5
158
330
151
100
AcDbEntity
  8
0
100
AcDbBlockBegin
  2
*D7
 70
     1
 10
0.0
 20
0.0
 30
0.0
  3
*D7
  1

  0
LINE
  5
152
330
151
100
AcDbEntity
  8
0
  6
Continuous
 62
     2
100
AcDbLine
 10
240.8923040018
 20
109.4924729454
 30
0.0
 11
240.8923040018
 21
133.4424729454
 31
0.0
  0
LINE
  5
153
330
151
100
AcDbEntity
  8
0
  6
Continuous
 62
     2
100
AcDbLine
 10
220.3290415335
 20
109.4924729454
 30
0.0
 11
241.0723040018
 21
109.4924729454
 31
0.0
  0
LINE
  5
154
330
151
100
AcDbEntity
  8
0
  6
Continuous
 62
     2
100
AcDbLine
 10
220.3290415335
 20
133.4424729454
 30
0.0
 11
241.0723040018
 21
133.4424729454
 31
0.0
  0
SOLID
  5
155
330
151
100
AcDbEntity
  8
0
 62
     2
100
AcDbTrace
 10
241.3530877433559
 20
129.9424729454
 30
0.0
 11
240.4315202602441
 21
129.9424729454
 31
0.0
 12
240.8923040018
 22
133.4424729454
 32
0.0
 13
240.8923040018
 23
133.4424729454
 33
0.0
  0
SOLID
  5
156
330
151
100
AcDbEntity
  8
0
 62
     2
100
AcDbTrace
 10
240.4315202602441
 20
112.9924729454
 30
0.0
 11
241.3530877433559
 21
112.9924729454
 31
0.0
 12
240.8923040018
 22
109.4924729454
 32
0.0
 13
240.8923040018
 23
109.4924729454
 33
0.0
  0
MTEXT
  5
157
330
151
100
AcDbEntity
  8
0
 62
     5
100
AcDbMText
 10
238.2673040018
 20
113.8619729454
 30
0.0
 40
3.5
 41
0.0
 71
     7
 72
     1
  1
\C5;{\Fgdt;n}\C5;24
  7
CONVERTER_11
 11
0.0
 21
1.0
 31
0.0
 73
     1
 44
0.60024009603842
  0
ENDBLK
  5
159
330
151
100
AcDbEntity
  8
0
100
AcDbBlockEnd
  0
ENDSEC
  0
SECTION
  2
ENTITIES
  0
INSERT
  5
6F
330
1F
100
AcDbEntity
  8
0
100
AcDbBlockReference
  2
_D2
 10
0.0
 20
0.0
 30
0.0
  0
POINT
  5
7F
330
1F
100
AcDbEntity
  8
0
 62
     7
100
AcDbPoint
 10
169.4417225888
 20
105.4924729454
 30
0.0
  0
POINT
  5
80
330
1F
100
AcDbEntity
  8
0
 62
     7
100
AcDbPoint
 10
169.4417225888
 20
137.4424729454
 30
0.0
  0
POINT
  5
81
330
1F
100
AcDbEntity
  8
0
 62
     7
100
AcDbPoint
 10
100.7665415335
 20
102.7813571761
 30
0.0
  0
POINT
  5
82
330
1F
100
AcDbEntity
  8
0
 62
     7
100
AcDbPoint
 10
218.7665415335
 20
110.9924729454
 30
0.0
  0
POINT
  5
83
330
1F
100
AcDbEntity
  8
0
 62
     7
100
AcDbPoint
 10
160.7665415335
 20
145.8208476542
 30
0.0
  0
POINT
  5
84
330
1F
100
AcDbEntity
  8
0
 62
     7
100
AcDbPoint
 10
218.7665415335
 20
110.9924729454
 30
0.0
  0
POINT
  5
85
330
1F
100
AcDbEntity
  8
0
 62
     7
100
AcDbPoint
 10
207.886885635
 20
126.4572229454
 30
0.0
  0
POINT
  5
86
330
1F
100
AcDbEntity
  8
0
 62
     7
100
AcDbPoint
 10
208.030245635
 20
116.4777229454
 30
0.0
  0
POINT
  5
87
330
1F
100
AcDbEntity
  8
0
 62
     7
100
AcDbPoint
 10
218.7665415335
 20
130.7680476542
 30
0.0
  0
POINT
  5
88
330
1F
100
AcDbEntity
  8
0
 62
     7
100
AcDbPoint
 10
138.7665415335
 20
147.4336476542
 30
0.0
  0
POINT
  5
89
330
1F
100
AcDbEntity
  8
0
 62
     7
100
AcDbPoint
 10
220.2665415335
 20
109.4924729454
 30
0.0
  0
POINT
  5
8A
330
1F
100
AcDbEntity
  8
0
 62
     7
100
AcDbPoint
 10
220.2665415335
 20
133.4424729454
 30
0.0
  0
LINE
  5
8B
330
1F
100
AcDbEntity
  8
RUNDUNGEN
  6
Continuous
 62
     9
100
AcDbLine
 10
175.8020060367
 20
116.4777229454
 30
0.0
 11
175.8020060367
 21
126.4572229454
 31
0.0
  0
LINE
  5
8C
330
1F
100
AcDbEntity
  8
RUNDUNGEN
  6
Continuous
 62
     9
100
AcDbLine
 10
175.8020060367
 20
126.4572229454
 30
0.0
 11
175.8020060367
 21
126.5162457904
 31
0.0
  0
LINE
  5
8D
330
1F
100
AcDbEntity
  8
0
  6
Continuous
 62
     7
100
AcDbLine
 10
136.7769431653
 20
98.0420881395
 30
0.0
 11
137.0195702844
 21
98.5907440701
 31
0.0
  0
LINE
  5
8E
330
1F
100
AcDbEntity
  8
ACHSEN
  6
Continuous
 62
     7
100
AcDbLine
 10
109.0301608815
 20
141.3940250213
 30
0.0
 11
109.0451118195
 21
141.3961307507
 31
0.0
  0
LINE
  5
8F
330
1F
100
AcDbEntity
  8
ACHSEN
  6
Continuous
 62
     7
100
AcDbLine
 10
107.1165415335
 20
141.0715242441
 30
0.0
 11
102.2665415335
 21
140.964462559
 31
0.0
  0
LINE
  5
90
330
1F
100
AcDbEntity
  8
FASEN
  6
Continuous
 62
     7
100
AcDbLine
 10
155.9525073394
 20
152.9613576639
 30
0.0
 11
155.988982868
 21
152.9674373836
 31
0.0
  0
LINE
  5
91
330
1F
100
AcDbEntity
  8
FASEN
  6
Continuous
 62
     7
100
AcDbLine
 10
145.5805722429
 20
152.9613582339
 30
0.0
 11
145.5441001145
 21
152.9674373861
 31
0.0
  0
LINE
  5
92
330
1F
100
AcDbEntity
  8
FASEN
  6
Continuous
 62
     7
100
AcDbLine
 10
145.699139596397
 20
152.941784243011
 30
0.0
 11
145.5805722429
 21
152.9613582339
 31
0.0
  0
LINE
  5
93
330
1F
100
AcDbEntity
  8
RUNDUNGEN
  6
Continuous
 62
     7
100
AcDbLine
 10
218.7665415335
 20
132.5180824538
 30
0.0
 11
218.7665415335
 21
110.4168634371
 31
0.0
  0
LINE
  5
94
330
1F
100
AcDbEntity
  8
RUNDUNGEN
  6
Continuous
 62
     9
100
AcDbLine
 10
217.8450006293
 20
109.4199461033
 30
0.0
 11
217.8450006293
 21
133.5149997875
 31
0.0
  0
LINE
  5
95
330
1F
100
AcDbEntity
  8
0
  6
Continuous
 62
     7
100
AcDbLine
 10
145.5447779585
 20
152.9674729454
 30
0.0
 11
139.0665416059
 21
152.9674729454
 31
0.0
  0
LINE
  5
96
330
1F
100
AcDbEntity
  8
0
  6
Continuous
 62
     7
100
AcDbLine
 10
160.7665415335
 20
152.9674729454
 30
0.0
 11
155.9883046824
 21
152.9674729454
 31
0.0
  0
LINE
  5
97
330
1F
100
AcDbEntity
  8
0
  6
Continuous
 62
     7
100
AcDbLine
 10
152.227866399
 20
151.5480657057
 30
0.0
 11
149.3052166681
 21
151.5480657057
 31
0.0
  0
LINE
  5
98
330
1F
100
AcDbEntity
  8
0
  6
Continuous
 62
     7
100
AcDbLine
 10
169.7676408393
 20
137.2987700626
 30
0.0
 11
217.8450006293
 21
133.5149997875
 31
0.0
  0
LINE
  5
99
330
1F
100
AcDbEntity
  8
0
  6
Continuous
 62
     9
100
AcDbLine
 10
102.2665415335
 20
137.1787175841
 30
0.0
 11
136.5666046226
 21
137.9250036941
 31
0.0
  0
LINE
  5
9A
330
1F
100
AcDbEntity
  8
0
  6
Continuous
 62
     7
100
AcDbLine
 10
127.9459028668
 20
141.8709912808
 30
0.0
 11
136.5666046226
 21
142.087573315
 31
0.0
  0
LINE
  5
9B
330
1F
100
AcDbEntity
  8
0
  6
Continuous
 62
     7
100
AcDbLine
 10
109.0301462876
 20
141.3957616356
 30
0.0
 11
118.8165415335
 21
141.6416299476
 31
0.0
  0
LINE
  5
9C
330
1F
100
AcDbEntity
  8
0
  6
Continuous
 62
     7
100
AcDbLine
 10
136.7715646447
 20
141.8926595152
 30
0.0
 11
138.3715646447
 21
141.9328570843
 31
0.0
  0
LINE
  5
9D
330
1F
100
AcDbEntity
  8
BEZUGSACHSEN
  6
Continuous
 62
     7
100
AcDbLine
 10
168.2665415335
 20
137.1424729454
 30
0.0
 11
169.2825669373
 21
137.1424729454
 31
0.0
  0
LINE
  5
9E
330
1F
100
AcDbEntity
  8
0
  6
Continuous
 62
     7
100
AcDbLine
 10
168.2665415335
 20
137.1424729454
 30
0.0
 11
169.2825669373
 21
137.1424729454
 31
0.0
  0
LINE
  5
9F
330
1F
100
AcDbEntity
  8
BEZUGSACHSEN
  6
Continuous
 62
     7
100
AcDbLine
 10
162.7665415335
 20
137.1424729454
 30
0.0
 11
163.2665415335
 21
137.1424729454
 31
0.0
  0
LINE
  5
A0
330
1F
100
AcDbEntity
  8
0
  6
Continuous
 62
     7
100
AcDbLine
 10
162.7665415335
 20
137.1424729454
 30
0.0
 11
163.2665415335
 21
137.1424729454
 31
0.0
  0
LINE
  5
A1
330
1F
100
AcDbEntity
  8
0
  6
Continuous
 62
     7
100
AcDbLine
 10
137.0195702844
 20
136.1572443781
 30
0.0
 11
136.7715646447
 21
136.1524151502
 31
0.0
  0
LINE
  5
A2
330
1F
100
AcDbEntity
  8
0
  6
Continuous
 62
     7
100
AcDbLine
 10
152.227866399
 20
130.8166942599
 30
0.0
 11
149.3052166681
 21
130.8166942599
 31
0.0
  0
LINE
  5
A3
330
1F
100
AcDbEntity
  8
0
  6
Continuous
 62
     7
100
AcDbLine
 10
136.7715646447
 20
129.6534161322
 30
0.0
 11
137.0195702844
 21
129.6544303881
 31
0.0
  0
LINE
  5
A4
330
1F
100
AcDbEntity
  8
RUNDUNGEN
  6
Continuous
 62
     9
100
AcDbLine
 10
175.8020060367
 20
116.4187001005
 30
0.0
 11
175.8020060367
 21
116.4777229454
 31
0.0
  0
LINE
  5
A5
330
1F
100
AcDbEntity
  8
0
  6
Continuous
 62
     9
100
AcDbLine
 10
100.7665415335
 20
126.692344076
 30
0.0
 11
136.5666046226
 21
126.692344076
 31
0.0
  0
LINE
  5
A6
330
1F
100
AcDbEntity
  8
BOHRUNGEN
  6
HIDDEN
 62
     8
100
AcDbLine
 10
175.8020060367
 20
126.4572229454
 30
0.0
 11
216.4665415335
 21
126.4572229454
 31
0.0
  0
LINE
  5
A7
330
1F
100
AcDbEntity
  8
0
  6
Continuous
 62
     7
100
AcDbLine
 10
169.7676408393
 20
137.2987700626
 30
0.0
 11
169.7676408393
 21
105.6361758282
 31
0.0
  0
LINE
  5
A8
330
1F
100
AcDbEntity
  8
RUNDUNGEN
  6
Continuous
 62
     9
100
AcDbLine
 10
169.6825669373
 20
105.6852932684
 30
0.0
 11
169.6825669373
 21
137.2496526224
 31
0.0
  0
LINE
  5
A9
330
1F
100
AcDbEntity
  8
RUNDUNGEN
  6
Continuous
 62
     9
100
AcDbLine
 10
169.2825669373
 20
105.7924729454
 30
0.0
 11
169.2825669373
 21
137.1424729454
 31
0.0
  0
LINE
  5
AA
330
1F
100
AcDbEntity
  8
S_ACHSEN
  6
CENTER
 62
     7
100
AcDbLine
 10
97.7665415335
 20
121.4674729454
 30
0.0
 11
222.7665415335
 21
121.4674729454
 31
0.0
  0
LINE
  5
AB
330
1F
100
AcDbEntity
  8
BEZUGSACHSEN
  6
CENTER
 62
     7
100
AcDbLine
 10
165.7665415335
 20
102.7924729454
 30
0.0
 11
165.7665415335
 21
116.4924729454
 31
0.0
  0
LINE
  5
AC
330
1F
100
AcDbEntity
  8
BEZUGSACHSEN
  6
CENTER
 62
     7
100
AcDbLine
 10
165.7665415335
 20
140.1424729454
 30
0.0
 11
165.7665415335
 21
126.4424729454
 31
0.0
  0
LINE
  5
AD
330
1F
100
AcDbEntity
  8
RUNDUNGEN
  6
Continuous
 62
     9
100
AcDbLine
 10
162.7665415335
 20
105.7924729454
 30
0.0
 11
162.7665415335
 21
137.1424729454
 31
0.0
  0
LINE
  5
AE
330
1F
100
AcDbEntity
  8
BOHRUNGEN
  6
HIDDEN
 62
     8
100
AcDbLine
 10
175.8020060367
 20
116.4777229454
 30
0.0
 11
216.4665415335
 21
116.4777229454
 31
0.0
  0
LINE
  5
AF
330
1F
100
AcDbEntity
  8
0
  6
Continuous
 62
     7
100
AcDbLine
 10
152.227866399
 20
112.1182516309
 30
0.0
 11
149.3052166681
 21
112.1182516309
 31
0.0
  0
LINE
  5
B0
330
1F
100
AcDbEntity
  8
0
  6
Continuous
 62
     7
100
AcDbLine
 10
137.4594347524
 20
98.7245797266
 30
0.0
 11
136.7769443561
 21
98.0420893303
 31
0.0
  0
LINE
  5
B1
330
1F
100
AcDbEntity
  8
0
  6
Continuous
 62
     7
100
AcDbLine
 10
160.7665415335
 20
89.9674729454
 30
0.0
 11
160.7665415335
 21
152.9674729454
 31
0.0
  0
LINE
  5
B2
330
1F
100
AcDbEntity
  8
0
  6
Continuous
 62
     7
100
AcDbLine
 10
169.6825669373
 20
105.6852932684
 30
0.0
 11
169.7676408393
 21
105.6361758282
 31
0.0
  0
LINE
  5
B3
330
1F
100
AcDbEntity
  8
0
  6
Continuous
 62
     9
100
AcDbLine
 10
152.6608791008
 20
111.5980603264
 30
0.0
 11
152.6608791008
 21
91.5535180989
 31
0.0
  0
LINE
  5
B4
330
1F
100
AcDbEntity
  8
0
  6
Continuous
 62
     9
100
AcDbLine
 10
152.6608791008
 20
151.3814277919
 30
0.0
 11
152.6608791008
 21
131.3368855644
 31
0.0
  0
LINE
  5
B5
330
1F
100
AcDbEntity
  8
0
  6
Continuous
 62
     9
100
AcDbLine
 10
152.227866399
 20
112.1182516309
 30
0.0
 11
152.227866399
 21
91.3868801851
 31
0.0
  0
LINE
  5
B6
330
1F
100
AcDbEntity
  8
0
  6
Continuous
 62
     9
100
AcDbLine
 10
152.227866399
 20
151.5480657057
 30
0.0
 11
152.227866399
 21
130.8166942599
 31
0.0
  0
LINE
  5
B7
330
1F
100
AcDbEntity
  8
ACHSEN
  6
CENTER
 62
     7
100
AcDbLine
 10
150.7665415335
 20
145.7471549741
 30
0.0
 11
150.7665415335
 21
155.9674729454
 31
0.0
  0
LINE
  5
B8
330
1F
100
AcDbEntity
  8
BEZUGSACHSEN
  6
Continuous
 62
     7
100
AcDbLine
 10
168.2665415335
 20
105.7924729454
 30
0.0
 11
169.2825669373
 21
105.7924729454
 31
0.0
  0
LINE
  5
B9
330
1F
100
AcDbEntity
  8
0
  6
Continuous
 62
     7
100
AcDbLine
 10
168.2665415335
 20
105.7924729454
 30
0.0
 11
169.2825669373
 21
105.7924729454
 31
0.0
  0
LINE
  5
BA
330
1F
100
AcDbEntity
  8
0
  6
Continuous
 62
     7
100
AcDbLine
 10
162.7665415335
 20
105.7924729454
 30
0.0
 11
163.2665415335
 21
105.7924729454
 31
0.0
  0
LINE
  5
BB
330
1F
100
AcDbEntity
  8
0
  6
Continuous
 62
     7
100
AcDbLine
 10
217.8450006293
 20
109.4199461033
 30
0.0
 11
169.7676408393
 21
105.6361758282
 31
0.0
  0
LINE
  5
BC
330
1F
100
AcDbEntity
  8
RUNDUNGEN
  6
Continuous
 62
     7
100
AcDbLine
 10
169.6825669373
 20
137.2496526224
 30
0.0
 11
169.7676408393
 21
137.2987700626
 31
0.0
  0
LINE
  5
BD
330
1F
100
AcDbEntity
  8
0
  6
Continuous
 62
     7
100
AcDbLine
 10
169.6825669373
 20
137.2496526224
 30
0.0
 11
169.7676408393
 21
137.2987700626
 31
0.0
  0
LINE
  5
BE
330
1F
100
AcDbEntity
  8
0
  6
Continuous
 62
     9
100
AcDbLine
 10
149.3052166681
 20
112.1182516309
 30
0.0
 11
149.3052166681
 21
91.3868801851
 31
0.0
  0
LINE
  5
BF
330
1F
100
AcDbEntity
  8
0
  6
Continuous
 62
     9
100
AcDbLine
 10
149.3052166681
 20
151.5480657057
 30
0.0
 11
149.3052166681
 21
130.8166942599
 31
0.0
  0
LINE
  5
C0
330
1F
100
AcDbEntity
  8
0
  6
Continuous
 62
     9
100
AcDbLine
 10
148.8722039662
 20
111.5980603264
 30
0.0
 11
148.8722039662
 21
91.5535180989
 31
0.0
  0
LINE
  5
C1
330
1F
100
AcDbEntity
  8
0
  6
Continuous
 62
     9
100
AcDbLine
 10
148.8722039662
 20
151.3814277919
 30
0.0
 11
148.8722039662
 21
131.3368855644
 31
0.0
  0
LINE
  5
C2
330
1F
100
AcDbEntity
  8
0
  6
Continuous
 62
     7
100
AcDbLine
 10
102.2665415335
 20
98.9091095487
 30
0.0
 11
136.7769443564
 21
98.0420881096
 31
0.0
  0
LINE
  5
C3
330
1F
100
AcDbEntity
  8
0
  6
Continuous
 62
     7
100
AcDbLine
 10
137.0195702844
 20
98.5907440701
 30
0.0
 11
136.7715646447
 21
98.5965875539
 31
0.0
  0
LINE
  5
C4
330
1F
100
AcDbEntity
  8
0
  6
Continuous
 62
     9
100
AcDbLine
 10
136.5666046226
 20
99.7850710662
 30
0.0
 11
102.2665415335
 21
100.5313571761
 31
0.0
  0
LINE
  5
C5
330
1F
100
AcDbEntity
  8
0
  6
Continuous
 62
     7
100
AcDbLine
 10
152.227866399
 20
91.3868801851
 30
0.0
 11
149.3052166681
 21
91.3868801851
 31
0.0
  0
LINE
  5
C6
330
1F
100
AcDbEntity
  8
0
  6
Continuous
 62
     7
100
AcDbLine
 10
138.5664766817
 20
100.057304854
 30
0.0
 11
138.5665415335
 21
126.055804493
 31
0.0
  0
LINE
  5
C7
330
1F
100
AcDbEntity
  8
0
  6
Continuous
 62
     7
100
AcDbLine
 10
138.5664766817
 20
138.2570475312
 30
0.0
 11
138.5665415335
 21
144.0009578064
 31
0.0
  0
LINE
  5
C8
330
1F
100
AcDbEntity
  8
0
  6
Continuous
 62
     7
100
AcDbLine
 10
139.0665416071
 20
89.9674729454
 30
0.0
 11
139.0665416071
 21
152.9674729454
 31
0.0
  0
LINE
  5
C9
330
1F
100
AcDbEntity
  8
0
  6
Continuous
 62
     7
100
AcDbLine
 10
138.7665415335
 20
90.267748615
 30
0.0
 11
138.7665415335
 21
152.6671972759
 31
0.0
  0
LINE
  5
CA
330
1F
100
AcDbEntity
  8
0
  6
Continuous
 62
     9
100
AcDbLine
 10
138.3715646447
 20
126.6504233986
 30
0.0
 11
138.3715646447
 21
99.9400442053
 31
0.0
  0
LINE
  5
CB
330
1F
100
AcDbEntity
  8
0
  6
Continuous
 62
     9
100
AcDbLine
 10
138.3715646447
 20
141.9328570843
 30
0.0
 11
138.3715646447
 21
137.8119512324
 31
0.0
  0
LINE
  5
CC
330
1F
100
AcDbEntity
  8
0
  6
Continuous
 62
     9
100
AcDbLine
 10
137.4594347524
 20
127.8820127062
 30
0.0
 11
137.4594347524
 21
137.1564898356
 31
0.0
  0
LINE
  5
CD
330
1F
100
AcDbEntity
  8
0
  6
Continuous
 62
     9
100
AcDbLine
 10
137.4594347524
 20
98.7245797266
 30
0.0
 11
137.4594347524
 21
99.3639162945
 31
0.0
  0
LINE
  5
CE
330
1F
100
AcDbEntity
  8
0
  6
Continuous
 62
     9
100
AcDbLine
 10
136.7715646447
 20
129.6534161322
 30
0.0
 11
136.7715646447
 21
98.5965875539
 31
0.0
  0
LINE
  5
CF
330
1F
100
AcDbEntity
  8
0
  6
Continuous
 62
     9
100
AcDbLine
 10
136.7715646447
 20
141.8926595152
 30
0.0
 11
136.7715646447
 21
136.1524151502
 31
0.0
  0
LINE
  5
D0
330
1F
100
AcDbEntity
  8
0
  6
Continuous
 62
     7
100
AcDbLine
 10
136.5666046226
 20
126.692344076
 30
0.0
 11
136.5666046226
 21
99.7850710662
 31
0.0
  0
LINE
  5
D1
330
1F
100
AcDbEntity
  8
0
  6
Continuous
 62
     7
100
AcDbLine
 10
136.5666046226
 20
142.087573315
 30
0.0
 11
136.5666046226
 21
137.9250036941
 31
0.0
  0
LINE
  5
D2
330
1F
100
AcDbEntity
  8
0
  6
Continuous
 62
     7
100
AcDbLine
 10
160.7665415335
 20
89.9674729454
 30
0.0
 11
139.0665416059
 21
89.9674729454
 31
0.0
  0
LINE
  5
D3
330
1F
100
AcDbEntity
  8
0
  6
Continuous
 62
     7
100
AcDbLine
 10
138.7665433695
 20
90.2674748528
 30
0.0
 11
139.0665434594
 21
89.9674747989
 31
0.0
  0
LINE
  5
D4
330
1F
100
AcDbEntity
  8
0
  6
Continuous
 62
     9
100
AcDbLine
 10
102.2665415335
 20
100.5313571761
 30
0.0
 11
100.7665415335
 21
101.2813571761
 31
0.0
  0
LINE
  5
D5
330
1F
100
AcDbEntity
  8
ACHSEN
  6
CENTER
 62
     7
100
AcDbLine
 10
123.2665415335
 20
98.5339874384
 30
0.0
 11
123.2665415335
 21
145.65584351
 31
0.0
  0
LINE
  5
D6
330
1F
100
AcDbEntity
  8
0
  6
Continuous
 62
     7
100
AcDbLine
 10
102.2665415335
 20
98.9091095487
 30
0.0
 11
100.7665415335
 21
99.7751349525
 31
0.0
  0
LINE
  5
D7
330
1F
100
AcDbEntity
  8
0
  6
Continuous
 62
     9
100
AcDbLine
 10
102.2665415335
 20
137.1787175841
 30
0.0
 11
100.7665415335
 21
136.4287175841
 31
0.0
  0
LINE
  5
D8
330
1F
100
AcDbEntity
  8
0
  6
Continuous
 62
     7
100
AcDbLine
 10
138.7665433695
 20
152.6674710381
 30
0.0
 11
139.0665434594
 21
152.967471092
 31
0.0
  0
LINE
  5
D9
330
1F
100
AcDbEntity
  8
0
  6
Continuous
 62
     7
100
AcDbLine
 10
102.2665415335
 20
137.1787175841
 30
0.0
 11
102.2665415335
 21
98.9091095487
 31
0.0
  0
LINE
  5
DA
330
1F
100
AcDbEntity
  8
ACHSEN
  6
Continuous
 62
     7
100
AcDbLine
 10
102.2665415335
 20
140.964462559
 30
0.0
 11
102.2665415335
 21
137.1787175841
 31
0.0
  0
LINE
  5
DB
330
1F
100
AcDbEntity
  8
ACHSEN
  6
Continuous
 62
     7
100
AcDbLine
 10
100.7665415335
 20
136.4287175841
 30
0.0
 11
100.7665415335
 21
140.2159522594
 31
0.0
  0
LINE
  5
DC
330
1F
100
AcDbEntity
  8
0
  6
Continuous
 62
     7
100
AcDbLine
 10
100.7665415335
 20
99.7751349525
 30
0.0
 11
100.7665415335
 21
136.4287175841
 31
0.0
  0
LINE
  5
DD
330
1F
100
AcDbEntity
  8
0
  6
Continuous
 62
     7
100
AcDbLine
 10
297.0
 20
0.0
 30
0.0
 11
297.0
 21
210.0
 31
0.0
  0
LINE
  5
DE
330
1F
100
AcDbEntity
  8
0
  6
Continuous
 62
     7
100
AcDbLine
 10
0.0
 20
210.0
 30
0.0
 11
297.0
 21
210.0
 31
0.0
  0
LINE
  5
DF
330
1F
100
AcDbEntity
  8
0
  6
Continuous
 62
     7
100
AcDbLine
 10
0.0
 20
0.0
 30
0.0
 11
297.0
 21
0.0
 31
0.0
  0
LINE
  5
E0
330
1F
100
AcDbEntity
  8
0
  6
Continuous
 62
     7
100
AcDbLine
 10
0.0
 20
0.0
 30
0.0
 11
0.0
 21
210.0
 31
0.0
  0
ARC
  5
E1
330
1F
100
AcDbEntity
  8
RUNDUNGEN
  6
Continuous
 62
     7
100
AcDbCircle
 10
169.2825669373
 20
104.9924729454
 30
0.0
 40
0.7999999999761487
100
AcDbArc
 50
59.99999999901328
 51
90.0
  0
ARC
  5
E2
330
1F
100
AcDbEntity
  8
RUNDUNGEN
  6
Continuous
 62
     7
100
AcDbCircle
 10
169.2825669373
 20
137.9424729454
 30
0.0
 40
0.8000000000000114
100
AcDbArc
 50
270.0
 51
300.0000000009867
  0
ARC
  5
E3
330
1F
100
AcDbEntity
  8
RUNDUNGEN
  6
Continuous
 62
     7
100
AcDbCircle
 10
217.7665415335
 20
110.4168634371
 30
0.0
 40
1.000000000072325
100
AcDbArc
 50
274.50000000382
 51
0.0
  0
ARC
  5
E4
330
1F
100
AcDbEntity
  8
RUNDUNGEN
  6
Continuous
 62
     7
100
AcDbCircle
 10
217.7665415335
 20
132.5180824538
 30
0.0
 40
1.0
100
AcDbArc
 50
0.0
 51
85.49999999573048
  0
ARC
  5
E5
330
1F
100
AcDbEntity
  8
RUNDUNGEN
  6
Continuous
 62
     7
100
AcDbCircle
 10
162.7665415335
 20
103.7924729454
 30
0.0
 40
2.0
100
AcDbArc
 50
90.0
 51
179.9999999985959
  0
ARC
  5
E6
330
1F
100
AcDbEntity
  8
RUNDUNGEN
  6
Continuous
 62
     7
100
AcDbCircle
 10
162.7665415335
 20
139.1424729454
 30
0.0
 40
2.0
100
AcDbArc
 50
180.0000000010886
 51
270.0
  0
ARC
  5
E7
330
1F
100
AcDbEntity
  8
0
  6
Continuous
 62
     2
100
AcDbCircle
 10
165.7665415335
 20
121.4674729454
 30
0.0
 40
2.999999999999601
100
AcDbArc
 50
255.0461022646992
 51
194.9306596185934
  0
ARC
  5
E8
330
1F
100
AcDbEntity
  8
BEZUGSACHSEN
  6
Continuous
 62
     7
100
AcDbCircle
 10
165.7653075319
 20
152.416101305
 30
0.0
 40
15.4742746258005
100
AcDbArc
 50
268.7906851270991
 51
271.2074565287007
  0
ARC
  5
E9
330
1F
100
AcDbEntity
  8
BEZUGSACHSEN
  6
Continuous
 62
     7
100
AcDbCircle
 10
165.7677768704
 20
90.5188383014
 30
0.0
 40
15.47428091040001
100
AcDbArc
 50
88.79027913189995
 51
91.20792004110012
  0
ARC
  5
EA
330
1F
100
AcDbEntity
  8
BEZUGSACHSEN
  6
Continuous
 62
     7
100
AcDbCircle
 10
165.782035374
 20
152.7932452207
 30
0.0
 40
15.85163657402265
100
AcDbArc
 50
260.8691413470477
 51
268.7679516489991
  0
ARC
  5
EB
330
1F
100
AcDbEntity
  8
BEZUGSACHSEN
  6
Continuous
 62
     7
100
AcDbCircle
 10
165.7510446158
 20
90.1416683894
 30
0.0
 40
15.85166893399772
100
AcDbArc
 50
80.86914888114559
 51
88.7675503962013
  0
ARC
  5
EC
330
1F
100
AcDbEntity
  8
0
  6
Continuous
 62
     7
100
AcDbCircle
 10
283.0007143071
 20
72.4932750746
 30
0.0
 40
159.2595221569076
100
AcDbArc
 50
156.0446773747703
 51
156.4374589830737
  0
ARC
  5
ED
330
1F
100
AcDbEntity
  8
FASEN
  6
Continuous
 62
     7
100
AcDbCircle
 10
150.7793373259
 20
183.7068514772
 30
0.0
 40
31.18095518040501
100
AcDbArc
 50
261.4631256399553
 51
269.9764874130771
  0
ARC
  5
EE
330
1F
100
AcDbEntity
  8
FASEN
  6
Continuous
 62
     7
100
AcDbCircle
 10
150.727187389
 20
184.0620671895
 30
0.0
 40
31.53619282229983
100
AcDbArc
 50
270.0714996570998
 51
278.491963657866
  0
ARC
  5
EF
330
1F
100
AcDbEntity
  8
FASEN
  6
Continuous
 62
     7
100
AcDbCircle
 10
150.477783719
 20
185.7859725688
 30
0.0
 40
33.27802886219973
100
AcDbArc
 50
278.4783603688994
 51
278.9327533435002
  0
ARC
  5
F0
330
1F
100
AcDbEntity
  8
FASEN
  6
Continuous
 62
     7
100
AcDbCircle
 10
151.0842476517
 20
185.9870918054
 30
0.0
 40
33.48121474289984
100
AcDbArc
 50
260.7443620715999
 51
261.5263749964007
  0
ARC
  5
F1
330
1F
100
AcDbEntity
  8
ACHSEN
  6
Continuous
 62
     7
100
AcDbCircle
 10
37.0083245558
 20
269.8634124976
 30
0.0
 40
144.4768984245963
100
AcDbArc
 50
296.187103938927
 51
296.8519184684521
  0
ARC
  5
F2
330
1F
100
AcDbEntity
  8
0
  6
Continuous
 62
     7
100
AcDbCircle
 10
136.7665415335
 20
142.0925964261
 30
0.0
 40
0.1999999999633866
100
AcDbArc
 50
181.4391666598508
 51
271.4391666884861
  0
ARC
  5
F3
330
1F
100
AcDbEntity
  8
0
  6
Continuous
 62
     7
100
AcDbCircle
 10
138.3665415335
 20
142.1327939952
 30
0.0
 40
0.1999999999658979
100
AcDbArc
 50
271.4391666884861
 51
0.0
  0
ARC
  5
F4
330
1F
100
AcDbEntity
  8
0
  6
Continuous
 62
     7
100
AcDbCircle
 10
138.1665415335
 20
144.9174729454
 30
0.0
 40
1.00000000000807
100
AcDbArc
 50
293.5781784779986
 51
306.9599393197838
  0
ARC
  5
F5
330
1F
100
AcDbEntity
  8
0
  6
Continuous
 62
     7
100
AcDbCircle
 10
138.1665415335
 20
98.0174729454
 30
0.0
 40
0.999999999999785
100
AcDbArc
 50
53.04006068021279
 51
134.9999999959491
  0
ARC
  5
F6
330
1F
100
AcDbEntity
  8
0
  6
Continuous
 62
     7
100
AcDbCircle
 10
30.014530338
 20
102.1579841161
 30
0.0
 40
110.4813700653818
100
AcDbArc
 50
13.46409039975252
 51
14.41116213517377
  0
CIRCLE
  5
F7
330
1F
100
AcDbEntity
  8
BEZUGSACHSEN
  6
Continuous
 62
     7
100
AcDbCircle
 10
165.7665415335
 20
121.4674729454
 30
0.0
 40
2.5
  0
SPLINE
  5
F8
330
1F
100
AcDbEntity
  8
0
  6
Continuous
 62
     7
100
AcDbSpline
210
0.0
220
0.0
230
1.0
 70
     8
 71
     3
 72
    15
 73
    11
 74
     9
 42
0.0000000001
 43
0.0000000001
 44
0.00000001
 40
0.0
 40
0.0
 40
0.0
 40
0.0
 40
2.768071363099986
 40
5.543987163860132
 40
7.42904583953417
 40
9.310745244023655
 40
11.52272334203722
 40
13.73599890381794
 40
17.16735239739516
 40
20.59799187461145
 40
20.59799187461145
 40
20.59799187461145
 40
20.59799187461145
 10
152.660879101171
 20
91.5535180993069
 30
0.0
 10
153.1418687145134
 20
92.35102810717632
 30
0.0
 10
154.1052110177023
 20
93.94830818659108
 30
0.0
 10
154.4831529921106
 20
96.44018205037868
 30
0.0
 10
154.6249560299459
 20
98.61136579594975
 30
0.0
 10
154.5921151231933
 20
100.607408834612
 30
0.0
 10
154.43043069651
 20
102.7042169681587
 30
0.0
 10
154.0821465305059
 20
105.3008428263212
 30
0.0
 10
153.5227195959927
 20
108.2764463207356
 30
0.0
 10
152.9481393367801
 20
110.4909324664025
 30
0.0
 10
152.6608791008
 20
111.5980603264
 30
0.0
 11
152.660879101171
 21
91.5535180993069
 31
0.0
 11
153.9340046098367
 21
94.01143805536708
 31
0.0
 11
154.4801994675329
 21
96.73308823684451
 31
0.0
 11
154.5994007677048
 21
98.61437430248452
 31
0.0
 11
154.5765068491847
 21
100.495934431035
 31
0.0
 11
154.4097944432567
 21
102.7016211902557
 31
0.0
 11
154.1211193426229
 21
104.8959902108741
 31
0.0
 11
153.484771117823
 21
108.2678217212967
 31
0.0
 11
152.6608791008
 21
111.5980603264
 31
0.0
  0
SPLINE
  5
F9
330
1F
100
AcDbEntity
  8
0
  6
Continuous
 62
     7
100
AcDbSpline
210
0.0
220
0.0
230
1.0
 70
     8
 71
     3
 72
    15
 73
    11
 74
     9
 42
0.0000000001
 43
0.0000000001
 44
0.00000001
 40
0.0
 40
0.0
 40
0.0
 40
0.0
 40
4.908005104137999
 40
9.815816966999346
 40
11.81736697909055
 40
13.81798377143664
 40
15.47664584385809
 40
17.13807096930761
 40
18.87967153826355
 40
20.60869205864738
 40
20.60869205864738
 40
20.60869205864738
 40
20.60869205864738
 10
148.872203966408
 20
111.598060324906
 30
0.0
 10
148.4705441831975
 20
110.0115194281462
 30
0.0
 10
147.6672404311956
 20
106.8385001009813
 30
0.0
 10
147.0955145491481
 20
102.9307861228821
 30
0.0
 10
146.914858394523
 20
99.96486344984314
 30
0.0
 10
146.9284660628807
 20
98.0765869419384
 30
0.0
 10
147.0739989198866
 20
96.30571544954661
 30
0.0
 10
147.3875105922927
 20
94.64838699986888
 30
0.0
 10
147.8915129398565
 20
92.99400101031767
 30
0.0
 10
148.5460978545382
 20
92.03251736437478
 30
0.0
 10
148.872203966581
 20
91.5535180985215
 30
0.0
 11
148.872203966408
 21
111.598060324906
 31
0.0
 11
147.7493311349945
 21
106.8202291530543
 31
0.0
 11
147.0528835996914
 21
101.9620836105851
 31
0.0
 11
146.9375418829949
 21
99.96385971439837
 31
0.0
 11
146.9565762178547
 21
97.96333347265255
 31
0.0
 11
147.1025827070393
 21
96.31111012951598
 31
0.0
 11
147.4119637242332
 21
94.67874471893077
 31
0.0
 11
147.9717545339049
 21
93.02956104474683
 31
0.0
 11
148.872203966581
 21
91.5535180985215
 31
0.0
  0
SPLINE
  5
FA
330
1F
100
AcDbEntity
  8
0
  6
Continuous
 62
     7
100
AcDbSpline
210
0.0
220
0.0
230
1.0
 70
     8
 71
     3
 72
    15
 73
    11
 74
     9
 42
0.0000000001
 43
0.0000000001
 44
0.00000001
 40
0.0
 40
0.0
 40
0.0
 40
0.0
 40
2.768071362230396
 40
5.543987162613067
 40
7.42904583811252
 40
9.31074524242625
 40
11.52272334027883
 40
13.73599890189864
 40
17.16735239697658
 40
20.59799187648066
 40
20.59799187648066
 40
20.59799187648066
 40
20.59799187648066
 10
148.8722039662
 20
151.3814277919
 30
0.0
 10
148.3912143529157
 20
150.5839177843368
 30
0.0
 10
147.4278720497572
 20
148.9866377053928
 30
0.0
 10
147.0499300752045
 20
146.4947638421046
 30
0.0
 10
146.9081270371927
 20
144.3235800967891
 30
0.0
 10
146.9409679438061
 20
142.3275370582941
 30
0.0
 10
147.1026523703497
 20
140.2307289249026
 30
0.0
 10
147.4509365362754
 20
137.6341030663343
 30
0.0
 10
148.0103634708991
 20
134.6584995706982
 30
0.0
 10
148.5849437307905
 20
132.4440134238988
 30
0.0
 10
148.872203967143
 20
131.336885563208
 30
0.0
 11
148.8722039662
 21
151.3814277919
 31
0.0
 11
147.5990784576462
 21
148.9235078367612
 31
0.0
 11
147.0528835997588
 21
146.2018576557071
 31
0.0
 11
146.9336822994375
 21
144.3205715902515
 31
0.0
 11
146.9565762178225
 21
142.4390114618752
 31
0.0
 11
147.1232886236053
 21
140.233324702805
 31
0.0
 11
147.4119637241028
 21
138.0389556823309
 31
0.0
 11
148.0483119491443
 21
134.6671241704267
 31
0.0
 11
148.872203967143
 21
131.336885563208
 31
0.0
  0
SPLINE
  5
FB
330
1F
100
AcDbEntity
  8
0
  6
Continuous
 62
     7
100
AcDbSpline
210
0.0
220
0.0
230
1.0
 70
     8
 71
     3
 72
    15
 73
    11
 74
     9
 42
0.0000000001
 43
0.0000000001
 44
0.00000001
 40
0.0
 40
0.0
 40
0.0
 40
0.0
 40
4.908005104415901
 40
9.815816967555033
 40
11.81736697981859
 40
13.81798377233677
 40
15.47664584493369
 40
17.13807097055927
 40
18.87967154027399
 40
20.6086920609603
 40
20.6086920609603
 40
20.6086920609603
 40
20.6086920609603
 10
152.660879099957
 20
131.336885563208
 30
0.0
 10
153.0625388832522
 20
132.9234264600419
 30
0.0
 10
153.8658426354237
 20
136.0964457873549
 30
0.0
 10
154.437568517696
 20
140.0041597656643
 30
0.0
 10
154.6182246725203
 20
142.9700824388987
 30
0.0
 10
154.6046170043002
 20
144.8583589469769
 30
0.0
 10
154.4590841474373
 20
146.6292304395563
 30
0.0
 10
154.1455724751356
 20
148.286558889625
 30
0.0
 10
153.6415701276945
 20
149.9409448796615
 30
0.0
 10
152.9869852128708
 20
150.9024285259414
 30
0.0
 10
152.6608791008
 20
151.3814277919
 30
0.0
 11
152.660879099957
 21
131.336885563208
 31
0.0
 11
153.7837519316285
 21
136.1147167352846
 31
0.0
 11
154.4801994672168
 21
140.9728622779934
 31
0.0
 11
154.5955411840501
 21
142.9710861743449
 31
0.0
 11
154.576506849338
 21
144.9716124162643
 31
0.0
 11
154.4305003602853
 21
146.6238357595886
 31
0.0
 11
154.1211193432411
 21
148.2562011703814
 31
0.0
 11
153.5613285335303
 21
149.9053848453534
 31
0.0
 11
152.6608791008
 21
151.3814277919
 31
0.0
  0
SPLINE
  5
FC
330
1F
100
AcDbEntity
  8
0
  6
Continuous
 62
     7
100
AcDbSpline
210
0.0
220
0.0
230
1.0
 70
     8
 71
     3
 72
    17
 73
    13
 74
    11
 42
0.0000000001
 43
0.0000000001
 44
0.00000001
 40
0.0
 40
0.0
 40
0.0
 40
0.0
 40
0.046403638375913
 40
0.0929793006390313
 40
0.1389666755286423
 40
0.1849386862303775
 40
0.2751119356763544
 40
0.3657048667841764
 40
0.4550230513710536
 40
0.5441812924481244
 40
0.632789235198302
 40
0.7213876675985406
 40
0.7213876675985406
 40
0.7213876675985406
 40
0.7213876675985406
 10
149.3052166681
 20
130.8166942599
 30
0.0
 10
149.2897310099908
 20
130.817591971218
 30
0.0
 10
149.2587022865693
 20
130.8193907217781
 30
0.0
 10
149.2139362428544
 20
130.8326842033899
 30
0.0
 10
149.1720831387328
 20
130.8524985548016
 30
0.0
 10
149.1213358353172
 20
130.8861381847694
 30
0.0
 10
149.0658969604684
 20
130.9382962160014
 30
0.0
 10
149.0114409398105
 20
131.0103233161089
 30
0.0
 10
148.9659310867997
 20
131.0878025517201
 30
0.0
 10
148.9285002985747
 20
131.1686849455098
 30
0.0
 10
148.8969598060231
 20
131.2517835518804
 30
0.0
 10
148.8804556175576
 20
131.3085192418612
 30
0.0
 10
148.8722039662
 20
131.3368855644
 30
0.0
 11
149.3052166681
 21
130.8166942599
 31
0.0
 11
149.2590279053704
 21
130.8211547365599
 31
0.0
 11
149.2142159922974
 21
130.8338505926549
 31
0.0
 11
149.1726185651096
 21
130.8534590780781
 31
0.0
 11
149.1341812397118
 21
130.8786780745732
 31
0.0
 11
149.0679284080068
 21
130.9398481424719
 31
0.0
 11
149.0126659345993
 21
131.0116335044866
 31
0.0
 11
148.9671999539689
 21
131.0885138186328
 31
0.0
 11
148.9293951015147
 21
131.1692602432154
 31
0.0
 11
148.8980785476579
 21
131.2521495728843
 31
0.0
 11
148.8722039662
 21
131.3368855644
 31
0.0
  0
SPLINE
  5
FD
330
1F
100
AcDbEntity
  8
0
  6
Continuous
 62
     7
100
AcDbSpline
210
0.0
220
0.0
230
1.0
 70
     8
 71
     3
 72
    11
 73
     7
 74
     5
 42
0.0000000001
 43
0.0000000001
 44
0.00000001
 40
0.0
 40
0.0
 40
0.0
 40
0.0
 40
0.0396097710866932
 40
0.0793139643108445
 40
0.2768296850181582
 40
0.4765470267516813
 40
0.4765470267516813
 40
0.4765470267516813
 40
0.4765470267516813
 10
148.8722039662
 20
151.3814277919
 30
0.0
 10
148.8810062433014
 20
151.3912920222575
 30
0.0
 10
148.8986317804534
 20
151.4110439974159
 30
0.0
 10
148.9693041860802
 20
151.4706364166251
 30
0.0
 10
149.1056858602274
 20
151.5348698942411
 30
0.0
 10
149.2384611013668
 20
151.5436508793289
 30
0.0
 10
149.3052166681
 20
151.5480657057
 30
0.0
 11
148.8722039662
 21
151.3814277919
 31
0.0
 11
148.8992649082761
 21
151.4103525110775
 31
0.0
 11
148.9293938830932
 21
151.4362111234929
 31
0.0
 11
149.1071710038198
 21
151.5222794409661
 31
0.0
 11
149.3052166681
 21
151.5480657057
 31
0.0
  0
SPLINE
  5
FE
330
1F
100
AcDbEntity
  8
0
  6
Continuous
 62
     7
100
AcDbSpline
210
0.0
220
0.0
230
1.0
 70
     8
 71
     3
 72
    17
 73
    13
 74
    11
 42
0.0000000001
 43
0.0000000001
 44
0.00000001
 40
0.0
 40
0.0
 40
0.0
 40
0.0
 40
0.0885925199630573
 40
0.1771938736111393
 40
0.266344520655365
 40
0.355657627756487
 40
0.4462461945575282
 40
0.5364096409878302
 40
0.5823867488927119
 40
0.6283820435297927
 40
0.6749717295754685
 40
0.7213871307581216
 40
0.7213871307581216
 40
0.7213871307581216
 40
0.7213871307581216
 10
152.6608791008
 20
131.3368855644
 30
0.0
 10
152.652628234977
 20
131.3085210717583
 30
0.0
 10
152.6361256806257
 20
131.2517892582113
 30
0.0
 10
152.6045884511223
 20
131.1686965208524
 30
0.0
 10
152.5671573779336
 20
131.0878212773727
 30
0.0
 10
152.521652720102
 20
131.0103461782137
 30
0.0
 10
152.4672170021258
 20
130.9383125217841
 30
0.0
 10
152.4117855522593
 20
130.8861485030714
 30
0.0
 10
152.3610293191129
 20
130.8525194673539
 30
0.0
 10
152.3191658885779
 20
130.8327080141168
 30
0.0
 10
152.274393293303
 20
130.8193978258495
 30
0.0
 10
152.2433559765325
 20
130.8175943220042
 30
0.0
 10
152.227866399
 20
130.8166942599
 30
0.0
 11
152.6608791008
 21
131.3368855644
 31
0.0
 11
152.6350069758892
 21
131.2521550047063
 31
0.0
 11
152.6036929535472
 21
131.1692717622925
 31
0.0
 11
152.565889874184
 21
131.0885328927248
 31
0.0
 11
152.5204302381187
 21
131.0116547255454
 31
0.0
 11
152.4651828007831
 21
130.9398632977638
 31
0.0
 11
152.3989411730503
 21
130.8786955462317
 31
0.0
 11
152.3604952927398
 21
130.8534802980978
 31
0.0
 11
152.3188890070178
 21
130.8338720315459
 31
0.0
 11
152.27406614375
 21
130.8211633819597
 31
0.0
 11
152.227866399
 21
130.8166942599
 31
0.0
  0
SPLINE
  5
FF
330
1F
100
AcDbEntity
  8
0
  6
Continuous
 62
     7
100
AcDbSpline
210
0.0
220
0.0
230
1.0
 70
     8
 71
     3
 72
    15
 73
    11
 74
     9
 42
0.0000000001
 43
0.0000000001
 44
0.00000001
 40
0.0
 40
0.0
 40
0.0
 40
0.0
 40
0.7059601946035623
 40
1.412231218893594
 40
2.201545610529094
 40
2.990774745248263
 40
3.849160443008542
 40
4.707601669158013
 40
5.617419625091758
 40
6.527149777970275
 40
6.527149777970275
 40
6.527149777970275
 40
6.527149777970275
 10
137.0195702844
 20
136.1572443781
 30
0.0
 10
136.9807561758776
 20
135.9250871719105
 30
0.0
 10
136.9031108692328
 20
135.4606705422221
 30
0.0
 10
136.8308074415559
 20
134.729942832269
 30
0.0
 10
136.7859126692393
 20
133.9695082458771
 30
0.0
 10
136.7720277727637
 20
133.1571002719076
 30
0.0
 10
136.787720565555
 20
132.3217146143007
 30
0.0
 10
136.8347449038558
 20
131.4473031929092
 30
0.0
 10
136.9090978797599
 20
130.5575256175909
 30
0.0
 10
136.9827473341817
 20
129.9554524468327
 30
0.0
 10
137.0195702844
 20
129.6544303881
 30
0.0
 11
137.0195702844
 21
136.1572443781
 31
0.0
 11
136.910940678027
 21
135.4596919392225
 31
0.0
 11
136.8379349638123
 21
134.7572042699758
 31
0.0
 11
136.7914173494816
 21
133.9692618098939
 31
0.0
 11
136.7769431652906
 21
133.1801654120555
 31
0.0
 11
136.7927162332589
 21
132.3219246437123
 31
0.0
 11
136.8379349598761
 21
131.4646752018833
 31
0.0
 11
136.9148835384271
 21
130.5581170795335
 31
0.0
 11
137.0195702844
 21
129.6544303881
 31
0.0
  0
SPLINE
  5
100
330
1F
100
AcDbEntity
  8
0
  6
Continuous
 62
     7
100
AcDbSpline
210
0.0
220
0.0
230
1.0
 70
     8
 71
     3
 72
    27
 73
    23
 74
    21
 42
0.0000000001
 43
0.0000000001
 44
0.00000001
 40
0.0
 40
0.0
 40
0.0
 40
0.0
 40
0.1984187744389324
 40
0.3968374365354039
 40
0.5029769397827343
 40
0.6091160619713945
 40
0.719750697327294
 40
0.8303871006989338
 40
0.945446840880805
 40
1.060500806708219
 40
1.179956515050768
 40
1.299443223354981
 40
1.360928421954546
 40
1.42234530019014
 40
1.48494930565482
 40
1.54780580169388
 40
1.61273156373291
 40
1.676696646139668
 40
1.709481594171241
 40
1.743841351783461
 40
1.784580073404864
 40
1.821170232181856
 40
1.821170232181856
 40
1.821170232181856
 40
1.821170232181856
 10
136.5666046226
 20
137.9250036941
 30
0.0
 10
136.5666029642466
 20
137.8588641048753
 30
0.0
 10
136.5665996475406
 20
137.7265849638733
 30
0.0
 10
136.5670638599623
 20
137.5589260529946
 30
0.0
 10
136.568044975478
 20
137.4220301397225
 30
0.0
 10
136.5693266212348
 20
137.3143994906165
 30
0.0
 10
136.5713418367204
 20
137.2052802650826
 30
0.0
 10
136.5744161560862
 20
137.0932103575885
 30
0.0
 10
136.5788304479251
 20
136.9797094422433
 30
0.0
 10
136.5850973641319
 20
136.8633498797689
 30
0.0
 10
136.5936286145344
 20
136.7456508177253
 30
0.0
 10
136.6035030466215
 20
136.6459792682111
 30
0.0
 10
136.6135249771562
 20
136.5658022095214
 30
0.0
 10
136.6224580790096
 20
136.504611349662
 30
0.0
 10
136.6329486941974
 20
136.4431973643728
 30
0.0
 10
136.6458740037641
 20
136.3810556615206
 30
0.0
 10
136.6617676306094
 20
136.3190875264483
 30
0.0
 10
136.6785376022663
 20
136.2679028633237
 30
0.0
 10
136.6948841729427
 20
136.2271564290006
 30
0.0
 10
136.7124245684367
 20
136.1961869176298
 30
0.0
 10
136.734092686737
 20
136.1635304245139
 30
0.0
 10
136.7595288612043
 20
136.1559853141949
 30
0.0
 10
136.7715646447
 20
136.1524151502
 30
0.0
 11
136.5666046226
 21
137.9250036941
 31
0.0
 11
136.5666920400455
 21
137.7265849389179
 31
0.0
 11
136.5673385320628
 21
137.5281673300314
 31
0.0
 11
136.5681288324516
 21
137.4220307690597
 31
0.0
 11
136.5694223831702
 21
137.3158995296176
 31
0.0
 11
136.5715069878201
 21
137.2052845353186
 31
0.0
 11
136.5745825649692
 21
137.0946908891348
 31
0.0
 11
136.5791166201648
 21
136.9797205183683
 31
0.0
 11
136.5853668604644
 21
136.8648364483289
 31
0.0
 11
136.5941514993262
 21
136.7457041841193
 31
0.0
 11
136.6060783209039
 21
136.6268142165509
 31
0.0
 11
136.6137372383348
 21
136.5658079002335
 31
0.0
 11
136.6226436522281
 21
136.5050402384078
 31
0.0
 11
136.6333016901784
 21
136.4433501441683
 31
0.0
 11
136.6461972633085
 21
136.3818306896198
 31
0.0
 11
136.6625287484218
 21
136.3189925071958
 31
0.0
 11
136.6826578687214
 21
136.2582771855442
 31
0.0
 11
136.6952946606439
 21
136.228025502825
 31
0.0
 11
136.7118813461713
 21
136.1979343943976
 31
0.0
 11
136.7377934208836
 21
136.1664986214082
 31
0.0
 11
136.7715646447
 21
136.1524151502
 31
0.0
  0
SPLINE
  5
101
330
1F
100
AcDbEntity
  8
0
  6
Continuous
 62
     7
100
AcDbSpline
210
0.0
220
0.0
230
1.0
 70
     8
 71
     3
 72
    35
 73
    31
 74
    29
 42
0.0000000001
 43
0.0000000001
 44
0.00000001
 40
0.0
 40
0.0
 40
0.0
 40
0.0
 40
0.022467117083233
 40
0.0469716777365086
 40
0.0706451030333337
 40
0.0934198435765182
 40
0.1394101663953132
 40
0.1859681376964915
 40
0.2323174996280298
 40
0.278509583814415
 40
0.3247931273892986
 40
0.3711204777816345
 40
0.4638921740311546
 40
0.5566437643066139
 40
0.6496253659446743
 40
0.7426109215265798
 40
0.835814991336166
 40
0.9290178383992514
 40
1.022429258467945
 40
1.115841003287318
 40
1.303223325740813
 40
1.49060811084098
 40
1.678620804273759
 40
1.866632541309254
 40
2.055121153344207
 40
2.243609949487243
 40
2.432418417668377
 40
2.621226802697119
 40
2.810196206317505
 40
2.999165615266282
 40
2.999165615266282
 40
2.999165615266282
 40
2.999165615266282
 10
136.7715646447
 20
129.6534161322
 30
0.0
 10
136.764169946563
 20
129.6513563237108
 30
0.0
 10
136.7487099577907
 20
129.6470499118024
 30
0.0
 10
136.7336665991288
 20
129.6275965005813
 30
0.0
 10
136.7211528228713
 20
129.6077578633809
 30
0.0
 10
136.7085526513313
 20
129.579490923296
 30
0.0
 10
136.6953223402804
 20
129.5434144106508
 30
0.0
 10
136.6823399473575
 20
129.4989302826947
 30
0.0
 10
136.6713453867184
 20
129.4538797003889
 30
0.0
 10
136.6619337526179
 20
129.4085641838272
 30
0.0
 10
136.6535659788091
 20
129.363056717195
 30
0.0
 10
136.6435709835897
 20
129.3020730420324
 30
0.0
 10
136.632899985284
 20
129.2255179966653
 30
0.0
 10
136.6223648623831
 20
129.1332765742748
 30
0.0
 10
136.6134451018688
 20
129.0407955868021
 30
0.0
 10
136.6058855756524
 20
128.9480432699621
 30
0.0
 10
136.5994429298418
 20
128.8551336520086
 30
0.0
 10
136.5939542547603
 20
128.7620211217012
 30
0.0
 10
136.5892641785646
 20
128.6687960173605
 30
0.0
 10
136.583928325573
 20
128.5441741368118
 30
0.0
 10
136.5787365996985
 20
128.388197129328
 30
0.0
 10
136.574355067374
 20
128.200653009812
 30
0.0
 10
136.5713092979949
 20
128.0128734074522
 30
0.0
 10
136.5692981902558
 20
127.8247124641377
 30
0.0
 10
136.5680224672258
 20
127.6363867320123
 30
0.0
 10
136.5672822560262
 20
127.4477927306025
 30
0.0
 10
136.5668774294487
 20
127.2590912220246
 30
0.0
 10
136.5666934613462
 20
127.0702292042692
 30
0.0
 10
136.5666124251804
 20
126.8813134844431
 30
0.0
 10
136.5666072234602
 20
126.7553338794064
 30
0.0
 10
136.5666046226
 20
126.692344076
 30
0.0
 11
136.7715646447
 21
129.6534161322
 31
0.0
 11
136.7506291788198
 21
129.6452627514037
 31
0.0
 11
136.7339454715779
 21
129.627314843295
 31
0.0
 11
136.7214776659599
 21
129.6071906069528
 31
0.0
 11
136.7118799496727
 21
129.5865369717067
 31
0.0
 11
136.6958732639047
 21
129.5434220577708
 31
0.0
 11
136.6826570329585
 21
129.4987792987694
 31
0.0
 11
136.6715940223387
 21
129.4537695981762
 31
0.0
 11
136.662113225795
 21
129.4085609359711
 31
0.0
 11
136.6537159575284
 21
129.3630455287829
 31
0.0
 11
136.6461967951033
 21
129.3173324497923
 31
0.0
 11
136.6332793671116
 21
129.2254644592891
 31
0.0
 11
136.6226433535342
 21
129.1333247137185
 31
0.0
 11
136.6136741568573
 21
129.0407767166892
 31
0.0
 11
136.6060781267039
 21
128.9481019419509
 31
0.0
 11
136.5996034161937
 21
128.8551230370699
 31
0.0
 11
136.5940917759531
 21
128.7620833008142
 31
0.0
 11
136.5893804606555
 21
128.6687907667752
 31
0.0
 11
136.5853667736925
 21
128.5754652912224
 31
0.0
 11
136.5790461501559
 21
128.3881896000978
 31
0.0
 11
136.574582529264
 21
128.2008579856395
 31
0.0
 11
136.5714825854883
 21
128.0128708498019
 31
0.0
 11
136.5694223732058
 21
127.8248704008969
 31
0.0
 11
136.5681119687452
 21
127.6363863439929
 31
0.0
 11
136.5673385308472
 21
127.4478991347046
 31
0.0
 11
136.5669142859578
 21
127.2590911431545
 31
0.0
 11
136.5667106605958
 21
127.0702828679284
 31
0.0
 11
136.5666246346157
 21
126.8813134838891
 31
0.0
 11
136.5666046226
 21
126.692344076
 31
0.0
  0
SPLINE
  5
102
330
1F
100
AcDbEntity
  8
0
  6
Continuous
 62
     7
100
AcDbSpline
210
0.0
220
0.0
230
1.0
 70
     8
 71
     3
 72
    11
 73
     7
 74
     5
 42
0.0000000001
 43
0.0000000001
 44
0.00000001
 40
0.0
 40
0.0
 40
0.0
 40
0.0
 40
0.0858880417777721
 40
0.1724696233755596
 40
0.3262585111266575
 40
0.476779862481591
 40
0.476779862481591
 40
0.476779862481591
 40
0.476779862481591
 10
152.227866399
 20
151.5480657057
 30
0.0
 10
152.2565396778763
 20
151.5472380065016
 30
0.0
 10
152.3141177703135
 20
151.5455759244925
 30
0.0
 10
152.4210840928924
 20
151.5261398810572
 30
0.0
 10
152.5480009199482
 20
151.4850572434023
 30
0.0
 10
152.6235233483047
 20
151.4157227824139
 30
0.0
 10
152.6608791008
 20
151.3814277919
 30
0.0
 11
152.227866399
 21
151.5480657057
 31
0.0
 11
152.3136301524428
 21
151.5434467971899
 31
0.0
 11
152.3989507360053
 21
151.5287237440918
 31
0.0
 11
152.5431155130237
 21
151.475174336411
 31
0.0
 11
152.6608791008
 21
151.3814277919
 31
0.0
  0
SPLINE
  5
103
330
1F
100
AcDbEntity
  8
0
  6
Continuous
 62
     7
100
AcDbSpline
210
0.0
220
0.0
230
1.0
 70
     8
 71
     3
 72
    11
 73
     7
 74
     5
 42
0.0000000001
 43
0.0000000001
 44
0.00000001
 40
0.0
 40
0.0
 40
0.0
 40
0.0
 40
0.0858653726961077
 40
0.1724244651199953
 40
0.3262359599022745
 40
0.4767776582961396
 40
0.4767776582961396
 40
0.4767776582961396
 40
0.4767776582961396
 10
149.3052166681
 20
91.3868801851
 30
0.0
 10
149.2765509635316
 20
91.38770791874754
 30
0.0
 10
149.2189879597003
 20
91.38937007343175
 30
0.0
 10
149.1120291215121
 20
91.40880384085021
 30
0.0
 10
148.9851017375981
 20
91.44987774209491
 30
0.0
 10
148.9095660526207
 20
91.51921963649757
 30
0.0
 10
148.8722039662
 20
91.5535180989
 30
0.0
 11
149.3052166681
 21
91.3868801851
 31
0.0
 11
149.2194755781902
 21
91.39149838056123
 31
0.0
 11
149.1341768727497
 21
91.40621596634942
 31
0.0
 11
148.9899874016961
 21
91.4597638175149
 31
0.0
 11
148.8722039662
 21
91.5535180989
 31
0.0
  0
SPLINE
  5
104
330
1F
100
AcDbEntity
  8
0
  6
Continuous
 62
     7
100
AcDbSpline
210
0.0
220
0.0
230
1.0
 70
     8
 71
     3
 72
    17
 73
    13
 74
    11
 42
0.0000000001
 43
0.0000000001
 44
0.00000001
 40
0.0
 40
0.0
 40
0.0
 40
0.0
 40
0.0885985679416293
 40
0.1772066590023117
 40
0.2663651707709579
 40
0.3556835832546251
 40
0.446276424904799
 40
0.5364496694381348
 40
0.5824215303396192
 40
0.6284087158639721
 40
0.6749841997062916
 40
0.721387690310331
 40
0.721387690310331
 40
0.721387690310331
 40
0.721387690310331
 10
148.8722039662
 20
111.5980603264
 30
0.0
 10
148.8804556363037
 20
111.6264266906781
 30
0.0
 10
148.8969598634514
 20
111.6831624682256
 30
0.0
 10
148.9285004404981
 20
111.7662612386388
 30
0.0
 10
148.9659312371096
 20
111.8471438647182
 30
0.0
 10
149.0114411868861
 20
111.9246232142554
 30
0.0
 10
149.0658975431093
 20
111.9966501304995
 30
0.0
 10
149.1213364858959
 20
112.0488079301438
 30
0.0
 10
149.1720835945007
 20
112.0824476305918
 30
0.0
 10
149.2139365110111
 20
112.1022620018979
 30
0.0
 10
149.2587024444879
 20
112.1155552615908
 30
0.0
 10
149.2897310592211
 20
112.1173539502064
 30
0.0
 10
149.3052166681
 20
112.1182516309
 30
0.0
 11
148.8722039662
 21
111.5980603264
 31
0.0
 11
148.8980786055992
 21
111.6827964419427
 31
0.0
 11
148.929395213131
 21
111.7656859098751
 31
0.0
 11
148.9672001328423
 21
111.8464326018595
 31
0.0
 11
149.0126662875944
 21
111.9233130777988
 31
0.0
 11
149.0679289449271
 21
111.9950981853267
 31
0.0
 11
149.134181886627
 21
112.0562681268485
 31
0.0
 11
149.1726190376849
 21
112.0814871159896
 31
0.0
 11
149.2142162696639
 21
112.101095571414
 31
0.0
 11
149.2590280430298
 21
112.1137912660761
 31
0.0
 11
149.3052166681
 21
112.1182516309
 31
0.0
  0
SPLINE
  5
105
330
1F
100
AcDbEntity
  8
0
  6
Continuous
 62
     7
100
AcDbSpline
210
0.0
220
0.0
230
1.0
 70
     8
 71
     3
 72
    11
 73
     7
 74
     5
 42
0.0000000001
 43
0.0000000001
 44
0.00000001
 40
0.0
 40
0.0
 40
0.0
 40
0.0
 40
0.0396067480760024
 40
0.0793078945770605
 40
0.2768264669601221
 40
0.4765469381622343
 40
0.4765469381622343
 40
0.4765469381622343
 40
0.4765469381622343
 10
152.6608791008
 20
91.5535180989
 30
0.0
 10
152.6520775260104
 20
91.54365459735936
 30
0.0
 10
152.6344533988242
 20
91.52390408568279
 30
0.0
 10
152.5637826243941
 20
91.46431144278586
 30
0.0
 10
152.4274002451012
 20
91.40007638401156
 30
0.0
 10
152.2946230094182
 20
91.39129514289763
 30
0.0
 10
152.227866399
 20
91.3868801851
 30
0.0
 11
152.6608791008
 21
91.5535180989
 31
0.0
 11
152.6338203580525
 21
91.52459546184735
 31
0.0
 11
152.6036940130444
 21
91.49873846337584
 31
0.0
 11
152.42591511091
 21
91.41266728125245
 31
0.0
 11
152.227866399
 21
91.3868801851
 31
0.0
  0
SPLINE
  5
106
330
1F
100
AcDbEntity
  8
0
  6
Continuous
 62
     7
100
AcDbSpline
210
0.0
220
0.0
230
1.0
 70
     8
 71
     3
 72
    17
 73
    13
 74
    11
 42
0.0000000001
 43
0.0000000001
 44
0.00000001
 40
0.0
 40
0.0
 40
0.0
 40
0.0
 40
0.0464149716233896
 40
0.0930041340573265
 40
0.1389991042858531
 40
0.1849760066165087
 40
0.275139821461256
 40
0.3657285222466124
 40
0.4550419000855395
 40
0.5441929284737765
 40
0.6327944774747748
 40
0.7213871622519271
 40
0.7213871622519271
 40
0.7213871622519271
 40
0.7213871622519271
 10
152.227866399
 20
112.1182516309
 30
0.0
 10
152.2433558334722
 20
112.1173516643261
 30
0.0
 10
152.2743928327365
 20
112.1155483536924
 30
0.0
 10
152.3191651919778
 20
112.1022388322803
 30
0.0
 10
152.3610282043473
 20
112.0824272271316
 30
0.0
 10
152.4117840443431
 20
112.0487977360332
 30
0.0
 10
152.4672157900687
 20
111.9966339963695
 30
0.0
 10
152.5216523666819
 20
111.9246006322925
 30
0.0
 10
152.5671572218866
 20
111.8471253180086
 30
0.0
 10
152.6045882444028
 20
111.766249742995
 30
0.0
 10
152.6361255965019
 20
111.6831567911507
 30
0.0
 10
152.6526282078842
 20
111.6264248686366
 30
0.0
 10
152.6608791008
 20
111.5980603264
 30
0.0
 11
152.227866399
 21
112.1182516309
 31
0.0
 11
152.2740657458897
 21
112.1137828572686
 31
0.0
 11
152.3188882067505
 21
112.1010747079669
 31
0.0
 11
152.3604941191697
 21
112.0814664102823
 31
0.0
 11
152.3989396399879
 21
112.0562509888712
 31
0.0
 11
152.4651817079609
 21
111.9950831710417
 31
0.0
 11
152.5204297516211
 21
111.9232920407978
 31
0.0
 11
152.5658896572874
 21
111.8464137185099
 31
0.0
 11
152.6036928015932
 21
111.765674458275
 31
0.0
 11
152.6350068928056
 21
111.6827910330506
 31
0.0
 11
152.6608791008
 21
111.5980603264
 31
0.0
  0
SPLINE
  5
107
330
1F
100
AcDbEntity
  8
0
  6
Continuous
 62
     7
100
AcDbSpline
210
0.0
220
0.0
230
1.0
 70
     8
 71
     3
 72
    27
 73
    23
 74
    21
 42
0.0000000001
 43
0.0000000001
 44
0.00000001
 40
0.0
 40
0.0
 40
0.0
 40
0.0
 40
0.0916761740170043
 40
0.1833469344820909
 40
0.2289150825619253
 40
0.2744823249487281
 40
0.3198039461029961
 40
0.3651308415401452
 40
0.4101361476752307
 40
0.4551262414942185
 40
0.4774733445101077
 40
0.499827069805246
 40
0.5220362035047793
 40
0.5442257439688685
 40
0.5662307722801622
 40
0.5883008845752372
 40
0.6103058235695872
 40
0.6322788945996214
 40
0.6549703993180919
 40
0.6772901013625643
 40
0.7005698647595417
 40
0.7241809550697274
 40
0.7241809550697274
 40
0.7241809550697274
 40
0.7241809550697274
 10
138.5665496737
 20
126.0444271406
 30
0.0
 10
138.566449114627
 20
126.074986521469
 30
0.0
 10
138.5662480024191
 20
126.1361034786511
 30
0.0
 10
138.5638072090349
 20
126.2123853926901
 30
0.0
 10
138.5602822335631
 20
126.2732217019832
 30
0.0
 10
138.5567396803026
 20
126.31857259325
 30
0.0
 10
138.5522148876082
 20
126.363756186609
 30
0.0
 10
138.5465003481187
 20
126.4086180173808
 30
0.0
 10
138.5393810915652
 20
126.4531694565881
 30
0.0
 10
138.531911487035
 20
126.4898806841322
 30
0.0
 10
138.5247918399404
 20
126.5189215095966
 30
0.0
 10
138.5187880298449
 20
126.5404060638537
 30
0.0
 10
138.5119959717299
 20
126.5616022140276
 30
0.0
 10
138.5041793853992
 20
126.582323031348
 30
0.0
 10
138.4950730861001
 20
126.6024687248864
 30
0.0
 10
138.48450640498
 20
126.6218132264926
 30
0.0
 10
138.4723586135569
 20
126.6402415468298
 30
0.0
 10
138.4565694841447
 20
126.6562233987626
 30
0.0
 10
138.4366254906495
 20
126.6670173189193
 30
0.0
 10
138.4135751747382
 20
126.6708796867565
 30
0.0
 10
138.3907264411022
 20
126.6641550341755
 30
0.0
 10
138.3779819273957
 20
126.6550221212622
 30
0.0
 10
138.3715646447
 20
126.6504233986
 30
0.0
 11
138.5665496737
 21
126.0444271406
 31
0.0
 11
138.5658095172085
 21
126.1361003267057
 31
0.0
 11
138.5627878066182
 21
126.2277212718512
 31
0.0
 11
138.5601300543311
 21
126.2732118474928
 31
0.0
 11
138.5565675187274
 21
126.3186396134384
 31
0.0
 11
138.552013210575
 21
126.3637318258626
 31
0.0
 11
138.546248357457
 21
126.408690628321
 31
0.0
 11
138.5390679031281
 21
126.4531194326707
 31
0.0
 11
138.5300184932206
 21
126.4971900206197
 31
0.0
 11
138.5246767376823
 21
126.5188892985102
 31
0.0
 11
138.5186402701574
 21
126.540412543953
 31
0.0
 11
138.5118166367141
 21
126.5615474356328
 31
0.0
 11
138.5039380748736
 21
126.5822912050428
 31
0.0
 11
138.4948350139451
 21
126.6023250651978
 31
0.0
 11
138.4842305720399
 21
126.6216805726465
 31
0.0
 11
138.4717702615696
 21
126.6398177720755
 31
0.0
 11
138.4560811530079
 21
126.6552017807544
 31
0.0
 11
138.4360596183652
 21
126.6658808507953
 31
0.0
 11
138.4139800397796
 21
126.6691460167693
 31
0.0
 11
138.3915101259605
 21
126.6630591163446
 31
0.0
 11
138.3715646447
 21
126.6504233986
 31
0.0
  0
SPLINE
  5
108
330
1F
100
AcDbEntity
  8
0
  6
Continuous
 62
     7
100
AcDbSpline
210
0.0
220
0.0
230
1.0
 70
     8
 71
     3
 72
    11
 73
     7
 74
     5
 42
0.0000000001
 43
0.0000000001
 44
0.00000001
 40
0.0
 40
0.0
 40
0.0
 40
0.0
 40
0.1144869089254556
 40
0.2289786249865305
 40
0.5593749202700885
 40
0.8897492709999513
 40
0.8897492709999513
 40
0.8897492709999513
 40
0.8897492709999513
 10
137.4594347524
 20
99.3639162945
 30
0.0
 10
137.4417748558829
 20
99.33008544479584
 30
0.0
 10
137.4064543213359
 20
99.26242232488026
 30
0.0
 10
137.3181433545432
 20
99.09820342738973
 30
0.0
 10
137.1920867171003
 20
98.87253857891314
 30
0.0
 10
137.0770744887605
 20
98.68467349333704
 30
0.0
 10
137.0195702844
 20
98.5907440701
 30
0.0
 11
137.4594347524
 21
99.3639162945
 31
0.0
 11
137.4062477407753
 21
99.26253387931011
 31
0.0
 11
137.3520899566433
 21
99.16166124940229
 31
0.0
 11
137.1901900749847
 21
98.8736505894328
 31
0.0
 11
137.0195702844
 21
98.5907440701
 31
0.0
  0
SPLINE
  5
109
330
1F
100
AcDbEntity
  8
0
  6
Continuous
 62
     7
100
AcDbSpline
210
0.0
220
0.0
230
1.0
 70
     8
 71
     3
 72
    27
 73
    23
 74
    21
 42
0.0000000001
 43
0.0000000001
 44
0.00000001
 40
0.0
 40
0.0
 40
0.0
 40
0.0
 40
0.1793609770389513
 40
0.3587208544704115
 40
0.4410792120324145
 40
0.5234388802910321
 40
0.6008752725458874
 40
0.6783083853448075
 40
0.7508855853118065
 40
0.8234767665853833
 40
0.8916162606775966
 40
0.9597255710106348
 40
0.9925260807121985
 40
1.025318043809125
 40
1.057920649989027
 40
1.090561319602749
 40
1.124894913142969
 40
1.159116445904268
 40
1.179139500307271
 40
1.199267232897752
 40
1.231506795017893
 40
1.263337515845089
 40
1.263337515845089
 40
1.263337515845089
 40
1.263337515845089
 10
136.5666046226
 20
99.7850710662
 30
0.0
 10
136.5665905493493
 20
99.72528409067215
 30
0.0
 10
136.5665624029341
 20
99.60571050615212
 30
0.0
 10
136.5670061326618
 20
99.45868393687488
 30
0.0
 10
136.5680095817457
 20
99.34399521665758
 30
0.0
 10
136.5692604450147
 20
99.26328591515282
 30
0.0
 10
136.5712487511936
 20
99.1842327043809
 30
0.0
 10
136.5742620891478
 20
99.10847351688533
 30
0.0
 10
136.5786377509642
 20
99.03439580057866
 30
0.0
 10
136.5847964329048
 20
98.9635484887924
 30
0.0
 10
136.5932907709282
 20
98.89443613013744
 30
0.0
 10
136.6031894755917
 20
98.83891788260367
 30
0.0
 10
136.6134071877785
 20
98.79552633020474
 30
0.0
 10
136.6223409889666
 20
98.76402392923546
 30
0.0
 10
136.6329620033852
 20
98.73309688078935
 30
0.0
 10
136.6459830090233
 20
98.70252910762055
 30
0.0
 10
136.6619869042621
 20
98.67276149288
 30
0.0
 10
136.6791877976287
 20
98.64863947232072
 30
0.0
 10
136.6960858453041
 20
98.63040587649178
 30
0.0
 10
136.7146911526953
 20
98.61502790094717
 30
0.0
 10
136.7396299968805
 20
98.60087899201096
 30
0.0
 10
136.7609651429279
 20
98.59801193490834
 30
0.0
 10
136.7715646447
 20
98.5965875539
 30
0.0
 11
136.5666046226
 21
99.7850710662
 31
0.0
 11
136.5666596591643
 21
99.60571009760498
 31
0.0
 11
136.5673385320686
 21
99.42635150493709
 31
0.0
 11
136.5681021981231
 21
99.34399668798952
 31
0.0
 11
136.5694223831535
 21
99.26164760136948
 31
0.0
 11
136.5714372308001
 21
99.18423742610544
 31
0.0
 11
136.5745825649597
 21
99.10686822143876
 31
0.0
 11
136.5789718556348
 21
99.0344238698134
 31
0.0
 11
136.5853668604499
 21
98.96211492491646
 31
0.0
 11
136.5939013423661
 21
98.8945120161509
 31
0.0
 11
136.6060783208847
 21
98.82750008177948
 31
0.0
 11
136.6136466346789
 21
98.79558466132173
 31
0.0
 11
136.6226436522599
 21
98.76405108368775
 31
0.0
 11
136.6333232168149
 21
98.73324723927449
 31
0.0
 11
136.6461972633477
 21
98.70325270246022
 31
0.0
 11
136.6626243463664
 21
98.67310396137735
 31
0.0
 11
136.68265786866
 21
98.64535920891771
 31
0.0
 11
136.6963596752642
 21
98.63075841430211
 31
0.0
 11
136.7118813461934
 21
98.61794422877207
 31
0.0
 11
136.740348137782
 21
98.6028104538843
 31
0.0
 11
136.7715646447
 21
98.5965875539
 31
0.0
  0
SPLINE
  5
10A
330
1F
100
AcDbEntity
  8
0
  6
Continuous
 62
     7
100
AcDbSpline
210
0.0
220
0.0
230
1.0
 70
     8
 71
     3
 72
    25
 73
    21
 74
    19
 42
0.0000000001
 43
0.0000000001
 44
0.00000001
 40
0.0
 40
0.0
 40
0.0
 40
0.0
 40
0.0200847570834618
 40
0.0402074695880166
 40
0.0623257309795997
 40
0.0845392975146021
 40
0.1048528518304075
 40
0.1251579484030119
 40
0.1438116360858386
 40
0.1624497859970565
 40
0.1972169233812708
 40
0.2320369262687488
 40
0.2649767171230317
 40
0.2978947205162336
 40
0.3296828985334314
 40
0.3614753514205262
 40
0.3924441896509254
 40
0.4234129050588342
 40
0.4835122998492131
 40
0.5436123644097087
 40
0.5436123644097087
 40
0.5436123644097087
 40
0.5436123644097087
 10
138.3715646447
 20
137.8119512324
 30
0.0
 10
138.3780002476221
 20
137.8100064201595
 30
0.0
 10
138.3908836152275
 20
137.8061131204452
 30
0.0
 10
138.4119978894773
 20
137.8062070062589
 30
0.0
 10
138.4328679648056
 20
137.8122810315926
 30
0.0
 10
138.4515846104512
 20
137.8233522687527
 30
0.0
 10
138.4671858403748
 20
137.8374722886507
 30
0.0
 10
138.479775342503
 20
137.85275851091
 30
0.0
 10
138.4905927229668
 20
137.8686419641309
 30
0.0
 10
138.502582946101
 20
137.8894767086334
 30
0.0
 10
138.5149021972712
 20
137.9162457877528
 30
0.0
 10
138.5263630439892
 20
137.9484729643916
 30
0.0
 10
138.5356828052186
 20
137.9807283091403
 30
0.0
 10
138.5431371751546
 20
138.0124237072293
 30
0.0
 10
138.5492211817177
 20
138.0440166943031
 30
0.0
 10
138.5540957976869
 20
138.0751593859254
 30
0.0
 10
138.558017566278
 20
138.1061599763546
 30
0.0
 10
138.5620357965766
 20
138.1466425996012
 30
0.0
 10
138.5653750410976
 20
138.196944298464
 30
0.0
 10
138.5660952302949
 20
138.2370084469401
 30
0.0
 10
138.5664553269
 20
138.2570406328
 30
0.0
 11
138.3715646447
 21
137.8119512324
 31
0.0
 11
138.3910555646493
 21
137.8071033971479
 31
0.0
 11
138.4111782744278
 21
137.8070929228721
 31
0.0
 11
138.4324589534976
 21
137.8131220343583
 31
0.0
 11
138.4516563469644
 21
137.8242980185337
 31
0.0
 11
138.4668232476101
 21
137.8378111829945
 31
0.0
 11
138.4798658779917
 21
137.8533735330597
 31
0.0
 11
138.4903958034344
 21
137.8687709592842
 31
0.0
 11
138.499725102828
 21
137.8849061631855
 31
0.0
 11
138.5144110466363
 21
137.9164192857911
 31
0.0
 11
138.5262294304626
 21
137.9491722765678
 31
0.0
 11
138.5354174372741
 21
137.9808047022155
 31
0.0
 11
138.5430008139618
 21
138.0128373003837
 31
0.0
 11
138.549038280042
 21
138.0440468704702
 31
0.0
 11
138.553981799672
 21
138.0754526290862
 31
0.0
 11
138.5578795309609
 21
138.1061752043711
 31
0.0
 11
138.560962505391
 21
138.1369900806922
 31
0.0
 11
138.564891289497
 21
138.1969609228541
 31
0.0
 11
138.5664553269
 21
138.2570406328
 31
0.0
  0
SPLINE
  5
10B
330
1F
100
AcDbEntity
  8
0
  6
Continuous
 62
     7
100
AcDbSpline
210
0.0
220
0.0
230
1.0
 70
     8
 71
     3
 72
    19
 73
    15
 74
    13
 42
0.0000000001
 43
0.0000000001
 44
0.00000001
 40
0.0
 40
0.0
 40
0.0
 40
0.0
 40
0.1037214442505958
 40
0.2077048967710288
 40
0.3081965148271221
 40
0.4087745519731157
 40
0.490558251839406
 40
0.5722694203660703
 40
0.6447917332232024
 40
0.7173167610374033
 40
0.8507493764124258
 40
0.9843287148456018
 40
1.111803128130672
 40
1.239193738917109
 40
1.239193738917109
 40
1.239193738917109
 40
1.239193738917109
 10
138.3715646447
 20
137.8119512324
 30
0.0
 10
138.3384128451078
 20
137.822177360886
 30
0.0
 10
138.272025501952
 20
137.8426554498377
 30
0.0
 10
138.1680889911061
 20
137.846164112125
 30
0.0
 10
138.0674674819361
 20
137.827773497484
 30
0.0
 10
137.9792438547813
 20
137.7929761081855
 30
0.0
 10
137.9029298827875
 20
137.7486942133731
 30
0.0
 10
137.8397779781379
 20
137.7015248529539
 30
0.0
 10
137.7834702793504
 20
137.6509875526494
 30
0.0
 10
137.7191159074135
 20
137.5839973494991
 30
0.0
 10
137.6482030058417
 20
137.4954775026987
 30
0.0
 10
137.5761742918118
 20
137.3853098550141
 30
0.0
 10
137.5129510718246
 20
137.2721650010644
 30
0.0
 10
137.4772696147195
 20
137.1950397708725
 30
0.0
 10
137.4594347524
 20
137.1564898356
 30
0.0
 11
138.3715646447
 21
137.8119512324
 31
0.0
 11
138.2711967347846
 21
137.8381126669297
 31
0.0
 11
138.1673022808226
 21
137.8424139265135
 31
0.0
 11
138.0683971735197
 21
137.8246278350674
 31
0.0
 11
137.9746530728817
 21
137.788186304478
 31
0.0
 11
137.903785006795
 21
137.7473660794301
 31
0.0
 11
137.8381529417532
 21
137.6986921942314
 31
0.0
 11
137.784095508615
 21
137.6503467726833
 31
0.0
 11
137.7337591122344
 21
137.598134447904
 31
0.0
 11
137.6499848684166
 21
137.4942781100204
 31
0.0
 11
137.576414915813
 21
137.3827841562375
 31
0.0
 11
137.5143884820025
 21
137.2714178796942
 31
0.0
 11
137.4594347524
 21
137.1564898356
 31
0.0
  0
SPLINE
  5
10C
330
1F
100
AcDbEntity
  8
0
  6
Continuous
 62
     7
100
AcDbSpline
210
0.0
220
0.0
230
1.0
 70
     8
 71
     3
 72
    27
 73
    23
 74
    21
 42
0.0000000001
 43
0.0000000001
 44
0.00000001
 40
0.0
 40
0.0
 40
0.0
 40
0.0
 40
0.1100125127150126
 40
0.2200277366422874
 40
0.3300677974469735
 40
0.4401077965758618
 40
0.5501687867925438
 40
0.6602297674764024
 40
0.7703067275289381
 40
0.8803883423836751
 40
0.9904732229524785
 40
1.100583133538547
 40
1.15572953607669
 40
1.210732446795862
 40
1.265569397470342
 40
1.320943000408673
 40
1.432333428886806
 40
1.54100082325233
 40
1.596270656501015
 40
1.651829532702026
 40
1.707159214859513
 40
1.762420383873188
 40
1.762420383873188
 40
1.762420383873188
 40
1.762420383873188
 10
137.4594347524
 20
127.8820127062
 30
0.0
 10
137.4681224026154
 20
127.846385033136
 30
0.0
 10
137.4854979171499
 20
127.775128808979
 30
0.0
 10
137.5137418531544
 20
127.6687853209516
 30
0.0
 10
137.5437837990245
 20
127.562928259289
 30
0.0
 10
137.5760072782902
 20
127.4576956183919
 30
0.0
 10
137.6106032452403
 20
127.3532091790451
 30
0.0
 10
137.6479928369497
 20
127.2496722964393
 30
0.0
 10
137.6885681967199
 20
127.1473274368305
 30
0.0
 10
137.7329776066206
 20
127.0465693817192
 30
0.0
 10
137.7818321678848
 20
126.947858833956
 30
0.0
 10
137.8276799517561
 20
126.8682466262063
 30
0.0
 10
137.8681387352998
 20
126.8069529560581
 30
0.0
 10
137.9005981782257
 20
126.7625334555362
 30
0.0
 10
137.9355272498945
 20
126.7198936932719
 30
0.0
 10
137.9869155826557
 20
126.6667363401426
 30
0.0
 10
138.0600169276351
 20
126.6100010798181
 30
0.0
 10
138.1489636718802
 20
126.577570624617
 30
0.0
 10
138.222853683798
 20
126.5794558598314
 30
0.0
 10
138.2769498130944
 20
126.5930099084678
 30
0.0
 10
138.3271908490173
 20
126.617310276077
 30
0.0
 10
138.356779489715
 20
126.6393902507476
 30
0.0
 10
138.3715646447
 20
126.6504233986
 30
0.0
 11
137.4594347524
 21
127.8820127062
 31
0.0
 11
137.4858607645837
 21
127.7752212325987
 31
0.0
 11
137.5140389254152
 21
127.6688758483645
 31
0.0
 11
137.5441466765028
 21
127.5630347490394
 31
0.0
 11
137.5764002158521
 21
127.4578277596911
 31
0.0
 11
137.6110681824212
 21
127.3533693772537
 31
0.0
 11
137.6485215023226
 21
127.2498770186108
 31
0.0
 11
137.6892061058622
 21
127.1475945657207
 31
0.0
 11
137.7337172058191
 21
127.046913267012
 31
0.0
 11
137.7828517198023
 21
126.9484019455029
 31
0.0
 11
137.8380920939505
 21
126.8531512579818
 31
0.0
 11
137.8685254788996
 21
126.8071628377715
 31
0.0
 11
137.9010350931935
 21
126.7627956746208
 31
0.0
 11
137.9359725322941
 21
126.720529062403
 31
0.0
 11
137.9745416714584
 21
126.6807967404661
 31
0.0
 11
138.0639902612431
 21
126.614413178178
 31
0.0
 11
138.167192133937
 21
126.5803841307234
 31
0.0
 11
138.2224513967721
 21
126.5814650276925
 31
0.0
 11
138.2763790189663
 21
126.5948291696106
 31
0.0
 11
138.3262473040544
 21
126.6187984806147
 31
0.0
 11
138.3715646447
 21
126.6504233986
 31
0.0
  0
SPLINE
  5
10D
330
1F
100
AcDbEntity
  8
0
  6
Continuous
 62
     7
100
AcDbSpline
210
0.0
220
0.0
230
1.0
 70
     8
 71
     3
 72
    19
 73
    15
 74
    13
 42
0.0000000001
 43
0.0000000001
 44
0.00000001
 40
0.0
 40
0.0
 40
0.0
 40
0.0
 40
0.0414504390572267
 40
0.0829470893119962
 40
0.1073580008477495
 40
0.1315944496417332
 40
0.1468954396425164
 40
0.1621805373850971
 40
0.1749472186335164
 40
0.1877203212095145
 40
0.212266492948424
 40
0.2369551402529414
 40
0.2632280832267037
 40
0.2894431838914739
 40
0.2894431838914739
 40
0.2894431838914739
 40
0.2894431838914739
 10
138.3715646447
 20
99.9400442053
 30
0.0
 10
138.3844779657587
 20
99.93507087863601
 30
0.0
 10
138.4103190043468
 20
99.92511868077374
 30
0.0
 10
138.44591688757
 20
99.91906905436787
 30
0.0
 10
138.4760627756283
 20
99.91930635909658
 30
0.0
 10
138.4971431847878
 20
99.92372345943123
 30
0.0
 10
138.5138734769537
 20
99.93128710482827
 30
0.0
 10
138.525859698556
 20
99.93951941141144
 30
0.0
 10
138.5355462866505
 20
99.94915688589748
 30
0.0
 10
138.5455927744479
 20
99.96255143399145
 30
0.0
 10
138.5547618644933
 20
99.98127974810276
 30
0.0
 10
138.5615795503634
 20
100.0055858431459
 30
0.0
 10
138.5654894139887
 20
100.0310821098337
 30
0.0
 10
138.5661335925598
 20
100.0485763430134
 30
0.0
 10
138.5664553269
 20
100.0573138202
 30
0.0
 11
138.3715646447
 21
99.9400442053
 31
0.0
 11
138.4107198068398
 21
99.9264422872058
 31
0.0
 11
138.451656346979
 21
99.919647313784
 31
0.0
 11
138.4760626687657
 21
99.92012066233177
 31
0.0
 11
138.4997251028096
 21
99.92536419790072
 31
0.0
 11
138.5136587147758
 21
99.93168675692203
 31
0.0
 11
138.5262294304402
 21
99.94038223394666
 31
0.0
 11
138.5353106379194
 21
99.9493555176722
 31
0.0
 11
138.5430008139485
 21
99.95955421082665
 31
0.0
 11
138.5540361761977
 21
99.98147988817225
 31
0.0
 11
138.5609625053781
 21
100.0051770455927
 31
0.0
 11
138.5649875013519
 21
100.0311398447468
 31
0.0
 11
138.5664553269
 21
100.0573138202
 31
0.0
  0
SPLINE
  5
10E
330
1F
100
AcDbEntity
  8
0
  6
Continuous
 62
     7
100
AcDbSpline
210
0.0
220
0.0
230
1.0
 70
     8
 71
     3
 72
    19
 73
    15
 74
    13
 42
0.0000000001
 43
0.0000000001
 44
0.00000001
 40
0.0
 40
0.0
 40
0.0
 40
0.0
 40
0.1045384651423794
 40
0.209251425649281
 40
0.3087263832657751
 40
0.4083161307355151
 40
0.48831992170574
 40
0.5682513318387437
 40
0.6382737893066426
 40
0.708296278910941
 40
0.8338795436392332
 40
0.9595807700270872
 40
1.074624552593862
 40
1.189598319432365
 40
1.189598319432365
 40
1.189598319432365
 40
1.189598319432365
 10
138.3715646447
 20
99.9400442053
 30
0.0
 10
138.3386235206633
 20
99.95175062816107
 30
0.0
 10
138.2726862873418
 20
99.9751830142172
 30
0.0
 10
138.1688358131607
 20
99.98352655215783
 30
0.0
 10
138.0679423191687
 20
99.96927496295262
 30
0.0
 10
137.9796492738902
 20
99.93824518258276
 30
0.0
 10
137.9031811116038
 20
99.89735037325215
 30
0.0
 10
137.840103074514
 20
99.853544654292
 30
0.0
 10
137.7837276820488
 20
99.80655200926384
 30
0.0
 10
137.7199010964853
 20
99.7450985191691
 30
0.0
 10
137.6492018648361
 20
99.66437860693563
 30
0.0
 10
137.5773403405572
 20
99.56552087408149
 30
0.0
 10
137.5138753037485
 20
99.4652439149159
 30
0.0
 10
137.4775779199598
 20
99.39768531318383
 30
0.0
 10
137.4594347524
 20
99.3639162945
 30
0.0
 11
138.3715646447
 21
99.9400442053
 31
0.0
 11
138.2716302522967
 21
99.97072657661187
 31
0.0
 11
138.1673022807528
 21
99.97969755491087
 31
0.0
 11
138.0687630867574
 21
99.9660852648927
 31
0.0
 11
137.9746530728385
 21
99.93350577623389
 31
0.0
 11
137.9039739452499
 21
99.89602154631085
 31
0.0
 11
137.8381529417854
 21
99.8506715096099
 31
0.0
 11
137.7842876565574
 21
99.80593142023635
 31
0.0
 11
137.7337591121735
 21
99.75745446434149
 31
0.0
 11
137.6507259147621
 21
99.66323851819936
 31
0.0
 11
137.5764149157995
 21
99.56185472388987
 31
0.0
 11
137.5150487475222
 21
99.46454457386314
 31
0.0
 11
137.4594347524
 21
99.3639162945
 31
0.0
  0
SPLINE
  5
10F
330
1F
100
AcDbEntity
  8
FASEN
  6
Continuous
 62
     7
100
AcDbSpline
210
0.0
220
0.0
230
1.0
 70
     8
 71
     3
 72
    21
 73
    17
 74
    15
 42
0.0000000001
 43
0.0000000001
 44
0.00000001
 40
0.0
 40
0.0
 40
0.0
 40
0.0
 40
0.002721050496861
 40
0.0055332475272667
 40
0.0138410733275292
 40
0.0220459507258536
 40
0.0357670407026193
 40
0.0495442164388116
 40
0.0687766123061409
 40
0.0879848998456746
 40
0.1126072096377328
 40
0.1372387062838409
 40
0.1672052591633223
 40
0.1971683685712347
 40
0.2728359504898725
 40
0.3485057729581331
 40
0.3485057729581331
 40
0.3485057729581331
 40
0.3485057729581331
 10
155.988982868
 20
152.9674373836
 30
0.0
 10
155.988069009812
 20
152.9674351685042
 30
0.0
 10
155.9862106820945
 20
152.967430664114
 30
0.0
 10
155.9818204673996
 20
152.9658799593392
 30
0.0
 10
155.9754652056511
 20
152.9647599325669
 30
0.0
 10
155.965445380243
 20
152.9636768666148
 30
0.0
 10
155.9536869349135
 20
152.9618021467431
 30
0.0
 10
155.9383768593281
 20
152.9589355590898
 30
0.0
 10
155.9212106010187
 20
152.9560489523443
 30
0.0
 10
155.9004522549801
 20
152.952737934452
 30
0.0
 10
155.877933930964
 20
152.9490343048847
 30
0.0
 10
155.8518840301435
 20
152.9447077537814
 30
0.0
 10
155.8240660640592
 20
152.9401609426825
 30
0.0
 10
155.779446126626
 20
152.9329486268667
 30
0.0
 10
155.7197776446386
 20
152.9233627486244
 30
0.0
 10
155.6699488204847
 20
152.9154970530773
 30
0.0
 10
155.64503403955
 20
152.911564147078
 30
0.0
 11
155.988982868
 21
152.9674373836
 31
0.0
 11
155.9862662628044
 21
152.9672819100724
 31
0.0
 11
155.9835553076823
 21
152.966534130383
 31
0.0
 11
155.9754207012731
 21
152.9648464846576
 31
0.0
 11
155.9672798787344
 21
152.9638232439654
 31
0.0
 11
155.9537171510673
 21
152.9617446077829
 31
0.0
 11
155.940157683078
 21
152.9593050588259
 31
0.0
 11
155.92119858254
 21
152.9560743379175
 31
0.0
 11
155.9022364993583
 21
152.953008769192
 31
0.0
 11
155.8779380396786
 21
152.949028442988
 31
0.0
 11
155.8536367895398
 21
152.9450085090681
 31
0.0
 11
155.8240635276542
 21
152.9401694520399
 31
0.0
 11
155.7944853072026
 21
152.9353823025424
 31
0.0
 11
155.7197729792403
 21
152.9233968528695
 31
0.0
 11
155.64503403955
 21
152.911564147078
 31
0.0
  0
SPLINE
  5
110
330
1F
100
AcDbEntity
  8
ACHSEN
  6
Continuous
 62
     7
100
AcDbSpline
210
0.0
220
0.0
230
1.0
 70
     8
 71
     3
 72
    15
 73
    11
 74
     9
 42
0.0000000001
 43
0.0000000001
 44
0.00000001
 40
0.0
 40
0.0
 40
0.0
 40
0.0
 40
0.70361992703437
 40
1.407365568512442
 40
2.995285720762157
 40
4.583299557680579
 40
6.171264475928574
 40
7.759111163584866
 40
8.458270837225959
 40
9.157317424743605
 40
9.157317424743605
 40
9.157317424743605
 40
9.157317424743605
 10
127.9459028668
 20
141.8709912808
 30
0.0
 10
127.7138904909167
 20
141.8365990981658
 30
0.0
 10
127.2498242859371
 20
141.7678085881109
 30
0.0
 10
126.2589209684004
 20
141.6448665252605
 30
0.0
 10
124.9709392379935
 20
141.5238944787057
 30
0.0
 10
123.3842927850307
 20
141.4468282448817
 30
0.0
 10
121.7957950336948
 20
141.4425438081922
 30
0.0
 10
120.5049006595446
 20
141.4985290307796
 30
0.0
 10
119.5122169123736
 20
141.5724251811285
 30
0.0
 10
119.0484208226036
 20
141.6185629359746
 30
0.0
 10
118.8165415335
 20
141.6416299476
 30
0.0
 11
127.9459028668
 21
141.8709912808
 31
0.0
 11
127.249485848821
 21
141.770570472254
 31
0.0
 11
126.5511736362268
 21
141.6832894225285
 31
0.0
 11
124.9701170043725
 21
141.5358094686688
 31
0.0
 11
123.3839638456623
 21
141.4589582919832
 31
0.0
 11
121.7960045577885
 21
141.454729622978
 31
0.0
 11
120.2096143060588
 21
141.5227228043882
 31
0.0
 11
119.5124352950233
 21
141.5753124974599
 31
0.0
 11
118.8165415335
 21
141.6416299476
 31
0.0
  0
SPLINE
  5
111
330
1F
100
AcDbEntity
  8
ACHSEN
  6
Continuous
 62
     7
100
AcDbSpline
210
0.0
220
0.0
230
1.0
 70
     8
 71
     3
 72
    13
 73
     9
 74
     7
 42
0.0000000001
 43
0.0000000001
 44
0.00000001
 40
0.0
 40
0.0
 40
0.0
 40
0.0
 40
0.0909434545673185
 40
0.181889814258076
 40
0.4124617940755145
 40
0.6430303334557519
 40
1.299474074855254
 40
1.955922659016139
 40
1.955922659016139
 40
1.955922659016139
 40
1.955922659016139
 10
109.0451118195
 20
141.3961307507
 30
0.0
 10
109.0150781487221
 20
141.3920121569551
 30
0.0
 10
108.9550098477621
 20
141.3837748378998
 30
0.0
 10
108.8190187279123
 20
141.3635372071805
 30
0.0
 10
108.6370006906519
 20
141.3364076671114
 30
0.0
 10
108.2688273685127
 20
141.2796129209238
 30
0.0
 10
107.7613208471505
 20
141.1948284859779
 30
0.0
 10
107.3314684999042
 20
141.1126257591308
 30
0.0
 10
107.1165415335
 20
141.0715242441
 30
0.0
 11
109.0451118195
 21
141.3961307507
 31
0.0
 11
108.9550353417766
 21
141.383603177528
 31
0.0
 11
108.865054516894
 21
141.37038608653
 31
0.0
 11
108.6370288605992
 21
141.3362139056183
 31
0.0
 11
108.4091638275731
 21
141.3010091037308
 31
0.0
 11
107.7617826261673
 21
141.1923078356192
 31
0.0
 11
107.1165415335
 21
141.0715242441
 31
0.0
  0
SPLINE
  5
112
330
1F
100
AcDbEntity
  8
BEZUGSACHSEN
  6
Continuous
 62
     7
100
AcDbSpline
210
0.0
220
0.0
230
1.0
 70
     8
 71
     3
 72
    11
 73
     7
 74
     5
 42
0.0000000001
 43
0.0000000001
 44
0.00000001
 40
0.0
 40
0.0
 40
0.0
 40
0.0
 40
0.08133409830408
 40
0.1626812892862986
 40
1.174125615881839
 40
2.185445077722394
 40
2.185445077722394
 40
2.185445077722394
 40
2.185445077722394
 10
168.2665415335
 20
137.1424729454
 30
0.0
 10
168.2397628739434
 20
137.1382372632304
 30
0.0
 10
168.1862012441615
 20
137.1297652170564
 30
0.0
 10
167.7992573756594
 20
137.0710941718542
 30
0.0
 10
167.1022773479415
 20
136.985547720141
 30
0.0
 10
166.4283383694785
 20
136.9586905200687
 30
0.0
 10
166.091389681298
 20
136.945262748977
 30
0.0
 11
168.2665415335
 21
137.1424729454
 31
0.0
 11
168.1861926865044
 21
137.1298516010415
 31
0.0
 11
168.1057692003344
 21
137.1176275119971
 31
0.0
 11
167.1012596295101
 21
136.9993898364257
 31
0.0
 11
166.091389681298
 21
136.945262748977
 31
0.0
  0
SPLINE
  5
113
330
1F
100
AcDbEntity
  8
BEZUGSACHSEN
  6
Continuous
 62
     7
100
AcDbSpline
210
0.0
220
0.0
230
1.0
 70
     8
 71
     3
 72
    11
 73
     7
 74
     5
 42
0.0000000001
 43
0.0000000001
 44
0.00000001
 40
0.0
 40
0.0
 40
0.0
 40
0.0
 40
0.0813279339585955
 40
0.1626689577081606
 40
1.174057474800557
 40
2.185321156996692
 40
2.185321156996692
 40
2.185321156996692
 40
2.185321156996692
 10
163.2665415335
 20
105.7924729454
 30
0.0
 10
163.2933181623306
 20
105.7967083136953
 30
0.0
 10
163.34687572971
 20
105.8051797319715
 30
0.0
 10
163.7337971002086
 20
105.8638476532483
 30
0.0
 10
164.4307378436211
 20
105.9493908254
 30
0.0
 10
165.1046394334333
 20
105.9762511625092
 30
0.0
 10
165.441569432269
 20
105.989680502175
 30
0.0
 11
163.2665415335
 21
105.7924729454
 31
0.0
 11
163.3468842864859
 21
105.80509336079
 31
0.0
 11
163.4273016669065
 21
105.8173165793073
 31
0.0
 11
164.4317555126273
 21
105.9355502645372
 31
0.0
 11
165.441569432269
 21
105.989680502175
 31
0.0
  0
SPLINE
  5
114
330
1F
100
AcDbEntity
  8
0
  6
Continuous
 62
     2
100
AcDbSpline
210
0.0
220
0.0
230
1.0
 70
     8
 71
     3
 72
   185
 73
   181
 74
   179
 42
0.0000000001
 43
0.0000000001
 44
0.00000001
 40
0.0
 40
0.0
 40
0.0
 40
0.0
 40
0.0000767514591233
 40
0.0003139112585368
 40
0.0007115275256641
 40
0.0012696470597727
 40
0.0019883165497164
 40
0.0028675826807466
 40
0.0039074921583048
 40
0.0051080917163802
 40
0.0064694281206782
 40
0.0079915481700647
 40
0.0096744986974852
 40
0.0115183265704541
 40
0.0135230786910246
 40
0.0156888019964301
 40
0.0180155434586476
 40
0.0205033500848496
 40
0.0231522689171502
 40
0.0259623470328515
 40
0.0289336315443735
 40
0.0320661695991242
 40
0.0353600083797502
 40
0.0388151951038657
 40
0.0424317770242117
 40
0.0462098014287229
 40
0.0501493156400215
 40
0.0542503670161511
 40
0.0585130029499112
 40
0.062937270869365
 40
0.0675232182372346
 40
0.0722708925514191
 40
0.0771803413447256
 40
0.0822516121847456
 40
0.0874847526742497
 40
0.0928798104506549
 40
0.0984368331863307
 40
0.1041558685884317
 40
0.1100368182244118
 40
0.116078999062725
 40
0.122281582043324
 40
0.1286437382661582
 40
0.1351646389981202
 40
0.141843455679701
 40
0.1486793599307816
 40
0.1556715235562136
 40
0.1628191185508462
 40
0.1701213171043894
 40
0.1775772916057931
 40
0.1851862146474922
 40
0.1929472590294882
 40
0.2008595977633904
 40
0.20892240407567
 40
0.2171348514117598
 40
0.2254961134392408
 40
0.2340053640513533
 40
0.2426617773702131
 40
0.2514645277502157
 40
0.2604127897811993
 40
0.2695057382914853
 40
0.2787425483510848
 40
0.2881223952748239
 40
0.2976444546252925
 40
0.3073079022160852
 40
0.3171119141148244
 40
0.3270556666457952
 40
0.337138336393751
 40
0.3473591002062268
 40
0.3577171351969287
 40
0.3682116187487875
 40
0.3788417285168827
 40
0.3896066424317356
 40
0.4005055387021191
 40
0.4115375958184225
 40
0.424106898929614
 40
0.43684308118054
 40
0.4497455300753443
 40
0.4628136338465825
 40
0.4760467814661397
 40
0.4894443626561242
 40
0.5030057678991564
 40
0.5167303884483953
 40
0.5306176163375178
 40
0.5446668443901223
 40
0.558877466229369
 40
0.5732488762869701
 40
0.5877804698123026
 40
0.6024716428811823
 40
0.6173217924048214
 40
0.6323303161381483
 40
0.6474966126885163
 40
0.6628200815238696
 40
0.678300122981334
 40
0.6939361382750154
 40
0.7097275295043859
 40
0.7256736996624279
 40
0.7417740526434612
 40
0.7580279932511168
 40
0.7744349272062689
 40
0.7909942611549858
 40
0.8077054026763976
 40
0.8245677602902031
 40
0.841580743464912
 40
0.8587437626252974
 40
0.8760562291603309
 40
0.8935175554308158
 40
0.911697458627834
 40
0.930033452666789
 40
0.9485236360822118
 40
0.9671661084907892
 40
0.9859589706094593
 40
1.004900324274026
 40
1.023988272458344
 40
1.043220919293576
 40
1.06259637008797
 40
1.082112731347158
 40
1.101768110794679
 40
1.121560617393235
 40
1.141488361365862
 40
1.161549454218186
 40
1.181742008760746
 40
1.202064139131784
 40
1.22251396082075
 40
1.243089590692092
 40
1.263789147009708
 40
1.284610749461994
 40
1.305552519186956
 40
1.326612578798773
 40
1.347789052413767
 40
1.369080065678119
 40
1.390483745795257
 40
1.411998221554634
 40
1.433621623360423
 40
1.455352083261241
 40
1.477187734980784
 40
1.499126713948535
 40
1.521167157331669
 40
1.548635512269554
 40
1.576253975357046
 40
1.604019506584187
 40
1.631929067910758
 40
1.6599796233267
 40
1.688168138912102
 40
1.716491582898797
 40
1.744946925732143
 40
1.773531140134002
 40
1.802241201166626
 40
1.831074086297536
 40
1.860026775465503
 40
1.88909625114766
 40
1.918279498428034
 40
1.947573505067268
 40
1.976975261573539
 40
2.006481761275509
 40
2.036090000396086
 40
2.065796978128563
 40
2.095599696713754
 40
2.125495161519435
 40
2.155480381121309
 40
2.185552367386269
 40
2.21570813555714
 40
2.245944704340126
 40
2.288068236435679
 40
2.330332956364367
 40
2.372729931620583
 40
2.415250230700424
 40
2.457884923518413
 40
2.500625081820242
 40
2.543461779594384
 40
2.586386093483113
 40
2.629389103194481
 40
2.67246189191639
 40
2.715595546734063
 40
2.758781159052316
 40
2.80200982502369
 40
2.845272645983746
 40
2.888560728894778
 40
2.93186518679972
 40
2.975177139286681
 40
3.018487712966365
 40
3.018487712966365
 40
3.018487712966365
 40
3.018487712966365
 10
162.7665415724
 20
137.1424847853
 30
0.0
 10
162.7665666372372
 20
137.1424796580061
 30
0.0
 10
162.7666691516998
 20
137.1424586875216
 30
0.0
 10
162.766901962913
 20
137.1424133799037
 30
0.0
 10
162.7672921294342
 20
137.1423366991449
 30
0.0
 10
162.767839967454
 20
137.1422299784932
 30
0.0
 10
162.7685454199259
 20
137.1420927030981
 30
0.0
 10
162.7694086003486
 20
137.141925203393
 30
0.0
 10
162.7704295525058
 20
137.1417274642781
 30
0.0
 10
162.7716083455981
 20
137.1414995966088
 30
0.0
 10
162.7729450397904
 20
137.1412416664535
 30
0.0
 10
162.774439698207
 20
137.1409537545407
 30
0.0
 10
162.7760923829665
 20
137.1406359366133
 30
0.0
 10
162.7779031564849
 20
137.1402882898857
 30
0.0
 10
162.7798720810709
 20
137.1399108910391
 30
0.0
 10
162.7819992190574
 20
137.1395038168741
 30
0.0
 10
162.7842846327638
 20
137.1390671441238
 30
0.0
 10
162.7867283845094
 20
137.1386009495214
 30
0.0
 10
162.7893305366109
 20
137.1381053097854
 30
0.0
 10
162.7920911513836
 20
137.137580301628
 30
0.0
 10
162.7950102911418
 20
137.1370260017561
 30
0.0
 10
162.7980880181987
 20
137.1364424868716
 30
0.0
 10
162.8013243948674
 20
137.1358298336744
 30
0.0
 10
162.80471948346
 20
137.1351881188612
 30
0.0
 10
162.8082733462886
 20
137.1345174191265
 30
0.0
 10
162.8119860456647
 20
137.1338178111646
 30
0.0
 10
162.8158576438999
 20
137.1330893716669
 30
0.0
 10
162.8198882033053
 20
137.1323321773255
 30
0.0
 10
162.8240777861919
 20
137.13154630483
 30
0.0
 10
162.8284264548709
 20
137.1307318308709
 30
0.0
 10
162.8329342716528
 20
137.1298888321369
 30
0.0
 10
162.8376012988487
 20
137.1290173853172
 30
0.0
 10
162.8424275987689
 20
137.1281175671004
 30
0.0
 10
162.8474132337242
 20
137.1271894541732
 30
0.0
 10
162.8525582660257
 20
137.1262331232283
 30
0.0
 10
162.8578627579806
 20
137.125248650935
 30
0.0
 10
162.863326771913
 20
137.1242361140521
 30
0.0
 10
162.8689503221683
 20
137.1231955978531
 30
0.0
 10
162.8747331837935
 20
137.1221272331723
 30
0.0
 10
162.8806748685045
 20
137.1210313345762
 30
0.0
 10
162.8867746481804
 20
137.1199082595967
 30
0.0
 10
162.8930317468638
 20
137.1187583750345
 30
0.0
 10
162.8994453885781
 20
137.1175820475919
 30
0.0
 10
162.9060147973542
 20
137.1163796440136
 30
0.0
 10
162.9127391972238
 20
137.1151515310459
 30
0.0
 10
162.9196178122197
 20
137.1138980754459
 30
0.0
 10
162.9266498663765
 20
137.1126196439784
 30
0.0
 10
162.9338345837299
 20
137.1113166034148
 30
0.0
 10
162.9411711883165
 20
137.1099893205327
 30
0.0
 10
162.9486589041739
 20
137.1086381621153
 30
0.0
 10
162.9562969553407
 20
137.1072634949502
 30
0.0
 10
162.9640845658562
 20
137.1058656858297
 30
0.0
 10
162.9720209597603
 20
137.1044451015496
 30
0.0
 10
162.9801053610935
 20
137.1030021089096
 30
0.0
 10
162.9883369938971
 20
137.101537074712
 30
0.0
 10
162.9967150822128
 20
137.1000503657625
 30
0.0
 10
163.0052388500827
 20
137.0985423488686
 30
0.0
 10
163.0139075215492
 20
137.0970133908406
 30
0.0
 10
163.0227203206555
 20
137.0954638584909
 30
0.0
 10
163.0316764714449
 20
137.0938941186336
 30
0.0
 10
163.0407751979609
 20
137.0923045380843
 30
0.0
 10
163.0500157242477
 20
137.0906954836608
 30
0.0
 10
163.0593972743494
 20
137.0890673221816
 30
0.0
 10
163.0689190723103
 20
137.087420420467
 30
0.0
 10
163.0785803421757
 20
137.0857551453385
 30
0.0
 10
163.08838030799
 20
137.084071863618
 30
0.0
 10
163.0983181937986
 20
137.0823709421296
 30
0.0
 10
163.1083932236469
 20
137.0806527476972
 30
0.0
 10
163.1186046215805
 20
137.0789176471462
 30
0.0
 10
163.1289516116447
 20
137.0771660073021
 30
0.0
 10
163.1394334178865
 20
137.0753981949936
 30
0.0
 10
163.1500492643483
 20
137.0736145770402
 30
0.0
 10
163.1607983750895
 20
137.0718155202999
 30
0.0
 10
163.1721419008648
 20
137.0699243812387
 30
0.0
 10
163.1840908726871
 20
137.0679406730667
 30
0.0
 10
163.196656424757
 20
137.0658641209104
 30
0.0
 10
163.2093875989884
 20
137.0637700435134
 30
0.0
 10
163.2222838570601
 20
137.0616589833864
 30
0.0
 10
163.2353446606542
 20
137.0595314829919
 30
0.0
 10
163.2485694714521
 20
137.0573880848086
 30
0.0
 10
163.2619577511359
 20
137.0552293313144
 30
0.0
 10
163.2755089613882
 20
137.0530557649903
 30
0.0
 10
163.2892225638915
 20
137.0508679283191
 30
0.0
 10
163.3030980203291
 20
137.0486663637859
 30
0.0
 10
163.3171347923843
 20
137.0464516138775
 30
0.0
 10
163.3313323417406
 20
137.0442242210827
 30
0.0
 10
163.3456901300821
 20
137.041984727892
 30
0.0
 10
163.3602076190926
 20
137.0397336767968
 30
0.0
 10
163.3748842704571
 20
137.037471610291
 30
0.0
 10
163.3897195458597
 20
137.035199070869
 30
0.0
 10
163.4047129069855
 20
137.0329166010271
 30
0.0
 10
163.4198638155195
 20
137.0306247432624
 30
0.0
 10
163.4351717331471
 20
137.0283240400734
 30
0.0
 10
163.4506361215535
 20
137.0260150339594
 30
0.0
 10
163.4662564424248
 20
137.0236982674213
 30
0.0
 10
163.4820321574463
 20
137.02137428296
 30
0.0
 10
163.4979627283043
 20
137.0190436230785
 30
0.0
 10
163.514047616685
 20
137.0167068302796
 30
0.0
 10
163.5302862842746
 20
137.0143644470675
 30
0.0
 10
163.5466781927597
 20
137.0120170159471
 30
0.0
 10
163.5632228038268
 20
137.0096650794237
 30
0.0
 10
163.5799195791627
 20
137.007309180004
 30
0.0
 10
163.5967679804545
 20
137.0049498601933
 30
0.0
 10
163.6137674693881
 20
137.0025876625054
 30
0.0
 10
163.6309175076555
 20
137.0002231294242
 30
0.0
 10
163.6484059044973
 20
136.9978310410959
 30
0.0
 10
163.6662349954667
 20
136.9954122829963
 30
0.0
 10
163.6844066809737
 20
136.9929678153547
 30
0.0
 10
163.7027339541151
 20
136.9905235029037
 30
0.0
 10
163.7212149729733
 20
136.9880800901096
 30
0.0
 10
163.7398478956481
 20
136.9856383214694
 30
0.0
 10
163.7586308802347
 20
136.9831989414708
 30
0.0
 10
163.7775620848299
 20
136.9807626946035
 30
0.0
 10
163.7966396675301
 20
136.9783303253562
 30
0.0
 10
163.8158617864323
 20
136.975902578217
 30
0.0
 10
163.8352265996333
 20
136.9734801976736
 30
0.0
 10
163.8547322652302
 20
136.9710639282129
 30
0.0
 10
163.8743769413207
 20
136.9686545143217
 30
0.0
 10
163.8941587860021
 20
136.9662527004864
 30
0.0
 10
163.9140759573723
 20
136.9638592311925
 30
0.0
 10
163.9341266135296
 20
136.9614748509253
 30
0.0
 10
163.954308912572
 20
136.9591003041696
 30
0.0
 10
163.9746210125984
 20
136.9567363354098
 30
0.0
 10
163.9950610717075
 20
136.9543836891299
 30
0.0
 10
164.0156272479985
 20
136.9520431098129
 30
0.0
 10
164.0363176995708
 20
136.9497153419423
 30
0.0
 10
164.0571305845242
 20
136.9474011300003
 30
0.0
 10
164.0780640609586
 20
136.9451012184691
 30
0.0
 10
164.0991162869747
 20
136.9428163518305
 30
0.0
 10
164.1202854206729
 20
136.9405472745654
 30
0.0
 10
164.1415696201544
 20
136.9382947311549
 30
0.0
 10
164.162967043521
 20
136.9360594660788
 30
0.0
 10
164.1844758488724
 20
136.9338422238183
 30
0.0
 10
164.2060941943195
 20
136.9316437488486
 30
0.0
 10
164.227820237931
 20
136.9294647856635
 30
0.0
 10
164.2496521379382
 20
136.9273060786866
 30
0.0
 10
164.2733557810776
 20
136.924996103268
 30
0.0
 10
164.2989476154348
 20
136.9225433721051
 30
0.0
 10
164.3264437295405
 20
136.9199572494549
 30
0.0
 10
164.3540908352539
 20
136.9174063969545
 30
0.0
 10
164.3818858782032
 20
136.9148917329068
 30
0.0
 10
164.4098258043131
 20
136.9124141756531
 30
0.0
 10
164.4379075594283
 20
136.9099746435196
 30
0.0
 10
164.4661280894148
 20
136.9075740548329
 30
0.0
 10
164.4944843401335
 20
136.9052133279152
 30
0.0
 10
164.5229732574464
 20
136.9028933810858
 30
0.0
 10
164.5515917872157
 20
136.9006151326615
 30
0.0
 10
164.5803368753039
 20
136.8983795009557
 30
0.0
 10
164.6092054675737
 20
136.8961874042791
 30
0.0
 10
164.6381945098886
 20
136.89403976094
 30
0.0
 10
164.6673009481125
 20
136.8919374892434
 30
0.0
 10
164.6965217281094
 20
136.8898815074923
 30
0.0
 10
164.7258537957449
 20
136.8878727339866
 30
0.0
 10
164.7552940968842
 20
136.8859120870241
 30
0.0
 10
164.7848395773944
 20
136.8840004848996
 30
0.0
 10
164.8144871831419
 20
136.8821388459062
 30
0.0
 10
164.844233859998
 20
136.8803280883333
 30
0.0
 10
164.8740765538213
 20
136.8785691304722
 30
0.0
 10
164.9040122105223
 20
136.8768628905945
 30
0.0
 10
164.9340377758205
 20
136.8752102870369
 30
0.0
 10
164.9641501961593
 20
136.8736122378791
 30
0.0
 10
164.9982776715066
 20
136.8718688336865
 30
0.0
 10
165.0364407739123
 20
136.8700104194562
 30
0.0
 10
165.0786580623712
 20
136.8680713764555
 30
0.0
 10
165.1210126639025
 20
136.8662428921533
 30
0.0
 10
165.1634953551794
 20
136.8645258634722
 30
0.0
 10
165.2060969144586
 20
136.8629211875401
 30
0.0
 10
165.2488081195657
 20
136.8614297613979
 30
0.0
 10
165.2916197484389
 20
136.8600524820471
 30
0.0
 10
165.3345225789845
 20
136.8587902465572
 30
0.0
 10
165.3775073891167
 20
136.8576439515919
 30
0.0
 10
165.4205649567479
 20
136.8566144952027
 30
0.0
 10
165.4636860597936
 20
136.855702770115
 30
0.0
 10
165.5068614761715
 20
136.85490968884
 30
0.0
 10
165.5500819838033
 20
136.8542360897946
 30
0.0
 10
165.5933383606173
 20
136.8536830881631
 30
0.0
 10
165.6366213845402
 20
136.8532507650132
 30
0.0
 10
165.6799218335348
 20
136.8529430634897
 30
0.0
 10
165.723230485464
 20
136.8527495070115
 30
0.0
 10
165.7521046706889
 20
136.8527254605429
 30
0.0
 10
165.7665415335
 20
136.8527134375
 30
0.0
 11
162.7665415724
 21
137.1424847853
 31
0.0
 11
162.7666167786907
 21
137.1424694621047
 31
0.0
 11
162.766849450703
 21
137.1424235436427
 31
0.0
 11
162.767239650747
 21
137.1423471065998
 31
0.0
 11
162.767787441133
 21
137.1422402276618
 31
0.0
 11
162.768492884171
 21
137.1421029835146
 31
0.0
 11
162.7693560421713
 21
137.1419354508441
 31
0.0
 11
162.770376977444
 21
137.141737706336
 31
0.0
 11
162.7715557522993
 21
137.1415098266762
 31
0.0
 11
162.7728924290474
 21
137.1412518885506
 31
0.0
 11
162.7743870699985
 21
137.1409639686449
 31
0.0
 11
162.7760397374627
 21
137.1406461436449
 31
0.0
 11
162.7778504937502
 21
137.1402984902367
 31
0.0
 11
162.7798194011712
 21
137.1399210851058
 31
0.0
 11
162.7819465220358
 21
137.1395140049384
 31
0.0
 11
162.7842319186543
 21
137.1390773264201
 31
0.0
 11
162.7866756533367
 21
137.1386111262367
 31
0.0
 11
162.7892777883934
 21
137.1381154810741
 31
0.0
 11
162.7920383861344
 21
137.1375904676182
 31
0.0
 11
162.7949575088699
 21
137.1370361625548
 31
0.0
 11
162.7980352189101
 21
137.1364526425697
 31
0.0
 11
162.8012715785651
 21
137.1358399843488
 31
0.0
 11
162.8046666501453
 21
137.1351982645778
 31
0.0
 11
162.8082204959606
 21
137.1345275599427
 31
0.0
 11
162.8119331783214
 21
137.1338279471293
 31
0.0
 11
162.8158047595377
 21
137.1330995028233
 31
0.0
 11
162.8198353019197
 21
137.1323423037107
 31
0.0
 11
162.8240248677776
 21
137.1315564264772
 31
0.0
 11
162.8283735194217
 21
137.1307419478088
 31
0.0
 11
162.832881319162
 21
137.1298989443912
 31
0.0
 11
162.8375483293088
 21
137.1290274929102
 31
0.0
 11
162.8423746121722
 21
137.1281276700518
 31
0.0
 11
162.8473602300623
 21
137.1271995525018
 31
0.0
 11
162.8525052452894
 21
137.1262432169459
 31
0.0
 11
162.8578097201637
 21
137.12525874007
 31
0.0
 11
162.8632737169953
 21
137.12424619856
 31
0.0
 11
162.8688972980942
 21
137.1232056691017
 31
0.0
 11
162.8746803860569
 21
137.1221372767407
 31
0.0
 11
162.880622344644
 21
137.121041339958
 31
0.0
 11
162.8867223979026
 21
137.1199182255943
 31
0.0
 11
162.8929797698796
 21
137.1187683004903
 31
0.0
 11
162.8993936846221
 21
137.1175919314867
 31
0.0
 11
162.905963366177
 21
137.1163894854244
 31
0.0
 11
162.9126880385914
 21
137.1151613291439
 31
0.0
 11
162.9195669259122
 21
137.1139078294861
 31
0.0
 11
162.9265992521865
 21
137.1126293532916
 31
0.0
 11
162.9337842414612
 21
137.1113262674011
 31
0.0
 11
162.9411211177833
 21
137.1099989386554
 31
0.0
 11
162.9486091051999
 21
137.1086477338953
 31
0.0
 11
162.9562474277578
 21
137.1072730199613
 31
0.0
 11
162.9640353095043
 21
137.1058751636943
 31
0.0
 11
162.9719719744861
 21
137.1044545319349
 31
0.0
 11
162.9800566467503
 21
137.103011491524
 31
0.0
 11
162.988288550344
 21
137.1015464093022
 31
0.0
 11
162.9966669093141
 21
137.1000596521102
 31
0.0
 11
163.0051909477076
 21
137.0985515867888
 31
0.0
 11
163.0138598895714
 21
137.0970225801786
 31
0.0
 11
163.0226729589527
 21
137.0954729991205
 31
0.0
 11
163.0316293798984
 21
137.0939032104551
 31
0.0
 11
163.0407283764555
 21
137.0923135810231
 31
0.0
 11
163.049969172671
 21
137.0907044776654
 31
0.0
 11
163.0593509925919
 21
137.0890762672225
 31
0.0
 11
163.0688730602651
 21
137.0874293165352
 31
0.0
 11
163.0785345997378
 21
137.0857639924443
 31
0.0
 11
163.0883348350568
 21
137.0840806617904
 31
0.0
 11
163.0982729902692
 21
137.0823796914142
 31
0.0
 11
163.108348289422
 21
137.0806614481567
 31
0.0
 11
163.1185599565621
 21
137.0789262988583
 31
0.0
 11
163.1289072157367
 21
137.0771746103599
 31
0.0
 11
163.1393892909925
 21
137.0754067495021
 31
0.0
 11
163.1500054063768
 21
137.0736230831258
 31
0.0
 11
163.1607547859364
 21
137.0718239780715
 31
0.0
 11
163.1716366537183
 21
137.0700098011801
 31
0.0
 11
163.1840362480747
 21
137.0679512967478
 31
0.0
 11
163.1966020024585
 21
137.0658747238272
 31
0.0
 11
163.2093333785562
 21
137.0637806249412
 31
0.0
 11
163.2222298380539
 21
137.0616695426126
 31
0.0
 11
163.2352908426381
 21
137.0595420193643
 31
0.0
 11
163.2485158539951
 21
137.057398597719
 31
0.0
 11
163.2619043338113
 21
137.0552398201998
 31
0.0
 11
163.275455743773
 21
137.0530662293294
 31
0.0
 11
163.2891695455665
 21
137.0508783676306
 31
0.0
 11
163.3030452008781
 21
137.0486767776264
 31
0.0
 11
163.3170821713943
 21
137.0464620018395
 31
0.0
 11
163.3312799188013
 21
137.0442345827929
 31
0.0
 11
163.3456379047856
 21
137.0419950630093
 31
0.0
 11
163.3601555910334
 21
137.0397439850117
 31
0.0
 11
163.374832439231
 21
137.0374818913228
 31
0.0
 11
163.3896679110649
 21
137.0352093244656
 31
0.0
 11
163.4046614682213
 21
137.0329268269629
 31
0.0
 11
163.4198125723867
 21
137.0306349413376
 31
0.0
 11
163.4351206852473
 21
137.0283342101124
 31
0.0
 11
163.4505852684895
 21
137.0260251758102
 31
0.0
 11
163.4662057837996
 21
137.023708380954
 31
0.0
 11
163.481981692864
 21
137.0213843680665
 31
0.0
 11
163.4979124573691
 21
137.0190536796706
 31
0.0
 11
163.5139975390011
 21
137.0167168582892
 31
0.0
 11
163.5302363994464
 21
137.014374446445
 31
0.0
 11
163.5466285003913
 21
137.012026986661
 31
0.0
 11
163.5631733035222
 21
137.00967502146
 31
0.0
 11
163.5798702705254
 21
137.0073190933649
 31
0.0
 11
163.5967188630873
 21
137.0049597448985
 31
0.0
 11
163.6137185428942
 21
137.0025975185836
 31
0.0
 11
163.6308687716325
 21
137.0002329569431
 31
0.0
 11
163.6481690109885
 21
136.9978666025
 31
0.0
 11
163.6661838908132
 21
136.995422633361
 31
0.0
 11
163.6843561999413
 21
136.9929780764791
 31
0.0
 11
163.7026840964593
 21
136.9905336763557
 31
0.0
 11
163.7211657384536
 21
136.9880901774919
 31
0.0
 11
163.7397992840109
 21
136.9856483243891
 31
0.0
 11
163.7585828912176
 21
136.9832088615485
 31
0.0
 11
163.7775147181603
 21
136.9807725334715
 31
0.0
 11
163.7965929229256
 21
136.9783400846592
 31
0.0
 11
163.8158156635998
 21
136.9759122596129
 31
0.0
 11
163.8351810982697
 21
136.9734898028339
 31
0.0
 11
163.8546873850217
 21
136.9710734588235
 31
0.0
 11
163.8743326819423
 21
136.9686639720829
 31
0.0
 11
163.8941151471181
 21
136.9662620871134
 31
0.0
 11
163.9140329386356
 21
136.9638685484164
 31
0.0
 11
163.9340842145814
 21
136.961484100493
 31
0.0
 11
163.954267133042
 21
136.9591094878444
 31
0.0
 11
163.974579852104
 21
136.9567454549721
 31
0.0
 11
163.9950205298537
 21
136.9543927463772
 31
0.0
 11
164.0155873243779
 21
136.9520521065611
 31
0.0
 11
164.036278393763
 21
136.949724280025
 31
0.0
 11
164.0570918960954
 21
136.94741001127
 31
0.0
 11
164.078025989462
 21
136.9451100447977
 31
0.0
 11
164.099078831949
 21
136.9428251251091
 31
0.0
 11
164.1202485816431
 21
136.9405559967056
 31
0.0
 11
164.1415333966307
 21
136.9383034040885
 31
0.0
 11
164.1629314349985
 21
136.9360680917589
 31
0.0
 11
164.184440854833
 21
136.9338508042183
 31
0.0
 11
164.2060598142207
 21
136.9316522859678
 31
0.0
 11
164.227786471248
 21
136.9294732815087
 31
0.0
 11
164.2496189840016
 21
136.9273145353422
 31
0.0
 11
164.271555510568
 21
136.9251767919698
 31
0.0
 11
164.2988985714594
 21
136.9225561920222
 31
0.0
 11
164.32639567768
 21
136.9199699490316
 31
0.0
 11
164.3540437750473
 21
136.9174189813141
 31
0.0
 11
164.3818398093782
 21
136.9149042071856
 31
0.0
 11
164.40978072649
 21
136.912426544962
 31
0.0
 11
164.4378634721998
 21
136.9099869129594
 31
0.0
 11
164.4660849923247
 21
136.9075862294937
 31
0.0
 11
164.4944422326821
 21
136.9052254128809
 31
0.0
 11
164.5229321390889
 21
136.9029053814369
 31
0.0
 11
164.5515516573624
 21
136.9006270534776
 31
0.0
 11
164.5802977333198
 21
136.8983913473192
 31
0.0
 11
164.6091673127781
 21
136.8961991812775
 31
0.0
 11
164.6381573415546
 21
136.8940514736685
 31
0.0
 11
164.6672647654664
 21
136.8919491428081
 31
0.0
 11
164.6964865303307
 21
136.8898931070124
 31
0.0
 11
164.7258195819647
 21
136.8878842845973
 31
0.0
 11
164.7552608661854
 21
136.8859235938788
 31
0.0
 11
164.7848073288101
 21
136.8840119531728
 31
0.0
 11
164.814455915656
 21
136.8821502807954
 31
0.0
 11
164.8442035725402
 21
136.8803394950624
 31
0.0
 11
164.8740472452798
 21
136.8785805142898
 31
0.0
 11
164.903983879692
 21
136.8768742567937
 31
0.0
 11
164.934010421594
 21
136.8752216408899
 31
0.0
 11
164.964123816803
 21
136.8736235848945
 31
0.0
 11
164.994321011136
 21
136.8720810071233
 31
0.0
 11
165.0363946806372
 21
136.8700320339877
 31
0.0
 11
165.0786148857319
 21
136.8680927474143
 31
0.0
 11
165.120972404025
 21
136.8662640443429
 31
0.0
 11
165.1634580131212
 21
136.8645468217132
 31
0.0
 11
165.2060624906255
 21
136.8629419764648
 31
0.0
 11
165.2487766141426
 21
136.8614504055375
 31
0.0
 11
165.2915911612774
 21
136.8600730058708
 31
0.0
 11
165.3344969096345
 21
136.8588106744047
 31
0.0
 11
165.3774846368189
 21
136.8576643080787
 31
0.0
 11
165.4205451204355
 21
136.8566348038325
 31
0.0
 11
165.4636691380889
 21
136.8557230586058
 31
0.0
 11
165.506847467384
 21
136.8549299693383
 31
0.0
 11
165.5500708859256
 21
136.8542564329698
 31
0.0
 11
165.5933301713186
 21
136.8537033464399
 31
0.0
 11
165.6366161011677
 21
136.8532716066882
 31
0.0
 11
165.6799194530777
 21
136.8529621106546
 31
0.0
 11
165.7232310046536
 21
136.8527757552786
 31
0.0
 11
165.7665415335
 21
136.8527134375
 31
0.0
  0
SPLINE
  5
115
330
1F
100
AcDbEntity
  8
0
  6
Continuous
 62
     2
100
AcDbSpline
210
0.0
220
0.0
230
1.0
 70
     8
 71
     3
 72
    19
 73
    15
 74
    13
 42
0.0000000001
 43
0.0000000001
 44
0.00000001
 40
0.0
 40
0.0
 40
0.0
 40
0.0
 40
0.3890215576082369
 40
0.7723803418922158
 40
1.143683354705469
 40
1.496999680199057
 40
1.826273802744096
 40
2.124628688014964
 40
2.385744224716785
 40
2.606524859378858
 40
2.784202908027988
 40
2.91421616050948
 40
2.992451684951352
 40
3.0184338766676
 40
3.0184338766676
 40
3.0184338766676
 40
3.0184338766676
 10
165.7665415335
 20
136.8527134375
 30
0.0
 10
165.896218481422
 20
136.8536775327551
 30
0.0
 10
166.1536847411
 20
136.8555916894599
 30
0.0
 10
166.5346836350543
 20
136.8704336683111
 30
0.0
 10
166.9033305883817
 20
136.8932539868944
 30
0.0
 10
167.2533871614407
 20
136.9231446775189
 30
0.0
 10
167.5785220724811
 20
136.9580617355875
 30
0.0
 10
167.8724290661952
 20
136.9953624462036
 30
0.0
 10
168.1298551128364
 20
137.0325295125354
 30
0.0
 10
168.3469654297772
 20
137.0672201362219
 30
0.0
 10
168.5205896060909
 20
137.0970076295818
 30
0.0
 10
168.647162930357
 20
137.1199914726827
 30
0.0
 10
168.7239210581672
 20
137.1342842087484
 30
0.0
 10
168.7580363557375
 20
137.14083883268
 30
0.0
 10
168.7665415335
 20
137.1424729454
 30
0.0
 11
165.7665415335
 21
136.8527134375
 31
0.0
 11
166.1555316044248
 21
136.8576628825057
 31
0.0
 11
166.538619428914
 21
136.87207385804
 31
0.0
 11
166.9092076553703
 21
136.8951019655637
 31
0.0
 11
167.2612439878487
 21
136.9251493693698
 31
0.0
 11
167.5886404482434
 21
136.9602635474009
 31
0.0
 11
167.8846212743782
 21
136.9978266692833
 31
0.0
 11
168.1430551903726
 21
137.0351527268156
 31
0.0
 11
168.361076648315
 21
137.0699483086968
 31
0.0
 11
168.5361911550193
 21
137.100021527904
 31
0.0
 11
168.664122708839
 21
137.123193997735
 31
0.0
 11
168.7410236922823
 21
137.1375827443848
 31
0.0
 11
168.7665415335
 21
137.1424729454
 31
0.0
  0
SPLINE
  5
116
330
1F
100
AcDbEntity
  8
0
  6
Continuous
 62
     2
100
AcDbSpline
210
0.0
220
0.0
230
1.0
 70
     8
 71
     3
 72
   176
 73
   172
 74
   170
 42
0.0000000001
 43
0.0000000001
 44
0.00000001
 40
0.0
 40
0.0
 40
0.0
 40
0.0
 40
0.0457959609829214
 40
0.0915920777586395
 40
0.1373776118906559
 40
0.1831418158141739
 40
0.2288739334840864
 40
0.2745632010036363
 40
0.3201988472373467
 40
0.3657700944092415
 40
0.4112661586892996
 40
0.4566762507695763
 40
0.5019895764318881
 40
0.5471953371092755
 40
0.5922827304431751
 40
0.6372409508381318
 40
0.6820591900157068
 40
0.7267266375704665
 40
0.7712324815291826
 40
0.8040180518899093
 40
0.8367059777385459
 40
0.8692928036302973
 40
0.9017750695148541
 40
0.9341493108546187
 40
0.9664120587392913
 40
0.9985598399987076
 40
1.030589177312066
 40
1.062496589315151
 40
1.09427859070504
 40
1.125931692342447
 40
1.157452401351572
 40
1.188837221218515
 40
1.220082651887153
 40
1.251185189853061
 40
1.282141328256247
 40
1.312947556971588
 40
1.343600362698114
 40
1.374096229046544
 40
1.404431636625551
 40
1.434603063126841
 40
1.464606983409115
 40
1.494439869580918
 40
1.51719360558749
 40
1.539842472948212
 40
1.562384206231069
 40
1.584816538000385
 40
1.607137198857782
 40
1.629343917481687
 40
1.651434420666023
 40
1.673406433358273
 40
1.695257678696162
 40
1.716985878043646
 40
1.738588751026313
 40
1.760064015565381
 40
1.781409387911172
 40
1.802622582676155
 40
1.823701312866489
 40
1.844643289913328
 40
1.865446223703453
 40
1.88610782260865
 40
1.906625793515211
 40
1.926997841851916
 40
1.947221671618117
 40
1.967294985410668
 40
1.987215484450608
 40
2.006980868609068
 40
2.026588836432322
 40
2.046037085167182
 40
2.065323310784761
 40
2.084445208004349
 40
2.103400470316871
 40
2.122186790007386
 40
2.140204345863794
 40
2.158061088985297
 40
2.17575658678326
 40
2.193290405585777
 40
2.210662110644559
 40
2.227871266142655
 40
2.244917435201041
 40
2.261800179886416
 40
2.27851906121855
 40
2.295073639177626
 40
2.311463472712107
 40
2.32768811974615
 40
2.343747137187585
 40
2.359640080935964
 40
2.375366505890296
 40
2.390925965957747
 40
2.406318014061597
 40
2.421542202149908
 40
2.436598081204739
 40
2.451485201250069
 40
2.466203111362044
 40
2.480751359677579
 40
2.495129493404444
 40
2.509337058831138
 40
2.523373601337005
 40
2.537238665402819
 40
2.55093179462182
 40
2.564452531711006
 40
2.577800418522864
 40
2.590974996057667
 40
2.603975804476096
 40
2.615677517682895
 40
2.627233269022795
 40
2.638641936059764
 40
2.649902396001107
 40
2.661013525702248
 40
2.671974201671313
 40
2.682783300073697
 40
2.693439696736568
 40
2.703942267153644
 40
2.714289886489234
 40
2.724481429582955
 40
2.734515770954312
 40
2.744391784806856
 40
2.754108345032686
 40
2.763664325216753
 40
2.773058598641723
 40
2.782290038291828
 40
2.791357516857667
 40
2.800259906740617
 40
2.808996080057512
 40
2.817564908644925
 40
2.825965264064226
 40
2.834196017606132
 40
2.842256040295773
 40
2.850144202897532
 40
2.857859375920624
 40
2.865400429624156
 40
2.872766234023108
 40
2.879955658894298
 40
2.886967573782634
 40
2.893800848008075
 40
2.900454350672957
 40
2.906926950670014
 40
2.913217516690935
 40
2.919325115270079
 40
2.925249604924297
 40
2.93099104215057
 40
2.936549483399266
 40
2.941924985074058
 40
2.947117603532091
 40
2.9521273950839
 40
2.956954415993139
 40
2.961598722476809
 40
2.966060370705312
 40
2.970339416802178
 40
2.974435916844059
 40
2.978349926860942
 40
2.982081502835872
 40
2.985630700705166
 40
2.988997576357975
 40
2.992182185636919
 40
2.99518458433733
 40
2.998004828207951
 40
3.000642972950417
 40
3.00309907421935
 40
3.005373187622672
 40
3.007465368721387
 40
3.009375673029679
 40
3.011104156014957
 40
3.01265087309833
 40
3.01401587965499
 40
3.015199231014389
 40
3.016200982462379
 40
3.017021189243449
 40
3.017659906568373
 40
3.018117189634725
 40
3.018393093718479
 40
3.018487675134863
 40
3.018487675134863
 40
3.018487675134863
 40
3.018487675134863
 10
165.7665415335
 20
106.0822324533
 30
0.0
 10
165.7512762073528
 20
106.0822189929678
 30
0.0
 10
165.7207455031274
 20
106.0821920722576
 30
0.0
 10
165.6749533718061
 20
106.0819754858335
 30
0.0
 10
165.6291726612864
 20
106.0816313227643
 30
0.0
 10
165.5834145220047
 20
106.0811479616834
 30
0.0
 10
165.537690104269
 20
106.0805299231272
 30
0.0
 10
165.4920105584351
 20
106.0797774047913
 30
0.0
 10
165.4463870348574
 20
106.0788917616944
 30
0.0
 10
165.4008306839
 20
106.0778740391875
 30
0.0
 10
165.3553526559317
 20
106.0767253655152
 30
0.0
 10
165.3099641013258
 20
106.0754468468051
 30
0.0
 10
165.2646761704554
 20
106.0740395951496
 30
0.0
 10
165.2195000137033
 20
106.0725047210979
 30
0.0
 10
165.1744467814171
 20
106.0708433356703
 30
0.0
 10
165.1295276240689
 20
106.0690565497928
 30
0.0
 10
165.0847536916544
 20
106.0671454745566
 30
0.0
 10
165.0401361359158
 20
106.0651112207502
 30
0.0
 10
164.9995308721393
 20
106.0631414145163
 30
0.0
 10
164.9629187578088
 20
106.06127205567
 30
0.0
 10
164.9302781282961
 20
106.0595353485248
 30
0.0
 10
164.8977422142042
 20
106.0577348121113
 30
0.0
 10
164.8653145641555
 20
106.0558715768838
 30
0.0
 10
164.8329987276013
 20
106.0539467736422
 30
0.0
 10
164.8007982537735
 20
106.0519615330988
 30
0.0
 10
164.7687166919648
 20
106.0499169859924
 30
0.0
 10
164.7367575914533
 20
106.0478142630593
 30
0.0
 10
164.7049245015222
 20
106.04565449504
 30
0.0
 10
164.6732209714553
 20
106.0434388126783
 30
0.0
 10
164.641650550537
 20
106.041168346721
 30
0.0
 10
164.6102167880533
 20
106.0388442279188
 30
0.0
 10
164.5789232332906
 20
106.0364675870254
 30
0.0
 10
164.5477734355361
 20
106.0340395547982
 30
0.0
 10
164.5167709440777
 20
106.0315612619983
 30
0.0
 10
164.4859193082043
 20
106.0290338393906
 30
0.0
 10
164.455222077204
 20
106.0264584177437
 30
0.0
 10
164.424682800368
 20
106.02383612783
 30
0.0
 10
164.3943050269789
 20
106.0211681004269
 30
0.0
 10
164.3640923063524
 20
106.0184554663134
 30
0.0
 10
164.3340481876819
 20
106.0156993562818
 30
0.0
 10
164.3041762206138
 20
106.0129009010964
 30
0.0
 10
164.2767710322237
 20
106.0102803132985
 30
0.0
 10
164.2518104937357
 20
106.0078507183111
 30
0.0
 10
164.2292721321854
 20
106.0056236998434
 30
0.0
 10
164.2068436125803
 20
106.0033748062118
 30
0.0
 10
164.184527175849
 20
106.0011048804286
 30
0.0
 10
164.1623250631511
 20
105.9988147655845
 30
0.0
 10
164.1402395155855
 20
105.9965053047499
 30
0.0
 10
164.118272774268
 20
105.9941773410018
 30
0.0
 10
164.0964270803105
 20
105.9918317174166
 30
0.0
 10
164.0747046748264
 20
105.9894692770717
 30
0.0
 10
164.0531077989297
 20
105.987090863045
 30
0.0
 10
164.0316386937342
 20
105.9846973184157
 30
0.0
 10
164.0102996003549
 20
105.9822894862633
 30
0.0
 10
163.9890927599067
 20
105.9798682096685
 30
0.0
 10
163.968020413505
 20
105.9774343317124
 30
0.0
 10
163.9470848022656
 20
105.9749886954773
 30
0.0
 10
163.9262881673049
 20
105.9725321440459
 30
0.0
 10
163.9056327497392
 20
105.9700655205023
 30
0.0
 10
163.8851207906853
 20
105.9675896679306
 30
0.0
 10
163.8647545312605
 20
105.9651054294166
 30
0.0
 10
163.8445362125822
 20
105.9626136480466
 30
0.0
 10
163.824468075768
 20
105.9601151669074
 30
0.0
 10
163.8045523619359
 20
105.9576108290875
 30
0.0
 10
163.7847913122041
 20
105.9551014776757
 30
0.0
 10
163.7651871676911
 20
105.9525879557618
 30
0.0
 10
163.7457421695153
 20
105.9500711064367
 30
0.0
 10
163.7264585587955
 20
105.9475517727928
 30
0.0
 10
163.7073385766518
 20
105.9450307979205
 30
0.0
 10
163.6883844641988
 20
105.9425090249235
 30
0.0
 10
163.669598462572
 20
105.9399872968607
 30
0.0
 10
163.6511801822615
 20
105.93749318376
 30
0.0
 10
163.6331275470426
 20
105.9350277401486
 30
0.0
 10
163.6154378598191
 20
105.9325919198564
 30
0.0
 10
163.5979105725044
 20
105.9301588455574
 30
0.0
 10
163.5805460660942
 20
105.927729080592
 30
0.0
 10
163.5633447215901
 20
105.9253031883438
 30
0.0
 10
163.546306919992
 20
105.9228817321842
 30
0.0
 10
163.5294330423008
 20
105.9204652754868
 30
0.0
 10
163.5127234695168
 20
105.9180543816235
 30
0.0
 10
163.4961785826413
 20
105.9156496139656
 30
0.0
 10
163.4797987626752
 20
105.9132515358834
 30
0.0
 10
163.4635843906193
 20
105.9108607107461
 30
0.0
 10
163.4475358474754
 20
105.908477701922
 30
0.0
 10
163.4316535142448
 20
105.9061030727782
 30
0.0
 10
163.4159377719293
 20
105.9037373866807
 30
0.0
 10
163.4003890015309
 20
105.9013812069941
 30
0.0
 10
163.3850075840514
 20
105.8990350970818
 30
0.0
 10
163.3697939004933
 20
105.8966996203057
 30
0.0
 10
163.3547483318592
 20
105.8943753400265
 30
0.0
 10
163.3398712591518
 20
105.8920628196028
 30
0.0
 10
163.3251630633741
 20
105.8897626223921
 30
0.0
 10
163.3106241255294
 20
105.8874753117498
 30
0.0
 10
163.2962548266212
 20
105.8852014510292
 30
0.0
 10
163.2820555476533
 20
105.8829416035821
 30
0.0
 10
163.2680266696299
 20
105.8806963327577
 30
0.0
 10
163.2541685735553
 20
105.8784662019029
 30
0.0
 10
163.2404816404342
 20
105.8762517743626
 30
0.0
 10
163.2269662512719
 20
105.8740536134778
 30
0.0
 10
163.2136227870735
 20
105.8718722825912
 30
0.0
 10
163.2004516288453
 20
105.8697083450253
 30
0.0
 10
163.1874531575922
 20
105.867562364163
 30
0.0
 10
163.174997654993
 20
105.8654962617856
 30
0.0
 10
163.1630758998558
 20
105.8635099658345
 30
0.0
 10
163.1516789218018
 20
105.861603226898
 30
0.0
 10
163.1404282670527
 20
105.8597132716916
 30
0.0
 10
163.1293250020568
 20
105.8578405593882
 30
0.0
 10
163.1183701932807
 20
105.8559855491101
 30
0.0
 10
163.1075649071863
 20
105.8541486999918
 30
0.0
 10
163.0969102102374
 20
105.8523304711633
 30
0.0
 10
163.0864071688971
 20
105.8505313217545
 30
0.0
 10
163.0760568496295
 20
105.8487517108941
 30
0.0
 10
163.0658603188984
 20
105.8469920977094
 30
0.0
 10
163.0558186431682
 20
105.8452529413264
 30
0.0
 10
163.0459328889037
 20
105.8435347008693
 30
0.0
 10
163.0362041225695
 20
105.841837835461
 30
0.0
 10
163.0266334106313
 20
105.8401628042223
 30
0.0
 10
163.0172218195547
 20
105.8385100662722
 30
0.0
 10
163.0079704158061
 20
105.8368800807272
 30
0.0
 10
162.998880265852
 20
105.8352733067015
 30
0.0
 10
162.9899524361599
 20
105.8336902033064
 30
0.0
 10
162.9811879931973
 20
105.8321312296503
 30
0.0
 10
162.972588003433
 20
105.830596844838
 30
0.0
 10
162.9641535333359
 20
105.8290875079706
 30
0.0
 10
162.9558856493762
 20
105.827603678145
 30
0.0
 10
162.9477854180246
 20
105.8261458144532
 30
0.0
 10
162.9398539057532
 20
105.8247143759819
 30
0.0
 10
162.9320921790346
 20
105.8233098218119
 30
0.0
 10
162.9245013043431
 20
105.8219326110168
 30
0.0
 10
162.9170823481543
 20
105.8205832026631
 30
0.0
 10
162.9098363769451
 20
105.8192620558078
 30
0.0
 10
162.9027644571944
 20
105.8179696294989
 30
0.0
 10
162.8958676553833
 20
105.8167063827702
 30
0.0
 10
162.8891470379935
 20
105.8154727746526
 30
0.0
 10
162.8826036715161
 20
105.8142692641245
 30
0.0
 10
162.8762386224195
 20
105.8130963102811
 30
0.0
 10
162.8700528923534
 20
105.8119543597331
 30
0.0
 10
162.8640471580949
 20
105.8108438006801
 30
0.0
 10
162.8582217343934
 20
105.8097648008948
 30
0.0
 10
162.8525766117596
 20
105.8087174667042
 30
0.0
 10
162.8471117157151
 20
105.8077018928476
 30
0.0
 10
162.8418269718027
 20
105.8067181739589
 30
0.0
 10
162.8367223055594
 20
105.805766404699
 30
0.0
 10
162.8317976425235
 20
105.8048466797225
 30
0.0
 10
162.8270529082332
 20
105.8039590936862
 30
0.0
 10
162.8224880282264
 20
105.803103741247
 30
0.0
 10
162.8181029280406
 20
105.8022807170624
 30
0.0
 10
162.813897533214
 20
105.8014901157911
 30
0.0
 10
162.8098717692835
 20
105.8007320320924
 30
0.0
 10
162.8060255617867
 20
105.8000065606268
 30
0.0
 10
162.8023588362603
 20
105.7993137960568
 30
0.0
 10
162.7988715182408
 20
105.7986538330463
 30
0.0
 10
162.7955635332644
 20
105.7980267662619
 30
0.0
 10
162.7924348068666
 20
105.7974326903734
 30
0.0
 10
162.7894852645817
 20
105.7968717000546
 30
0.0
 10
162.7867148319435
 20
105.7963438899852
 30
0.0
 10
162.7841234344841
 20
105.7958493548511
 30
0.0
 10
162.781710997733
 20
105.7953881893526
 30
0.0
 10
162.7794774472193
 20
105.7949604881918
 30
0.0
 10
162.7774227084598
 20
105.7945663461321
 30
0.0
 10
162.7755467069917
 20
105.7942058578369
 30
0.0
 10
162.7738493682576
 20
105.7938791184416
 30
0.0
 10
162.7723306179567
 20
105.7935862218038
 30
0.0
 10
162.7709903809093
 20
105.7933272661618
 30
0.0
 10
162.7698285845114
 20
105.7931023369307
 30
0.0
 10
162.7688451482548
 20
105.7929115588894
 30
0.0
 10
162.7680400138626
 20
105.7927549461313
 30
0.0
 10
162.7674130618019
 20
105.792632817769
 30
0.0
 10
162.7669643228692
 20
105.7925447443464
 30
0.0
 10
162.7666934955659
 20
105.7924919496053
 30
0.0
 10
162.7665724692617
 20
105.7924673783956
 30
0.0
 10
162.7665415724
 20
105.7924611056
 30
0.0
 11
165.7665415335
 21
106.0822324533
 31
0.0
 11
165.7207456256357
 21
106.0821627020833
 31
0.0
 11
165.6749499835502
 21
106.0819541889903
 31
0.0
 11
165.6291657580337
 21
106.0816080248571
 31
0.0
 11
165.5834040998767
 21
106.0811253205197
 31
0.0
 11
165.5376761598695
 21
106.080507186814
 31
0.0
 11
165.4919930888026
 21
106.079754734576
 31
0.0
 11
165.4463660374663
 21
106.0788690746416
 31
0.0
 11
165.400806156651
 21
106.0778513178468
 31
0.0
 11
165.355324597147
 21
106.0767025750276
 31
0.0
 11
165.3099325097448
 21
106.0754239570199
 31
0.0
 11
165.2646410452347
 21
106.0740165746597
 31
0.0
 11
165.2194613544071
 21
106.072481538783
 31
0.0
 11
165.1744045880524
 21
106.0708199602257
 31
0.0
 11
165.1294818969608
 21
106.0690329498237
 31
0.0
 11
165.084704431923
 21
106.0671216184132
 31
0.0
 11
165.0400833437291
 21
106.06508707683
 31
0.0
 11
164.9956297831696
 21
106.06293043591
 31
0.0
 11
164.9628868621311
 21
106.0612586866039
 31
0.0
 11
164.9302451049321
 21
106.059521970377
 31
0.0
 11
164.8977080609235
 21
106.057721417996
 31
0.0
 11
164.8652792794557
 21
106.0558581602276
 31
0.0
 11
164.8329623098793
 21
106.0539333278385
 31
0.0
 11
164.8007607015452
 21
106.0519480515954
 31
0.0
 11
164.7686780038036
 21
106.049903462265
 31
0.0
 11
164.7367177660055
 21
106.047800690614
 31
0.0
 11
164.7048835375012
 21
106.0456408674091
 31
0.0
 11
164.6731788676416
 21
106.0434251234171
 31
0.0
 11
164.6416073057771
 21
106.0411545894044
 31
0.0
 11
164.6101724012584
 21
106.038830396138
 31
0.0
 11
164.5788777034361
 21
106.0364536743845
 31
0.0
 11
164.5477267616608
 21
106.0340255549105
 31
0.0
 11
164.5167231252832
 21
106.0315471684827
 31
0.0
 11
164.4858703436539
 21
106.029019645868
 31
0.0
 11
164.4551719661234
 21
106.0264441178329
 31
0.0
 11
164.4246315420424
 21
106.0238217151442
 31
0.0
 11
164.3942526207615
 21
106.0211535685685
 31
0.0
 11
164.3640387516313
 21
106.0184408088725
 31
0.0
 11
164.3339934840025
 21
106.0156845668231
 31
0.0
 11
164.3041203672256
 21
106.0128859731867
 31
0.0
 11
164.2744229506513
 21
106.0100461587302
 31
0.0
 11
164.2517762430387
 21
106.0078418138009
 31
0.0
 11
164.2292371354622
 21
106.0056147479334
 31
0.0
 11
164.2068078690537
 21
106.003365804232
 31
0.0
 11
164.1844906849452
 21
106.0010958258008
 31
0.0
 11
164.1622878242686
 21
105.9988056557443
 31
0.0
 11
164.1402015281559
 21
105.9964961371668
 31
0.0
 11
164.1182340377389
 21
105.9941681131725
 31
0.0
 11
164.0963875941497
 21
105.9918224268657
 31
0.0
 11
164.07466443852
 21
105.9894599213507
 31
0.0
 11
164.0530668119821
 21
105.9870814397319
 31
0.0
 11
164.0315969556676
 21
105.9846878251135
 31
0.0
 11
164.0102571107086
 21
105.9822799205999
 31
0.0
 11
163.989049518237
 21
105.9798585692952
 31
0.0
 11
163.9679764193847
 21
105.977424614304
 31
0.0
 11
163.9470400552837
 21
105.9749788987303
 31
0.0
 11
163.926242667066
 21
105.9725222656786
 31
0.0
 11
163.9055864958633
 21
105.9700555582532
 31
0.0
 11
163.8850737828078
 21
105.9675796195583
 31
0.0
 11
163.8647067690312
 21
105.9650952926982
 31
0.0
 11
163.8444876956657
 21
105.9626034207773
 31
0.0
 11
163.824418803843
 21
105.9601048468997
 31
0.0
 11
163.8045023346951
 21
105.95760041417
 31
0.0
 11
163.7847405293541
 21
105.9550909656923
 31
0.0
 11
163.7651356289516
 21
105.9525773445709
 31
0.0
 11
163.7456898746199
 21
105.9500603939102
 31
0.0
 11
163.7264055074907
 21
105.9475409568144
 31
0.0
 11
163.707284768696
 21
105.9450198763879
 31
0.0
 11
163.6883298993679
 21
105.9424979957349
 31
0.0
 11
163.669543140638
 21
105.9399761579597
 31
0.0
 11
163.6509267336385
 21
105.9374552061667
 31
0.0
 11
163.6330748893174
 21
105.9350171796339
 31
0.0
 11
163.6153850634324
 21
105.9325813358247
 31
0.0
 11
163.5978576369833
 21
105.9301482381306
 31
0.0
 11
163.58049299097
 21
105.9277184499435
 31
0.0
 11
163.5632915063927
 21
105.9252925346552
 31
0.0
 11
163.5462535642511
 21
105.9228710556573
 31
0.0
 11
163.5293795455453
 21
105.9204545763416
 31
0.0
 11
163.5126698312752
 21
105.9180436600999
 31
0.0
 11
163.4961248024408
 21
105.9156388703239
 31
0.0
 11
163.4797448400421
 21
105.9132407704054
 31
0.0
 11
163.4635303250789
 21
105.910849923736
 31
0.0
 11
163.4474816385513
 21
105.9084668937076
 31
0.0
 11
163.4315991614591
 21
105.9060922437119
 31
0.0
 11
163.4158832748024
 21
105.9037265371406
 31
0.0
 11
163.4003343595811
 21
105.9013703373855
 31
0.0
 11
163.3849527967951
 21
105.8990242078384
 31
0.0
 11
163.3697389674445
 21
105.8966887118909
 31
0.0
 11
163.3546932525292
 21
105.8943644129348
 31
0.0
 11
163.339816033049
 21
105.8920518743619
 31
0.0
 11
163.3251076900041
 21
105.8897516595639
 31
0.0
 11
163.3105686043942
 21
105.8874643319326
 31
0.0
 11
163.2961991572195
 21
105.8851904548597
 31
0.0
 11
163.2819997294798
 21
105.882930591737
 31
0.0
 11
163.2679707021751
 21
105.8806853059561
 31
0.0
 11
163.2541124563053
 21
105.8784551609089
 31
0.0
 11
163.2404253728705
 21
105.876240719987
 31
0.0
 11
163.2269098328705
 21
105.8740425465824
 31
0.0
 11
163.2135662173053
 21
105.8718612040865
 31
0.0
 11
163.2003949071749
 21
105.8696972558914
 31
0.0
 11
163.1873962834792
 21
105.8675512653886
 31
0.0
 11
163.1745707272182
 21
105.8654237959699
 31
0.0
 11
163.1630281247523
 21
105.8635006682341
 31
0.0
 11
163.1516307790124
 21
105.861593864858
 31
0.0
 11
163.1403797564603
 21
105.8597038449925
 31
0.0
 11
163.1292761235577
 21
105.8578310677886
 31
0.0
 11
163.1183209467664
 21
105.8559759923972
 31
0.0
 11
163.1075152925482
 21
105.8541390779694
 31
0.0
 11
163.0968602273648
 21
105.852320783656
 31
0.0
 11
163.0863568176781
 21
105.850521568608
 31
0.0
 11
163.0760061299496
 21
105.8487418919764
 31
0.0
 11
163.0658092306412
 21
105.8469822129121
 31
0.0
 11
163.0557671862148
 21
105.8452429905661
 31
0.0
 11
163.045881063132
 21
105.8435246840893
 31
0.0
 11
163.0361519278545
 21
105.8418277526327
 31
0.0
 11
163.0265808468442
 21
105.8401526553473
 31
0.0
 11
163.0171688865629
 21
105.8384998513839
 31
0.0
 11
163.0079171134722
 21
105.8368697998936
 31
0.0
 11
162.9988265940339
 21
105.8352629600273
 31
0.0
 11
162.9898983947098
 21
105.8336797909359
 31
0.0
 11
162.9811335819618
 21
105.8321207517705
 31
0.0
 11
162.9725332222513
 21
105.8305863016819
 31
0.0
 11
162.9640983820404
 21
105.8290768998212
 31
0.0
 11
162.9558301277908
 21
105.8275930053393
 31
0.0
 11
162.9477295259641
 21
105.8261350773871
 31
0.0
 11
162.9397976430222
 21
105.8247035751155
 31
0.0
 11
162.9320355454269
 21
105.8232989576757
 31
0.0
 11
162.9244442996398
 21
105.8219216842184
 31
0.0
 11
162.9170249721228
 21
105.8205722138946
 31
0.0
 11
162.9097786293376
 21
105.8192510058554
 31
0.0
 11
162.9027063377459
 21
105.8179585192517
 31
0.0
 11
162.8958091638096
 21
105.8166952132344
 31
0.0
 11
162.8890881739904
 21
105.8154615469544
 31
0.0
 11
162.8825444347501
 21
105.8142579795628
 31
0.0
 11
162.8761790125503
 21
105.8130849702105
 31
0.0
 11
162.8699929738529
 21
105.8119429780484
 31
0.0
 11
162.8639871949623
 21
105.8108324014772
 31
0.0
 11
162.8581617915747
 21
105.8097533959001
 31
0.0
 11
162.8525166892289
 21
105.8087060559702
 31
0.0
 11
162.8470518134636
 21
105.8076904763404
 31
0.0
 11
162.8417670898175
 21
105.8067067516636
 31
0.0
 11
162.8366624438292
 21
105.8057549765927
 31
0.0
 11
162.8317378010375
 21
105.8048352457808
 31
0.0
 11
162.8269930869811
 21
105.8039476538807
 31
0.0
 11
162.8224282271987
 21
105.8030922955455
 31
0.0
 11
162.818043147229
 21
105.802269265428
 31
0.0
 11
162.8138377726107
 21
105.8014786581813
 31
0.0
 11
162.8098120288825
 21
105.8007205684581
 31
0.0
 11
162.8059658415832
 21
105.7999950909116
 31
0.0
 11
162.8022991362513
 21
105.7993023201947
 31
0.0
 11
162.7988118384257
 21
105.7986423509602
 31
0.0
 11
162.795503873645
 21
105.7980152778612
 31
0.0
 11
162.7923751674479
 21
105.7974211955505
 31
0.0
 11
162.7894256453733
 21
105.7968601986813
 31
0.0
 11
162.7866552329596
 21
105.7963323819063
 31
0.0
 11
162.7840638557457
 21
105.7958378398785
 31
0.0
 11
162.7816514392703
 21
105.7953766672509
 31
0.0
 11
162.779417909072
 21
105.7949489586765
 31
0.0
 11
162.7773631906896
 21
105.7945548088081
 31
0.0
 11
162.7754872096617
 21
105.7941943122987
 31
0.0
 11
162.7737898915271
 21
105.7938675638013
 31
0.0
 11
162.7722711618246
 21
105.7935746579689
 31
0.0
 11
162.7709309460927
 21
105.7933156894543
 31
0.0
 11
162.7697691698702
 21
105.7930907529105
 31
0.0
 11
162.7687857586958
 21
105.7928999429905
 31
0.0
 11
162.7679806381082
 21
105.7927433543472
 31
0.0
 11
162.7673537336461
 21
105.7926210816335
 31
0.0
 11
162.7669049708483
 21
105.7925332195025
 31
0.0
 11
162.7666342752533
 21
105.792479862607
 31
0.0
 11
162.7665415724
 21
105.7924611056
 31
0.0
  0
SPLINE
  5
117
330
1F
100
AcDbEntity
  8
0
  6
Continuous
 62
     2
100
AcDbSpline
210
0.0
220
0.0
230
1.0
 70
     8
 71
     3
 72
    19
 73
    15
 74
    13
 42
0.0000000001
 43
0.0000000001
 44
0.00000001
 40
0.0
 40
0.0
 40
0.0
 40
0.0
 40
0.0262001774975029
 40
0.1049773144322742
 40
0.2356536644895516
 40
0.4137792459820221
 40
0.6345660566497067
 40
0.8956011983941499
 40
1.19411512388836
 40
1.523417055333918
 40
1.876255371002622
 40
2.246881934630816
 40
2.629744248275982
 40
3.018434006602129
 40
3.018434006602129
 40
3.018434006602129
 40
3.018434006602129
 10
168.7665415335
 20
105.7924729454
 30
0.0
 10
168.7579650506669
 20
105.7941210385828
 30
0.0
 10
168.7236013088499
 20
105.800724520421
 30
0.0
 10
168.6463761851565
 20
105.8151000025552
 30
0.0
 10
168.5192585797042
 20
105.8381690488486
 30
0.0
 10
168.3452655483163
 20
105.8680080568717
 30
0.0
 10
168.1280296989907
 20
105.9027020349583
 30
0.0
 10
167.870570147003
 20
105.9398354419357
 30
0.0
 10
167.5766222745892
 20
105.9770952670027
 30
0.0
 10
167.2515809897792
 20
106.0119741823626
 30
0.0
 10
166.9018960434505
 20
106.0418033893572
 30
0.0
 10
166.5337959900401
 20
106.0645500171501
 30
0.0
 10
166.1532980071531
 20
106.0793565831503
 30
0.0
 10
165.8961078673019
 20
106.0812690151233
 30
0.0
 10
165.7665415335
 20
106.0822324533
 30
0.0
 11
168.7665415335
 21
105.7924729454
 31
0.0
 11
168.7408097207426
 21
105.7974047922266
 31
0.0
 11
168.6633757959221
 21
105.8118901155067
 31
0.0
 11
168.5347896551484
 21
105.8351691375054
 31
0.0
 11
168.3592316977651
 21
105.8653042728366
 31
0.0
 11
168.1412011160975
 21
105.9000818693969
 31
0.0
 11
167.8828417717282
 21
105.9373618157834
 31
0.0
 11
167.5866978563204
 21
105.974903060847
 31
0.0
 11
167.2592702132153
 21
106.0099872536469
 31
0.0
 11
166.9077074012255
 21
106.0399616799092
 31
0.0
 11
166.5377921880888
 21
106.0629134719267
 31
0.0
 11
166.1551998556529
 21
106.077289089165
 31
0.0
 11
165.7665415335
 21
106.0822324533
 31
0.0
  0
MTEXT
  5
118
330
1F
100
AcDbEntity
  8
0
 62
     5
100
AcDbMText
 10
19.6003394569
 20
85.533596246
 30
0.0
 40
3.5
 41
0.0
 71
     1
 72
     1
  3
F\U+00fcr diese Unterlage behalten wir das Ur-\Pheberrecht. Sie darf nur f\U+00fcr den von uns \Pbestimmten Zweck benutzt und ohne unsere \PZustimmung weder vervielf\U+00e4ltigt noch\PDritten zug\U+00e4nglich gemacht werden\P \PWe own the copyright 
  3
of this document. It \Pdetermined and may neither be copied or \Pmade accessible to outsiders without our\Ppermission.\P \PCe plan reste notre propri\U+00e9t\U+00e9. Il ne peut\P\U+00eatre utilis\U+00e9, copi\U+00e9 ou reproduit sans notre\Paccord.\
  7
CONVERTER_11
 73
     1
 44
1.0
  0
DIMENSION
  5
123
330
1F
100
AcDbEntity
  8
0
100
AcDbDimension
  2
*D2
 10
249.1996380879
 20
137.4424729454
 30
0.0
 11
244.8246380879
 21
121.4674729454
 31
0.0
 70
    32
  1
{\Fgdt;n}32
 71
     5
 42
-1.0
 53
90.0
  3
ME10_DIM_10
100
AcDbAlignedDimension
 13
169.4417225888
 23
105.4924729454
 33
0.0
 14
169.4417225888
 24
137.4424729454
 34
0.0
 50
90.0
100
AcDbRotatedDimension
  0
DIMENSION
  5
12E
330
1F
100
AcDbEntity
  8
0
100
AcDbDimension
  2
*D3
 10
218.7665415335
 20
187.8016303297
 30
0.0
 11
159.7665415335
 21
192.1766303297
 31
0.0
 70
    32
  1
118
 71
     5
 42
-1.0
 53
0.00013888888889
  3
ME10_DIM_11
100
AcDbAlignedDimension
 13
100.7665415335
 23
102.7813571761
 33
0.0
 14
218.7665415335
 24
110.9924729454
 34
0.0
100
AcDbRotatedDimension
  0
DIMENSION
  5
139
330
1F
100
AcDbEntity
  8
0
100
AcDbDimension
  2
*D4
 10
218.7665415335
 20
171.2947696495
 30
0.0
 11
189.7665415335
 21
175.6697696495
 31
0.0
 70
    32
  1
58
 71
     5
 42
-1.0
 53
0.00013888888889
  3
ME10_DIM_12
100
AcDbAlignedDimension
 13
160.7665415335
 23
145.8208476542
 33
0.0
 14
218.7665415335
 24
110.9924729454
 34
0.0
100
AcDbRotatedDimension
  0
DIMENSION
  5
145
330
1F
100
AcDbEntity
  8
0
100
AcDbDimension
  2
*D5
 10
231.5933335247
 20
116.4777229454
 30
0.0
 11
227.2183335247
 21
121.4674729454
 31
0.0
 70
    32
  1
{\Fgdt;n}10
 71
     5
 42
-1.0
 53
90.0
  3
ME10_DIM_13
100
AcDbAlignedDimension
 13
207.886885635
 23
126.4572229454
 33
0.0
 14
208.030245635
 24
116.4777229454
 34
0.0
 50
90.0
100
AcDbRotatedDimension
  0
DIMENSION
  5
150
330
1F
100
AcDbEntity
  8
0
100
AcDbDimension
  2
*D6
 10
138.7665415335
 20
178.5798490389
 30
0.0
 11
178.7665415335
 21
182.9548490389
 31
0.0
 70
    32
  1
80
 71
     5
 42
-1.0
 53
0.00013888888889
  3
ME10_DIM_14
100
AcDbAlignedDimension
 13
218.7665415335
 23
130.7680476542
 33
0.0
 14
138.7665415335
 24
147.4336476542
 34
0.0
100
AcDbRotatedDimension
  0
DIMENSION
  5
15B
330
1F
100
AcDbEntity
  8
0
100
AcDbDimension
  2
*D7
 10
240.8923040018
 20
133.4424729454
 30
0.0
 11
236.5173040018
 21
121.4674729454
 31
0.0
 70
    32
  1
{\Fgdt;n}24
 71
     5
 42
-1.0
 53
90.0
  3
ME10_DIM_15
100
AcDbAlignedDimension
 13
220.2665415335
 23
109.4924729454
 33
0.0
 14
220.2665415335
 24
133.4424729454
 34
0.0
 50
90.0
100
AcDbRotatedDimension
  0
ENDSEC
  0
SECTION
  2
OBJECTS
  0
DICTIONARY
  5
C
330
0
100
AcDbDictionary
281
     1
  3
ACAD_GROUP
350
D
  3
ACAD_LAYOUT
350
1A
  3
ACAD_MLEADERSTYLE
350
15E
  3
ACAD_MLINESTYLE
350
17
  3
ACAD_PLOTSETTINGS
350
19
  3
ACAD_PLOTSTYLENAME
350
E
  3
ACAD_SCALELIST
350
4D
  3
ACAD_VISUALSTYLE
350
2A
  3
AcDbVariableDictionary
350
15C
  0
DICTIONARY
  5
D
102
{ACAD_REACTORS
330
C
102
}
330
C
100
AcDbDictionary
281
     1
  0
DICTIONARY
  5
1A
102
{ACAD_REACTORS
330
C
102
}
330
C
100
AcDbDictionary
281
     1
  3
Layout1
350
1E
  3
Layout2
350
26
  3
Model
350
22
  0
DICTIONARY
  5
15E
102
{ACAD_REACTORS
330
C
102
}
330
C
100
AcDbDictionary
281
     1
  0
DICTIONARY
  5
17
102
{ACAD_REACTORS
330
C
102
}
330
C
100
AcDbDictionary
281
     1
  3
Standard
350
18
  0
DICTIONARY
  5
19
102
{ACAD_REACTORS
330
C
102
}
330
C
100
AcDbDictionary
281
     1
  0
ACDBDICTIONARYWDFLT
  5
E
102
{ACAD_REACTORS
330
C
102
}
330
C
100
AcDbDictionary
281
     1
  3
Normal
350
F
100
AcDbDictionaryWithDefault
340
F
  0
DICTIONARY
  5
4D
102
{ACAD_REACTORS
330
C
102
}
330
C
100
AcDbDictionary
281
     1
  3
A0
350
4E
  3
A1
350
4F
  3
A2
350
50
  3
A3
350
51
  3
A4
350
52
  3
A5
350
53
  3
A6
350
54
  3
A7
350
55
  3
A8
350
56
  3
A9
350
57
  3
B0
350
58
  3
B1
350
59
  3
B2
350
5A
  3
B3
350
5B
  3
B4
350
5C
  3
B5
350
5D
  3
B6
350
5E
  3
B7
350
5F
  3
B8
350
60
  3
B9
350
61
  3
C0
350
62
  3
C1
350
63
  3
C2
350
64
  3
C3
350
65
  3
C4
350
66
  3
C5
350
67
  3
C6
350
68
  3
C7
350
69
  3
C8
350
6A
  3
C9
350
6B
  3
D0
350
6C
  3
D1
350
6D
  3
D2
350
6E
  0
DICTIONARY
  5
2A
102
{ACAD_REACTORS
330
C
102
}
330
C
100
AcDbDictionary
281
     1
  3
2dWireframe
350
2F
  3
3D Hidden
350
31
  3
3dWireframe
350
30
  3
Basic
350
32
  3
Brighten
350
36
  3
ColorChange
350
3A
  3
Conceptual
350
34
  3
Dim
350
35
  3
Facepattern
350
39
  3
Flat
350
2B
  3
FlatWithEdges
350
2C
  3
Gouraud
350
2D
  3
GouraudWithEdges
350
2E
  3
Linepattern
350
38
  3
Realistic
350
33
  3
Thicken
350
37
  0
DICTIONARY
  5
15C
102
{ACAD_REACTORS
330
C
102
}
330
C
100
AcDbDictionary
281
     1
  3
CANNOSCALE
350
15F
  0
LAYOUT
  5
1E
102
{ACAD_REACTORS
330
1A
102
}
330
1A
100
AcDbPlotSettings
  1

  2
none_device
  4

  6

 40
0.0
 41
0.0
 42
0.0
 43
0.0
 44
0.0
 45
0.0
 46
0.0
 47
0.0
 48
0.0
 49
0.0
140
0.0
141
0.0
142
1.0
143
1.0
 70
   688
 72
     0
 73
     0
 74
     5
  7

 75
    16
147
1.0
148
0.0
149
0.0
100
AcDbLayout
  1
Layout1
 70
     1
 71
     1
 10
0.0
 20
0.0
 11
12.0
 21
9.0
 12
0.0
 22
0.0
 32
0.0
 14
1.00000000000000E+20
 24
1.00000000000000E+20
 34
1.00000000000000E+20
 15
-1.00000000000000E+20
 25
-1.00000000000000E+20
 35
-1.00000000000000E+20
146
0.0
 13
0.0
 23
0.0
 33
0.0
 16
1.0
 26
0.0
 36
0.0
 17
0.0
 27
1.0
 37
0.0
 76
     0
330
1B
  0
LAYOUT
  5
26
102
{ACAD_REACTORS
330
1A
102
}
330
1A
100
AcDbPlotSettings
  1

  2
none_device
  4

  6

 40
0.0
 41
0.0
 42
0.0
 43
0.0
 44
0.0
 45
0.0
 46
0.0
 47
0.0
 48
0.0
 49
0.0
140
0.0
141
0.0
142
1.0
143
1.0
 70
   688
 72
     0
 73
     0
 74
     5
  7

 75
    16
147
1.0
148
0.0
149
0.0
100
AcDbLayout
  1
Layout2
 70
     1
 71
     2
 10
0.0
 20
0.0
 11
0.0
 21
0.0
 12
0.0
 22
0.0
 32
0.0
 14
0.0
 24
0.0
 34
0.0
 15
0.0
 25
0.0
 35
0.0
146
0.0
 13
0.0
 23
0.0
 33
0.0
 16
1.0
 26
0.0
 36
0.0
 17
0.0
 27
1.0
 37
0.0
 76
     0
330
23
  0
LAYOUT
  5
22
102
{ACAD_REACTORS
330
1A
102
}
330
1A
100
AcDbPlotSettings
  1

  2
none_device
  4

  6

 40
0.0
 41
0.0
 42
0.0
 43
0.0
 44
0.0
 45
0.0
 46
0.0
 47
0.0
 48
0.0
 49
0.0
140
0.0
141
0.0
142
1.0
143
1.0
 70
  1712
 72
     0
 73
     0
 74
     0
  7

 75
     0
147
1.0
148
0.0
149
0.0
100
AcDbLayout
  1
Model
 70
     1
 71
     0
 10
0.0
 20
0.0
 11
12.0
 21
9.0
 12
0.0
 22
0.0
 32
0.0
 14
0.0
 24
0.0
 34
0.0
 15
297.0
 25
210.0
 35
0.0
146
0.0
 13
0.0
 23
0.0
 33
0.0
 16
1.0
 26
0.0
 36
0.0
 17
0.0
 27
1.0
 37
0.0
 76
     0
330
1F
331
29
  0
MLINESTYLE
  5
18
102
{ACAD_REACTORS
330
17
102
}
330
17
100
AcDbMlineStyle
  2
Standard
 70
     0
  3

 62
   256
 51
90.0
 52
90.0
 71
     2
 49
0.5
 62
   256
  6
BYLAYER
 49
-0.5
 62
   256
  6
BYLAYER
  0
ACDBPLACEHOLDER
  5
F
102
{ACAD_REACTORS
330
E
102
}
330
E
  0
SCALE
  5
4E
102
{ACAD_REACTORS
330
4D
102
}
330
4D
100
AcDbScale
 70
     0
300
1:1
140
1.0
141
1.0
290
     1
  0
SCALE
  5
4F
102
{ACAD_REACTORS
330
4D
102
}
330
4D
100
AcDbScale
 70
     0
300
1:2
140
1.0
141
2.0
290
     0
  0
SCALE
  5
50
102
{ACAD_REACTORS
330
4D
102
}
330
4D
100
AcDbScale
 70
     0
300
1:4
140
1.0
141
4.0
290
     0
  0
SCALE
  5
51
102
{ACAD_REACTORS
330
4D
102
}
330
4D
100
AcDbScale
 70
     0
300
1:5
140
1.0
141
5.0
290
     0
  0
SCALE
  5
52
102
{ACAD_REACTORS
330
4D
102
}
330
4D
100
AcDbScale
 70
     0
300
1:8
140
1.0
141
8.0
290
     0
  0
SCALE
  5
53
102
{ACAD_REACTORS
330
4D
102
}
330
4D
100
AcDbScale
 70
     0
300
1:10
140
1.0
141
10.0
290
     0
  0
SCALE
  5
54
102
{ACAD_REACTORS
330
4D
102
}
330
4D
100
AcDbScale
 70
     0
300
1:16
140
1.0
141
16.0
290
     0
  0
SCALE
  5
55
102
{ACAD_REACTORS
330
4D
102
}
330
4D
100
AcDbScale
 70
     0
300
1:20
140
1.0
141
20.0
290
     0
  0
SCALE
  5
56
102
{ACAD_REACTORS
330
4D
102
}
330
4D
100
AcDbScale
 70
     0
300
1:30
140
1.0
141
30.0
290
     0
  0
SCALE
  5
57
102
{ACAD_REACTORS
330
4D
102
}
330
4D
100
AcDbScale
 70
     0
300
1:40
140
1.0
141
40.0
290
     0
  0
SCALE
  5
58
102
{ACAD_REACTORS
330
4D
102
}
330
4D
100
AcDbScale
 70
     0
300
1:50
140
1.0
141
50.0
290
     0
  0
SCALE
  5
59
102
{ACAD_REACTORS
330
4D
102
}
330
4D
100
AcDbScale
 70
     0
300
1:100
140
1.0
141
100.0
290
     0
  0
SCALE
  5
5A
102
{ACAD_REACTORS
330
4D
102
}
330
4D
100
AcDbScale
 70
     0
300
2:1
140
2.0
141
1.0
290
     0
  0
SCALE
  5
5B
102
{ACAD_REACTORS
330
4D
102
}
330
4D
100
AcDbScale
 70
     0
300
4:1
140
4.0
141
1.0
290
     0
  0
SCALE
  5
5C
102
{ACAD_REACTORS
330
4D
102
}
330
4D
100
AcDbScale
 70
     0
300
8:1
140
8.0
141
1.0
290
     0
  0
SCALE
  5
5D
102
{ACAD_REACTORS
330
4D
102
}
330
4D
100
AcDbScale
 70
     0
300
10:1
140
10.0
141
1.0
290
     0
  0
SCALE
  5
5E
102
{ACAD_REACTORS
330
4D
102
}
330
4D
100
AcDbScale
 70
     0
300
100:1
140
100.0
141
1.0
290
     0
  0
SCALE
  5
5F
102
{ACAD_REACTORS
330
4D
102
}
330
4D
100
AcDbScale
 70
     0
300
1/128" = 1'-0"
140
0.0078125
141
12.0
290
     0
  0
SCALE
  5
60
102
{ACAD_REACTORS
330
4D
102
}
330
4D
100
AcDbScale
 70
     0
300
1/64" = 1'-0"
140
0.015625
141
12.0
290
     0
  0
SCALE
  5
61
102
{ACAD_REACTORS
330
4D
102
}
330
4D
100
AcDbScale
 70
     0
300
1/32" = 1'-0"
140
0.03125
141
12.0
290
     0
  0
SCALE
  5
62
102
{ACAD_REACTORS
330
4D
102
}
330
4D
100
AcDbScale
 70
     0
300
1/16" = 1'-0"
140
0.0625
141
12.0
290
     0
  0
SCALE
  5
63
102
{ACAD_REACTORS
330
4D
102
}
330
4D
100
AcDbScale
 70
     0
300
3/32" = 1'-0"
140
0.09375
141
12.0
290
     0
  0
SCALE
  5
64
102
{ACAD_REACTORS
330
4D
102
}
330
4D
100
AcDbScale
 70
     0
300
1/8" = 1'-0"
140
0.125
141
12.0
290
     0
  0
SCALE
  5
65
102
{ACAD_REACTORS
330
4D
102
}
330
4D
100
AcDbScale
 70
     0
300
3/16" = 1'-0"
140
0.1875
141
12.0
290
     0
  0
SCALE
  5
66
102
{ACAD_REACTORS
330
4D
102
}
330
4D
100
AcDbScale
 70
     0
300
1/4" = 1'-0"
140
0.25
141
12.0
290
     0
  0
SCALE
  5
67
102
{ACAD_REACTORS
330
4D
102
}
330
4D
100
AcDbScale
 70
     0
300
3/8" = 1'-0"
140
0.375
141
12.0
290
     0
  0
SCALE
  5
68
102
{ACAD_REACTORS
330
4D
102
}
330
4D
100
AcDbScale
 70
     0
300
1/2" = 1'-0"
140
0.5
141
12.0
290
     0
  0
SCALE
  5
69
102
{ACAD_REACTORS
330
4D
102
}
330
4D
100
AcDbScale
 70
     0
300
3/4" = 1'-0"
140
0.75
141
12.0
290
     0
  0
SCALE
  5
6A
102
{ACAD_REACTORS
330
4D
102
}
330
4D
100
AcDbScale
 70
     0
300
1" = 1'-0"
140
1.0
141
12.0
290
     0
  0
SCALE
  5
6B
102
{ACAD_REACTORS
330
4D
102
}
330
4D
100
AcDbScale
 70
     0
300
1-1/2" = 1'-0"
140
1.5
141
12.0
290
     0
  0
SCALE
  5
6C
102
{ACAD_REACTORS
330
4D
102
}
330
4D
100
AcDbScale
 70
     0
300
3" = 1'-0"
140
3.0
141
12.0
290
     0
  0
SCALE
  5
6D
102
{ACAD_REACTORS
330
4D
102
}
330
4D
100
AcDbScale
 70
     0
300
6" = 1'-0"
140
6.0
141
12.0
290
     0
  0
SCALE
  5
6E
102
{ACAD_REACTORS
330
4D
102
}
330
4D
100
AcDbScale
 70
     0
300
1'-0" = 1'-0"
140
12.0
141
12.0
290
     0
  0
VISUALSTYLE
  5
2F
102
{ACAD_REACTORS
330
2A
102
}
330
2A
100
AcDbVisualStyle
  2
2dWireframe
 70
     4
 71
     0
 72
     2
 73
     0
 90
        0
 40
-0.6
 41
-30.0
 62
     5
 63
     7
 74
     1
 91
        4
 64
     7
 65
   257
 75
     1
175
     1
 42
1.0
 92
        0
 66
   257
 43
1.0
 76
     1
 77
     6
 78
     2
 67
     7
 79
     5
170
     0
171
     0
290
     0
174
     0
 93
        1
 44
0.0
173
     0
291
     0
 45
0.0
1001
ACAD
1000
AcDbSavedByObjectVersion
1070
     0
  0
VISUALSTYLE
  5
31
102
{ACAD_REACTORS
330
2A
102
}
330
2A
100
AcDbVisualStyle
  2
3D Hidden
 70
     6
 71
     1
 72
     2
 73
     2
 90
        0
 40
-0.6
 41
-30.0
 62
     5
 63
     7
 74
     2
 91
        2
 64
     7
 65
   257
 75
     2
175
     1
 42
40.0
 92
        0
 66
   257
 43
1.0
 76
     1
 77
     6
 78
     2
 67
     7
 79
     3
170
     0
171
     0
290
     0
174
     0
 93
        1
 44
0.0
173
     0
291
     0
 45
0.0
1001
ACAD
1000
AcDbSavedByObjectVersion
1070
     0
  0
VISUALSTYLE
  5
30
102
{ACAD_REACTORS
330
2A
102
}
330
2A
100
AcDbVisualStyle
  2
3dWireframe
 70
     5
 71
     0
 72
     2
 73
     0
 90
        0
 40
-0.6
 41
-30.0
 62
     5
 63
     7
 74
     1
 91
        4
 64
     7
 65
   257
 75
     1
175
     1
 42
1.0
 92
        0
 66
   257
 43
1.0
 76
     1
 77
     6
 78
     2
 67
     7
 79
     5
170
     0
171
     0
290
     0
174
     0
 93
        1
 44
0.0
173
     0
291
     0
 45
0.0
1001
ACAD
1000
AcDbSavedByObjectVersion
1070
     0
  0
VISUALSTYLE
  5
32
102
{ACAD_REACTORS
330
2A
102
}
330
2A
100
AcDbVisualStyle
  2
Basic
 70
     7
 71
     1
 72
     0
 73
     1
 90
        0
 40
-0.6
 41
-30.0
 62
     5
 63
     7
 74
     0
 91
        4
 64
     7
 65
   257
 75
     1
175
     1
 42
1.0
 92
        8
 66
     7
 43
1.0
 76
     1
 77
     6
 78
     2
 67
     7
 79
     5
170
     0
171
     0
290
     0
174
     0
 93
        1
 44
0.0
173
     0
291
     1
 45
0.0
1001
ACAD
1000
AcDbSavedByObjectVersion
1070
     0
  0
VISUALSTYLE
  5
36
102
{ACAD_REACTORS
330
2A
102
}
330
2A
100
AcDbVisualStyle
  2
Brighten
 70
    12
 71
     2
 72
     2
 73
     0
 90
        0
 40
-0.6
 41
-30.0
 62
     5
 63
     7
 74
     1
 91
        4
 64
     7
 65
   257
 75
     1
175
     1
 42
1.0
 92
        8
 66
     7
 43
1.0
 76
     1
 77
     6
 78
     2
 67
     7
 79
     5
170
     0
171
     0
290
     0
174
     0
 93
        1
 44
50.0
173
     0
291
     1
 45
0.0
1001
ACAD
1000
AcDbSavedByObjectVersion
1070
     0
  0
VISUALSTYLE
  5
3A
102
{ACAD_REACTORS
330
2A
102
}
330
2A
100
AcDbVisualStyle
  2
ColorChange
 70
    16
 71
     2
 72
     2
 73
     3
 90
        0
 40
-0.6
 41
-30.0
 62
     5
 63
     8
 74
     1
 91
        4
 64
     7
 65
   257
 75
     1
175
     1
 42
1.0
 92
        8
 66
     8
 43
1.0
 76
     1
 77
     6
 78
     2
 67
     7
 79
     5
170
     0
171
     0
290
     0
174
     0
 93
        1
 44
0.0
173
     0
291
     1
 45
0.0
1001
ACAD
1000
AcDbSavedByObjectVersion
1070
     0
  0
VISUALSTYLE
  5
34
102
{ACAD_REACTORS
330
2A
102
}
330
2A
100
AcDbVisualStyle
  2
Conceptual
 70
     9
 71
     3
 72
     2
 73
     0
 90
        0
 40
-0.6
 41
-30.0
 62
     5
 63
     7
 74
     2
 91
        2
 64
     7
 65
   257
 75
     1
175
     1
 42
40.0
 92
        8
 66
     7
 43
1.0
 76
     1
 77
     6
 78
     2
 67
     7
 79
     3
170
     0
171
     0
290
     0
174
     0
 93
        1
 44
0.0
173
     0
291
     0
 45
0.0
1001
ACAD
1000
AcDbSavedByObjectVersion
1070
     0
  0
VISUALSTYLE
  5
35
102
{ACAD_REACTORS
330
2A
102
}
330
2A
100
AcDbVisualStyle
  2
Dim
 70
    11
 71
     2
 72
     2
 73
     0
 90
        0
 40
-0.6
 41
-30.0
 62
     5
 63
     7
 74
     1
 91
        4
 64
     7
 65
   257
 75
     1
175
     1
 42
1.0
 92
        8
 66
     7
 43
1.0
 76
     1
 77
     6
 78
     2
 67
     7
 79
     5
170
     0
171
     0
290
     0
174
     0
 93
        1
 44
-50.0
173
     0
291
     1
 45
0.0
1001
ACAD
1000
AcDbSavedByObjectVersion
1070
     0
  0
VISUALSTYLE
  5
39
102
{ACAD_REACTORS
330
2A
102
}
330
2A
100
AcDbVisualStyle
  2
Facepattern
 70
    15
 71
     2
 72
     2
 73
     0
 90
        0
 40
-0.6
 41
-30.0
 62
     5
 63
     7
 74
     1
 91
        4
 64
     7
 65
   257
 75
     1
175
     1
 42
1.0
 92
        8
 66
     7
 43
1.0
 76
     1
 77
     6
 78
     2
 67
     7
 79
     5
170
     0
171
     0
290
     0
174
     0
 93
        1
 44
0.0
173
     0
291
     1
 45
0.0
1001
ACAD
1000
AcDbSavedByObjectVersion
1070
     0
  0
VISUALSTYLE
  5
2B
102
{ACAD_REACTORS
330
2A
102
}
330
2A
100
AcDbVisualStyle
  2
Flat
 70
     0
 71
     2
 72
     1
 73
     1
 90
        2
 40
-0.6
 41
30.0
 62
     5
 63
     7
 74
     0
 91
        4
 64
     7
 65
   257
 75
     1
175
     1
 42
1.0
 92
        8
 66
     7
 43
1.0
 76
     1
 77
     6
 78
     2
 67
     7
 79
     5
170
     0
171
     0
290
     0
174
     0
 93
       13
 44
0.0
173
     0
291
     1
 45
0.0
1001
ACAD
1000
AcDbSavedByObjectVersion
1070
     0
  0
VISUALSTYLE
  5
2C
102
{ACAD_REACTORS
330
2A
102
}
330
2A
100
AcDbVisualStyle
  2
FlatWithEdges
 70
     1
 71
     2
 72
     1
 73
     1
 90
        2
 40
-0.6
 41
30.0
 62
     5
 63
     7
 74
     1
 91
        4
 64
     7
 65
   257
 75
     1
175
     1
 42
1.0
 92
        0
 66
   257
 43
1.0
 76
     1
 77
     6
 78
     2
 67
     7
 79
     5
170
     0
171
     0
290
     0
174
     0
 93
       13
 44
0.0
173
     0
291
     1
 45
0.0
1001
ACAD
1000
AcDbSavedByObjectVersion
1070
     0
  0
VISUALSTYLE
  5
2D
102
{ACAD_REACTORS
330
2A
102
}
330
2A
100
AcDbVisualStyle
  2
Gouraud
 70
     2
 71
     2
 72
     2
 73
     1
 90
        2
 40
-0.6
 41
30.0
 62
     5
 63
     7
 74
     0
 91
        4
 64
     7
 65
   257
 75
     1
175
     1
 42
1.0
 92
        0
 66
     7
 43
1.0
 76
     1
 77
     6
 78
     2
 67
     7
 79
     5
170
     0
171
     0
290
     0
174
     0
 93
       13
 44
0.0
173
     0
291
     1
 45
0.0
1001
ACAD
1000
AcDbSavedByObjectVersion
1070
     0
  0
VISUALSTYLE
  5
2E
102
{ACAD_REACTORS
330
2A
102
}
330
2A
100
AcDbVisualStyle
  2
GouraudWithEdges
 70
     3
 71
     2
 72
     2
 73
     1
 90
        2
 40
-0.6
 41
30.0
 62
     5
 63
     7
 74
     1
 91
        4
 64
     7
 65
   257
 75
     1
175
     1
 42
1.0
 92
        0
 66
   257
 43
1.0
 76
     1
 77
     6
 78
     2
 67
     7
 79
     5
170
     0
171
     0
290
     0
174
     0
 93
       13
 44
0.0
173
     0
291
     1
 45
0.0
1001
ACAD
1000
AcDbSavedByObjectVersion
1070
     0
  0
VISUALSTYLE
  5
38
102
{ACAD_REACTORS
330
2A
102
}
330
2A
100
AcDbVisualStyle
  2
Linepattern
 70
    14
 71
     2
 72
     2
 73
     0
 90
        0
 40
-0.6
 41
-30.0
 62
     5
 63
     7
 74
     1
 91
        4
 64
     7
 65
   257
 75
     7
175
     7
 42
1.0
 92
        8
 66
     7
 43
1.0
 76
     1
 77
     6
 78
     2
 67
     7
 79
     5
170
     0
171
     0
290
     0
174
     0
 93
        1
 44
0.0
173
     0
291
     1
 45
0.0
1001
ACAD
1000
AcDbSavedByObjectVersion
1070
     0
  0
VISUALSTYLE
  5
33
102
{ACAD_REACTORS
330
2A
102
}
330
2A
100
AcDbVisualStyle
  2
Realistic
 70
     8
 71
     2
 72
     2
 73
     0
 90
        0
 40
-0.6
 41
-30.0
 62
     5
 63
     7
 74
     1
 91
        0
 64
     7
 65
   257
 75
     1
175
     1
 42
1.0
 92
        8
 66
     8
 43
1.0
 76
     1
 77
     6
 78
     2
 67
     7
 79
     5
170
     0
171
     0
290
     0
174
     0
 93
       13
 44
0.0
173
     0
291
     0
 45
0.0
1001
ACAD
1000
AcDbSavedByObjectVersion
1070
     0
  0
VISUALSTYLE
  5
37
102
{ACAD_REACTORS
330
2A
102
}
330
2A
100
AcDbVisualStyle
  2
Thicken
 70
    13
 71
     2
 72
     2
 73
     0
 90
        0
 40
-0.6
 41
-30.0
 62
     5
 63
     7
 74
     1
 91
        4
 64
     7
 65
   257
 75
     1
175
     1
 42
1.0
 92
       12
 66
     7
 43
1.0
 76
     1
 77
     6
 78
     2
 67
     7
 79
     5
170
     0
171
     0
290
     0
174
     0
 93
        1
 44
0.0
173
     0
291
     1
 45
0.0
1001
ACAD
1000
AcDbSavedByObjectVersion
1070
     0
  0
DICTIONARYVAR
  5
15F
102
{ACAD_REACTORS
330
15C
102
}
330
15C
100
DictionaryVariables
280
     0
  1
1:1
  0
ENDSEC
  0
EOF
