999
DXF file: cc6-140-08.dxf
999
Pro/ENGINEER 2009220 by Parametric Technology Corporation
  0
SECTION
  2
HEADER
  9
$ACADVER
  1
AC1021
  9
$DWGCODEPAGE
  3
ANSI_1252
  9
$EXTMAX
 10
297.0
 20
210.0
 30
0.0
  9
$EXTMIN
 10
0.0
 20
0.0
 30
0.0
  9
$LIMMIN
 10
0.0
 20
0.0
  9
$LIMMAX
 10
297.0
 20
210.0
  9
$VIEWCTR
 10
148.5
 20
105.0
  9
$VIEWSIZE
 40
210.0
  9
$CLAYER
  8
0
  9
$LTSCALE
 40
16.335
  9
$CELTYPE
  6
BYLAYER
  9
$DIMSCALE
 40
1.0
  9
$DIMASZ
 40
3.5
  9
$DIMEXO
 40
1.85625
  9
$DIMDLI
 40
11.286
  9
$DIMEXE
 40
5.346
  9
$DIMCEN
 40
2.673
  9
$DIMLFAC
 40
1.0
  9
$DIMBLK
  1
_FILLED
  9
$DIMTXT
 40
3.5
  9
$DIMTOL
 70
1
  9
$DIMLIM
 70
0
  9
$DIMTFAC
 40
1.0
  9
$DIMTP
 40
0.005
  9
$DIMTM
 40
0.005
  9
$PDMODE
 70
3
  9
$PDSIZE
 40
0.3125
  9
$HANDSEED
  5
2E7
  9
$TILEMODE
 70
1
  9
$MEASUREMENT
 70
1
  9
$INSUNITS
 70
4
  0
ENDSEC
  0
SECTION
  2
CLASSES
  0
CLASS
  1
ACDBDICTIONARYWDFLT
  2
AcDbDictionaryWithDefault
  3
AutoCAD 2000
 90
0
 91
1
280
0
281
0
  0
CLASS
  1
ACDBPLACEHOLDER
  2
AcDbPlaceHolder
  3
AutoCAD 2000
 90
0
 91
1
280
0
281
0
  0
CLASS
  1
LAYOUT
  2
AcDbLayout
  3
AutoCAD 2000
 90
0
 91
0
280
0
281
0
  0
ENDSEC
  0
SECTION
  2
TABLES
  0
TABLE
  2
VPORT
  5
8
100
AcDbSymbolTable
 70
2
  0
VPORT
  5
1F4
100
AcDbSymbolTableRecord
100
AcDbViewportTableRecord
  2
*ACTIVE
 70
0
 10
0.0
 20
0.0
 11
1.0
 21
1.0
 12
148.5
 22
105.0
 13
0.0
 23
0.0
 14
1.0
 24
1.0
 15
0.0
 25
0.0
 16
0.0
 26
0.0
 36
1.0
 17
0.0
 27
0.0
 37
0.0
 40
210.0
 41
1.4142857143
 42
50.0
 43
0.0
 44
0.0
 50
0.0
 51
0.0
 71
0
 72
100
 73
1
 74
1
 75
0
 76
0
 77
0
 78
0
  0
ENDTAB
  0
TABLE
  2
LTYPE
  5
5
100
AcDbSymbolTable
 70
6
  0
LTYPE
  5
14
100
AcDbSymbolTableRecord
100
AcDbLinetypeTableRecord
  2
BYBLOCK
 70
0
  3

 72
65
 73
0
 40
0.0
  0
LTYPE
  5
15
100
AcDbSymbolTableRecord
100
AcDbLinetypeTableRecord
  2
BYLAYER
 70
0
  3

 72
65
 73
0
 40
0.0
  0
LTYPE
  5
16
100
AcDbSymbolTableRecord
100
AcDbLinetypeTableRecord
  2
CONTINUOUS
 70
64
  3
Solid line
 72
65
 73
0
 40
0.0
  0
LTYPE
  5
1F5
100
AcDbSymbolTableRecord
100
AcDbLinetypeTableRecord
  2
CENTER
 70
64
  3
____ _ ____ _ ____ _ ____ _ ____ _ ____ _ ____
 72
65
 73
4
 40
0.6
 49
0.375
 74
0
 49
-0.075
 74
0
 49
0.075
 74
0
 49
-0.075
 74
0
  0
LTYPE
  5
1F6
100
AcDbSymbolTableRecord
100
AcDbLinetypeTableRecord
  2
HIDDEN
 70
64
  3
- - - - - - - - - - - - - - - - - - - -
 72
65
 73
2
 40
0.2
 49
0.1
 74
0
 49
-0.1
 74
0
  0
LTYPE
  5
1F7
100
AcDbSymbolTableRecord
100
AcDbLinetypeTableRecord
  2
PHANTOM
 70
64
  3
_____ _ _ _____ _ _ _____ _ _ _____
 72
65
 73
6
 40
0.8
 49
0.45
 74
0
 49
-0.05
 74
0
 49
0.1
 74
0
 49
-0.05
 74
0
 49
0.1
 74
0
 49
-0.05
 74
0
  0
LTYPE
  5
1F8
100
AcDbSymbolTableRecord
100
AcDbLinetypeTableRecord
  2
DOT
 70
64
  3
. . . . . . . . . . . . . . . . . . . .
 72
65
 73
2
 40
0.2
 49
0.1
 74
0
 49
-0.1
 74
0
  0
LTYPE
  5
1F9
100
AcDbSymbolTableRecord
100
AcDbLinetypeTableRecord
  2
DASHED
 70
64
  3
- - - - - - - - - - - - - - - - - - - -
 72
65
 73
2
 40
0.2
 49
0.1
 74
0
 49
-0.1
 74
0
  0
ENDTAB
  0
TABLE
  2
LAYER
  5
2
100
AcDbSymbolTable
 70
36
  0
LAYER
  5
10
100
AcDbSymbolTableRecord
100
AcDbLayerTableRecord
  2
0
 70
0
 62
7
  6
CONTINUOUS
370
-3
390
F
  0
LAYER
  5
1FA
100
AcDbSymbolTableRecord
100
AcDbLayerTableRecord
  2
DEFAULT_1
 70
0
 62
7
  6
CENTER
370
-3
390
F
  0
LAYER
  5
1FB
100
AcDbSymbolTableRecord
100
AcDbLayerTableRecord
  2
DEFAULT_2
 70
0
 62
8
  6
HIDDEN
370
-3
390
F
  0
LAYER
  5
1FC
100
AcDbSymbolTableRecord
100
AcDbLayerTableRecord
  2
DEFAULT_3
 70
0
 62
7
  6
PHANTOM
370
-3
390
F
  0
LAYER
  5
1FD
100
AcDbSymbolTableRecord
100
AcDbLayerTableRecord
  2
ACHSEN
 70
0
 62
7
  6
CONTINUOUS
370
-3
390
F
  0
LAYER
  5
1FE
100
AcDbSymbolTableRecord
100
AcDbLayerTableRecord
  2
BEZUGSACHSEN
 70
0
 62
7
  6
CONTINUOUS
370
-3
390
F
  0
LAYER
  5
1FF
100
AcDbSymbolTableRecord
100
AcDbLayerTableRecord
  2
BEZUGSEBENE_B
 70
0
 62
7
  6
CONTINUOUS
370
-3
390
F
  0
LAYER
  5
200
100
AcDbSymbolTableRecord
100
AcDbLayerTableRecord
  2
BOHRUNGEN
 70
0
 62
7
  6
CONTINUOUS
370
-3
390
F
  0
LAYER
  5
201
100
AcDbSymbolTableRecord
100
AcDbLayerTableRecord
  2
EBENEN
 70
0
 62
7
  6
CONTINUOUS
370
-3
390
F
  0
LAYER
  5
202
100
AcDbSymbolTableRecord
100
AcDbLayerTableRecord
  2
FASEN
 70
0
 62
7
  6
CONTINUOUS
370
-3
390
F
  0
LAYER
  5
203
100
AcDbSymbolTableRecord
100
AcDbLayerTableRecord
  2
FLAECHEN
 70
0
 62
7
  6
CONTINUOUS
370
-3
390
F
  0
LAYER
  5
204
100
AcDbSymbolTableRecord
100
AcDbLayerTableRecord
  2
GEWINDE
 70
0
 62
7
  6
CONTINUOUS
370
-3
390
F
  0
LAYER
  5
205
100
AcDbSymbolTableRecord
100
AcDbLayerTableRecord
  2
KOORDSYS
 70
0
 62
7
  6
CONTINUOUS
370
-3
390
F
  0
LAYER
  5
206
100
AcDbSymbolTableRecord
100
AcDbLayerTableRecord
  2
KURVEN
 70
0
 62
7
  6
CONTINUOUS
370
-3
390
F
  0
LAYER
  5
207
100
AcDbSymbolTableRecord
100
AcDbLayerTableRecord
  2
KURVE_FUER_GTOL_DETAILANSICHT
 70
0
 62
7
  6
CONTINUOUS
370
-3
390
F
  0
LAYER
  5
208
100
AcDbSymbolTableRecord
100
AcDbLayerTableRecord
  2
KURVE_GAUGE2_POLIGON_INNENEINST
 70
0
 62
7
  6
CONTINUOUS
370
-3
390
F
  0
LAYER
  5
209
100
AcDbSymbolTableRecord
100
AcDbLayerTableRecord
  2
KURVE_PHANTOM1_GAUGE_PIN_1
 70
0
 62
7
  6
CONTINUOUS
370
-3
390
F
  0
LAYER
  5
20A
100
AcDbSymbolTableRecord
100
AcDbLayerTableRecord
  2
KURVE_PHANTOM2_GAUGE_PIN1
 70
0
 62
7
  6
CONTINUOUS
370
-3
390
F
  0
LAYER
  5
20B
100
AcDbSymbolTableRecord
100
AcDbLayerTableRecord
  2
KURVE_POLIGON_BEMASUNG
 70
0
 62
7
  6
CONTINUOUS
370
-3
390
F
  0
LAYER
  5
20C
100
AcDbSymbolTableRecord
100
AcDbLayerTableRecord
  2
PUNKTE
 70
0
 62
7
  6
CONTINUOUS
370
-3
390
F
  0
LAYER
  5
20D
100
AcDbSymbolTableRecord
100
AcDbLayerTableRecord
  2
RUNDUNGEN
 70
0
 62
7
  6
CONTINUOUS
370
-3
390
F
  0
LAYER
  5
20E
100
AcDbSymbolTableRecord
100
AcDbLayerTableRecord
  2
S_ACHSEN
 70
0
 62
7
  6
CONTINUOUS
370
-3
390
F
  0
LAYER
  5
20F
100
AcDbSymbolTableRecord
100
AcDbLayerTableRecord
  2
S_EBENEN
 70
0
 62
7
  6
CONTINUOUS
370
-3
390
F
  0
LAYER
  5
210
100
AcDbSymbolTableRecord
100
AcDbLayerTableRecord
  2
S_KOORDSYS
 70
0
 62
7
  6
CONTINUOUS
370
-3
390
F
  0
LAYER
  5
211
100
AcDbSymbolTableRecord
100
AcDbLayerTableRecord
  2
TOL_BEZUEGE
 70
0
 62
7
  6
CONTINUOUS
370
-3
390
F
  0
LAYER
  5
212
100
AcDbSymbolTableRecord
100
AcDbLayerTableRecord
  2
VERBFLAECHE
 70
0
 62
7
  6
CONTINUOUS
370
-3
390
F
  0
LAYER
  5
213
100
AcDbSymbolTableRecord
100
AcDbLayerTableRecord
  2
ZEICHNUNGSBEMASSUNGEN
 70
0
 62
7
  6
CONTINUOUS
370
-3
390
F
  0
ENDTAB
  0
TABLE
  2
STYLE
  5
3
100
AcDbSymbolTable
 70
1
  0
STYLE
  5
11
100
AcDbSymbolTableRecord
100
AcDbTextStyleTableRecord
  2
STANDARD
 70
0
 40
0.0
 41
0.7
 50
0.0
 71
0
 42
0.2
  3
txt
  4

  0
STYLE
  5
214
100
AcDbSymbolTableRecord
100
AcDbTextStyleTableRecord
  2
TEXTSTYLE_1
 70
0
 40
0.0
 41
0.8
 50
0.0
 71
0
 42
0.2
  3
gdt
  4

  0
STYLE
  5
215
100
AcDbSymbolTableRecord
100
AcDbTextStyleTableRecord
  2
TEXTSTYLE_2
 70
0
 40
0.0
 41
0.7
 50
0.0
 71
0
 42
0.2
  3
gdt
  4

  0
ENDTAB
  0
TABLE
  2
VIEW
  5
6
100
AcDbSymbolTable
 70
0
  0
ENDTAB
  0
TABLE
  2
UCS
  5
7
100
AcDbSymbolTable
 70
0
  0
ENDTAB
  0
TABLE
  2
APPID
  5
9
100
AcDbSymbolTable
 70
1
  0
APPID
  5
216
100
AcDbSymbolTableRecord
100
AcDbRegAppTableRecord
  2
ACAD
 70
0
  0
ENDTAB
  0
TABLE
  2
BLOCK_RECORD
  5
1
100
AcDbSymbolTable
 70
0
  0
BLOCK_RECORD
  5
217
100
AcDbSymbolTableRecord
100
AcDbBlockTableRecord
  2
*Model_Space
  0
BLOCK_RECORD
  5
218
100
AcDbSymbolTableRecord
100
AcDbBlockTableRecord
  2
*Paper_Space
  0
BLOCK_RECORD
  5
219
100
AcDbSymbolTableRecord
100
AcDbBlockTableRecord
  2
_FILLED
  0
BLOCK_RECORD
  5
21A
100
AcDbSymbolTableRecord
100
AcDbBlockTableRecord
  2
*D0
  0
BLOCK_RECORD
  5
21B
100
AcDbSymbolTableRecord
100
AcDbBlockTableRecord
  2
*D1
  0
BLOCK_RECORD
  5
21C
100
AcDbSymbolTableRecord
100
AcDbBlockTableRecord
  2
*D2
  0
BLOCK_RECORD
  5
21D
100
AcDbSymbolTableRecord
100
AcDbBlockTableRecord
  2
*D3
  0
BLOCK_RECORD
  5
21E
100
AcDbSymbolTableRecord
100
AcDbBlockTableRecord
  2
*D4
  0
BLOCK_RECORD
  5
21F
100
AcDbSymbolTableRecord
100
AcDbBlockTableRecord
  2
*D5
  0
BLOCK_RECORD
  5
220
100
AcDbSymbolTableRecord
100
AcDbBlockTableRecord
  2
*D6
  0
ENDTAB
  0
TABLE
  2
DIMSTYLE
  5
A
100
AcDbSymbolTable
 70
1
100
AcDbDimStyleTable
 71
0
  0
DIMSTYLE
105
221
100
AcDbSymbolTableRecord
100
AcDbDimStyleTableRecord
  2
STANDARD
 70
0
  3

  4

 40
1.0
 41
3.5
 42
0.0625
 43
0.38
 44
0.18
 45
0.0
 46
0.0
 47
0.005
 48
0.005
140
3.5
141
0.09
142
0.0
143
25.4
144
1.0
145
0.0
146
1.0
147
0.09
 71
1.0
 72
0.0
 73
0
 74
0
 75
0
 76
0
 77
1
 78
8
170
0
171
2
172
0
173
0
174
0
175
0
176
0
177
0
178
5
270
2
271
3
272
3
273
2
274
2
275
0
280
0
281
0
282
0
283
1
284
8
285
0
286
0
287
3
288
0
340
11
341
219
342
219
343
219
344
219
  0
DIMSTYLE
105
222
100
AcDbSymbolTableRecord
100
AcDbDimStyleTableRecord
  2
DIMSTYLE_1
 70
0
  3

  4

 40
1.0
 41
3.5
 42
0.0625
 43
0.38
 44
0.18
 45
0.0
 46
0.0
 47
0.0
 48
0.1
140
3.5
141
0.09
142
0.0
143
25.4
144
1.0
145
0.0
146
1.0
147
0.09
 71
0.0
 72
0.0
 73
0
 74
0
 75
0
 76
0
 77
1
 78
8
170
0
171
2
172
0
173
0
174
0
175
0
176
0
177
0
178
5
270
2
271
2
272
2
273
2
274
2
275
0
280
0
281
0
282
0
283
1
284
8
285
0
286
0
287
3
288
0
340
11
341
219
342
219
343
219
344
219
  0
DIMSTYLE
105
223
100
AcDbSymbolTableRecord
100
AcDbDimStyleTableRecord
  2
DIMSTYLE_2
 70
0
  3

  4

 40
1.0
 41
3.5
 42
0.0625
 43
0.38
 44
0.18
 45
0.0
 46
0.0
 47
0.25
 48
0.25
140
3.5
141
0.09
142
0.0
143
25.4
144
1.0
145
0.0
146
1.0
147
0.09
 71
0.0
 72
0.0
 73
0
 74
0
 75
0
 76
0
 77
1
 78
8
170
0
171
2
172
0
173
0
174
0
175
0
176
0
177
0
178
5
270
2
271
2
272
2
273
2
274
2
275
0
280
0
281
0
282
0
283
1
284
8
285
0
286
0
287
3
288
0
340
11
341
219
342
219
343
219
344
219
  0
DIMSTYLE
105
224
100
AcDbSymbolTableRecord
100
AcDbDimStyleTableRecord
  2
DIMSTYLE_3
 70
0
  3

  4

 40
1.0
 41
3.5
 42
0.0625
 43
0.38
 44
0.18
 45
0.0
 46
0.0
 47
0.3
 48
0.3
140
3.5
141
0.09
142
0.0
143
25.4
144
1.0
145
0.0
146
1.0
147
0.09
 71
0.0
 72
0.0
 73
0
 74
0
 75
0
 76
0
 77
1
 78
8
170
0
171
2
172
0
173
0
174
0
175
0
176
0
177
0
178
5
270
2
271
2
272
2
273
2
274
2
275
0
280
0
281
0
282
0
283
1
284
8
285
0
286
0
287
3
288
0
340
11
341
219
342
219
343
219
344
219
  0
DIMSTYLE
105
225
100
AcDbSymbolTableRecord
100
AcDbDimStyleTableRecord
  2
DIMSTYLE_4
 70
0
  3

  4

 40
1.0
 41
3.5
 42
0.0625
 43
0.38
 44
0.18
 45
0.0
 46
0.0
 47
-0.015
 48
0.019
140
3.5
141
0.09
142
0.0
143
25.4
144
1.0
145
0.0
146
1.0
147
0.09
 71
0.0
 72
0.0
 73
0
 74
0
 75
0
 76
0
 77
1
 78
8
170
0
171
2
172
0
173
0
174
0
175
0
176
0
177
0
178
5
270
2
271
3
272
3
273
2
274
2
275
0
280
0
281
0
282
0
283
1
284
8
285
0
286
0
287
3
288
0
340
11
341
219
342
219
343
219
344
219
  0
ENDTAB
  0
ENDSEC
  0
SECTION
  2
BLOCKS
  0
BLOCK
  5
20
100
AcDbEntity
  8
0
100
AcDbBlockBegin
  2
*Model_Space
 70
0
 10
0.0
 20
0.0
 30
0.0
  3
*Model_Space
  1

  0
ENDBLK
  5
21
100
AcDbEntity
  8
0
100
AcDbBlockEnd
  0
BLOCK
  5
1C
100
AcDbEntity
  8
0
100
AcDbBlockBegin
  2
*Paper_Space
 70
0
 10
0.0
 20
0.0
 30
0.0
  3
*Paper_Space
  1

  0
ENDBLK
  5
1D
100
AcDbEntity
  8
0
100
AcDbBlockEnd
  0
BLOCK
  5
226
100
AcDbEntity
  8
0
100
AcDbBlockBegin
  2
_FILLED
 70
64
 10
0.0
 20
0.0
  3
_FILLED
  1

  0
SOLID
  5
227
100
AcDbEntity
  8
0
  6
BYBLOCK
 62
0
100
AcDbTrace
 10
0.0
 20
0.0
 11
-1.0
 21
0.125
 12
-1.0
 22
-0.125
 13
-1.0
 23
-0.125
  0
ENDBLK
  5
228
100
AcDbEntity
  8
0
  6
BYBLOCK
 62
0
100
AcDbBlockEnd
  0
BLOCK
  5
229
100
AcDbEntity
  8
0
100
AcDbBlockBegin
 62
2
  6
CONTINUOUS
  2
*D0
 70
65
 10
0.0
 20
0.0
  3
*D0
  1

  0
MTEXT
  5
22A
100
AcDbEntity
  8
0
100
AcDbMText
 62
5
  6
CONTINUOUS
  7
TEXTSTYLE_2
 71
2
 72
1
 10
263.4567150017
 20
144.3541710539
 30
0.0
 11
0.0
 21
1.0
 31
0.0
 44
0.9
  1
{\Fgdt;n}\Ftxt;21
 40
3.5
 41
9.4166666667
  0
LINE
  5
22B
100
AcDbEntity
  8
0
100
AcDbLine
 62
2
  6
CONTINUOUS
 10
232.5210351461
 20
154.8291710539
 11
269.3317150017
 21
154.8291710539
  0
LINE
  5
22C
100
AcDbEntity
  8
0
100
AcDbLine
 62
2
  6
CONTINUOUS
 10
232.5210351461
 20
133.8791710539
 11
269.3317150017
 21
133.8791710539
  0
LINE
  5
22D
100
AcDbEntity
  8
0
100
AcDbLine
 62
2
  6
CONTINUOUS
 10
267.8317150017
 20
154.8291710539
 11
267.8317150017
 21
144.3541710539
  0
LINE
  5
22E
100
AcDbEntity
  8
0
100
AcDbLine
 62
2
  6
CONTINUOUS
 10
267.8317150017
 20
133.8791710539
 11
267.8317150017
 21
144.3541710539
  0
INSERT
  5
22F
100
AcDbEntity
  8
0
100
AcDbBlockReference
 62
2
  6
CONTINUOUS
  2
_FILLED
 10
267.8317150017
 20
154.8291710539
 41
3.5
 42
3.5
 43
3.5
 50
90.0
  0
INSERT
  5
230
100
AcDbEntity
  8
0
100
AcDbBlockReference
 62
2
  6
CONTINUOUS
  2
_FILLED
 10
267.8317150017
 20
133.8791710539
 41
3.5
 42
3.5
 43
3.5
 50
270.0
  0
ENDBLK
  5
231
100
AcDbEntity
  8
0
  6
BYBLOCK
 62
0
100
AcDbBlockEnd
  0
BLOCK
  5
232
100
AcDbEntity
  8
0
100
AcDbBlockBegin
 62
2
  6
CONTINUOUS
  2
*D1
 70
65
 10
0.0
 20
0.0
  3
*D1
  1

  0
MTEXT
  5
233
100
AcDbEntity
  8
0
100
AcDbMText
 62
5
  6
CONTINUOUS
  7
STANDARD
 71
2
 72
1
 10
213.008680559
 20
120.6568142868
 30
0.0
 11
0.4532056339
 21
0.8914059981
 31
0.0
 44
0.9
  1
4\Fgdt;{\Fgdt;~}\Ftxt;30'
 40
3.5
 41
12.3333333333
  0
LINE
  5
234
100
AcDbEntity
  8
0
100
AcDbLine
 62
2
  6
CONTINUOUS
 10
220.8716047737
 20
133.0803935603
 11
222.4031077156
 21
133.2009254559
  0
LINE
  5
235
100
AcDbEntity
  8
0
100
AcDbLine
 62
2
  6
CONTINUOUS
 10
194.4024209376
 20
130.8791710539
 11
223.9580910416
 21
130.8791710539
  0
ARC
  5
236
100
AcDbEntity
  8
0
100
AcDbCircle
 62
2
  6
CONTINUOUS
 10
192.9024209376
 20
130.8791710539
 40
29.555670104
100
AcDbArc
 50
4.5
 51
16.1314289566
  0
ARC
  5
237
100
AcDbEntity
  8
0
100
AcDbCircle
 62
2
  6
CONTINUOUS
 10
192.9024209376
 20
130.8791710539
 40
29.555670104
100
AcDbArc
 50
333.0504591361
 51
0.0
  0
ARC
  5
238
100
AcDbEntity
  8
0
100
AcDbCircle
 62
2
  6
CONTINUOUS
 10
192.9024209376
 20
130.8791710539
 40
29.555670104
100
AcDbArc
 50
360.0
 51
4.5
  0
SOLID
  5
239
100
AcDbEntity
  8
0
100
AcDbTrace
 62
2
  6
CONTINUOUS
 10
221.4530229038
 20
136.6048530006
 11
222.3669807743
 21
133.1980822039
 12
222.319734419
 22
136.7250035288
 13
222.319734419
 23
136.7250035288
  0
SOLID
  5
23A
100
AcDbEntity
  8
0
100
AcDbTrace
 62
2
  6
CONTINUOUS
 10
222.6877093888
 20
127.3594151441
 11
222.4580910416
 21
130.8791710539
 12
221.8142427542
 22
127.4111938867
 13
221.8142427542
 23
127.4111938867
  0
ENDBLK
  5
23B
100
AcDbEntity
  8
0
  6
BYBLOCK
 62
0
100
AcDbBlockEnd
  0
BLOCK
  5
23C
100
AcDbEntity
  8
0
100
AcDbBlockBegin
 62
2
  6
CONTINUOUS
  2
*D2
 70
65
 10
0.0
 20
0.0
  3
*D2
  1

  0
MTEXT
  5
23D
100
AcDbEntity
  8
0
100
AcDbMText
 62
5
  6
CONTINUOUS
  7
STANDARD
 71
2
 72
1
 10
191.0210351461
 20
106.8429735906
 30
0.0
 11
1.0
 21
0.0
 31
0.0
 44
0.9
  1
80
 40
3.5
 41
5.5
  0
LINE
  5
23E
100
AcDbEntity
  8
0
100
AcDbLine
 62
2
  6
CONTINUOUS
 10
151.0210351461
 20
111.3445961765
 11
151.0210351461
 21
100.9679735906
  0
LINE
  5
23F
100
AcDbEntity
  8
0
100
AcDbLine
 62
2
  6
CONTINUOUS
 10
231.0210351461
 20
155.1547457627
 11
231.0210351461
 21
100.9679735906
  0
LINE
  5
240
100
AcDbEntity
  8
0
100
AcDbLine
 62
2
  6
CONTINUOUS
 10
151.0210351461
 20
102.4679735906
 11
191.0210351461
 21
102.4679735906
  0
LINE
  5
241
100
AcDbEntity
  8
0
100
AcDbLine
 62
2
  6
CONTINUOUS
 10
231.0210351461
 20
102.4679735906
 11
191.0210351461
 21
102.4679735906
  0
INSERT
  5
242
100
AcDbEntity
  8
0
100
AcDbBlockReference
 62
2
  6
CONTINUOUS
  2
_FILLED
 10
151.0210351461
 20
102.4679735906
 41
3.5
 42
3.5
 43
3.5
 50
180.0
  0
INSERT
  5
243
100
AcDbEntity
  8
0
100
AcDbBlockReference
 62
2
  6
CONTINUOUS
  2
_FILLED
 10
231.0210351461
 20
102.4679735906
 41
3.5
 42
3.5
 43
3.5
  0
ENDBLK
  5
244
100
AcDbEntity
  8
0
  6
BYBLOCK
 62
0
100
AcDbBlockEnd
  0
BLOCK
  5
245
100
AcDbEntity
  8
0
100
AcDbBlockBegin
 62
2
  6
CONTINUOUS
  2
*D3
 70
65
 10
0.0
 20
0.0
  3
*D3
  1

  0
MTEXT
  5
246
100
AcDbEntity
  8
0
100
AcDbMText
 62
5
  6
CONTINUOUS
  7
TEXTSTYLE_2
 71
2
 72
1
 10
246.4399250225
 20
144.3541710539
 30
0.0
 11
0.0
 21
1.0
 31
0.0
 44
0.9
  1
{\Fgdt;n}\Ftxt;8
 40
3.5
 41
7.4166666667
  0
LINE
  5
247
100
AcDbEntity
  8
0
100
AcDbLine
 62
2
  6
CONTINUOUS
 10
228.2716606134
 20
140.3626710539
 11
252.3149250225
 21
140.3626710539
  0
LINE
  5
248
100
AcDbEntity
  8
0
100
AcDbLine
 62
2
  6
CONTINUOUS
 10
227.8412804326
 20
148.3456710539
 11
252.3149250225
 21
148.3456710539
  0
LINE
  5
249
100
AcDbEntity
  8
0
100
AcDbLine
 62
2
  6
CONTINUOUS
 10
250.8149250225
 20
140.3626710539
 11
250.8149250225
 21
144.3541710539
  0
LINE
  5
24A
100
AcDbEntity
  8
0
100
AcDbLine
 62
2
  6
CONTINUOUS
 10
250.8149250225
 20
148.3456710539
 11
250.8149250225
 21
144.3541710539
  0
INSERT
  5
24B
100
AcDbEntity
  8
0
100
AcDbBlockReference
 62
2
  6
CONTINUOUS
  2
_FILLED
 10
250.8149250225
 20
140.3626710539
 41
3.5
 42
3.5
 43
3.5
 50
270.0
  0
INSERT
  5
24C
100
AcDbEntity
  8
0
100
AcDbBlockReference
 62
2
  6
CONTINUOUS
  2
_FILLED
 10
250.8149250225
 20
148.3456710539
 41
3.5
 42
3.5
 43
3.5
 50
90.0
  0
ENDBLK
  5
24D
100
AcDbEntity
  8
0
  6
BYBLOCK
 62
0
100
AcDbBlockEnd
  0
BLOCK
  5
24E
100
AcDbEntity
  8
0
100
AcDbBlockBegin
 62
2
  6
CONTINUOUS
  2
*D4
 70
65
 10
0.0
 20
0.0
  3
*D4
  1

  0
MTEXT
  5
24F
100
AcDbEntity
  8
0
100
AcDbMText
 62
5
  6
CONTINUOUS
  7
STANDARD
 71
2
 72
1
 10
202.0210351461
 20
198.5564677581
 30
0.0
 11
1.0
 21
0.0
 31
0.0
 44
0.9
  1
58
 40
3.5
 41
5.25
  0
LINE
  5
250
100
AcDbEntity
  8
0
100
AcDbLine
 62
2
  6
CONTINUOUS
 10
231.0210351461
 20
135.3791710539
 11
231.0210351461
 21
195.6814677581
  0
LINE
  5
251
100
AcDbEntity
  8
0
100
AcDbLine
 62
2
  6
CONTINUOUS
 10
173.0210351461
 20
170.2075457627
 11
173.0210351461
 21
195.6814677581
  0
LINE
  5
252
100
AcDbEntity
  8
0
100
AcDbLine
 62
2
  6
CONTINUOUS
 10
231.0210351461
 20
194.1814677581
 11
202.0210351461
 21
194.1814677581
  0
LINE
  5
253
100
AcDbEntity
  8
0
100
AcDbLine
 62
2
  6
CONTINUOUS
 10
173.0210351461
 20
194.1814677581
 11
202.0210351461
 21
194.1814677581
  0
INSERT
  5
254
100
AcDbEntity
  8
0
100
AcDbBlockReference
 62
2
  6
CONTINUOUS
  2
_FILLED
 10
231.0210351461
 20
194.1814677581
 41
3.5
 42
3.5
 43
3.5
  0
INSERT
  5
255
100
AcDbEntity
  8
0
100
AcDbBlockReference
 62
2
  6
CONTINUOUS
  2
_FILLED
 10
173.0210351461
 20
194.1814677581
 41
3.5
 42
3.5
 43
3.5
 50
180.0
  0
ENDBLK
  5
256
100
AcDbEntity
  8
0
  6
BYBLOCK
 62
0
100
AcDbBlockEnd
  0
BLOCK
  5
257
100
AcDbEntity
  8
0
100
AcDbBlockBegin
 62
2
  6
CONTINUOUS
  2
*D5
 70
65
 10
0.0
 20
0.0
  3
*D5
  1

  0
MTEXT
  5
258
100
AcDbEntity
  8
0
100
AcDbMText
 62
5
  6
CONTINUOUS
  7
STANDARD
 71
2
 72
1
 10
172.0210351461
 20
93.9535180206
 30
0.0
 11
1.0
 21
0.0
 31
0.0
 44
0.9
  1
118
 40
3.5
 41
6.75
  0
LINE
  5
259
100
AcDbEntity
  8
0
100
AcDbLine
 62
2
  6
CONTINUOUS
 10
231.0210351461
 20
132.3791710539
 11
231.0210351461
 21
88.0785180206
  0
LINE
  5
25A
100
AcDbEntity
  8
0
100
AcDbLine
 62
2
  6
CONTINUOUS
 10
113.0210351461
 20
122.6680552846
 11
113.0210351461
 21
88.0785180206
  0
LINE
  5
25B
100
AcDbEntity
  8
0
100
AcDbLine
 62
2
  6
CONTINUOUS
 10
231.0210351461
 20
89.5785180206
 11
172.0210351461
 21
89.5785180206
  0
LINE
  5
25C
100
AcDbEntity
  8
0
100
AcDbLine
 62
2
  6
CONTINUOUS
 10
113.0210351461
 20
89.5785180206
 11
172.0210351461
 21
89.5785180206
  0
INSERT
  5
25D
100
AcDbEntity
  8
0
100
AcDbBlockReference
 62
2
  6
CONTINUOUS
  2
_FILLED
 10
231.0210351461
 20
89.5785180206
 41
3.5
 42
3.5
 43
3.5
  0
INSERT
  5
25E
100
AcDbEntity
  8
0
100
AcDbBlockReference
 62
2
  6
CONTINUOUS
  2
_FILLED
 10
113.0210351461
 20
89.5785180206
 41
3.5
 42
3.5
 43
3.5
 50
180.0
  0
ENDBLK
  5
25F
100
AcDbEntity
  8
0
  6
BYBLOCK
 62
0
100
AcDbBlockEnd
  0
BLOCK
  5
260
100
AcDbEntity
  8
0
100
AcDbBlockBegin
 62
2
  6
CONTINUOUS
  2
*D6
 70
65
 10
0.0
 20
0.0
  3
*D6
  1

  0
MTEXT
  5
261
100
AcDbEntity
  8
0
100
AcDbMText
 62
5
  6
CONTINUOUS
  7
TEXTSTYLE_2
 71
2
 72
1
 10
270.5075732489
 20
144.3541710539
 30
0.0
 11
0.0
 21
1.0
 31
0.0
 44
0.9
  1
{\Fgdt;n}\Ftxt;27
 40
3.5
 41
10.1666666667
  0
LINE
  5
262
100
AcDbEntity
  8
0
100
AcDbLine
 62
2
  6
CONTINUOUS
 10
194.4024209376
 20
157.8291710539
 11
226.7219781524
 21
157.8291710539
  0
LINE
  5
263
100
AcDbEntity
  8
0
100
AcDbLine
 62
2
  6
CONTINUOUS
 10
233.344871263
 20
157.8291710539
 11
276.3825732489
 21
157.8291710539
  0
LINE
  5
264
100
AcDbEntity
  8
0
100
AcDbLine
 62
2
  6
CONTINUOUS
 10
194.4024209376
 20
130.8791710539
 11
276.3825732489
 21
130.8791710539
  0
LINE
  5
265
100
AcDbEntity
  8
0
100
AcDbLine
 62
2
  6
CONTINUOUS
 10
274.8825732489
 20
157.8291710539
 11
274.8825732489
 21
144.3541710539
  0
LINE
  5
266
100
AcDbEntity
  8
0
100
AcDbLine
 62
2
  6
CONTINUOUS
 10
274.8825732489
 20
130.8791710539
 11
274.8825732489
 21
144.3541710539
  0
INSERT
  5
267
100
AcDbEntity
  8
0
100
AcDbBlockReference
 62
2
  6
CONTINUOUS
  2
_FILLED
 10
274.8825732489
 20
157.8291710539
 41
3.5
 42
3.5
 43
3.5
 50
90.0
  0
INSERT
  5
268
100
AcDbEntity
  8
0
100
AcDbBlockReference
 62
2
  6
CONTINUOUS
  2
_FILLED
 10
274.8825732489
 20
130.8791710539
 41
3.5
 42
3.5
 43
3.5
 50
270.0
  0
ENDBLK
  5
269
100
AcDbEntity
  8
0
  6
BYBLOCK
 62
0
100
AcDbBlockEnd
  0
ENDSEC
  0
SECTION
  2
ENTITIES
  0
DIMENSION
  5
26A
100
AcDbEntity
  8
0
100
AcDbDimension
 62
2
  6
CONTINUOUS
  2
*D0
 10
267.8317150017
 20
133.8791710539
 11
266.261554973
 21
142.2495539084
 70
160
 71
2
 42
20.95
  1
%%c<>
  3
DIMSTYLE_1
100
AcDbAlignedDimension
 13
232.5210351461
 23
154.8291710539
 14
232.5210351461
 24
133.8791710539
 50
270.0
100
AcDbRotatedDimension
  0
DIMENSION
  5
26B
100
AcDbEntity
  8
0
100
AcDbDimension
 62
2
  6
CONTINUOUS
  2
*D1
 10
223.9580910416
 20
130.8791710539
 11
212.1281393077
 21
119.3215317444
 70
162
 71
2
 42
0.0785398163
  3
DIMSTYLE_2
100
AcDb2LineAngularDimension
 13
222.4031077156
 23
133.2009254559
 14
220.8716047737
 24
133.0803935603
 15
194.4024209376
 25
130.8791710539
 16
222.435304691
 26
132.0395212169
  0
DIMENSION
  5
26C
100
AcDbEntity
  8
0
100
AcDbDimension
 62
2
  6
CONTINUOUS
  2
*D2
 10
231.0210351461
 20
102.4679735906
 11
188.2710351461
 21
105.0929735906
 70
160
 71
2
 42
80.0
  3
DIMSTYLE_3
100
AcDbAlignedDimension
 13
151.0210351461
 23
111.3445961765
 14
231.0210351461
 24
155.1547457627
100
AcDbRotatedDimension
  0
DIMENSION
  5
26D
100
AcDbEntity
  8
0
100
AcDbDimension
 62
2
  6
CONTINUOUS
  2
*D3
 10
250.8149250225
 20
148.3456710539
 11
249.0207281858
 21
142.6965522402
 70
160
 71
2
 42
7.983
  1
%%c<>
  3
DIMSTYLE_4
100
AcDbAlignedDimension
 13
228.2716606134
 23
140.3626710539
 14
227.8412804326
 24
148.3456710539
 50
90.0
100
AcDbRotatedDimension
  0
DIMENSION
  5
26E
100
AcDbEntity
  8
0
100
AcDbDimension
 62
2
  6
CONTINUOUS
  2
*D4
 10
173.0210351461
 20
194.1814677581
 11
199.3960351461
 21
196.8064677581
 70
160
 71
2
 42
58.0
  3
DIMSTYLE_3
100
AcDbAlignedDimension
 13
231.0210351461
 23
135.3791710539
 14
173.0210351461
 24
170.2075457627
 50
180.0
100
AcDbRotatedDimension
  0
DIMENSION
  5
26F
100
AcDbEntity
  8
0
100
AcDbDimension
 62
2
  6
CONTINUOUS
  2
*D5
 10
113.0210351461
 20
89.5785180206
 11
168.6460351461
 21
92.2035180206
 70
160
 71
2
 42
118.0
  3
DIMSTYLE_3
100
AcDbAlignedDimension
 13
231.0210351461
 23
132.3791710539
 14
113.0210351461
 24
122.6680552846
 50
180.0
100
AcDbRotatedDimension
  0
DIMENSION
  5
270
100
AcDbEntity
  8
0
100
AcDbDimension
 62
2
  6
CONTINUOUS
  2
*D6
 10
274.8825732489
 20
130.8791710539
 11
273.3964270232
 21
142.081929534
 70
160
 71
2
 42
26.95
  1
%%c<>
  3
DIMSTYLE_1
100
AcDbAlignedDimension
 13
194.4024209376
 23
157.8291710539
 14
194.4024209376
 24
130.8791710539
 50
270.0
100
AcDbRotatedDimension
  0
MTEXT
  5
271
100
AcDbEntity
  8
0
100
AcDbMText
 62
5
  6
CONTINUOUS
  7
STANDARD
 71
1
 72
1
 10
9.9180093555
 20
79.9192762474
 30
0.0
 11
1.0
 21
0.0
 31
0.0
 44
0.9
  3
Für diese Unterlage behalten wir das Ur-\Pheberrecht. Sie darf nur für den von uns \Pbestimmten Zweck benutzt und ohne unsere \PZustimmung weder vervielfältigt noch\PDritten zugänglich gemacht werden\P \PWe own the copyright of this document. It \Pde
  1
termined and may neither be copied or \Pmade accessible to outsiders without our\Ppermission.\P \PCe plan reste notre propriété. Il ne peut\Pêtre utilisé, copié ou reproduit sans notre\Paccord.
 40
3.5
 41
104.8333333333
  0
LINE
  5
272
100
AcDbEntity
  8
0
100
AcDbLine
 62
7
  6
CONTINUOUS
 10
0.0
 20
0.0
 11
0.0
 21
210.0
  0
LINE
  5
273
100
AcDbEntity
  8
0
100
AcDbLine
 62
7
  6
CONTINUOUS
 10
0.0
 20
0.0
 11
297.0
 21
0.0
  0
LINE
  5
274
100
AcDbEntity
  8
0
100
AcDbLine
 62
7
  6
CONTINUOUS
 10
0.0
 20
210.0
 11
297.0
 21
210.0
  0
LINE
  5
275
100
AcDbEntity
  8
0
100
AcDbLine
 62
7
  6
CONTINUOUS
 10
297.0
 20
0.0
 11
297.0
 21
210.0
  0
LINE
  5
276
100
AcDbEntity
  8
0
100
AcDbLine
 62
7
  6
CONTINUOUS
 10
113.0210351461
 20
122.6618330611
 11
113.0210351461
 21
159.3154156927
  0
LINE
  5
277
100
AcDbEntity
  8
KURVEN
100
AcDbLine
 62
4
  6
CONTINUOUS
 10
113.0210351461
 20
121.8334928783
 11
113.0210351461
 21
163.397681352
  0
LINE
  5
278
100
AcDbEntity
  8
ACHSEN
100
AcDbLine
 62
7
  6
CONTINUOUS
 10
113.0210351461
 20
159.3154156927
 11
113.0210351461
 21
163.1026503679
  0
LINE
  5
279
100
AcDbEntity
  8
ACHSEN
100
AcDbLine
 62
7
  6
CONTINUOUS
 10
114.5210351461
 20
163.8511606675
 11
114.5210351461
 21
160.0654156927
  0
LINE
  5
27A
100
AcDbEntity
  8
0
100
AcDbLine
 62
7
  6
CONTINUOUS
 10
114.5210351461
 20
160.0654156927
 11
114.5210351461
 21
121.7958076573
  0
LINE
  5
27B
100
AcDbEntity
  8
0
100
AcDbLine
 62
9
  6
CONTINUOUS
 10
114.5210351461
 20
160.0654156927
 11
113.0210351461
 21
159.3154156927
  0
LINE
  5
27C
100
AcDbEntity
  8
0
100
AcDbLine
 62
7
  6
CONTINUOUS
 10
114.5210351461
 20
121.7958076573
 11
113.0210351461
 21
122.6618330611
  0
LINE
  5
27D
100
AcDbEntity
  8
ACHSEN
100
AcDbLine
 62
7
  6
CENTER
 10
135.5210351461
 20
121.4206855469
 11
135.5210351461
 21
168.5425416185
  0
LINE
  5
27E
100
AcDbEntity
  8
0
100
AcDbLine
 62
7
  6
CONTINUOUS
 10
151.0210369821
 20
175.5541691466
 11
151.321037072
 21
175.8541692005
  0
LINE
  5
27F
100
AcDbEntity
  8
0
100
AcDbLine
 62
9
  6
CONTINUOUS
 10
114.5210351461
 20
123.4180552846
 11
113.0210351461
 21
124.1680552846
  0
LINE
  5
280
100
AcDbEntity
  8
0
100
AcDbLine
 62
7
  6
CONTINUOUS
 10
151.0210369821
 20
113.1541729613
 11
151.321037072
 21
112.8541729074
  0
LINE
  5
281
100
AcDbEntity
  8
0
100
AcDbLine
 62
7
  6
CONTINUOUS
 10
173.0210351461
 20
112.8541710539
 11
151.3210352185
 21
112.8541710539
  0
LINE
  5
282
100
AcDbEntity
  8
0
100
AcDbLine
 62
7
  6
CONTINUOUS
 10
148.8210982352
 20
164.9742714235
 11
148.8210982352
 21
160.8117018026
  0
LINE
  5
283
100
AcDbEntity
  8
0
100
AcDbLine
 62
7
  6
CONTINUOUS
 10
148.8210982352
 20
149.5790421845
 11
148.8210982352
 21
122.6717691747
  0
LINE
  5
284
100
AcDbEntity
  8
0
100
AcDbLine
 62
9
  6
CONTINUOUS
 10
149.0260582573
 20
164.7793576237
 11
149.0260582573
 21
159.0391132587
  0
LINE
  5
285
100
AcDbEntity
  8
0
100
AcDbLine
 62
9
  6
CONTINUOUS
 10
149.0260582573
 20
152.5401142407
 11
149.0260582573
 21
121.4832856624
  0
LINE
  5
286
100
AcDbEntity
  8
0
100
AcDbLine
 62
9
  6
CONTINUOUS
 10
149.7139283649
 20
121.6112778351
 11
149.7139283649
 21
122.250614403
  0
LINE
  5
287
100
AcDbEntity
  8
0
100
AcDbLine
 62
9
  6
CONTINUOUS
 10
149.7139283649
 20
150.7687108147
 11
149.7139283649
 21
160.0431879441
  0
LINE
  5
288
100
AcDbEntity
  8
0
100
AcDbLine
 62
9
  6
CONTINUOUS
 10
150.6260582573
 20
164.8195551928
 11
150.6260582573
 21
160.6986493409
  0
LINE
  5
289
100
AcDbEntity
  8
0
100
AcDbLine
 62
9
  6
CONTINUOUS
 10
150.6260582573
 20
149.5371215071
 11
150.6260582573
 21
122.8267423138
  0
LINE
  5
28A
100
AcDbEntity
  8
0
100
AcDbLine
 62
7
  6
CONTINUOUS
 10
151.0210351461
 20
113.1544467235
 11
151.0210351461
 21
175.5538953844
  0
LINE
  5
28B
100
AcDbEntity
  8
0
100
AcDbLine
 62
7
  6
CONTINUOUS
 10
151.3210352197
 20
112.8541710539
 11
151.3210352197
 21
175.8541710539
  0
LINE
  5
28C
100
AcDbEntity
  8
0
100
AcDbLine
 62
7
  6
CONTINUOUS
 10
150.8209702943
 20
161.1437456397
 11
150.8210351461
 21
166.887655915
  0
LINE
  5
28D
100
AcDbEntity
  8
0
100
AcDbLine
 62
7
  6
CONTINUOUS
 10
150.8209702943
 20
122.9440029625
 11
150.8210351461
 21
148.9425026016
  0
LINE
  5
28E
100
AcDbEntity
  8
0
100
AcDbLine
 62
7
  6
CONTINUOUS
 10
164.4823600115
 20
114.2735782936
 11
161.5597102807
 21
114.2735782936
  0
LINE
  5
28F
100
AcDbEntity
  8
0
100
AcDbLine
 62
9
  6
CONTINUOUS
 10
148.8210982352
 20
122.6717691747
 11
114.5210351461
 21
123.4180552846
  0
LINE
  5
290
100
AcDbEntity
  8
0
100
AcDbLine
 62
7
  6
CONTINUOUS
 10
149.274063897
 20
121.4774421786
 11
149.0260582573
 21
121.4832856624
  0
LINE
  5
291
100
AcDbEntity
  8
0
100
AcDbLine
 62
7
  6
CONTINUOUS
 10
114.5210351461
 20
121.7958076573
 11
149.0314379689
 21
120.9287862181
  0
LINE
  5
292
100
AcDbEntity
  8
0
100
AcDbLine
 62
9
  6
CONTINUOUS
 10
161.1266975788
 20
174.2681259004
 11
161.1266975788
 21
154.2235836729
  0
LINE
  5
293
100
AcDbEntity
  8
0
100
AcDbLine
 62
9
  6
CONTINUOUS
 10
161.1266975788
 20
134.484758435
 11
161.1266975788
 21
114.4402162075
  0
LINE
  5
294
100
AcDbEntity
  8
0
100
AcDbLine
 62
9
  6
CONTINUOUS
 10
161.5597102807
 20
174.4347638143
 11
161.5597102807
 21
153.7033923685
  0
LINE
  5
295
100
AcDbEntity
  8
0
100
AcDbLine
 62
9
  6
CONTINUOUS
 10
161.5597102807
 20
135.0049497394
 11
161.5597102807
 21
114.2735782936
  0
LINE
  5
296
100
AcDbEntity
  8
RUNDUNGEN
100
AcDbLine
 62
7
  6
CONTINUOUS
 10
230.0994942419
 20
133.8066442119
 11
192.9024209376
 21
130.8791710539
  0
LINE
  5
297
100
AcDbEntity
  8
0
100
AcDbLine
 62
7
  6
CONTINUOUS
 10
192.9024209376
 20
130.8791710539
 11
230.0994942419
 21
133.8066442119
  0
LINE
  5
298
100
AcDbEntity
  8
ACHSEN
100
AcDbLine
 62
7
  6
CENTER
 10
163.0210351461
 20
167.17492302
 11
163.0210351461
 21
178.8541710539
  0
LINE
  5
299
100
AcDbEntity
  8
0
100
AcDbLine
 62
9
  6
CONTINUOUS
 10
164.4823600115
 20
174.4347638143
 11
164.4823600115
 21
153.7033923685
  0
LINE
  5
29A
100
AcDbEntity
  8
0
100
AcDbLine
 62
9
  6
CONTINUOUS
 10
164.4823600115
 20
135.0049497394
 11
164.4823600115
 21
114.2735782936
  0
LINE
  5
29B
100
AcDbEntity
  8
0
100
AcDbLine
 62
9
  6
CONTINUOUS
 10
164.9153727134
 20
174.2681259004
 11
164.9153727134
 21
154.2235836729
  0
LINE
  5
29C
100
AcDbEntity
  8
0
100
AcDbLine
 62
9
  6
CONTINUOUS
 10
164.9153727134
 20
134.484758435
 11
164.9153727134
 21
114.4402162075
  0
LINE
  5
29D
100
AcDbEntity
  8
RUNDUNGEN
100
AcDbLine
 62
7
  6
CONTINUOUS
 10
192.9024209376
 20
130.8791710539
 11
175.0210351461
 21
130.8791710539
  0
LINE
  5
29E
100
AcDbEntity
  8
0
100
AcDbLine
 62
7
  6
CONTINUOUS
 10
175.0210351461
 20
130.8791710539
 11
192.9024209376
 21
130.8791710539
  0
LINE
  5
29F
100
AcDbEntity
  8
0
100
AcDbLine
 62
7
  6
CONTINUOUS
 10
149.7139283649
 20
121.6112778351
 11
149.0314379687
 21
120.9287874389
  0
LINE
  5
2A0
100
AcDbEntity
  8
0
100
AcDbLine
 62
7
  6
CONTINUOUS
 10
164.4823600115
 20
135.0049497394
 11
161.5597102807
 21
135.0049497394
  0
LINE
  5
2A1
100
AcDbEntity
  8
0
100
AcDbLine
 62
7
  6
CONTINUOUS
 10
173.0210351461
 20
112.8541710539
 11
173.0210351461
 21
175.8541710539
  0
LINE
  5
2A2
100
AcDbEntity
  8
RUNDUNGEN
100
AcDbLine
 62
9
  6
CONTINUOUS
 10
175.0210351461
 20
157.8291710539
 11
175.0210351461
 21
130.8791710539
  0
LINE
  5
2A3
100
AcDbEntity
  8
BOHRUNGEN
100
AcDbLine
 62
8
  6
HIDDEN
 10
193.0210351461
 20
140.3626710539
 11
228.7210351461
 21
140.3626710539
  0
LINE
  5
2A4
100
AcDbEntity
  8
S_ACHSEN
100
AcDbLine
 62
7
  6
CENTER
 10
110.0210351461
 20
144.3541710539
 11
234.0210351461
 21
144.3541710539
  0
LINE
  5
2A5
100
AcDbEntity
  8
BOHRUNGEN
100
AcDbLine
 62
8
  6
HIDDEN
 10
193.0210351461
 20
148.3456710539
 11
228.7210351461
 21
148.3456710539
  0
LINE
  5
2A6
100
AcDbEntity
  8
0
100
AcDbLine
 62
9
  6
CONTINUOUS
 10
113.0210351461
 20
149.5790421845
 11
148.8210982352
 21
149.5790421845
  0
LINE
  5
2A7
100
AcDbEntity
  8
0
100
AcDbLine
 62
7
  6
CONTINUOUS
 10
149.0260582573
 20
152.5401142407
 11
149.274063897
 21
152.5411284966
  0
LINE
  5
2A8
100
AcDbEntity
  8
0
100
AcDbLine
 62
7
  6
CONTINUOUS
 10
164.4823600115
 20
153.7033923685
 11
161.5597102807
 21
153.7033923685
  0
LINE
  5
2A9
100
AcDbEntity
  8
0
100
AcDbLine
 62
7
  6
CONTINUOUS
 10
192.9024209376
 20
130.8791710539
 11
192.9024209376
 21
157.8291710539
  0
LINE
  5
2AA
100
AcDbEntity
  8
BOHRUNGEN
100
AcDbLine
 62
8
  6
HIDDEN
 10
193.0210351461
 20
148.3456710539
 11
193.0210351461
 21
140.3626710539
  0
LINE
  5
2AB
100
AcDbEntity
  8
0
100
AcDbLine
 62
7
  6
CONTINUOUS
 10
149.274063897
 20
159.0439424866
 11
149.0260582573
 21
159.0391132587
  0
LINE
  5
2AC
100
AcDbEntity
  8
RUNDUNGEN
100
AcDbLine
 62
7
  6
CONTINUOUS
 10
192.9024209376
 20
157.8291710539
 11
175.0210351461
 21
157.8291710539
  0
LINE
  5
2AD
100
AcDbEntity
  8
0
100
AcDbLine
 62
7
  6
CONTINUOUS
 10
175.0210351461
 20
157.8291710539
 11
192.9024209376
 21
157.8291710539
  0
LINE
  5
2AE
100
AcDbEntity
  8
RUNDUNGEN
100
AcDbLine
 62
7
  6
CONTINUOUS
 10
230.0994942419
 20
154.901697896
 11
192.9024209376
 21
157.8291710539
  0
LINE
  5
2AF
100
AcDbEntity
  8
0
100
AcDbLine
 62
7
  6
CONTINUOUS
 10
192.9024209376
 20
157.8291710539
 11
230.0994942419
 21
154.901697896
  0
LINE
  5
2B0
100
AcDbEntity
  8
0
100
AcDbLine
 62
7
  6
CONTINUOUS
 10
149.0260582573
 20
164.7793576237
 11
150.6260582573
 21
164.8195551928
  0
LINE
  5
2B1
100
AcDbEntity
  8
0
100
AcDbLine
 62
7
  6
CONTINUOUS
 10
121.2846399002
 20
164.2824597441
 11
131.0710351461
 21
164.5283280561
  0
LINE
  5
2B2
100
AcDbEntity
  8
0
100
AcDbLine
 62
7
  6
CONTINUOUS
 10
140.2003964794
 20
164.7576893894
 11
148.8210982352
 21
164.9742714235
  0
LINE
  5
2B3
100
AcDbEntity
  8
0
100
AcDbLine
 62
9
  6
CONTINUOUS
 10
114.5210351461
 20
160.0654156927
 11
148.8210982352
 21
160.8117018026
  0
LINE
  5
2B4
100
AcDbEntity
  8
0
100
AcDbLine
 62
7
  6
CONTINUOUS
 10
164.4823600115
 20
174.4347638143
 11
161.5597102807
 21
174.4347638143
  0
LINE
  5
2B5
100
AcDbEntity
  8
0
100
AcDbLine
 62
7
  6
CONTINUOUS
 10
173.0210351461
 20
175.8541710539
 11
168.2427984117
 21
175.8541710539
  0
LINE
  5
2B6
100
AcDbEntity
  8
0
100
AcDbLine
 62
7
  6
CONTINUOUS
 10
157.7992714571
 20
175.8541710539
 11
151.3210352185
 21
175.8541710539
  0
LINE
  5
2B7
100
AcDbEntity
  8
RUNDUNGEN
100
AcDbLine
 62
9
  6
CONTINUOUS
 10
230.0994942419
 20
133.8066442119
 11
230.0994942419
 21
154.901697896
  0
LINE
  5
2B8
100
AcDbEntity
  8
RUNDUNGEN
100
AcDbLine
 62
7
  6
CONTINUOUS
 10
231.0210351461
 20
153.9047805623
 11
231.0210351461
 21
134.8035615456
  0
ARC
  5
2B9
100
AcDbEntity
  8
0
100
AcDbCircle
 62
7
  6
CONTINUOUS
 10
295.8096328103
 20
95.135917223
 40
159.8652828161
100
AcDbArc
 50
156.0454215406
 51
156.4367148172
  0
ARC
  5
2BA
100
AcDbEntity
  8
ACHSEN
100
AcDbCircle
 62
7
  6
CONTINUOUS
 10
49.4317287671
 20
292.4113880739
 40
144.0984017399
100
AcDbArc
 50
296.1862714672
 51
296.8528322492
  0
ARC
  5
2BB
100
AcDbEntity
  8
0
100
AcDbCircle
 62
7
  6
CONTINUOUS
 10
42.7313334867
 20
125.1594145138
 40
110.0050529017
100
AcDbArc
 50
13.4620399628
 51
14.4132125722
  0
ARC
  5
2BC
100
AcDbEntity
  8
0
100
AcDbCircle
 62
7
  6
CONTINUOUS
 10
139.8660109054
 20
127.3414736327
 40
11.0859517402
100
AcDbArc
 50
328.0647477759
 51
332.6633964605
  0
ARC
  5
2BD
100
AcDbEntity
  8
RUNDUNGEN
100
AcDbCircle
 62
7
  6
CONTINUOUS
 10
175.0210351461
 20
159.8291710539
 40
2.0
100
AcDbArc
 50
180.0000000017
 51
270.0
  0
ARC
  5
2BE
100
AcDbEntity
  8
RUNDUNGEN
100
AcDbCircle
 62
7
  6
CONTINUOUS
 10
175.0210351461
 20
128.8791710539
 40
2.0
100
AcDbArc
 50
90.0
 51
179.9999999954
  0
ARC
  5
2BF
100
AcDbEntity
  8
RUNDUNGEN
100
AcDbCircle
 62
7
  6
CONTINUOUS
 10
230.0210351461
 20
153.9047805623
 40
1.0
100
AcDbArc
 50
0.0
 51
85.4999999962
  0
ARC
  5
2C0
100
AcDbEntity
  8
RUNDUNGEN
100
AcDbCircle
 62
7
  6
CONTINUOUS
 10
230.0210351461
 20
134.8035615456
 40
1.0
100
AcDbArc
 50
274.500000003
 51
360.0
  0
ARC
  5
2C1
100
AcDbEntity
  8
0
100
AcDbCircle
 62
7
  6
CONTINUOUS
 10
150.4210351461
 20
120.9041710539
 40
1.0
100
AcDbArc
 50
53.0400606802
 51
135.0
  0
ARC
  5
2C2
100
AcDbEntity
  8
0
100
AcDbCircle
 62
7
  6
CONTINUOUS
 10
150.4210351461
 20
167.8041710539
 40
1.0
100
AcDbArc
 50
293.5781784782
 51
306.9599393198
  0
ARC
  5
2C3
100
AcDbEntity
  8
0
100
AcDbCircle
 62
7
  6
CONTINUOUS
 10
150.6210351461
 20
165.0194921038
 40
0.2
100
AcDbArc
 50
271.439166666
 51
360.0
  0
ARC
  5
2C4
100
AcDbEntity
  8
0
100
AcDbCircle
 62
7
  6
CONTINUOUS
 10
149.0210351461
 20
164.9792945346
 40
0.2
100
AcDbArc
 50
181.439166666
 51
271.439166666
  0
SPLINE
  5
2C5
100
AcDbEntity
  8
FASEN
100
AcDbSpline
 62
7
  6
CONTINUOUS
 70
0
 71
3
 72
12
 73
8
 74
6
 42
0.0000001
 43
0.0000001
 44
0.0000000001
 12
-4.668988859
 22
-0.0014912455
 32
0.0
 13
-4.6361948461
 23
0.6957822857
 33
0.0
 40
0.0
 40
0.0
 40
0.0
 40
0.0
 40
0.2573411888
 40
0.5104402004
 40
0.7377379355
 40
0.9210080941
 40
1.0
 40
1.0
 40
1.0
 40
1.0
 10
163.0210351461
 20
175.4125970308
 30
0.0
 10
162.6205274316
 20
175.4124691112
 30
0.0
 10
161.8278147246
 20
175.4280546944
 30
0.0
 10
160.6736750491
 20
175.4960499163
 30
0.0
 10
159.6688384357
 20
175.589409047
 30
0.0
 10
158.854857933
 20
175.6935840552
 30
0.0
 10
158.527163163
 20
175.7391495702
 30
0.0
 10
158.4050892073
 20
175.7574699599
 30
0.0
 11
163.0210351461
 21
175.4125970308
 31
0.0
 11
161.8197434127
 21
175.436180559
 31
0.0
 11
160.640026431
 21
175.5048958398
 31
0.0
 11
159.5834771131
 21
175.6046779746
 31
0.0
 11
158.7343933888
 21
175.7107722579
 31
0.0
 11
158.4050892073
 21
175.7574699599
 31
0.0
  0
SPLINE
  5
2C6
100
AcDbEntity
  8
FASEN
100
AcDbSpline
 62
7
  6
CONTINUOUS
 70
0
 71
3
 72
9
 73
5
 74
3
 42
0.0000001
 43
0.0000001
 44
0.0000000001
 12
-0.3679552839
 22
0.0552213134
 32
0.0
 13
-0.4444712537
 23
0.0721911759
 33
0.0
 40
0.0
 40
0.0
 40
0.0
 40
0.0
 40
0.6157013115
 40
1.0
 40
1.0
 40
1.0
 40
1.0
 10
158.4050892073
 20
175.7574699599
 30
0.0
 10
158.329572357
 20
175.7688032382
 30
0.0
 10
158.1923925881
 20
175.7900671465
 30
0.0
 10
158.0108811948
 20
175.8194215349
 30
0.0
 10
157.9539446215
 20
175.828669193
 30
0.0
 11
158.4050892073
 21
175.7574699599
 31
0.0
 11
158.1438432383
 21
175.7980546754
 31
0.0
 11
157.9539446215
 21
175.828669193
 31
0.0
  0
LINE
  5
2C7
100
AcDbEntity
  8
FASEN
100
AcDbLine
 62
7
  6
CONTINUOUS
 10
157.9539446215
 20
175.828669193
 11
157.8377485154
 21
175.8476093305
  0
LINE
  5
2C8
100
AcDbEntity
  8
ACHSEN
100
AcDbLine
 62
7
  6
CONTINUOUS
 10
119.3710351461
 20
163.9582223526
 11
114.5210351461
 21
163.8511606675
  0
SPLINE
  5
2C9
100
AcDbEntity
  8
ACHSEN
100
AcDbSpline
 62
7
  6
CONTINUOUS
 70
0
 71
3
 72
12
 73
8
 74
6
 42
0.0000001
 43
0.0000001
 44
0.0000000001
 12
1.9045696232
 22
0.3738399062
 32
0.0
 13
0.0000002507
 23
-0.0000017387
 33
0.0
 40
0.0
 40
0.0
 40
0.0
 40
0.0
 40
0.3379744518
 40
0.6080817447
 40
0.8080144243
 40
0.9370301553
 40
1.0
 40
1.0
 40
1.0
 40
1.0
 10
119.3710351461
 20
163.9582223526
 30
0.0
 10
119.5856004376
 20
164.0003384651
 30
0.0
 10
119.9761255095
 20
164.073177799
 30
0.0
 10
120.4784194591
 20
164.1590027336
 30
0.0
 10
120.8918590166
 20
164.2234307468
 30
0.0
 10
121.0824506811
 20
164.2520429257
 30
0.0
 10
121.2847103999
 20
164.2807310408
 30
0.0
 10
121.2847104052
 20
164.2807310043
 30
0.0
 11
119.3710351461
 21
163.9582223526
 31
0.0
 11
120.0158446645
 21
164.0787585134
 31
0.0
 11
120.5326770286
 21
164.1666632562
 31
0.0
 11
120.9160314085
 21
164.2268601273
 31
0.0
 11
121.1637459886
 21
164.2634904765
 31
0.0
 11
121.2847104052
 21
164.2807310043
 31
0.0
  0
SPLINE
  5
2CA
100
AcDbEntity
  8
ACHSEN
100
AcDbSpline
 62
7
  6
CONTINUOUS
 70
0
 71
3
 72
23
 73
19
 74
17
 42
0.0000001
 43
0.0000001
 44
0.0000000001
 12
-9.0517147342
 22
-1.3895012448
 32
0.0
 13
-9.1077322619
 23
0.9557572236
 33
0.0
 40
0.0
 40
0.0
 40
0.0
 40
0.0
 40
0.0101299298
 40
0.0412713507
 40
0.0900689516
 40
0.1542987596
 40
0.2327289669
 40
0.3220651868
 40
0.4165429356
 40
0.5128262614
 40
0.608109843
 40
0.6991734846
 40
0.7830139595
 40
0.8561264359
 40
0.9163262234
 40
0.9620223847
 40
0.9908111506
 40
1.0
 40
1.0
 40
1.0
 40
1.0
 10
140.2003964794
 20
164.7576893894
 30
0.0
 10
140.1698320679
 20
164.7529975394
 30
0.0
 10
140.0452835163
 20
164.7340316821
 30
0.0
 10
139.7732713469
 20
164.6939771781
 30
0.0
 10
139.337272621
 20
164.6340533123
 30
0.0
 10
138.7572078575
 20
164.5624743016
 30
0.0
 10
138.0528772536
 20
164.4882249908
 30
0.0
 10
137.2550915848
 20
164.4212498787
 30
0.0
 10
136.4015257073
 20
164.3699481976
 30
0.0
 10
135.5287946435
 20
164.3393227712
 30
0.0
 10
134.6659918344
 20
164.3308528178
 30
0.0
 10
133.8412325013
 20
164.3430683177
 30
0.0
 10
133.0846223824
 20
164.3717187336
 30
0.0
 10
132.4228346486
 20
164.4103888
 30
0.0
 10
131.8779364552
 20
164.4516712666
 30
0.0
 10
131.4684246316
 20
164.4882860844
 30
0.0
 10
131.2142423604
 20
164.5134346434
 30
0.0
 10
131.0989316729
 20
164.5254006197
 30
0.0
 10
131.0710351461
 20
164.5283280561
 30
0.0
 11
140.2003964794
 21
164.7576893894
 31
0.0
 11
140.1086863415
 21
164.743724189
 31
0.0
 11
139.8265430772
 21
164.7021815748
 31
0.0
 11
139.3838270598
 21
164.6413480703
 31
0.0
 11
138.8000511314
 21
164.5693396355
 31
0.0
 11
138.0857604326
 21
164.4940859712
 31
0.0
 11
137.2705052609
 21
164.4256993567
 31
0.0
 11
136.406857676
 21
164.3738393535
 31
0.0
 11
135.5256607861
 21
164.3429466765
 31
0.0
 11
134.6531199179
 21
164.3343891463
 31
0.0
 11
133.8192735159
 21
164.3467282931
 31
0.0
 11
133.0520328101
 21
164.3757597779
 31
0.0
 11
132.3836261907
 21
164.4147949524
 31
0.0
 11
131.8339060658
 21
164.4564273308
 31
0.0
 11
131.4170942783
 21
164.4936870182
 31
0.0
 11
131.1547348463
 21
164.5196424725
 31
0.0
 11
131.0710351461
 21
164.5283280561
 31
0.0
  0
SPLINE
  5
2CB
100
AcDbEntity
  8
FASEN
100
AcDbSpline
 62
7
  6
CONTINUOUS
 70
0
 71
3
 72
8
 73
4
 74
2
 42
0.0000001
 43
0.0000001
 44
0.0000000001
 12
-0.0000001275
 22
0.0000007476
 32
0.0
 13
-0.4110505837
 23
-0.0656019219
 33
0.0
 40
0.0
 40
0.0
 40
0.0
 40
0.0
 40
1.0
 40
1.0
 40
1.0
 40
1.0
 10
168.2043218968
 20
175.8476093611
 30
0.0
 10
168.2043218543
 20
175.8476096103
 30
0.0
 10
168.0365399419
 20
175.8201288323
 30
0.0
 10
167.8995230807
 20
175.798261525
 30
0.0
 11
168.2043218968
 21
175.8476093611
 31
0.0
 11
167.8995230807
 21
175.798261525
 31
0.0
  0
SPLINE
  5
2CC
100
AcDbEntity
  8
FASEN
100
AcDbSpline
 62
7
  6
CONTINUOUS
 70
0
 71
3
 72
10
 73
6
 74
4
 42
0.0000001
 43
0.0000001
 44
0.0000000001
 12
0.8408594229
 22
0.1262634435
 32
0.0
 13
-1.1245790896
 23
-0.1794780316
 33
0.0
 40
0.0
 40
0.0
 40
0.0
 40
0.0
 40
0.2678579155
 40
0.6347126251
 40
1.0
 40
1.0
 40
1.0
 40
1.0
 10
167.6386981639
 20
175.7577277147
 30
0.0
 10
167.7137751146
 20
175.769001269
 30
0.0
 10
167.9126898432
 20
175.7998428055
 30
0.0
 10
168.3724907741
 20
175.8751534178
 30
0.0
 10
168.0364545952
 20
175.8201152113
 30
0.0
 10
167.8995230807
 20
175.798261525
 30
0.0
 11
167.6386981639
 21
175.7577277147
 31
0.0
 11
167.8982148029
 21
175.7980527631
 31
0.0
 11
168.2043217016
 21
175.8476093296
 31
0.0
 11
167.8995230807
 21
175.798261525
 31
0.0
  0
SPLINE
  5
2CD
100
AcDbEntity
  8
FASEN
100
AcDbSpline
 62
7
  6
CONTINUOUS
 70
0
 71
3
 72
12
 73
8
 74
6
 42
0.0000001
 43
0.0000001
 44
0.0000000001
 12
4.6707164621
 22
-0.001492918
 32
0.0
 13
4.6463285932
 23
0.6976926606
 33
0.0
 40
0.0
 40
0.0
 40
0.0
 40
0.0
 40
0.2572197656
 40
0.5102269863
 40
0.7374535784
 40
0.9206637547
 40
1.0
 40
1.0
 40
1.0
 40
1.0
 10
163.0210351461
 20
175.4125970308
 30
0.0
 10
163.4215020106
 20
175.4124690282
 30
0.0
 10
164.2141768927
 20
175.4280525681
 30
0.0
 10
165.3682988766
 20
175.496042125
 30
0.0
 10
166.3731695244
 20
175.5894017383
 30
0.0
 10
167.1878060696
 20
175.6936597388
 30
0.0
 10
167.5158240755
 20
175.7392769427
 30
0.0
 10
167.6386981639
 20
175.7577277147
 30
0.0
 11
163.0210351461
 21
175.4125970308
 31
0.0
 11
164.2222043987
 21
175.436175836
 31
0.0
 11
165.4019301573
 21
175.5048870499
 31
0.0
 11
166.4585398648
 21
175.6046720514
 31
0.0
 11
167.3076598897
 21
175.7107698623
 31
0.0
 11
167.6386981639
 21
175.7577277147
 31
0.0
  0
SPLINE
  5
2CE
100
AcDbEntity
  8
0
100
AcDbSpline
 62
7
  6
CONTINUOUS
 70
0
 71
3
 72
19
 73
15
 74
13
 42
0.0000001
 43
0.0000001
 44
0.0000000001
 12
-1.0961908538
 22
0.4620605614
 32
0.0
 13
-0.5476767742
 23
-1.0560229645
 33
0.0
 40
0.0
 40
0.0
 40
0.0
 40
0.0
 40
0.0901748942
 40
0.1817517534
 40
0.2697694403
 40
0.3541012713
 40
0.4343518522
 40
0.5105616547
 40
0.5854463879
 40
0.661942341
 40
0.7410857312
 40
0.8236482801
 40
0.9099886797
 40
1.0
 40
1.0
 40
1.0
 40
1.0
 10
150.6260582573
 20
122.8267423138
 30
0.0
 10
150.5931086258
 20
122.8406310679
 30
0.0
 10
150.5237392995
 20
122.8623353142
 30
0.0
 10
150.4160610601
 20
122.8704180156
 30
0.0
 10
150.3118782171
 20
122.8536089086
 30
0.0
 10
150.2177395525
 20
122.817811692
 30
0.0
 10
150.1348164835
 20
122.7698473786
 30
0.0
 10
150.0615618614
 20
122.7143317225
 30
0.0
 10
149.9952292569
 20
122.6529688253
 30
0.0
 10
149.9333417508
 20
122.5855785297
 30
0.0
 10
149.874458791
 20
122.5116373806
 30
0.0
 10
149.8180623901
 20
122.4309832633
 30
0.0
 10
149.7640334949
 20
122.3436259272
 30
0.0
 10
149.7303607348
 20
122.2822990768
 30
0.0
 10
149.7139283649
 20
122.250614403
 30
0.0
 11
150.6260582573
 21
122.8267423138
 31
0.0
 11
150.523492411
 21
122.8581656886
 31
0.0
 11
150.4148462115
 21
122.8661515804
 31
0.0
 11
150.3114150054
 21
122.8498668759
 31
0.0
 11
150.217441557
 21
122.8147495703
 31
0.0
 11
150.1345663276
 21
122.7673641088
 31
0.0
 11
150.062110584
 21
122.7128739985
 31
0.0
 11
149.9965505527
 21
122.6525617764
 31
0.0
 11
149.9348520652
 21
122.5856727606
 31
0.0
 11
149.8760723207
 21
122.5121276384
 31
0.0
 11
149.8196755206
 21
122.4317176287
 31
0.0
 11
149.7655491646
 21
122.3444267956
 31
0.0
 11
149.7139283649
 21
122.250614403
 31
0.0
  0
SPLINE
  5
2CF
100
AcDbEntity
  8
0
100
AcDbSpline
 62
7
  6
CONTINUOUS
 70
0
 71
3
 72
19
 73
15
 74
13
 42
0.0000001
 43
0.0000001
 44
0.0000000001
 12
0.2666689898
 22
-0.1124048999
 32
0.0
 13
0.0053470947
 23
0.2894070153
 33
0.0
 40
0.0
 40
0.0
 40
0.0
 40
0.0
 40
0.1294694079
 40
0.261459199
 40
0.3676503415
 40
0.4491884837
 40
0.5177198844
 40
0.580778119
 40
0.6433305701
 40
0.7089047411
 40
0.7801393523
 40
0.8591319045
 40
0.9476445055
 40
1.0
 40
1.0
 40
1.0
 40
1.0
 10
150.6260582573
 20
122.8267423138
 30
0.0
 10
150.6375667493
 20
122.8218913152
 30
0.0
 10
150.6613906047
 20
122.8134034832
 30
0.0
 10
150.6962824827
 20
122.806212358
 30
0.0
 10
150.7273273672
 20
122.8055545003
 30
0.0
 10
150.7517845369
 20
122.8103561015
 30
0.0
 10
150.7706732878
 20
122.8189419239
 30
0.0
 10
150.7855620546
 20
122.8305717477
 30
0.0
 10
150.7973371768
 20
122.8449355471
 30
0.0
 10
150.8065204152
 20
122.8619424172
 30
0.0
 10
150.8134213714
 20
122.8816572053
 30
0.0
 10
150.8181749277
 20
122.904241154
 30
0.0
 10
150.8203911476
 20
122.9253691095
 30
0.0
 10
150.8208589787
 20
122.9389526126
 30
0.0
 10
150.8209522953
 20
122.9440032951
 30
0.0
 11
150.6260582573
 21
122.8267423138
 31
0.0
 11
150.6614036884
 21
122.8143125636
 31
0.0
 11
150.6988914869
 21
122.8069879015
 31
0.0
 11
150.7296213603
 21
122.8067528792
 31
0.0
 11
150.7527240837
 21
122.8115544292
 31
0.0
 11
150.7707323353
 21
122.8198626228
 31
0.0
 11
150.7851228425
 21
122.8310840652
 31
0.0
 11
150.7966768973
 21
122.8450192966
 31
0.0
 11
150.8058169768
 21
122.8616496785
 31
0.0
 11
150.8127656786
 21
122.8810579208
 31
0.0
 11
150.8176191567
 21
122.9033964873
 31
0.0
 11
150.8203797056
 21
122.9288620576
 31
0.0
 11
150.8209522953
 21
122.9440032951
 31
0.0
  0
SPLINE
  5
2D0
100
AcDbEntity
  8
0
100
AcDbSpline
 62
7
  6
CONTINUOUS
 70
0
 71
3
 72
18
 73
14
 74
12
 42
0.0000001
 43
0.0000001
 44
0.0000000001
 12
0.409817534
 22
-1.712572262
 32
0.0
 13
1.3766336285
 23
1.0980592045
 33
0.0
 40
0.0
 40
0.0
 40
0.0
 40
0.0
 40
0.1396934559
 40
0.2655211325
 40
0.3787021202
 40
0.4808358179
 40
0.5726843533
 40
0.6549065309
 40
0.7306120742
 40
0.8013630679
 40
0.8661894971
 40
0.9296654616
 40
1.0
 40
1.0
 40
1.0
 40
1.0
 10
149.7139283649
 20
150.7687108147
 30
0.0
 10
149.7330113075
 20
150.6889657688
 30
0.0
 10
149.7718058413
 20
150.5379743135
 30
0.0
 10
149.8355190785
 20
150.324947602
 30
0.0
 10
149.9014945558
 20
150.1358026524
 30
0.0
 10
149.9699492981
 20
149.968894029
 30
0.0
 10
150.0413790433
 20
149.8231835963
 30
0.0
 10
150.1171378141
 20
149.6973893313
 30
0.0
 10
150.199990395
 20
149.5911839683
 30
0.0
 10
150.2935298514
 20
149.5082493517
 30
0.0
 10
150.4036454414
 20
149.4598936404
 30
0.0
 10
150.5247215587
 20
149.4694144917
 30
0.0
 10
150.5937832937
 20
149.511377678
 30
0.0
 10
150.6260582573
 20
149.5371215071
 30
0.0
 11
149.7139283649
 21
150.7687108147
 31
0.0
 11
149.7754584434
 21
150.5305408568
 31
0.0
 11
149.8393130882
 21
150.3183683303
 31
0.0
 11
149.9053840694
 21
150.1303354376
 31
0.0
 11
149.9741639394
 21
149.9641570836
 31
0.0
 11
150.0460346126
 21
149.8192644064
 31
0.0
 11
150.1216401403
 21
149.6957853115
 31
0.0
 11
150.2049322365
 21
149.591696681
 31
0.0
 11
150.3002316703
 21
149.5114472371
 31
0.0
 11
150.4062378467
 21
149.4690924907
 31
0.0
 11
150.5177280643
 21
149.477085423
 31
0.0
 11
150.6260582573
 21
149.5371215071
 31
0.0
  0
SPLINE
  5
2D1
100
AcDbEntity
  8
0
100
AcDbSpline
 62
7
  6
CONTINUOUS
 70
0
 71
3
 72
19
 73
15
 74
13
 42
0.0000001
 43
0.0000001
 44
0.0000000001
 12
-1.1598610472
 22
0.4362540565
 32
0.0
 13
-0.5031565261
 23
-1.132443712
 33
0.0
 40
0.0
 40
0.0
 40
0.0
 40
0.0
 40
0.0855327459
 40
0.1732456529
 40
0.2583507055
 40
0.3404724916
 40
0.4191113902
 40
0.494324253
 40
0.5688780006
 40
0.6458610678
 40
0.7265578249
 40
0.8120591365
 40
0.9031042408
 40
1.0
 40
1.0
 40
1.0
 40
1.0
 10
150.6260582573
 20
160.6986493409
 30
0.0
 10
150.5929895572
 20
160.7110873434
 30
0.0
 10
150.5231993094
 20
160.7296067198
 30
0.0
 10
150.4155454032
 20
160.7327794801
 30
0.0
 10
150.3115318624
 20
160.7116216158
 30
0.0
 10
150.2174664498
 20
160.6719296011
 30
0.0
 10
150.1345411037
 20
160.6200952518
 30
0.0
 10
150.0612601156
 20
160.5603696742
 30
0.0
 10
149.9948853216
 20
160.494103037
 30
0.0
 10
149.9329462057
 20
160.4207216671
 30
0.0
 10
149.8740099213
 20
160.3392777305
 30
0.0
 10
149.8175612357
 20
160.2491692097
 30
0.0
 10
149.7634863856
 20
160.1499362248
 30
0.0
 10
149.7301796095
 20
160.0797642752
 30
0.0
 10
149.7139283649
 20
160.0431879441
 30
0.0
 11
150.6260582573
 21
160.6986493409
 31
0.0
 11
150.523492411
 21
160.7253782136
 31
0.0
 11
150.4148462115
 21
160.7285701433
 31
0.0
 11
150.3114150054
 21
160.7079763982
 31
0.0
 11
150.217441557
 21
160.6689248097
 31
0.0
 11
150.1345663276
 21
160.6176614244
 31
0.0
 11
150.062110584
 21
160.5590355876
 31
0.0
 11
149.9965505527
 21
160.4939424089
 31
0.0
 11
149.9348520652
 21
160.4211836498
 31
0.0
 11
149.8760723207
 21
160.3402844123
 31
0.0
 11
149.8196755206
 21
160.2505886457
 31
0.0
 11
149.7655491646
 21
160.1515976833
 31
0.0
 11
149.7139283649
 21
160.0431879441
 31
0.0
  0
SPLINE
  5
2D2
100
AcDbEntity
  8
0
100
AcDbSpline
 62
7
  6
CONTINUOUS
 70
0
 71
3
 72
19
 73
15
 74
13
 42
0.0000001
 43
0.0000001
 44
0.0000000001
 12
0.5081900969
 22
-0.1911435786
 32
0.0
 13
0.0046541835
 23
0.5429547188
 33
0.0
 40
0.0
 40
0.0
 40
0.0
 40
0.0
 40
0.06584782
 40
0.1388437615
 40
0.2152584107
 40
0.2922214144
 40
0.3713155944
 40
0.4537429084
 40
0.5403016801
 40
0.6315879152
 40
0.7281101028
 40
0.8303501996
 40
0.9387438074
 40
1.0
 40
1.0
 40
1.0
 40
1.0
 10
150.6260582573
 20
160.6986493409
 30
0.0
 10
150.6372126606
 20
160.6944538783
 30
0.0
 10
150.6630065351
 20
160.6899848256
 30
0.0
 10
150.7011016032
 20
160.7041359949
 30
0.0
 10
150.7309752607
 20
160.7331367467
 30
0.0
 10
150.7538282163
 20
160.7686848891
 30
0.0
 10
150.7716511214
 20
160.8081150162
 30
0.0
 10
150.7859016661
 20
160.850748467
 30
0.0
 10
150.7973471885
 20
160.8964801431
 30
0.0
 10
150.8064011271
 20
160.9453296018
 30
0.0
 10
150.8132834522
 20
160.9973910228
 30
0.0
 10
150.8180678259
 20
161.0527902945
 30
0.0
 10
150.8203698853
 20
161.1019580357
 30
0.0
 10
150.8208526844
 20
161.132659387
 30
0.0
 10
150.8209477169
 20
161.1437458332
 30
0.0
 11
150.6260582573
 21
160.6986493409
 31
0.0
 11
150.6614036884
 21
160.6932730892
 31
0.0
 11
150.6988914869
 21
160.706135531
 31
0.0
 11
150.7296213603
 21
160.734010789
 31
0.0
 11
150.7527240837
 21
160.7688305098
 31
0.0
 11
150.7707323353
 21
160.8078163472
 31
0.0
 11
150.7851228425
 21
160.8501933987
 31
0.0
 11
150.7966768973
 21
160.8957479526
 31
0.0
 11
150.8058169768
 21
160.9444616208
 31
0.0
 11
150.8127656786
 21
160.9964054804
 31
0.0
 11
150.8176191567
 21
161.0517040017
 31
0.0
 11
150.8203797056
 21
161.1104913658
 31
0.0
 11
150.8209477169
 21
161.1437458332
 31
0.0
  0
SPLINE
  5
2D3
100
AcDbEntity
  8
0
100
AcDbSpline
 62
7
  6
CONTINUOUS
 70
0
 71
3
 72
13
 73
9
 74
7
 42
0.0000001
 43
0.0000001
 44
0.0000000001
 12
0.7203275019
 22
0.0
 32
0.0
 13
0.1900667622
 23
-0.6947994934
 33
0.0
 40
0.0
 40
0.0
 40
0.0
 40
0.0
 40
0.1387763998
 40
0.288072023
 40
0.445122262
 40
0.6153059069
 40
0.8003085484
 40
1.0
 40
1.0
 40
1.0
 40
1.0
 10
164.4823600115
 20
135.0049497394
 30
0.0
 10
164.5156814973
 20
135.0049497394
 30
0.0
 10
164.58539731
 20
134.9899191571
 30
0.0
 10
164.6762950007
 20
134.93064476
 30
0.0
 10
164.7539911097
 20
134.8455442649
 30
0.0
 10
164.819531223
 20
134.7408860512
 30
0.0
 10
164.8742993911
 20
134.6190863781
 30
0.0
 10
164.9027211442
 20
134.5310069415
 30
0.0
 10
164.9153727134
 20
134.484758435
 30
0.0
 11
164.4823600115
 21
135.0049497394
 31
0.0
 11
164.5803244801
 21
134.9850536182
 31
0.0
 11
164.6717165237
 21
134.9283727491
 31
0.0
 11
164.749204392
 21
134.8459501455
 31
0.0
 11
164.8152503978
 21
134.7426751098
 31
0.0
 11
164.8706411905
 21
134.6214696995
 31
0.0
 11
164.9153727134
 21
134.484758435
 31
0.0
  0
SPLINE
  5
2D4
100
AcDbEntity
  8
0
100
AcDbSpline
 62
7
  6
CONTINUOUS
 70
0
 71
3
 72
13
 73
9
 74
7
 42
0.0000001
 43
0.0000001
 44
0.0000000001
 12
-0.3049982624
 22
-0.3678477926
 32
0.0
 13
-0.477845099
 23
-0.0
 33
0.0
 40
0.0
 40
0.0
 40
0.0
 40
0.0
 40
0.1324623252
 40
0.2741987882
 40
0.4270001761
 40
0.5971482882
 40
0.7928154962
 40
1.0
 40
1.0
 40
1.0
 40
1.0
 10
164.9153727134
 20
114.4402162075
 30
0.0
 10
164.9019057871
 20
114.4239742162
 30
0.0
 10
164.8706739384
 20
114.3930380699
 30
0.0
 10
164.814681861
 20
114.3539496825
 30
0.0
 10
164.7480803247
 20
114.3210824619
 30
0.0
 10
164.6694739593
 20
114.2949165305
 30
0.0
 10
164.5796059436
 20
114.2776094397
 30
0.0
 10
164.5153607115
 20
114.2735782936
 30
0.0
 10
164.4823600115
 20
114.2735782936
 30
0.0
 11
164.9153727134
 21
114.4402162075
 31
0.0
 11
164.8706279274
 21
114.3954462667
 31
0.0
 11
164.8153008871
 21
114.3563820804
 31
0.0
 11
164.7499705882
 21
114.3237753349
 31
0.0
 11
164.6729249263
 21
114.2978065424
 31
0.0
 11
164.58116155
 21
114.2798768453
 31
0.0
 11
164.4823600115
 21
114.2735782936
 31
0.0
  0
SPLINE
  5
2D5
100
AcDbEntity
  8
0
100
AcDbSpline
 62
7
  6
CONTINUOUS
 70
0
 71
3
 72
13
 73
9
 74
7
 42
0.0000001
 43
0.0000001
 44
0.0000000001
 12
0.1900775463
 22
0.6948389151
 32
0.0
 13
0.7203683721
 23
0.0
 33
0.0
 40
0.0
 40
0.0
 40
0.0
 40
0.0
 40
0.2015287248
 40
0.3877112674
 40
0.5599901595
 40
0.7199029848
 40
0.8656779275
 40
1.0
 40
1.0
 40
1.0
 40
1.0
 10
161.1266975788
 20
134.484758435
 30
0.0
 10
161.139466274
 20
134.5314351018
 30
0.0
 10
161.1681496055
 20
134.6202021047
 30
0.0
 10
161.2236190964
 20
134.7430527468
 30
0.0
 10
161.2903294137
 20
134.8487445276
 30
0.0
 10
161.3690304515
 20
134.9335133999
 30
0.0
 10
161.459681246
 20
134.9908480034
 30
0.0
 10
161.5274564898
 20
135.0049497394
 30
0.0
 10
161.5597102807
 20
135.0049497394
 30
0.0
 11
161.1266975788
 21
134.484758435
 31
0.0
 11
161.1719114249
 21
134.6227130121
 31
0.0
 11
161.2278622727
 21
134.7446051
 31
0.0
 11
161.2951342931
 21
134.8488948113
 31
0.0
 11
161.3748184715
 21
134.9320848514
 31
0.0
 11
161.464768263
 21
134.9862741802
 31
0.0
 11
161.5597102807
 21
135.0049497394
 31
0.0
  0
SPLINE
  5
2D6
100
AcDbEntity
  8
0
100
AcDbSpline
 62
7
  6
CONTINUOUS
 70
0
 71
3
 72
13
 73
9
 74
7
 42
0.0000001
 43
0.0000001
 44
0.0000000001
 12
-0.4778450164
 22
0.0
 32
0.0
 13
-0.3049982097
 23
0.367847729
 33
0.0
 40
0.0
 40
0.0
 40
0.0
 40
0.0
 40
0.1998651161
 40
0.3922978148
 40
0.56815018
 40
0.7246192787
 40
0.867241436
 40
1.0
 40
1.0
 40
1.0
 40
1.0
 10
161.5597102807
 20
114.2735782936
 30
0.0
 10
161.5278754308
 20
114.2735782936
 30
0.0
 10
161.4653190483
 20
114.2773666407
 30
0.0
 10
161.3761254425
 20
114.2940021579
 30
0.0
 10
161.2964149695
 20
114.3199948771
 30
0.0
 10
161.2282341295
 20
114.3533906449
 30
0.0
 10
161.1715686875
 20
114.3928745003
 30
0.0
 10
161.1401946203
 20
114.4239378954
 30
0.0
 10
161.1266975788
 20
114.4402162075
 30
0.0
 11
161.5597102807
 21
114.2735782936
 31
0.0
 11
161.464385575
 21
114.2794365764
 31
0.0
 11
161.374034182
 21
114.2965240315
 31
0.0
 11
161.2942471762
 21
114.322888861
 31
0.0
 11
161.2272564351
 21
114.3560926454
 31
0.0
 11
161.1715512532
 21
114.3953549765
 31
0.0
 11
161.1266975788
 21
114.4402162075
 31
0.0
  0
SPLINE
  5
2D7
100
AcDbEntity
  8
0
100
AcDbSpline
 62
7
  6
CONTINUOUS
 70
0
 71
3
 72
13
 73
9
 74
7
 42
0.0000001
 43
0.0000001
 44
0.0000000001
 12
0.477845099
 22
0.0
 32
0.0
 13
0.3049982624
 23
-0.3678477926
 33
0.0
 40
0.0
 40
0.0
 40
0.0
 40
0.0
 40
0.2071845038
 40
0.4028517118
 40
0.5729998239
 40
0.7258012118
 40
0.8675376748
 40
1.0
 40
1.0
 40
1.0
 40
1.0
 10
164.4823600115
 20
174.4347638143
 30
0.0
 10
164.5153607115
 20
174.4347638143
 30
0.0
 10
164.5796059436
 20
174.4307326682
 30
0.0
 10
164.6694739593
 20
174.4134255774
 30
0.0
 10
164.7480803247
 20
174.387259646
 30
0.0
 10
164.814681861
 20
174.3543924254
 30
0.0
 10
164.8706739384
 20
174.315304038
 30
0.0
 10
164.9019057871
 20
174.2843678917
 30
0.0
 10
164.9153727134
 20
174.2681259004
 30
0.0
 11
164.4823600115
 21
174.4347638143
 31
0.0
 11
164.58116155
 21
174.4284652626
 31
0.0
 11
164.6729249263
 21
174.4105355655
 31
0.0
 11
164.7499705882
 21
174.384566773
 31
0.0
 11
164.8153008871
 21
174.3519600275
 31
0.0
 11
164.8706279274
 21
174.3128958412
 31
0.0
 11
164.9153727134
 21
174.2681259004
 31
0.0
  0
SPLINE
  5
2D8
100
AcDbEntity
  8
0
100
AcDbSpline
 62
7
  6
CONTINUOUS
 70
0
 71
3
 72
13
 73
9
 74
7
 42
0.0000001
 43
0.0000001
 44
0.0000000001
 12
-0.1900663585
 22
-0.6947980175
 32
0.0
 13
-0.7203259719
 23
0.0
 33
0.0
 40
0.0
 40
0.0
 40
0.0
 40
0.0
 40
0.199711992
 40
0.3847461209
 40
0.5546856245
 40
0.7116358843
 40
0.8610505792
 40
1.0
 40
1.0
 40
1.0
 40
1.0
 10
164.9153727134
 20
154.2235836729
 30
0.0
 10
164.9027198697
 20
154.1773305075
 30
0.0
 10
164.8742939324
 20
154.0892395038
 30
0.0
 10
164.8195421129
 20
153.967483066
 30
0.0
 10
164.7540475921
 20
153.8628873003
 30
0.0
 10
164.6764162451
 20
153.7778053876
 30
0.0
 10
164.5855098789
 20
153.7184587558
 30
0.0
 10
164.5157229704
 20
153.7033923685
 30
0.0
 10
164.4823600115
 20
153.7033923685
 30
0.0
 11
164.9153727134
 21
154.2235836729
 31
0.0
 11
164.8706359495
 21
154.0868588771
 31
0.0
 11
164.815232871
 21
153.9656344552
 31
0.0
 11
164.7492893484
 21
153.8625029375
 31
0.0
 11
164.6718791307
 21
153.7801065176
 31
0.0
 11
164.5804416627
 21
153.7233366139
 31
0.0
 11
164.4823600115
 21
153.7033923685
 31
0.0
  0
SPLINE
  5
2D9
100
AcDbEntity
  8
0
100
AcDbSpline
 62
7
  6
CONTINUOUS
 70
0
 71
3
 72
13
 73
9
 74
7
 42
0.0000001
 43
0.0000001
 44
0.0000000001
 12
0.3049982097
 22
0.367847729
 32
0.0
 13
0.4778450164
 23
0.0
 33
0.0
 40
0.0
 40
0.0
 40
0.0
 40
0.0
 40
0.132758564
 40
0.2753807213
 40
0.43184982
 40
0.6077021852
 40
0.8001348839
 40
1.0
 40
1.0
 40
1.0
 40
1.0
 10
161.1266975788
 20
174.2681259004
 30
0.0
 10
161.1401946203
 20
174.2844042125
 30
0.0
 10
161.1715686875
 20
174.3154676076
 30
0.0
 10
161.2282341295
 20
174.354951463
 30
0.0
 10
161.2964149695
 20
174.3883472308
 30
0.0
 10
161.3761254425
 20
174.41433995
 30
0.0
 10
161.4653190483
 20
174.4309754672
 30
0.0
 10
161.5278754308
 20
174.4347638143
 30
0.0
 10
161.5597102807
 20
174.4347638143
 30
0.0
 11
161.1266975788
 21
174.2681259004
 31
0.0
 11
161.1715512532
 21
174.3129871314
 31
0.0
 11
161.2272564351
 21
174.3522494625
 31
0.0
 11
161.2942471762
 21
174.3854532469
 31
0.0
 11
161.374034182
 21
174.4118180764
 31
0.0
 11
161.464385575
 21
174.4289055315
 31
0.0
 11
161.5597102807
 21
174.4347638143
 31
0.0
  0
SPLINE
  5
2DA
100
AcDbEntity
  8
0
100
AcDbSpline
 62
7
  6
CONTINUOUS
 70
0
 71
3
 72
13
 73
9
 74
7
 42
0.0000001
 43
0.0000001
 44
0.0000000001
 12
-0.7203674192
 22
0.0
 32
0.0
 13
-0.1900772948
 23
0.694837996
 33
0.0
 40
0.0
 40
0.0
 40
0.0
 40
0.0
 40
0.1343868008
 40
0.2802786193
 40
0.4402396748
 40
0.6124129695
 40
0.7985154818
 40
1.0
 40
1.0
 40
1.0
 40
1.0
 10
161.5597102807
 20
153.7033923685
 30
0.0
 10
161.5274409898
 20
153.7033923685
 30
0.0
 10
161.4596217109
 20
153.7175106664
 30
0.0
 10
161.3689386391
 20
153.7749019629
 30
0.0
 10
161.2902526827
 20
153.8597031598
 30
0.0
 10
161.2235768161
 20
153.9653759952
 30
0.0
 10
161.1681366593
 20
154.0881786707
 30
0.0
 10
161.1394634562
 20
154.1769173066
 30
0.0
 10
161.1266975788
 20
154.2235836729
 30
0.0
 11
161.5597102807
 21
153.7033923685
 31
0.0
 11
161.4647243077
 21
153.7220853932
 31
0.0
 11
161.3747163321
 21
153.7763410214
 31
0.0
 11
161.2950322296
 21
153.8595790268
 31
0.0
 11
161.2278193881
 21
153.9638161923
 31
0.0
 11
161.1718998054
 21
154.0856590014
 31
0.0
 11
161.1266975788
 21
154.2235836729
 31
0.0
  0
SPLINE
  5
2DB
100
AcDbEntity
  8
0
100
AcDbSpline
 62
7
  6
CONTINUOUS
 70
0
 71
3
 72
18
 73
14
 74
12
 42
0.0000001
 43
0.0000001
 44
0.0000000001
 12
0.0005132076
 22
0.7228642077
 32
0.0
 13
-0.5651042932
 23
-0.4507502634
 33
0.0
 40
0.0
 40
0.0
 40
0.0
 40
0.0
 40
0.1382371981
 40
0.2640420342
 40
0.379262431
 40
0.484640715
 40
0.5808395807
 40
0.6684151417
 40
0.7478178666
 40
0.8193210725
 40
0.8833512777
 40
0.9407208693
 40
1.0
 40
1.0
 40
1.0
 40
1.0
 10
150.8210433029
 20
148.9311265645
 30
0.0
 10
150.821066951
 20
148.9644354721
 30
0.0
 10
150.8207792285
 20
149.0280628307
 30
0.0
 10
150.8174949263
 20
149.1194033637
 30
0.0
 10
150.8118179581
 20
149.20269412
 30
0.0
 10
150.8036437275
 20
149.2786087667
 30
0.0
 10
150.7928456521
 20
149.347483002
 30
0.0
 10
150.7790602732
 20
149.4094054257
 30
0.0
 10
150.7616884859
 20
149.4643872913
 30
0.0
 10
150.7392323081
 20
149.5110391493
 30
0.0
 10
150.7094935148
 20
149.5486301656
 30
0.0
 10
150.6634143713
 20
149.5613275719
 30
0.0
 10
150.6372245543
 20
149.5460282017
 30
0.0
 10
150.6260582573
 20
149.5371215071
 30
0.0
 11
150.8210433029
 21
148.9311265645
 31
0.0
 11
150.8202178155
 21
149.0310487908
 31
0.0
 11
150.8168957716
 21
149.1219266872
 31
0.0
 11
150.8110901
 21
149.2050116798
 31
0.0
 11
150.8027710889
 21
149.2807292192
 31
0.0
 11
150.7917664275
 21
149.349390715
 31
0.0
 11
150.7776923016
 21
149.411110767
 31
0.0
 11
150.7597913587
 21
149.4656445006
 31
0.0
 11
150.7365772385
 21
149.5118244768
 31
0.0
 11
150.7050601821
 21
149.5457203803
 31
0.0
 11
150.6647623443
 21
149.5555098794
 31
0.0
 11
150.6260582573
 21
149.5371215071
 31
0.0
  0
SPLINE
  5
2DC
100
AcDbEntity
  8
0
100
AcDbSpline
 62
7
  6
CONTINUOUS
 70
0
 71
3
 72
37
 73
33
 74
31
 42
0.0000001
 43
0.0000001
 44
0.0000000001
 12
0.0
 22
-1.2636009951
 32
0.0
 13
1.263250387
 23
-0.0297646533
 33
0.0
 40
0.0
 40
0.0
 40
0.0
 40
0.0
 40
0.0994383941
 40
0.1879658911
 40
0.2669223888
 40
0.3374839584
 40
0.4006584854
 40
0.4573224709
 40
0.5082394768
 40
0.5540768414
 40
0.5954186601
 40
0.6327774292
 40
0.6666040103
 40
0.6972960723
 40
0.7252053171
 40
0.7506436909
 40
0.7738888531
 40
0.7951890361
 40
0.8147671175
 40
0.8328244029
 40
0.8495443031
 40
0.8650959523
 40
0.8796380638
 40
0.8933233069
 40
0.9063037289
 40
0.9187396899
 40
0.9308137345
 40
0.9427534253
 40
0.954881614
 40
0.967733314
 40
0.9823409046
 40
1.0
 40
1.0
 40
1.0
 40
1.0
 10
148.8210982352
 20
122.6717691747
 30
0.0
 10
148.8210982352
 20
122.6298856901
 30
0.0
 10
148.8211170275
 20
122.5507143914
 30
0.0
 10
148.8212571621
 20
122.4382866408
 30
0.0
 10
148.8216134605
 20
122.3380222469
 30
0.0
 10
148.8223017373
 20
122.2484383138
 30
0.0
 10
148.8234215109
 20
122.1682488295
 30
0.0
 10
148.8250462024
 20
122.0963437531
 30
0.0
 10
148.8272221839
 20
122.0317589099
 30
0.0
 10
148.8299719339
 20
121.9736556443
 30
0.0
 10
148.8332987146
 20
121.9213031606
 30
0.0
 10
148.8371913932
 20
121.8740636274
 30
0.0
 10
148.8416288275
 20
121.8313791956
 30
0.0
 10
148.8465835941
 20
121.7927609341
 30
0.0
 10
148.8520250463
 20
121.7577794403
 30
0.0
 10
148.8579217849
 20
121.7260568243
 30
0.0
 10
148.8642436743
 20
121.697259834
 30
0.0
 10
148.8709635187
 20
121.6710940528
 30
0.0
 10
148.8780585218
 20
121.6472990167
 30
0.0
 10
148.8855116664
 20
121.6256440959
 30
0.0
 10
148.8933132148
 20
121.6059249374
 30
0.0
 10
148.9014625693
 20
121.5879604229
 30
0.0
 10
148.9099708035
 20
121.5715901723
 30
0.0
 10
148.9188643795
 20
121.5566726544
 30
0.0
 10
148.9281912305
 20
121.5430835885
 30
0.0
 10
148.9380313506
 20
121.5307149222
 30
0.0
 10
148.9485156733
 20
121.5194755381
 30
0.0
 10
148.9598641094
 20
121.5092947865
 30
0.0
 10
148.9724681776
 20
121.5001333777
 30
0.0
 10
148.9870997006
 20
121.4920291891
 30
0.0
 10
149.0050216211
 20
121.4854521684
 30
0.0
 10
149.0186223042
 20
121.4834608681
 30
0.0
 10
149.0260582573
 20
121.4832856624
 30
0.0
 11
148.8210982352
 21
122.6717691747
 31
0.0
 11
148.8211404768
 21
122.5461187281
 31
0.0
 11
148.8213076589
 21
122.4342554197
 31
0.0
 11
148.8216985435
 21
122.3344866764
 31
0.0
 11
148.8224241195
 21
122.2453279591
 31
0.0
 11
148.8235808101
 21
122.1655089446
 31
0.0
 11
148.8252402198
 21
122.0939275078
 31
0.0
 11
148.8274477264
 21
122.0296266102
 31
0.0
 11
148.8302253596
 21
121.9717731114
 31
0.0
 11
148.8335762496
 21
121.9196411298
 31
0.0
 11
148.8374893211
 21
121.8725970137
 31
0.0
 11
148.8419435973
 21
121.8300864356
 31
0.0
 11
148.8469118736
 21
121.7916234652
 31
0.0
 11
148.8523637411
 21
121.7567812718
 31
0.0
 11
148.8582680277
 21
121.7251842275
 31
0.0
 11
148.8645947934
 21
121.696501092
 31
0.0
 11
148.8713170204
 21
121.6704391418
 31
0.0
 11
148.878412026
 21
121.6467394955
 31
0.0
 11
148.885862804
 21
121.6251730702
 31
0.0
 11
148.8936594956
 21
121.6055370405
 31
0.0
 11
148.9018011687
 21
121.5876519047
 31
0.0
 11
148.9102982376
 21
121.5713590804
 31
0.0
 11
148.9191759691
 21
121.5565191715
 31
0.0
 11
148.9284798155
 21
121.5430111561
 31
0.0
 11
148.9382851474
 21
121.5307315724
 31
0.0
 11
148.9487143346
 21
121.5195959885
 31
0.0
 11
148.9599671911
 21
121.5095465633
 31
0.0
 11
148.9723872734
 21
121.5005686433
 31
0.0
 11
148.9866168575
 21
121.4927431896
 31
0.0
 11
149.003970125
 21
121.4864528796
 31
0.0
 11
149.0260582573
 21
121.4832856624
 31
0.0
  0
SPLINE
  5
2DD
100
AcDbEntity
  8
0
100
AcDbSpline
 62
7
  6
CONTINUOUS
 70
0
 71
3
 72
9
 73
5
 74
3
 42
0.0000001
 43
0.0000001
 44
0.0000000001
 12
-0.2436717594
 22
-0.5481911312
 32
0.0
 13
-0.0000000058
 23
0.0000000027
 33
0.0
 40
0.0
 40
0.0
 40
0.0
 40
0.0
 40
0.7496750828
 40
1.0
 40
1.0
 40
1.0
 40
1.0
 10
149.274063897
 20
121.4774421786
 30
0.0
 10
149.2131723482
 20
121.3404537681
 30
0.0
 10
149.1623983017
 20
121.2262178001
 30
0.0
 10
149.0314367784
 20
120.9287862479
 30
0.0
 10
149.0314367779
 20
120.9287862481
 30
0.0
 11
149.274063897
 21
121.4774421786
 31
0.0
 11
149.0919778904
 21
121.0662158002
 31
0.0
 11
149.0314367779
 21
120.9287862481
 31
0.0
  0
SPLINE
  5
2DE
100
AcDbEntity
  8
0
100
AcDbSpline
 62
7
  6
CONTINUOUS
 70
0
 71
3
 72
37
 73
33
 74
31
 42
0.0000001
 43
0.0000001
 44
0.0000000001
 12
-2.9990774004
 22
-0.0122655304
 32
0.0
 13
0.0
 23
-2.9991024819
 33
0.0
 40
0.0
 40
0.0
 40
0.0
 40
0.0
 40
0.0079846225
 40
0.0167516411
 40
0.0263349816
 40
0.0367789046
 40
0.0481394116
 40
0.0604801785
 40
0.0738729537
 40
0.0883975469
 40
0.1041419259
 40
0.121202624
 40
0.1396852203
 40
0.1597046692
 40
0.1813861433
 40
0.2048661902
 40
0.2302935209
 40
0.2578300669
 40
0.2876520228
 40
0.3199507995
 40
0.354934683
 40
0.3928308339
 40
0.4338872223
 40
0.4783747507
 40
0.5265896044
 40
0.5788558343
 40
0.6355282813
 40
0.6969945872
 40
0.7636799807
 40
0.8360453454
 40
0.9146044341
 40
1.0
 40
1.0
 40
1.0
 40
1.0
 10
149.0260582573
 20
152.5401142407
 30
0.0
 10
149.0180760903
 20
152.5400815955
 30
0.0
 10
149.0017735675
 20
152.5317923492
 30
0.0
 10
148.9855234265
 20
152.5109951602
 30
0.0
 10
148.9715030293
 20
152.4857343556
 30
0.0
 10
148.9593118961
 20
152.4567899077
 30
0.0
 10
148.9481614732
 20
152.4245077627
 30
0.0
 10
148.9378109391
 20
152.3888868858
 30
0.0
 10
148.9280565018
 20
152.3498328824
 30
0.0
 10
148.9187914121
 20
152.3071730149
 30
0.0
 10
148.9099430893
 20
152.2606877218
 30
0.0
 10
148.9014691774
 20
152.2101168452
 30
0.0
 10
148.893345969
 20
152.155164866
 30
0.0
 10
148.8855642998
 20
152.0955020838
 30
0.0
 10
148.8781259346
 20
152.0307642609
 30
0.0
 10
148.871041375
 20
151.9605509986
 30
0.0
 10
148.8643281484
 20
151.8844235266
 30
0.0
 10
148.8580094483
 20
151.8019023418
 30
0.0
 10
148.8521128354
 20
151.712464522
 30
0.0
 10
148.8466688169
 20
151.6155403239
 30
0.0
 10
148.8417091733
 20
151.5105087381
 30
0.0
 10
148.8372649357
 20
151.3966919893
 30
0.0
 10
148.8333639191
 20
151.2733495094
 30
0.0
 10
148.8300276823
 20
151.1396715022
 30
0.0
 10
148.8272678164
 20
150.994771808
 30
0.0
 10
148.8250815674
 20
150.8376799233
 30
0.0
 10
148.8234470195
 20
150.6673333328
 30
0.0
 10
148.8223183952
 20
150.4825676427
 30
0.0
 10
148.8216228834
 20
150.2821116142
 30
0.0
 10
148.8212614253
 20
150.0645671017
 30
0.0
 10
148.8211183207
 20
149.8283178078
 30
0.0
 10
148.8210982352
 20
149.6644122024
 30
0.0
 10
148.8210982352
 20
149.5790421845
 30
0.0
 11
149.0260582573
 21
152.5401142407
 31
0.0
 11
149.00389038
 21
152.531057215
 31
0.0
 11
148.9865722318
 21
152.5112730436
 31
0.0
 11
148.9723738145
 21
152.4862835622
 31
0.0
 11
148.9599772767
 21
152.4575186824
 31
0.0
 11
148.9487403703
 21
152.4253536843
 31
0.0
 11
148.9383219041
 21
152.3898390913
 31
0.0
 11
148.9285241006
 21
152.3508861051
 31
0.0
 11
148.9192262406
 21
152.3083292237
 31
0.0
 11
148.9103533576
 21
152.2619513572
 31
0.0
 11
148.9018599
 21
152.2114944373
 31
0.0
 11
148.8937205974
 21
152.1566640649
 31
0.0
 11
148.8859250929
 21
152.0971319122
 31
0.0
 11
148.8784743605
 21
152.0325352221
 31
0.0
 11
148.8713782234
 21
151.9624746067
 31
0.0
 11
148.864653678
 21
151.8865125004
 31
0.0
 11
148.858323451
 21
151.8041705439
 31
0.0
 11
148.8524146721
 21
151.7149268367
 31
0.0
 11
148.846957487
 21
151.6182133372
 31
0.0
 11
148.8419833304
 21
151.5134110615
 31
0.0
 11
148.837522877
 21
151.399844182
 31
0.0
 11
148.8336035922
 21
151.2767742565
 31
0.0
 11
148.8302467078
 21
151.1433938357
 31
0.0
 11
148.8274635404
 21
150.998819335
 31
0.0
 11
148.8252511788
 21
150.8420831682
 31
0.0
 11
148.8235877653
 21
150.6721248317
 31
0.0
 11
148.8224280343
 21
150.487784729
 31
0.0
 11
148.8217003918
 21
150.2877897236
 31
0.0
 11
148.8213083363
 21
150.0707589329
 31
0.0
 11
148.8211406433
 21
149.8351522347
 31
0.0
 11
148.8210982352
 21
149.5790421845
 31
0.0
  0
SPLINE
  5
2DF
100
AcDbEntity
  8
0
100
AcDbSpline
 62
7
  6
CONTINUOUS
 70
0
 71
3
 72
37
 73
33
 74
31
 42
0.0000001
 43
0.0000001
 44
0.0000000001
 12
0.0
 22
-1.8218331039
 32
0.0
 13
1.8214878133
 23
0.0354683581
 33
0.0
 40
0.0
 40
0.0
 40
0.0
 40
0.0
 40
0.0713640368
 40
0.1392091869
 40
0.2035064112
 40
0.2642915734
 40
0.3216283169
 40
0.3756088326
 40
0.4263453488
 40
0.4739643876
 40
0.518601156
 40
0.5603957367
 40
0.5994902656
 40
0.6360267596
 40
0.6701454944
 40
0.7019837958
 40
0.7316752655
 40
0.7593493458
 40
0.785130747
 40
0.8091391416
 40
0.8314891754
 40
0.8522906239
 40
0.8716487797
 40
0.8896650121
 40
0.9064374868
 40
0.922063971
 40
0.9366458594
 40
0.9502932607
 40
0.9631416216
 40
0.9753956562
 40
0.987461384
 40
1.0
 40
1.0
 40
1.0
 40
1.0
 10
148.8210982352
 20
160.8117018026
 30
0.0
 10
148.8210982352
 20
160.7683640143
 30
0.0
 10
148.8211195067
 20
160.6838253764
 30
0.0
 10
148.8212642629
 20
160.5602405214
 30
0.0
 10
148.8216278688
 20
160.4430803738
 30
0.0
 10
148.8223252104
 20
160.3323032301
 30
0.0
 10
148.8234547838
 20
160.2277949112
 30
0.0
 10
148.8250890692
 20
160.129396166
 30
0.0
 10
148.8272737303
 20
160.036910782
 30
0.0
 10
148.830030757
 20
159.950117424
 30
0.0
 10
148.833363102
 20
159.8687785713
 30
0.0
 10
148.8372594544
 20
159.7926477006
 30
0.0
 10
148.8416985794
 20
159.7214744449
 30
0.0
 10
148.8466530101
 20
159.6550085019
 30
0.0
 10
148.852092073
 20
159.5930026479
 30
0.0
 10
148.8579843336
 20
159.5352149886
 30
0.0
 10
148.8642995868
 20
159.481410579
 30
0.0
 10
148.8710105047
 20
159.4313627557
 30
0.0
 10
148.8780940626
 20
159.3848543026
 30
0.0
 10
148.8855328718
 20
159.3416785016
 30
0.0
 10
148.8933166099
 20
159.3016399636
 30
0.0
 10
148.9014437731
 20
159.2645553884
 30
0.0
 10
148.9099240071
 20
159.2302545315
 30
0.0
 10
148.9187815449
 20
159.1985818205
 30
0.0
 10
148.9280605182
 20
159.1693980269
 30
0.0
 10
148.9378348698
 20
159.142583746
 30
0.0
 10
148.9482228956
 20
159.1180448725
 30
0.0
 10
148.9594258127
 20
159.0957322364
 30
0.0
 10
148.9717769258
 20
159.0756536631
 30
0.0
 10
148.9860028258
 20
159.058020331
 30
0.0
 10
149.0033453882
 20
159.0435195557
 30
0.0
 10
149.0184452785
 20
159.0389650173
 30
0.0
 10
149.0260582573
 20
159.0391132587
 30
0.0
 11
148.8210982352
 21
160.8117018026
 31
0.0
 11
148.8211404768
 21
160.6816884447
 31
0.0
 11
148.8213076589
 21
160.5580860174
 31
0.0
 11
148.8216985435
 21
160.440947858
 31
0.0
 11
148.8224241195
 21
160.3302098141
 31
0.0
 11
148.8235808101
 21
160.2257582412
 31
0.0
 11
148.8252402198
 21
160.1274287518
 31
0.0
 11
148.8274477264
 21
160.0350216507
 31
0.0
 11
148.8302253596
 21
159.9483121872
 31
0.0
 11
148.8335762496
 21
159.8670605123
 31
0.0
 11
148.8374893211
 21
159.7910183769
 31
0.0
 11
148.8419435973
 21
159.7199340899
 31
0.0
 11
148.8469118736
 21
159.6535563702
 31
0.0
 11
148.8523637411
 21
159.59163728
 31
0.0
 11
148.8582680277
 21
159.5339344922
 31
0.0
 11
148.8645947934
 21
159.4802128568
 31
0.0
 11
148.8713170204
 21
159.4302454515
 31
0.0
 11
148.878412026
 21
159.3838150048
 31
0.0
 11
148.885862804
 21
159.3407149906
 31
0.0
 11
148.8936594956
 21
159.3007503851
 31
0.0
 11
148.9018011687
 21
159.2637385203
 31
0.0
 11
148.9102982376
 21
159.2295101064
 31
0.0
 11
148.9191759691
 21
159.1979109466
 31
0.0
 11
148.9284798155
 21
159.168805152
 31
0.0
 11
148.9382851474
 21
159.1420781867
 31
0.0
 11
148.9487143346
 21
159.1176451758
 31
0.0
 11
148.9599671911
 21
159.095474107
 31
0.0
 11
148.9723872734
 21
159.0756333446
 31
0.0
 11
148.9866168575
 21
159.0584311387
 31
0.0
 11
149.003970125
 21
159.0449381366
 31
0.0
 11
149.0260582573
 21
159.0391132587
 31
0.0
  0
SPLINE
  5
2E0
100
AcDbEntity
  8
0
100
AcDbSpline
 62
7
  6
CONTINUOUS
 70
0
 71
3
 72
11
 73
7
 74
5
 42
0.0000001
 43
0.0000001
 44
0.0000000001
 12
-1.1884597782
 22
-6.4167683936
 32
0.0
 13
0.8459774805
 23
-6.4708326639
 33
0.0
 40
0.0
 40
0.0
 40
0.0
 40
0.0
 40
0.2171857043
 40
0.4581685493
 40
0.7201990008
 40
1.0
 40
1.0
 40
1.0
 40
1.0
 10
149.274063897
 20
159.0439424866
 30
0.0
 10
149.1880250723
 20
158.5793990324
 30
0.0
 10
149.0659801529
 20
157.5881546125
 30
0.0
 10
149.0116556014
 20
156.0210279426
 30
0.0
 10
149.0759706023
 20
154.3180936705
 30
0.0
 10
149.1951621155
 20
153.1446436449
 30
0.0
 10
149.274063897
 20
152.5411284966
 30
0.0
 11
149.274063897
 21
159.0439424866
 31
0.0
 11
149.0919774786
 21
157.6383556915
 31
0.0
 11
149.0314367779
 21
156.0668918013
 31
0.0
 11
149.0919749449
 21
154.3579795751
 31
0.0
 11
149.274063897
 21
152.5411284966
 31
0.0
  0
ELLIPSE
  5
2E1
100
AcDbEntity
  8
0
100
AcDbEllipse
 62
7
  6
CONTINUOUS
 10
148.6738809568
 20
144.3541710539
 30
0.0
 11
14.7536831607
 21
31.0932549156
 31
0.0
 40
0.3419987131
 41
-1.0912395858
 42
-0.1578061866
  0
ELLIPSE
  5
2E2
100
AcDbEntity
  8
0
100
AcDbEllipse
 62
7
  6
CONTINUOUS
 10
177.3681893355
 20
144.3541710539
 30
0.0
 11
-14.7536831607
 21
31.0932549156
 31
0.0
 40
0.3419987131
 41
0.1578061866
 42
1.0912395858
  0
ELLIPSE
  5
2E3
100
AcDbEntity
  8
0
100
AcDbEllipse
 62
7
  6
CONTINUOUS
 10
177.3681893355
 20
144.3541710539
 30
0.0
 11
14.7536831607
 21
31.0932549156
 31
0.0
 40
0.3419987131
 41
-4.2328322393
 42
-3.2993988402
  0
ELLIPSE
  5
2E4
100
AcDbEntity
  8
0
100
AcDbEllipse
 62
7
  6
CONTINUOUS
 10
148.6738809568
 20
144.3541710539
 30
0.0
 11
-14.7536831607
 21
31.0932549156
 31
0.0
 40
0.3419987131
 41
-2.9837864669
 42
-2.0503530678
  0
ENDSEC
  0
SECTION
  2
OBJECTS
  0
DICTIONARY
  5
C
100
AcDbDictionary
280
0
281
1
  3
ACAD_GROUP
350
D
  3
ACAD_MLINESTYLE
350
17
  3
ACAD_LAYOUT
350
1A
  3
ACAD_PLOTSETTINGS
350
19
  3
ACAD_PLOTSTYLENAME
350
E
  0
DICTIONARY
  5
D
102
{ACAD_REACTORS
330
C
102
}
100
AcDbDictionary
280
0
281
1
  0
ACDBDICTIONARYWDFLT
  5
E
102
{ACAD_REACTORS
330
C
102
}
100
AcDbDictionary
281
1
  3
Normal
350
F
100
AcDbDictionaryWithDefault
340
F
  0
DICTIONARY
  5
17
102
{ACAD_REACTORS
330
C
102
}
100
AcDbDictionary
280
0
281
1
  3
Standard
350
18
  0
DICTIONARY
  5
19
102
{ACAD_REACTORS
330
C
102
}
100
AcDbDictionary
281
1
  0
DICTIONARY
  5
1A
102
{ACAD_REACTORS
330
C
102
}
100
AcDbDictionary
281
1
  3
Model
350
2E5
  3
Layout1
350
2E6
  0
ACDBPLACEHOLDER
  5
F
102
{ACAD_REACTORS
330
E
102
}
  0
MLINESTYLE
  5
18
102
{ACAD_REACTORS
330
17
102
}
100
AcDbMlineStyle
  2
STANDARD
 70
0
  3

 62
256
 51
90.0
 52
90.0
 71
2
 49
0.5
 62
256
  6
BYLAYER
 49
-0.5
 62
256
  6
BYLAYER
  0
LAYOUT
  5
2E5
102
{ACAD_REACTORS
330
1A
102
}
100
AcDbPlotSettings
  1

  2
none_device
  4
ISO_A4_(297.00_x_210.00_MM)
  6

 40
0.0
 41
0.0
 42
0.0
 43
0.0
 44
297.0
 45
210.0
 46
0.0
 47
0.0
 48
0.0
 49
0.0
140
0.0
141
0.0
142
1.0
143
1.0
 70
1024
 72
1
 73
0
 74
0
  7

 75
0
147
1.0
148
0.0
149
0.0
100
AcDbLayout
  1
Model
 70
0
 71
0
 10
0.0
 20
0.0
 11
297.0
 21
210.0
 12
0.0
 22
0.0
 32
0.0
 14
0.0
 24
0.0
 34
0.0
 15
0.0
 25
0.0
 35
0.0
146
0.0
 13
0.0
 23
0.0
 33
0.0
 16
1.0
 26
0.0
 36
0.0
 17
0.0
 27
1.0
 37
0.0
 76
0
330
217
345
0
346
0
  0
LAYOUT
  5
2E6
102
{ACAD_REACTORS
330
1A
102
}
100
AcDbPlotSettings
  1

  2
none_device
  4
ISO_A4_(297.00_x_210.00_MM)
  6

 40
0.0
 41
0.0
 42
0.0
 43
0.0
 44
297.0
 45
210.0
 46
0.0
 47
0.0
 48
0.0
 49
0.0
140
0.0
141
0.0
142
1.0
143
1.0
 70
0
 72
1
 73
0
 74
0
  7

 75
0
147
1.0
148
0.0
149
0.0
100
AcDbLayout
  1
Layout1
 70
0
 71
1
 10
0.0
 20
0.0
 11
297.0
 21
210.0
 12
0.0
 22
0.0
 32
0.0
 14
0.0
 24
0.0
 34
0.0
 15
0.0
 25
0.0
 35
0.0
146
0.0
 13
0.0
 23
0.0
 33
0.0
 16
1.0
 26
0.0
 36
0.0
 17
0.0
 27
1.0
 37
0.0
 76
0
330
218
345
0
346
0
  0
ENDSEC
  0
EOF
