999
DXF file: cc6-140-06.dxf
999
Pro/ENGINEER 2010430 by Parametric Technology Corporation
  0
SECTION
  2
HEADER
  9
$ACADVER
  1
AC1021
  9
$DWGCODEPAGE
  3
ANSI_1252
  9
$EXTMAX
 10
297.0
 20
210.0
 30
0.0
  9
$EXTMIN
 10
0.0
 20
0.0
 30
0.0
  9
$LIMMIN
 10
0.0
 20
0.0
  9
$LIMMAX
 10
297.0
 20
210.0
  9
$VIEWCTR
 10
148.5
 20
105.0
  9
$VIEWSIZE
 40
210.0
  9
$CLAYER
  8
0
  9
$LTSCALE
 40
16.335
  9
$CELTYPE
  6
BYLAYER
  9
$DIMSCALE
 40
1.0
  9
$DIMASZ
 40
3.5
  9
$DIMEXO
 40
1.85625
  9
$DIMDLI
 40
11.286
  9
$DIMEXE
 40
5.346
  9
$DIMCEN
 40
2.673
  9
$DIMLFAC
 40
1.0
  9
$DIMBLK
  1
_FILLED
  9
$DIMTXT
 40
3.5
  9
$DIMTOL
 70
1
  9
$DIMLIM
 70
0
  9
$DIMTFAC
 40
1.0
  9
$DIMTP
 40
0.005
  9
$DIMTM
 40
0.005
  9
$PDMODE
 70
3
  9
$PDSIZE
 40
0.3125
  9
$HANDSEED
  5
317
  9
$TILEMODE
 70
1
  9
$MEASUREMENT
 70
1
  9
$INSUNITS
 70
4
  0
ENDSEC
  0
SECTION
  2
CLASSES
  0
CLASS
  1
ACDBDICTIONARYWDFLT
  2
AcDbDictionaryWithDefault
  3
AutoCAD 2000
 90
0
 91
1
280
0
281
0
  0
CLASS
  1
ACDBPLACEHOLDER
  2
AcDbPlaceHolder
  3
AutoCAD 2000
 90
0
 91
1
280
0
281
0
  0
CLASS
  1
LAYOUT
  2
AcDbLayout
  3
AutoCAD 2000
 90
0
 91
0
280
0
281
0
  0
ENDSEC
  0
SECTION
  2
TABLES
  0
TABLE
  2
VPORT
  5
8
100
AcDbSymbolTable
 70
2
  0
VPORT
  5
1F4
100
AcDbSymbolTableRecord
100
AcDbViewportTableRecord
  2
*ACTIVE
 70
0
 10
0.0
 20
0.0
 11
1.0
 21
1.0
 12
148.5
 22
105.0
 13
0.0
 23
0.0
 14
1.0
 24
1.0
 15
0.0
 25
0.0
 16
0.0
 26
0.0
 36
1.0
 17
0.0
 27
0.0
 37
0.0
 40
210.0
 41
1.4142857143
 42
50.0
 43
0.0
 44
0.0
 50
0.0
 51
0.0
 71
0
 72
100
 73
1
 74
1
 75
0
 76
0
 77
0
 78
0
  0
ENDTAB
  0
TABLE
  2
LTYPE
  5
5
100
AcDbSymbolTable
 70
6
  0
LTYPE
  5
14
100
AcDbSymbolTableRecord
100
AcDbLinetypeTableRecord
  2
BYBLOCK
 70
0
  3

 72
65
 73
0
 40
0.0
  0
LTYPE
  5
15
100
AcDbSymbolTableRecord
100
AcDbLinetypeTableRecord
  2
BYLAYER
 70
0
  3

 72
65
 73
0
 40
0.0
  0
LTYPE
  5
16
100
AcDbSymbolTableRecord
100
AcDbLinetypeTableRecord
  2
CONTINUOUS
 70
64
  3
Solid line
 72
65
 73
0
 40
0.0
  0
LTYPE
  5
1F5
100
AcDbSymbolTableRecord
100
AcDbLinetypeTableRecord
  2
CENTER
 70
64
  3
____ _ ____ _ ____ _ ____ _ ____ _ ____ _ ____
 72
65
 73
4
 40
0.6
 49
0.375
 74
0
 49
-0.075
 74
0
 49
0.075
 74
0
 49
-0.075
 74
0
  0
LTYPE
  5
1F6
100
AcDbSymbolTableRecord
100
AcDbLinetypeTableRecord
  2
HIDDEN
 70
64
  3
- - - - - - - - - - - - - - - - - - - -
 72
65
 73
2
 40
0.2
 49
0.1
 74
0
 49
-0.1
 74
0
  0
LTYPE
  5
1F7
100
AcDbSymbolTableRecord
100
AcDbLinetypeTableRecord
  2
PHANTOM
 70
64
  3
_____ _ _ _____ _ _ _____ _ _ _____
 72
65
 73
6
 40
0.8
 49
0.45
 74
0
 49
-0.05
 74
0
 49
0.1
 74
0
 49
-0.05
 74
0
 49
0.1
 74
0
 49
-0.05
 74
0
  0
LTYPE
  5
1F8
100
AcDbSymbolTableRecord
100
AcDbLinetypeTableRecord
  2
DOT
 70
64
  3
. . . . . . . . . . . . . . . . . . . .
 72
65
 73
2
 40
0.2
 49
0.1
 74
0
 49
-0.1
 74
0
  0
LTYPE
  5
1F9
100
AcDbSymbolTableRecord
100
AcDbLinetypeTableRecord
  2
DASHED
 70
64
  3
- - - - - - - - - - - - - - - - - - - -
 72
65
 73
2
 40
0.2
 49
0.1
 74
0
 49
-0.1
 74
0
  0
ENDTAB
  0
TABLE
  2
LAYER
  5
2
100
AcDbSymbolTable
 70
36
  0
LAYER
  5
10
100
AcDbSymbolTableRecord
100
AcDbLayerTableRecord
  2
0
 70
0
 62
7
  6
CONTINUOUS
370
-3
390
F
  0
LAYER
  5
1FA
100
AcDbSymbolTableRecord
100
AcDbLayerTableRecord
  2
DEFAULT_1
 70
0
 62
7
  6
CENTER
370
-3
390
F
  0
LAYER
  5
1FB
100
AcDbSymbolTableRecord
100
AcDbLayerTableRecord
  2
DEFAULT_2
 70
0
 62
8
  6
HIDDEN
370
-3
390
F
  0
LAYER
  5
1FC
100
AcDbSymbolTableRecord
100
AcDbLayerTableRecord
  2
DEFAULT_3
 70
0
 62
7
  6
PHANTOM
370
-3
390
F
  0
LAYER
  5
1FD
100
AcDbSymbolTableRecord
100
AcDbLayerTableRecord
  2
ACHSEN
 70
0
 62
7
  6
CONTINUOUS
370
-3
390
F
  0
LAYER
  5
1FE
100
AcDbSymbolTableRecord
100
AcDbLayerTableRecord
  2
BEZUGSACHSEN
 70
0
 62
7
  6
CONTINUOUS
370
-3
390
F
  0
LAYER
  5
1FF
100
AcDbSymbolTableRecord
100
AcDbLayerTableRecord
  2
BEZUGSEBENE_B
 70
0
 62
7
  6
CONTINUOUS
370
-3
390
F
  0
LAYER
  5
200
100
AcDbSymbolTableRecord
100
AcDbLayerTableRecord
  2
BOHRUNGEN
 70
0
 62
7
  6
CONTINUOUS
370
-3
390
F
  0
LAYER
  5
201
100
AcDbSymbolTableRecord
100
AcDbLayerTableRecord
  2
EBENEN
 70
0
 62
7
  6
CONTINUOUS
370
-3
390
F
  0
LAYER
  5
202
100
AcDbSymbolTableRecord
100
AcDbLayerTableRecord
  2
FASEN
 70
0
 62
7
  6
CONTINUOUS
370
-3
390
F
  0
LAYER
  5
203
100
AcDbSymbolTableRecord
100
AcDbLayerTableRecord
  2
FLAECHEN
 70
0
 62
7
  6
CONTINUOUS
370
-3
390
F
  0
LAYER
  5
204
100
AcDbSymbolTableRecord
100
AcDbLayerTableRecord
  2
GEWINDE
 70
0
 62
7
  6
CONTINUOUS
370
-3
390
F
  0
LAYER
  5
205
100
AcDbSymbolTableRecord
100
AcDbLayerTableRecord
  2
KOORDSYS
 70
0
 62
7
  6
CONTINUOUS
370
-3
390
F
  0
LAYER
  5
206
100
AcDbSymbolTableRecord
100
AcDbLayerTableRecord
  2
KURVEN
 70
0
 62
7
  6
CONTINUOUS
370
-3
390
F
  0
LAYER
  5
207
100
AcDbSymbolTableRecord
100
AcDbLayerTableRecord
  2
KURVE_FUER_GTOL_DETAILANSICHT
 70
0
 62
7
  6
CONTINUOUS
370
-3
390
F
  0
LAYER
  5
208
100
AcDbSymbolTableRecord
100
AcDbLayerTableRecord
  2
KURVE_GAUGE2_POLIGON_INNENEINST
 70
0
 62
7
  6
CONTINUOUS
370
-3
390
F
  0
LAYER
  5
209
100
AcDbSymbolTableRecord
100
AcDbLayerTableRecord
  2
KURVE_PHANTOM1_GAUGE_PIN_1
 70
0
 62
7
  6
CONTINUOUS
370
-3
390
F
  0
LAYER
  5
20A
100
AcDbSymbolTableRecord
100
AcDbLayerTableRecord
  2
KURVE_PHANTOM2_GAUGE_PIN1
 70
0
 62
7
  6
CONTINUOUS
370
-3
390
F
  0
LAYER
  5
20B
100
AcDbSymbolTableRecord
100
AcDbLayerTableRecord
  2
KURVE_POLIGON_BEMASUNG
 70
0
 62
7
  6
CONTINUOUS
370
-3
390
F
  0
LAYER
  5
20C
100
AcDbSymbolTableRecord
100
AcDbLayerTableRecord
  2
PUNKTE
 70
0
 62
7
  6
CONTINUOUS
370
-3
390
F
  0
LAYER
  5
20D
100
AcDbSymbolTableRecord
100
AcDbLayerTableRecord
  2
RUNDUNGEN
 70
0
 62
7
  6
CONTINUOUS
370
-3
390
F
  0
LAYER
  5
20E
100
AcDbSymbolTableRecord
100
AcDbLayerTableRecord
  2
S_ACHSEN
 70
0
 62
7
  6
CONTINUOUS
370
-3
390
F
  0
LAYER
  5
20F
100
AcDbSymbolTableRecord
100
AcDbLayerTableRecord
  2
S_EBENEN
 70
0
 62
7
  6
CONTINUOUS
370
-3
390
F
  0
LAYER
  5
210
100
AcDbSymbolTableRecord
100
AcDbLayerTableRecord
  2
S_KOORDSYS
 70
0
 62
7
  6
CONTINUOUS
370
-3
390
F
  0
LAYER
  5
211
100
AcDbSymbolTableRecord
100
AcDbLayerTableRecord
  2
TOL_BEZUEGE
 70
0
 62
7
  6
CONTINUOUS
370
-3
390
F
  0
LAYER
  5
212
100
AcDbSymbolTableRecord
100
AcDbLayerTableRecord
  2
VERBFLAECHE
 70
0
 62
7
  6
CONTINUOUS
370
-3
390
F
  0
LAYER
  5
213
100
AcDbSymbolTableRecord
100
AcDbLayerTableRecord
  2
ZEICHNUNGSBEMASSUNGEN
 70
0
 62
7
  6
CONTINUOUS
370
-3
390
F
  0
ENDTAB
  0
TABLE
  2
STYLE
  5
3
100
AcDbSymbolTable
 70
1
  0
STYLE
  5
11
100
AcDbSymbolTableRecord
100
AcDbTextStyleTableRecord
  2
STANDARD
 70
0
 40
0.0
 41
0.7
 50
0.0
 71
0
 42
0.2
  3
txt
  4

  0
STYLE
  5
214
100
AcDbSymbolTableRecord
100
AcDbTextStyleTableRecord
  2
TEXTSTYLE_1
 70
0
 40
0.0
 41
0.8
 50
0.0
 71
0
 42
0.2
  3
gdt
  4

  0
STYLE
  5
215
100
AcDbSymbolTableRecord
100
AcDbTextStyleTableRecord
  2
TEXTSTYLE_2
 70
0
 40
0.0
 41
0.7
 50
0.0
 71
0
 42
0.2
  3
gdt
  4

  0
ENDTAB
  0
TABLE
  2
VIEW
  5
6
100
AcDbSymbolTable
 70
0
  0
ENDTAB
  0
TABLE
  2
UCS
  5
7
100
AcDbSymbolTable
 70
0
  0
ENDTAB
  0
TABLE
  2
APPID
  5
9
100
AcDbSymbolTable
 70
1
  0
APPID
  5
216
100
AcDbSymbolTableRecord
100
AcDbRegAppTableRecord
  2
ACAD
 70
0
  0
ENDTAB
  0
TABLE
  2
BLOCK_RECORD
  5
1
100
AcDbSymbolTable
 70
0
  0
BLOCK_RECORD
  5
217
100
AcDbSymbolTableRecord
100
AcDbBlockTableRecord
  2
*Model_Space
  0
BLOCK_RECORD
  5
218
100
AcDbSymbolTableRecord
100
AcDbBlockTableRecord
  2
*Paper_Space
  0
BLOCK_RECORD
  5
219
100
AcDbSymbolTableRecord
100
AcDbBlockTableRecord
  2
_FILLED
  0
BLOCK_RECORD
  5
21A
100
AcDbSymbolTableRecord
100
AcDbBlockTableRecord
  2
*D0
  0
BLOCK_RECORD
  5
21B
100
AcDbSymbolTableRecord
100
AcDbBlockTableRecord
  2
*D1
  0
BLOCK_RECORD
  5
21C
100
AcDbSymbolTableRecord
100
AcDbBlockTableRecord
  2
*D2
  0
BLOCK_RECORD
  5
21D
100
AcDbSymbolTableRecord
100
AcDbBlockTableRecord
  2
*D3
  0
BLOCK_RECORD
  5
21E
100
AcDbSymbolTableRecord
100
AcDbBlockTableRecord
  2
*D4
  0
BLOCK_RECORD
  5
21F
100
AcDbSymbolTableRecord
100
AcDbBlockTableRecord
  2
*D5
  0
BLOCK_RECORD
  5
220
100
AcDbSymbolTableRecord
100
AcDbBlockTableRecord
  2
*D6
  0
ENDTAB
  0
TABLE
  2
DIMSTYLE
  5
A
100
AcDbSymbolTable
 70
1
100
AcDbDimStyleTable
 71
0
  0
DIMSTYLE
105
221
100
AcDbSymbolTableRecord
100
AcDbDimStyleTableRecord
  2
STANDARD
 70
0
  3

  4

 40
1.0
 41
3.5
 42
0.0625
 43
0.38
 44
0.18
 45
0.0
 46
0.0
 47
0.005
 48
0.005
140
3.5
141
0.09
142
0.0
143
25.4
144
1.0
145
0.0
146
1.0
147
0.09
 71
1.0
 72
0.0
 73
0
 74
0
 75
0
 76
0
 77
1
 78
8
170
0
171
2
172
0
173
0
174
0
175
0
176
0
177
0
178
5
270
2
271
3
272
3
273
2
274
2
275
0
280
0
281
0
282
0
283
1
284
8
285
0
286
0
287
3
288
0
340
11
341
219
342
219
343
219
344
219
  0
DIMSTYLE
105
222
100
AcDbSymbolTableRecord
100
AcDbDimStyleTableRecord
  2
DIMSTYLE_1
 70
0
  3

  4

 40
1.0
 41
3.5
 42
0.0625
 43
0.38
 44
0.18
 45
0.0
 46
0.0
 47
0.0
 48
0.1
140
3.5
141
0.09
142
0.0
143
25.4
144
1.0
145
0.0
146
1.0
147
0.09
 71
0.0
 72
0.0
 73
0
 74
0
 75
0
 76
0
 77
1
 78
8
170
0
171
2
172
0
173
0
174
0
175
0
176
0
177
0
178
5
270
2
271
2
272
2
273
2
274
2
275
0
280
0
281
0
282
0
283
1
284
8
285
0
286
0
287
3
288
0
340
11
341
219
342
219
343
219
344
219
  0
DIMSTYLE
105
223
100
AcDbSymbolTableRecord
100
AcDbDimStyleTableRecord
  2
DIMSTYLE_2
 70
0
  3

  4

 40
1.0
 41
3.5
 42
0.0625
 43
0.38
 44
0.18
 45
0.0
 46
0.0
 47
0.25
 48
0.25
140
3.5
141
0.09
142
0.0
143
25.4
144
1.0
145
0.0
146
1.0
147
0.09
 71
0.0
 72
0.0
 73
0
 74
0
 75
0
 76
0
 77
1
 78
8
170
0
171
2
172
0
173
0
174
0
175
0
176
0
177
0
178
5
270
2
271
2
272
2
273
2
274
2
275
0
280
0
281
0
282
0
283
1
284
8
285
0
286
0
287
3
288
0
340
11
341
219
342
219
343
219
344
219
  0
DIMSTYLE
105
224
100
AcDbSymbolTableRecord
100
AcDbDimStyleTableRecord
  2
DIMSTYLE_3
 70
0
  3

  4

 40
1.0
 41
3.5
 42
0.0625
 43
0.38
 44
0.18
 45
0.0
 46
0.0
 47
0.3
 48
0.3
140
3.5
141
0.09
142
0.0
143
25.4
144
1.0
145
0.0
146
1.0
147
0.09
 71
0.0
 72
0.0
 73
0
 74
0
 75
0
 76
0
 77
1
 78
8
170
0
171
2
172
0
173
0
174
0
175
0
176
0
177
0
178
5
270
2
271
2
272
2
273
2
274
2
275
0
280
0
281
0
282
0
283
1
284
8
285
0
286
0
287
3
288
0
340
11
341
219
342
219
343
219
344
219
  0
DIMSTYLE
105
225
100
AcDbSymbolTableRecord
100
AcDbDimStyleTableRecord
  2
DIMSTYLE_4
 70
0
  3

  4

 40
1.0
 41
3.5
 42
0.0625
 43
0.38
 44
0.18
 45
0.0
 46
0.0
 47
-0.011
 48
0.015
140
3.5
141
0.09
142
0.0
143
25.4
144
1.0
145
0.0
146
1.0
147
0.09
 71
0.0
 72
0.0
 73
0
 74
0
 75
0
 76
0
 77
1
 78
8
170
0
171
2
172
0
173
0
174
0
175
0
176
0
177
0
178
5
270
2
271
3
272
3
273
2
274
2
275
0
280
0
281
0
282
0
283
1
284
8
285
0
286
0
287
3
288
0
340
11
341
219
342
219
343
219
344
219
  0
ENDTAB
  0
ENDSEC
  0
SECTION
  2
BLOCKS
  0
BLOCK
  5
20
100
AcDbEntity
  8
0
100
AcDbBlockBegin
  2
*Model_Space
 70
0
 10
0.0
 20
0.0
 30
0.0
  3
*Model_Space
  1

  0
ENDBLK
  5
21
100
AcDbEntity
  8
0
100
AcDbBlockEnd
  0
BLOCK
  5
1C
100
AcDbEntity
  8
0
100
AcDbBlockBegin
  2
*Paper_Space
 70
0
 10
0.0
 20
0.0
 30
0.0
  3
*Paper_Space
  1

  0
ENDBLK
  5
1D
100
AcDbEntity
  8
0
100
AcDbBlockEnd
  0
BLOCK
  5
226
100
AcDbEntity
  8
0
100
AcDbBlockBegin
  2
_FILLED
 70
64
 10
0.0
 20
0.0
  3
_FILLED
  1

  0
SOLID
  5
227
100
AcDbEntity
  8
0
  6
BYBLOCK
 62
0
100
AcDbTrace
 10
0.0
 20
0.0
 11
-1.0
 21
0.125
 12
-1.0
 22
-0.125
 13
-1.0
 23
-0.125
  0
ENDBLK
  5
228
100
AcDbEntity
  8
0
  6
BYBLOCK
 62
0
100
AcDbBlockEnd
  0
BLOCK
  5
229
100
AcDbEntity
  8
0
100
AcDbBlockBegin
 62
2
  6
CONTINUOUS
  2
*D0
 70
65
 10
0.0
 20
0.0
  3
*D0
  1

  0
MTEXT
  5
22A
100
AcDbEntity
  8
0
100
AcDbMText
 62
5
  6
CONTINUOUS
  7
TEXTSTYLE_2
 71
2
 72
1
 10
226.887720229
 20
125.7547315022
 30
0.0
 11
0.0
 21
1.0
 31
0.0
 44
0.9
  1
{\Fgdt;n}\Ftxt;21
 40
3.5
 41
9.4166666667
  0
LINE
  5
22B
100
AcDbEntity
  8
0
100
AcDbLine
 62
2
  6
CONTINUOUS
 10
210.9212551975
 20
136.2297315022
 11
216.1715196821
 21
136.2297315022
  0
LINE
  5
22C
100
AcDbEntity
  8
0
100
AcDbLine
 62
2
  6
CONTINUOUS
 10
223.5147297297
 20
136.2297315022
 11
232.762720229
 21
136.2297315022
  0
LINE
  5
22D
100
AcDbEntity
  8
0
100
AcDbLine
 62
2
  6
CONTINUOUS
 10
210.9212551975
 20
115.2797315022
 11
215.0547694559
 21
115.2797315022
  0
LINE
  5
22E
100
AcDbEntity
  8
0
100
AcDbLine
 62
2
  6
CONTINUOUS
 10
218.6080656301
 20
115.2797315022
 11
232.762720229
 21
115.2797315022
  0
LINE
  5
22F
100
AcDbEntity
  8
0
100
AcDbLine
 62
2
  6
CONTINUOUS
 10
231.262720229
 20
136.2297315022
 11
231.262720229
 21
125.7547315022
  0
LINE
  5
230
100
AcDbEntity
  8
0
100
AcDbLine
 62
2
  6
CONTINUOUS
 10
231.262720229
 20
115.2797315022
 11
231.262720229
 21
125.7547315022
  0
INSERT
  5
231
100
AcDbEntity
  8
0
100
AcDbBlockReference
 62
2
  6
CONTINUOUS
  2
_FILLED
 10
231.262720229
 20
136.2297315022
 41
3.5
 42
3.5
 43
3.5
 50
90.0
  0
INSERT
  5
232
100
AcDbEntity
  8
0
100
AcDbBlockReference
 62
2
  6
CONTINUOUS
  2
_FILLED
 10
231.262720229
 20
115.2797315022
 41
3.5
 42
3.5
 43
3.5
 50
270.0
  0
ENDBLK
  5
233
100
AcDbEntity
  8
0
  6
BYBLOCK
 62
0
100
AcDbBlockEnd
  0
BLOCK
  5
234
100
AcDbEntity
  8
0
100
AcDbBlockBegin
 62
2
  6
CONTINUOUS
  2
*D1
 70
65
 10
0.0
 20
0.0
  3
*D1
  1

  0
MTEXT
  5
235
100
AcDbEntity
  8
0
100
AcDbMText
 62
5
  6
CONTINUOUS
  7
STANDARD
 71
2
 72
1
 10
188.1148194256
 20
101.3278960256
 30
0.0
 11
0.5458261229
 21
0.8378984685
 31
0.0
 44
0.9
  1
4\Fgdt;{\Fgdt;~}\Ftxt;30'
 40
3.5
 41
12.3333333333
  0
LINE
  5
236
100
AcDbEntity
  8
0
100
AcDbLine
 62
2
  6
CONTINUOUS
 10
196.7885300231
 20
114.2855144691
 11
200.8033277669
 21
114.6014859041
  0
LINE
  5
237
100
AcDbEntity
  8
0
100
AcDbLine
 62
2
  6
CONTINUOUS
 10
172.802640989
 20
112.2797315022
 11
199.8673374505
 21
112.2797315022
  0
ARC
  5
238
100
AcDbEntity
  8
0
100
AcDbCircle
 62
2
  6
CONTINUOUS
 10
171.302640989
 20
112.2797315022
 40
27.0646964615
100
AcDbArc
 50
4.5
 51
17.2019594536
  0
ARC
  5
239
100
AcDbEntity
  8
0
100
AcDbCircle
 62
2
  6
CONTINUOUS
 10
171.302640989
 20
112.2797315022
 40
27.0646964615
100
AcDbArc
 50
326.9188639269
 51
0.0
  0
ARC
  5
23A
100
AcDbEntity
  8
0
100
AcDbCircle
 62
2
  6
CONTINUOUS
 10
171.302640989
 20
112.2797315022
 40
27.0646964615
100
AcDbArc
 50
360.0
 51
4.5
  0
SOLID
  5
23B
100
AcDbEntity
  8
0
100
AcDbTrace
 62
2
  6
CONTINUOUS
 10
197.3513963387
 20
117.8049426585
 11
198.2839060237
 21
114.4032031127
 12
198.2174402172
 22
117.9298145949
 13
198.2174402172
 23
117.9298145949
  0
SOLID
  5
23C
100
AcDbEntity
  8
0
100
AcDbTrace
 62
2
  6
CONTINUOUS
 10
198.5777712838
 20
108.7587765392
 11
198.3673374505
 21
112.2797315022
 12
197.7045997903
 22
108.8153145175
 13
197.7045997903
 23
108.8153145175
  0
ENDBLK
  5
23D
100
AcDbEntity
  8
0
  6
BYBLOCK
 62
0
100
AcDbBlockEnd
  0
BLOCK
  5
23E
100
AcDbEntity
  8
0
100
AcDbBlockBegin
 62
2
  6
CONTINUOUS
  2
*D2
 70
65
 10
0.0
 20
0.0
  3
*D2
  1

  0
MTEXT
  5
23F
100
AcDbEntity
  8
0
100
AcDbMText
 62
5
  6
CONTINUOUS
  7
STANDARD
 71
2
 72
1
 10
169.4212551975
 20
187.2421075957
 30
0.0
 11
1.0
 21
0.0
 31
0.0
 44
0.9
  1
80
 40
3.5
 41
5.5
  0
LINE
  5
240
100
AcDbEntity
  8
0
100
AcDbLine
 62
2
  6
CONTINUOUS
 10
129.4212551975
 20
153.220906211
 11
129.4212551975
 21
184.3671075957
  0
LINE
  5
241
100
AcDbEntity
  8
0
100
AcDbLine
 62
2
  6
CONTINUOUS
 10
209.4212551975
 20
136.555306211
 11
209.4212551975
 21
184.3671075957
  0
LINE
  5
242
100
AcDbEntity
  8
0
100
AcDbLine
 62
2
  6
CONTINUOUS
 10
129.4212551975
 20
182.8671075957
 11
169.4212551975
 21
182.8671075957
  0
LINE
  5
243
100
AcDbEntity
  8
0
100
AcDbLine
 62
2
  6
CONTINUOUS
 10
209.4212551975
 20
182.8671075957
 11
169.4212551975
 21
182.8671075957
  0
INSERT
  5
244
100
AcDbEntity
  8
0
100
AcDbBlockReference
 62
2
  6
CONTINUOUS
  2
_FILLED
 10
129.4212551975
 20
182.8671075957
 41
3.5
 42
3.5
 43
3.5
 50
180.0
  0
INSERT
  5
245
100
AcDbEntity
  8
0
100
AcDbBlockReference
 62
2
  6
CONTINUOUS
  2
_FILLED
 10
209.4212551975
 20
182.8671075957
 41
3.5
 42
3.5
 43
3.5
  0
ENDBLK
  5
246
100
AcDbEntity
  8
0
  6
BYBLOCK
 62
0
100
AcDbBlockEnd
  0
BLOCK
  5
247
100
AcDbEntity
  8
0
100
AcDbBlockBegin
 62
2
  6
CONTINUOUS
  2
*D3
 70
65
 10
0.0
 20
0.0
  3
*D3
  1

  0
MTEXT
  5
248
100
AcDbEntity
  8
0
100
AcDbMText
 62
5
  6
CONTINUOUS
  7
TEXTSTYLE_2
 71
1
 72
1
 10
216.9627588963
 20
130.4370294232
 30
0.0
 11
0.0
 21
1.0
 31
0.0
 44
0.9
  1
{\Fgdt;n}\Ftxt;6
 40
3.5
 41
7.4166666667
  0
LINE
  5
249
100
AcDbEntity
  8
0
100
AcDbLine
 62
2
  6
CONTINUOUS
 10
203.684959299
 20
122.7612315022
 11
222.8377588963
 21
122.7612315022
  0
LINE
  5
24A
100
AcDbEntity
  8
0
100
AcDbLine
 62
2
  6
CONTINUOUS
 10
203.541599299
 20
128.7482315022
 11
222.8377588963
 21
128.7482315022
  0
LINE
  5
24B
100
AcDbEntity
  8
0
100
AcDbLine
 62
2
  6
CONTINUOUS
 10
221.3377588963
 20
122.7612315022
 11
221.3377588963
 21
116.7612315022
  0
LINE
  5
24C
100
AcDbEntity
  8
0
100
AcDbLine
 62
2
  6
CONTINUOUS
 10
221.3377588963
 20
116.7612315022
 11
221.3377588963
 21
125.7547315022
  0
LINE
  5
24D
100
AcDbEntity
  8
0
100
AcDbLine
 62
2
  6
CONTINUOUS
 10
221.3377588963
 20
128.7482315022
 11
221.3377588963
 21
137.8536960899
  0
LINE
  5
24E
100
AcDbEntity
  8
0
100
AcDbLine
 62
2
  6
CONTINUOUS
 10
221.3377588963
 20
137.8536960899
 11
221.3377588963
 21
125.7547315022
  0
INSERT
  5
24F
100
AcDbEntity
  8
0
100
AcDbBlockReference
 62
2
  6
CONTINUOUS
  2
_FILLED
 10
221.3377588963
 20
122.7612315022
 41
3.5
 42
3.5
 43
3.5
 50
90.0
  0
INSERT
  5
250
100
AcDbEntity
  8
0
100
AcDbBlockReference
 62
2
  6
CONTINUOUS
  2
_FILLED
 10
221.3377588963
 20
128.7482315022
 41
3.5
 42
3.5
 43
3.5
 50
270.0
  0
ENDBLK
  5
251
100
AcDbEntity
  8
0
  6
BYBLOCK
 62
0
100
AcDbBlockEnd
  0
BLOCK
  5
252
100
AcDbEntity
  8
0
100
AcDbBlockBegin
 62
2
  6
CONTINUOUS
  2
*D4
 70
65
 10
0.0
 20
0.0
  3
*D4
  1

  0
MTEXT
  5
253
100
AcDbEntity
  8
0
100
AcDbMText
 62
5
  6
CONTINUOUS
  7
STANDARD
 71
2
 72
1
 10
180.4212551975
 20
179.9570282063
 30
0.0
 11
1.0
 21
0.0
 31
0.0
 44
0.9
  1
58
 40
3.5
 41
5.25
  0
LINE
  5
254
100
AcDbEntity
  8
0
100
AcDbLine
 62
2
  6
CONTINUOUS
 10
209.4212551975
 20
116.7797315022
 11
209.4212551975
 21
177.0820282063
  0
LINE
  5
255
100
AcDbEntity
  8
0
100
AcDbLine
 62
2
  6
CONTINUOUS
 10
151.4212551975
 20
151.608106211
 11
151.4212551975
 21
177.0820282063
  0
LINE
  5
256
100
AcDbEntity
  8
0
100
AcDbLine
 62
2
  6
CONTINUOUS
 10
209.4212551975
 20
175.5820282063
 11
180.4212551975
 21
175.5820282063
  0
LINE
  5
257
100
AcDbEntity
  8
0
100
AcDbLine
 62
2
  6
CONTINUOUS
 10
151.4212551975
 20
175.5820282063
 11
180.4212551975
 21
175.5820282063
  0
INSERT
  5
258
100
AcDbEntity
  8
0
100
AcDbBlockReference
 62
2
  6
CONTINUOUS
  2
_FILLED
 10
209.4212551975
 20
175.5820282063
 41
3.5
 42
3.5
 43
3.5
  0
INSERT
  5
259
100
AcDbEntity
  8
0
100
AcDbBlockReference
 62
2
  6
CONTINUOUS
  2
_FILLED
 10
151.4212551975
 20
175.5820282063
 41
3.5
 42
3.5
 43
3.5
 50
180.0
  0
ENDBLK
  5
25A
100
AcDbEntity
  8
0
  6
BYBLOCK
 62
0
100
AcDbBlockEnd
  0
BLOCK
  5
25B
100
AcDbEntity
  8
0
100
AcDbBlockBegin
 62
2
  6
CONTINUOUS
  2
*D5
 70
65
 10
0.0
 20
0.0
  3
*D5
  1

  0
MTEXT
  5
25C
100
AcDbEntity
  8
0
100
AcDbMText
 62
5
  6
CONTINUOUS
  7
STANDARD
 71
2
 72
1
 10
150.4212551975
 20
196.4638888864
 30
0.0
 11
1.0
 21
0.0
 31
0.0
 44
0.9
  1
118
 40
3.5
 41
6.75
  0
LINE
  5
25D
100
AcDbEntity
  8
0
100
AcDbLine
 62
2
  6
CONTINUOUS
 10
209.4212551975
 20
116.7797315022
 11
209.4212551975
 21
193.5888888864
  0
LINE
  5
25E
100
AcDbEntity
  8
0
100
AcDbLine
 62
2
  6
CONTINUOUS
 10
91.4212551975
 20
107.0686157329
 11
91.4212551975
 21
193.5888888864
  0
LINE
  5
25F
100
AcDbEntity
  8
0
100
AcDbLine
 62
2
  6
CONTINUOUS
 10
209.4212551975
 20
192.0888888864
 11
150.4212551975
 21
192.0888888864
  0
LINE
  5
260
100
AcDbEntity
  8
0
100
AcDbLine
 62
2
  6
CONTINUOUS
 10
91.4212551975
 20
192.0888888864
 11
150.4212551975
 21
192.0888888864
  0
INSERT
  5
261
100
AcDbEntity
  8
0
100
AcDbBlockReference
 62
2
  6
CONTINUOUS
  2
_FILLED
 10
209.4212551975
 20
192.0888888864
 41
3.5
 42
3.5
 43
3.5
  0
INSERT
  5
262
100
AcDbEntity
  8
0
100
AcDbBlockReference
 62
2
  6
CONTINUOUS
  2
_FILLED
 10
91.4212551975
 20
192.0888888864
 41
3.5
 42
3.5
 43
3.5
 50
180.0
  0
ENDBLK
  5
263
100
AcDbEntity
  8
0
  6
BYBLOCK
 62
0
100
AcDbBlockEnd
  0
BLOCK
  5
264
100
AcDbEntity
  8
0
100
AcDbBlockBegin
 62
2
  6
CONTINUOUS
  2
*D6
 70
65
 10
0.0
 20
0.0
  3
*D6
  1

  0
MTEXT
  5
265
100
AcDbEntity
  8
0
100
AcDbMText
 62
5
  6
CONTINUOUS
  7
TEXTSTYLE_2
 71
2
 72
1
 10
240.6054057528
 20
125.7547315022
 30
0.0
 11
0.0
 21
1.0
 31
0.0
 44
0.9
  1
{\Fgdt;n}\Ftxt;27
 40
3.5
 41
10.1666666667
  0
LINE
  5
266
100
AcDbEntity
  8
0
100
AcDbLine
 62
2
  6
CONTINUOUS
 10
172.802640989
 20
139.2297315022
 11
206.9862764
 21
139.2297315022
  0
LINE
  5
267
100
AcDbEntity
  8
0
100
AcDbLine
 62
2
  6
CONTINUOUS
 10
222.1911756735
 20
139.2297315022
 11
246.4804057528
 21
139.2297315022
  0
LINE
  5
268
100
AcDbEntity
  8
0
100
AcDbLine
 62
2
  6
CONTINUOUS
 10
172.802640989
 20
112.2797315022
 11
206.6759723332
 21
112.2797315022
  0
LINE
  5
269
100
AcDbEntity
  8
0
100
AcDbLine
 62
2
  6
CONTINUOUS
 10
217.3038866213
 20
112.2797315022
 11
246.4804057528
 21
112.2797315022
  0
LINE
  5
26A
100
AcDbEntity
  8
0
100
AcDbLine
 62
2
  6
CONTINUOUS
 10
244.9804057528
 20
139.2297315022
 11
244.9804057528
 21
125.7547315022
  0
LINE
  5
26B
100
AcDbEntity
  8
0
100
AcDbLine
 62
2
  6
CONTINUOUS
 10
244.9804057528
 20
112.2797315022
 11
244.9804057528
 21
125.7547315022
  0
INSERT
  5
26C
100
AcDbEntity
  8
0
100
AcDbBlockReference
 62
2
  6
CONTINUOUS
  2
_FILLED
 10
244.9804057528
 20
139.2297315022
 41
3.5
 42
3.5
 43
3.5
 50
90.0
  0
INSERT
  5
26D
100
AcDbEntity
  8
0
100
AcDbBlockReference
 62
2
  6
CONTINUOUS
  2
_FILLED
 10
244.9804057528
 20
112.2797315022
 41
3.5
 42
3.5
 43
3.5
 50
270.0
  0
ENDBLK
  5
26E
100
AcDbEntity
  8
0
  6
BYBLOCK
 62
0
100
AcDbBlockEnd
  0
ENDSEC
  0
SECTION
  2
ENTITIES
  0
DIMENSION
  5
26F
100
AcDbEntity
  8
0
100
AcDbDimension
 62
2
  6
CONTINUOUS
  2
*D0
 10
231.262720229
 20
115.2797315022
 11
229.6925602003
 21
123.6501143566
 70
160
 71
2
 42
20.95
  1
%%c<>
  3
DIMSTYLE_1
100
AcDbAlignedDimension
 13
210.9212551975
 23
136.2297315022
 14
210.9212551975
 24
115.2797315022
 50
270.0
100
AcDbRotatedDimension
  0
DIMENSION
  5
270
100
AcDbEntity
  8
0
100
AcDbDimension
 62
2
  6
CONTINUOUS
  2
*D1
 10
199.8673374505
 20
112.2797315022
 11
187.2505007646
 21
99.4682045294
 70
162
 71
2
 42
0.0785398163
  3
DIMSTYLE_2
100
AcDb2LineAngularDimension
 13
200.8033277669
 23
114.6014859041
 14
196.7885300231
 24
114.2855144691
 15
172.802640989
 25
112.2797315022
 16
198.3464715503
 26
113.3422864989
  0
DIMENSION
  5
271
100
AcDbEntity
  8
0
100
AcDbDimension
 62
2
  6
CONTINUOUS
  2
*D2
 10
209.4212551975
 20
182.8671075957
 11
166.6712551975
 21
185.4921075957
 70
160
 71
2
 42
80.0
  3
DIMSTYLE_3
100
AcDbAlignedDimension
 13
129.4212551975
 23
153.220906211
 14
209.4212551975
 24
136.555306211
100
AcDbRotatedDimension
  0
DIMENSION
  5
272
100
AcDbEntity
  8
0
100
AcDbDimension
 62
2
  6
CONTINUOUS
  2
*D3
 10
221.3377588963
 20
128.7482315022
 11
218.7127588963
 21
134.1453627565
 70
160
 71
1
 42
5.987
  1
%%c<>
  3
DIMSTYLE_4
100
AcDbAlignedDimension
 13
203.684959299
 23
122.7612315022
 14
203.541599299
 24
128.7482315022
 50
90.0
100
AcDbRotatedDimension
  0
DIMENSION
  5
273
100
AcDbEntity
  8
0
100
AcDbDimension
 62
2
  6
CONTINUOUS
  2
*D4
 10
151.4212551975
 20
175.5820282063
 11
177.7962551975
 21
178.2070282063
 70
160
 71
2
 42
58.0
  3
DIMSTYLE_3
100
AcDbAlignedDimension
 13
209.4212551975
 23
116.7797315022
 14
151.4212551975
 24
151.608106211
 50
180.0
100
AcDbRotatedDimension
  0
DIMENSION
  5
274
100
AcDbEntity
  8
0
100
AcDbDimension
 62
2
  6
CONTINUOUS
  2
*D5
 10
91.4212551975
 20
192.0888888864
 11
147.0462551975
 21
194.7138888864
 70
160
 71
2
 42
118.0
  3
DIMSTYLE_3
100
AcDbAlignedDimension
 13
209.4212551975
 23
116.7797315022
 14
91.4212551975
 24
107.0686157329
 50
180.0
100
AcDbRotatedDimension
  0
DIMENSION
  5
275
100
AcDbEntity
  8
0
100
AcDbDimension
 62
2
  6
CONTINUOUS
  2
*D6
 10
244.9804057528
 20
112.2797315022
 11
243.4942595271
 21
123.4824899822
 70
160
 71
2
 42
26.95
  1
%%c<>
  3
DIMSTYLE_1
100
AcDbAlignedDimension
 13
172.802640989
 23
139.2297315022
 14
172.802640989
 24
112.2797315022
 50
270.0
100
AcDbRotatedDimension
  0
MTEXT
  5
276
100
AcDbEntity
  8
0
100
AcDbMText
 62
5
  6
CONTINUOUS
  7
STANDARD
 71
1
 72
1
 10
7.6257692557
 20
81.6725911019
 30
0.0
 11
1.0
 21
0.0
 31
0.0
 44
0.9
  3
Für diese Unterlage behalten wir das Ur-\Pheberrecht. Sie darf nur für den von uns \Pbestimmten Zweck benutzt und ohne unsere \PZustimmung weder vervielfältigt noch\PDritten zugänglich gemacht werden\P \PWe own the copyright of this document. It \Pde
  1
termined and may neither be copied or \Pmade accessible to outsiders without our\Ppermission.\P \PCe plan reste notre propriété. Il ne peut\Pêtre utilisé, copié ou reproduit sans notre\Paccord.\P 
 40
3.5
 41
104.8333333333
  0
LINE
  5
277
100
AcDbEntity
  8
0
100
AcDbLine
 62
7
  6
CONTINUOUS
 10
0.0
 20
0.0
 11
0.0
 21
210.0
  0
LINE
  5
278
100
AcDbEntity
  8
0
100
AcDbLine
 62
7
  6
CONTINUOUS
 10
0.0
 20
0.0
 11
297.0
 21
0.0
  0
LINE
  5
279
100
AcDbEntity
  8
0
100
AcDbLine
 62
7
  6
CONTINUOUS
 10
0.0
 20
210.0
 11
297.0
 21
210.0
  0
LINE
  5
27A
100
AcDbEntity
  8
0
100
AcDbLine
 62
7
  6
CONTINUOUS
 10
297.0
 20
0.0
 11
297.0
 21
210.0
  0
LINE
  5
27B
100
AcDbEntity
  8
0
100
AcDbLine
 62
7
  6
CONTINUOUS
 10
91.4212551975
 20
104.0623935093
 11
91.4212551975
 21
140.7159761409
  0
LINE
  5
27C
100
AcDbEntity
  8
ACHSEN
100
AcDbLine
 62
7
  6
CONTINUOUS
 10
91.4212551975
 20
140.7159761409
 11
91.4212551975
 21
144.5032108162
  0
LINE
  5
27D
100
AcDbEntity
  8
ACHSEN
100
AcDbLine
 62
7
  6
CONTINUOUS
 10
92.9212551975
 20
145.2517211157
 11
92.9212551975
 21
141.4659761409
  0
LINE
  5
27E
100
AcDbEntity
  8
0
100
AcDbLine
 62
7
  6
CONTINUOUS
 10
92.9212551975
 20
141.4659761409
 11
92.9212551975
 21
103.1963681055
  0
LINE
  5
27F
100
AcDbEntity
  8
0
100
AcDbLine
 62
9
  6
CONTINUOUS
 10
92.9212551975
 20
141.4659761409
 11
91.4212551975
 21
140.7159761409
  0
LINE
  5
280
100
AcDbEntity
  8
0
100
AcDbLine
 62
7
  6
CONTINUOUS
 10
92.9212551975
 20
103.1963681055
 11
91.4212551975
 21
104.0623935093
  0
LINE
  5
281
100
AcDbEntity
  8
ACHSEN
100
AcDbLine
 62
7
  6
CENTER
 10
113.9212551975
 20
102.8212459951
 11
113.9212551975
 21
149.9431020668
  0
LINE
  5
282
100
AcDbEntity
  8
0
100
AcDbLine
 62
7
  6
CONTINUOUS
 10
129.4212570335
 20
156.9547295949
 11
129.7212571234
 21
157.2547296487
  0
LINE
  5
283
100
AcDbEntity
  8
0
100
AcDbLine
 62
9
  6
CONTINUOUS
 10
92.9212551975
 20
104.8186157329
 11
91.4212551975
 21
105.5686157329
  0
LINE
  5
284
100
AcDbEntity
  8
0
100
AcDbLine
 62
7
  6
CONTINUOUS
 10
129.4212570335
 20
94.5547334096
 11
129.7212571234
 21
94.2547333557
  0
LINE
  5
285
100
AcDbEntity
  8
0
100
AcDbLine
 62
7
  6
CONTINUOUS
 10
151.4212551975
 20
94.2547315022
 11
129.7212552699
 21
94.2547315022
  0
LINE
  5
286
100
AcDbEntity
  8
0
100
AcDbLine
 62
7
  6
CONTINUOUS
 10
127.2213182866
 20
146.3748318718
 11
127.2213182866
 21
142.2122622508
  0
LINE
  5
287
100
AcDbEntity
  8
0
100
AcDbLine
 62
7
  6
CONTINUOUS
 10
127.2213182866
 20
130.9796026328
 11
127.2213182866
 21
104.072329623
  0
LINE
  5
288
100
AcDbEntity
  8
0
100
AcDbLine
 62
9
  6
CONTINUOUS
 10
127.4262783086
 20
146.179918072
 11
127.4262783086
 21
140.439673707
  0
LINE
  5
289
100
AcDbEntity
  8
0
100
AcDbLine
 62
9
  6
CONTINUOUS
 10
127.4262783086
 20
133.9406746889
 11
127.4262783086
 21
102.8838461107
  0
LINE
  5
28A
100
AcDbEntity
  8
0
100
AcDbLine
 62
9
  6
CONTINUOUS
 10
128.1141484163
 20
103.0118382834
 11
128.1141484163
 21
103.6511748513
  0
LINE
  5
28B
100
AcDbEntity
  8
0
100
AcDbLine
 62
9
  6
CONTINUOUS
 10
128.1141484163
 20
132.1692712629
 11
128.1141484163
 21
141.4437483924
  0
LINE
  5
28C
100
AcDbEntity
  8
0
100
AcDbLine
 62
9
  6
CONTINUOUS
 10
129.0262783086
 20
146.2201156411
 11
129.0262783086
 21
142.0992097892
  0
LINE
  5
28D
100
AcDbEntity
  8
0
100
AcDbLine
 62
9
  6
CONTINUOUS
 10
129.0262783086
 20
130.9376819553
 11
129.0262783086
 21
104.2273027621
  0
LINE
  5
28E
100
AcDbEntity
  8
0
100
AcDbLine
 62
7
  6
CONTINUOUS
 10
129.4212551975
 20
94.5550071717
 11
129.4212551975
 21
156.9544558327
  0
LINE
  5
28F
100
AcDbEntity
  8
0
100
AcDbLine
 62
7
  6
CONTINUOUS
 10
129.7212552711
 20
94.2547315022
 11
129.7212552711
 21
157.2547315022
  0
LINE
  5
290
100
AcDbEntity
  8
0
100
AcDbLine
 62
7
  6
CONTINUOUS
 10
129.2211903457
 20
142.5443060879
 11
129.2212551975
 21
148.2882163632
  0
LINE
  5
291
100
AcDbEntity
  8
0
100
AcDbLine
 62
7
  6
CONTINUOUS
 10
129.2211903457
 20
104.3445634108
 11
129.2212551975
 21
130.3430630498
  0
LINE
  5
292
100
AcDbEntity
  8
0
100
AcDbLine
 62
7
  6
CONTINUOUS
 10
142.8825800629
 20
95.6741387419
 11
139.9599303321
 21
95.6741387419
  0
LINE
  5
293
100
AcDbEntity
  8
0
100
AcDbLine
 62
9
  6
CONTINUOUS
 10
127.2213182866
 20
104.072329623
 11
92.9212551975
 21
104.8186157329
  0
LINE
  5
294
100
AcDbEntity
  8
0
100
AcDbLine
 62
7
  6
CONTINUOUS
 10
127.6742839483
 20
102.8780026269
 11
127.4262783086
 21
102.8838461107
  0
LINE
  5
295
100
AcDbEntity
  8
0
100
AcDbLine
 62
7
  6
CONTINUOUS
 10
92.9212551975
 20
103.1963681055
 11
127.4316580203
 21
102.3293466664
  0
LINE
  5
296
100
AcDbEntity
  8
0
100
AcDbLine
 62
9
  6
CONTINUOUS
 10
139.5269176302
 20
155.6686863487
 11
139.5269176302
 21
135.6241441212
  0
LINE
  5
297
100
AcDbEntity
  8
0
100
AcDbLine
 62
9
  6
CONTINUOUS
 10
139.5269176302
 20
115.8853188832
 11
139.5269176302
 21
95.8407766557
  0
LINE
  5
298
100
AcDbEntity
  8
0
100
AcDbLine
 62
9
  6
CONTINUOUS
 10
139.9599303321
 20
155.8353242625
 11
139.9599303321
 21
135.1039528167
  0
LINE
  5
299
100
AcDbEntity
  8
0
100
AcDbLine
 62
9
  6
CONTINUOUS
 10
139.9599303321
 20
116.4055101877
 11
139.9599303321
 21
95.6741387419
  0
LINE
  5
29A
100
AcDbEntity
  8
RUNDUNGEN
100
AcDbLine
 62
7
  6
CONTINUOUS
 10
208.4997142932
 20
115.2072046601
 11
171.302640989
 21
112.2797315022
  0
LINE
  5
29B
100
AcDbEntity
  8
0
100
AcDbLine
 62
7
  6
CONTINUOUS
 10
171.302640989
 20
112.2797315022
 11
208.4997142932
 21
115.2072046601
  0
LINE
  5
29C
100
AcDbEntity
  8
ACHSEN
100
AcDbLine
 62
7
  6
CENTER
 10
141.4212551975
 20
149.0523534323
 11
141.4212551975
 21
160.2547315022
  0
LINE
  5
29D
100
AcDbEntity
  8
0
100
AcDbLine
 62
9
  6
CONTINUOUS
 10
142.8825800629
 20
155.8353242625
 11
142.8825800629
 21
135.1039528167
  0
LINE
  5
29E
100
AcDbEntity
  8
0
100
AcDbLine
 62
9
  6
CONTINUOUS
 10
142.8825800629
 20
116.4055101877
 11
142.8825800629
 21
95.6741387419
  0
LINE
  5
29F
100
AcDbEntity
  8
0
100
AcDbLine
 62
9
  6
CONTINUOUS
 10
143.3155927648
 20
155.6686863487
 11
143.3155927648
 21
135.6241441212
  0
LINE
  5
2A0
100
AcDbEntity
  8
0
100
AcDbLine
 62
9
  6
CONTINUOUS
 10
143.3155927648
 20
115.8853188832
 11
143.3155927648
 21
95.8407766557
  0
LINE
  5
2A1
100
AcDbEntity
  8
0
100
AcDbLine
 62
7
  6
CONTINUOUS
 10
168.3372806013
 20
139.0369111792
 11
168.6712551975
 21
139.2297315022
  0
LINE
  5
2A2
100
AcDbEntity
  8
RUNDUNGEN
100
AcDbLine
 62
7
  6
CONTINUOUS
 10
168.3372806013
 20
139.0369111792
 11
168.6712551975
 21
139.2297315022
  0
LINE
  5
2A3
100
AcDbEntity
  8
0
100
AcDbLine
 62
7
  6
CONTINUOUS
 10
171.302640989
 20
112.2797315022
 11
168.6712551975
 21
112.2797315022
  0
LINE
  5
2A4
100
AcDbEntity
  8
0
100
AcDbLine
 62
7
  6
CONTINUOUS
 10
160.1712551975
 20
112.2797315022
 11
153.4212551975
 21
112.2797315022
  0
LINE
  5
2A5
100
AcDbEntity
  8
0
100
AcDbLine
 62
7
  6
CONTINUOUS
 10
160.9052297937
 20
112.5797315022
 11
161.9212551975
 21
112.5797315022
  0
LINE
  5
2A6
100
AcDbEntity
  8
0
100
AcDbLine
 62
7
  6
CONTINUOUS
 10
166.9212551975
 20
112.5797315022
 11
167.9372806013
 21
112.5797315022
  0
LINE
  5
2A7
100
AcDbEntity
  8
0
100
AcDbLine
 62
7
  6
CONTINUOUS
 10
128.1141484163
 20
103.0118382834
 11
127.4316580201
 21
102.3293478871
  0
LINE
  5
2A8
100
AcDbEntity
  8
0
100
AcDbLine
 62
7
  6
CONTINUOUS
 10
142.8825800629
 20
116.4055101877
 11
139.9599303321
 21
116.4055101877
  0
LINE
  5
2A9
100
AcDbEntity
  8
0
100
AcDbLine
 62
7
  6
CONTINUOUS
 10
151.4212551975
 20
94.2547315022
 11
151.4212551975
 21
157.2547315022
  0
LINE
  5
2AA
100
AcDbEntity
  8
RUNDUNGEN
100
AcDbLine
 62
9
  6
CONTINUOUS
 10
153.4212551975
 20
139.2297315022
 11
153.4212551975
 21
112.2797315022
  0
LINE
  5
2AB
100
AcDbEntity
  8
DEFAULT_2
100
AcDbLine
 62
8
  6
HIDDEN
 10
171.9710200811
 20
122.4112315022
 11
186.0360459163
 21
122.4112315022
  0
LINE
  5
2AC
100
AcDbEntity
  8
BOHRUNGEN
100
AcDbLine
 62
8
  6
HIDDEN
 10
187.4212551975
 20
122.7612315022
 11
206.8212551975
 21
122.7612315022
  0
LINE
  5
2AD
100
AcDbEntity
  8
S_ACHSEN
100
AcDbLine
 62
7
  6
CENTER
 10
88.4212551975
 20
125.7547315022
 11
212.4212551975
 21
125.7547315022
  0
LINE
  5
2AE
100
AcDbEntity
  8
0
100
AcDbLine
 62
7
  6
CONTINUOUS
 10
168.3372806013
 20
112.4725518252
 11
168.6712551975
 21
112.2797315022
  0
LINE
  5
2AF
100
AcDbEntity
  8
RUNDUNGEN
100
AcDbLine
 62
7
  6
CONTINUOUS
 10
168.3372806013
 20
112.4725518252
 11
168.6712551975
 21
112.2797315022
  0
LINE
  5
2B0
100
AcDbEntity
  8
0
100
AcDbLine
 62
7
  6
CONTINUOUS
 10
160.1712551975
 20
139.2297315022
 11
160.1712551975
 21
112.2797315022
  0
LINE
  5
2B1
100
AcDbEntity
  8
RUNDUNGEN
100
AcDbLine
 62
9
  6
CONTINUOUS
 10
160.5052297937
 20
112.4725518252
 11
160.5052297937
 21
139.0369111792
  0
LINE
  5
2B2
100
AcDbEntity
  8
RUNDUNGEN
100
AcDbLine
 62
9
  6
CONTINUOUS
 10
160.9052297937
 20
112.5797315022
 11
160.9052297937
 21
138.9297315022
  0
LINE
  5
2B3
100
AcDbEntity
  8
BOHRUNGEN
100
AcDbLine
 62
8
  6
HIDDEN
 10
187.4212551975
 20
128.7482315022
 11
206.8212551975
 21
128.7482315022
  0
LINE
  5
2B4
100
AcDbEntity
  8
RUNDUNGEN
100
AcDbLine
 62
8
  6
HIDDEN
 10
186.0360459163
 20
129.0982315022
 11
171.9710200811
 21
129.0982315022
  0
LINE
  5
2B5
100
AcDbEntity
  8
DEFAULT_2
100
AcDbLine
 62
8
  6
HIDDEN
 10
171.9710200811
 20
129.0982315022
 11
186.0360459163
 21
129.0982315022
  0
LINE
  5
2B6
100
AcDbEntity
  8
0
100
AcDbLine
 62
9
  6
CONTINUOUS
 10
91.4212551975
 20
130.9796026328
 11
127.2213182866
 21
130.9796026328
  0
LINE
  5
2B7
100
AcDbEntity
  8
BEZUGSACHSEN
100
AcDbLine
 62
7
  6
CENTER
 10
164.4212551975
 20
141.9297315022
 11
164.4212551975
 21
128.2297315022
  0
LINE
  5
2B8
100
AcDbEntity
  8
BEZUGSACHSEN
100
AcDbLine
 62
7
  6
CENTER
 10
164.4212551975
 20
109.5797315022
 11
164.4212551975
 21
123.2797315022
  0
LINE
  5
2B9
100
AcDbEntity
  8
0
100
AcDbLine
 62
7
  6
CONTINUOUS
 10
160.1712551975
 20
112.2797315022
 11
160.5052297937
 21
112.4725518252
  0
LINE
  5
2BA
100
AcDbEntity
  8
RUNDUNGEN
100
AcDbLine
 62
7
  6
CONTINUOUS
 10
160.1712551975
 20
112.2797315022
 11
160.5052297937
 21
112.4725518252
  0
LINE
  5
2BB
100
AcDbEntity
  8
0
100
AcDbLine
 62
7
  6
CONTINUOUS
 10
127.4262783086
 20
133.9406746889
 11
127.6742839483
 21
133.9416889449
  0
LINE
  5
2BC
100
AcDbEntity
  8
0
100
AcDbLine
 62
7
  6
CONTINUOUS
 10
142.8825800629
 20
135.1039528167
 11
139.9599303321
 21
135.1039528167
  0
LINE
  5
2BD
100
AcDbEntity
  8
RUNDUNGEN
100
AcDbLine
 62
9
  6
CONTINUOUS
 10
167.9372806013
 20
112.5797315022
 11
167.9372806013
 21
138.9297315022
  0
LINE
  5
2BE
100
AcDbEntity
  8
RUNDUNGEN
100
AcDbLine
 62
9
  6
CONTINUOUS
 10
168.3372806013
 20
112.4725518252
 11
168.3372806013
 21
139.0369111792
  0
LINE
  5
2BF
100
AcDbEntity
  8
0
100
AcDbLine
 62
7
  6
CONTINUOUS
 10
168.6712551975
 20
139.2297315022
 11
168.6712551975
 21
112.2797315022
  0
LINE
  5
2C0
100
AcDbEntity
  8
0
100
AcDbLine
 62
7
  6
CONTINUOUS
 10
171.302640989
 20
112.2797315022
 11
171.302640989
 21
139.2297315022
  0
LINE
  5
2C1
100
AcDbEntity
  8
0
100
AcDbLine
 62
7
  6
CONTINUOUS
 10
127.6742839483
 20
140.4445029349
 11
127.4262783086
 21
140.439673707
  0
LINE
  5
2C2
100
AcDbEntity
  8
0
100
AcDbLine
 62
7
  6
CONTINUOUS
 10
160.9052297937
 20
138.9297315022
 11
161.9212551975
 21
138.9297315022
  0
LINE
  5
2C3
100
AcDbEntity
  8
BEZUGSACHSEN
100
AcDbLine
 62
7
  6
CONTINUOUS
 10
160.9052297937
 20
138.9297315022
 11
161.9212551975
 21
138.9297315022
  0
LINE
  5
2C4
100
AcDbEntity
  8
0
100
AcDbLine
 62
7
  6
CONTINUOUS
 10
166.9212551975
 20
138.9297315022
 11
167.9372806013
 21
138.9297315022
  0
LINE
  5
2C5
100
AcDbEntity
  8
BEZUGSACHSEN
100
AcDbLine
 62
7
  6
CONTINUOUS
 10
166.9212551975
 20
138.9297315022
 11
167.9372806013
 21
138.9297315022
  0
LINE
  5
2C6
100
AcDbEntity
  8
0
100
AcDbLine
 62
7
  6
CONTINUOUS
 10
171.302640989
 20
139.2297315022
 11
168.6712551975
 21
139.2297315022
  0
LINE
  5
2C7
100
AcDbEntity
  8
0
100
AcDbLine
 62
7
  6
CONTINUOUS
 10
153.4212551975
 20
139.2297315022
 11
160.1712551975
 21
139.2297315022
  0
LINE
  5
2C8
100
AcDbEntity
  8
RUNDUNGEN
100
AcDbLine
 62
7
  6
CONTINUOUS
 10
208.4997142932
 20
136.3022583443
 11
171.302640989
 21
139.2297315022
  0
LINE
  5
2C9
100
AcDbEntity
  8
0
100
AcDbLine
 62
7
  6
CONTINUOUS
 10
171.302640989
 20
139.2297315022
 11
208.4997142932
 21
136.3022583443
  0
LINE
  5
2CA
100
AcDbEntity
  8
0
100
AcDbLine
 62
7
  6
CONTINUOUS
 10
160.1712551975
 20
139.2297315022
 11
160.5052297937
 21
139.0369111792
  0
LINE
  5
2CB
100
AcDbEntity
  8
RUNDUNGEN
100
AcDbLine
 62
7
  6
CONTINUOUS
 10
160.1712551975
 20
139.2297315022
 11
160.5052297937
 21
139.0369111792
  0
LINE
  5
2CC
100
AcDbEntity
  8
RUNDUNGEN
100
AcDbLine
 62
9
  6
CONTINUOUS
 10
171.9710200811
 20
122.4112315022
 11
171.9710200811
 21
129.0982315022
  0
LINE
  5
2CD
100
AcDbEntity
  8
0
100
AcDbLine
 62
7
  6
CONTINUOUS
 10
127.4262783086
 20
146.179918072
 11
129.0262783086
 21
146.2201156411
  0
LINE
  5
2CE
100
AcDbEntity
  8
0
100
AcDbLine
 62
7
  6
CONTINUOUS
 10
99.6848599516
 20
145.6830201924
 11
109.4712551975
 21
145.9288885044
  0
LINE
  5
2CF
100
AcDbEntity
  8
0
100
AcDbLine
 62
7
  6
CONTINUOUS
 10
118.6006165307
 20
146.1582498376
 11
127.2213182866
 21
146.3748318718
  0
LINE
  5
2D0
100
AcDbEntity
  8
0
100
AcDbLine
 62
9
  6
CONTINUOUS
 10
92.9212551975
 20
141.4659761409
 11
127.2213182866
 21
142.2122622508
  0
LINE
  5
2D1
100
AcDbEntity
  8
0
100
AcDbLine
 62
7
  6
CONTINUOUS
 10
142.8825800629
 20
155.8353242625
 11
139.9599303321
 21
155.8353242625
  0
LINE
  5
2D2
100
AcDbEntity
  8
0
100
AcDbLine
 62
7
  6
CONTINUOUS
 10
151.4212551975
 20
157.2547315022
 11
146.6430184631
 21
157.2547315022
  0
LINE
  5
2D3
100
AcDbEntity
  8
0
100
AcDbLine
 62
7
  6
CONTINUOUS
 10
136.1994915085
 20
157.2547315022
 11
129.7212552699
 21
157.2547315022
  0
LINE
  5
2D4
100
AcDbEntity
  8
RUNDUNGEN
100
AcDbLine
 62
9
  6
CONTINUOUS
 10
208.4997142932
 20
115.2072046601
 11
208.4997142932
 21
136.3022583443
  0
LINE
  5
2D5
100
AcDbEntity
  8
RUNDUNGEN
100
AcDbLine
 62
7
  6
CONTINUOUS
 10
209.4212551975
 20
135.3053410105
 11
209.4212551975
 21
116.2041219939
  0
ARC
  5
2D6
100
AcDbEntity
  8
0
100
AcDbCircle
 62
7
  6
CONTINUOUS
 10
273.655427971
 20
76.7805336314
 40
159.2595221569
100
AcDbArc
 50
156.0446773748
 51
156.4374589831
  0
ARC
  5
2D7
100
AcDbEntity
  8
ACHSEN
100
AcDbCircle
 62
7
  6
CONTINUOUS
 10
27.66303822
 20
274.1506710539
 40
144.4768984241
100
AcDbArc
 50
296.187103939
 51
296.8519184685
  0
ARC
  5
2D8
100
AcDbEntity
  8
0
100
AcDbCircle
 62
7
  6
CONTINUOUS
 10
20.6692440018
 20
106.4452426728
 40
110.4813700655
100
AcDbArc
 50
13.4640903998
 51
14.4111621352
  0
ARC
  5
2D9
100
AcDbEntity
  8
FASEN
100
AcDbCircle
 62
7
  6
CONTINUOUS
 10
141.738936825
 20
190.2741966079
 40
33.4810590513
100
AcDbArc
 50
260.7443577316
 51
261.5263760617
  0
ARC
  5
2DA
100
AcDbEntity
  8
FASEN
100
AcDbCircle
 62
7
  6
CONTINUOUS
 10
141.1325089525
 20
190.0731825727
 40
33.2779791137
100
AcDbArc
 50
278.4783395641
 51
278.9327386751
  0
ARC
  5
2DB
100
AcDbEntity
  8
FASEN
100
AcDbCircle
 62
7
  6
CONTINUOUS
 10
141.3819019044
 20
188.3493123358
 40
31.5361794107
100
AcDbArc
 50
270.0714981405
 51
278.4919515563
  0
ARC
  5
2DC
100
AcDbEntity
  8
FASEN
100
AcDbCircle
 62
7
  6
CONTINUOUS
 10
141.434048321
 20
187.9940738388
 40
31.1809189841
100
AcDbArc
 50
261.4631188813
 51
269.97649229
  0
ARC
  5
2DD
100
AcDbEntity
  8
BEZUGSACHSEN
100
AcDbCircle
 62
7
  6
CONTINUOUS
 10
164.4225247709
 20
99.8813026605
 40
12.9377949806
100
AcDbArc
 50
88.5543243387
 51
91.4430878883
  0
ARC
  5
2DE
100
AcDbEntity
  8
BEZUGSACHSEN
100
AcDbCircle
 62
7
  6
CONTINUOUS
 10
164.41998707
 20
151.6281536811
 40
12.9377883176
100
AcDbArc
 50
268.5548407768
 51
271.4425071998
  0
ARC
  5
2DF
100
AcDbEntity
  8
0
100
AcDbCircle
 62
2
  6
CONTINUOUS
 10
164.4212551975
 20
125.7547315022
 40
3.0
100
AcDbArc
 50
255.0758225062
 51
194.9838524997
  0
CIRCLE
  5
2E0
100
AcDbEntity
  8
BEZUGSACHSEN
100
AcDbCircle
 62
7
  6
CONTINUOUS
 10
164.4212551975
 20
125.7547315022
 40
2.5
  0
ARC
  5
2E1
100
AcDbEntity
  8
RUNDUNGEN
100
AcDbCircle
 62
7
  6
CONTINUOUS
 10
153.4212551975
 20
141.2297315022
 40
2.0
100
AcDbArc
 50
180.0000000017
 51
270.0
  0
ARC
  5
2E2
100
AcDbEntity
  8
RUNDUNGEN
100
AcDbCircle
 62
7
  6
CONTINUOUS
 10
153.4212551975
 20
110.2797315022
 40
2.0
100
AcDbArc
 50
90.0
 51
179.9999999954
  0
ARC
  5
2E3
100
AcDbEntity
  8
RUNDUNGEN
100
AcDbCircle
 62
7
  6
CONTINUOUS
 10
208.4212551975
 20
135.3053410105
 40
1.0
100
AcDbArc
 50
0.0
 51
85.4999999962
  0
ARC
  5
2E4
100
AcDbEntity
  8
RUNDUNGEN
100
AcDbCircle
 62
7
  6
CONTINUOUS
 10
208.4212551975
 20
116.2041219939
 40
1.0
100
AcDbArc
 50
274.500000003
 51
360.0
  0
ARC
  5
2E5
100
AcDbEntity
  8
0
100
AcDbCircle
 62
7
  6
CONTINUOUS
 10
128.8212551975
 20
102.3047315022
 40
1.0
100
AcDbArc
 50
53.0400606802
 51
135.0
  0
ARC
  5
2E6
100
AcDbEntity
  8
0
100
AcDbCircle
 62
7
  6
CONTINUOUS
 10
128.8212551975
 20
149.2047315022
 40
1.0
100
AcDbArc
 50
293.5781784782
 51
306.9599393198
  0
ARC
  5
2E7
100
AcDbEntity
  8
RUNDUNGEN
100
AcDbCircle
 62
7
  6
CONTINUOUS
 10
167.9372806013
 20
139.7297315022
 40
0.8
100
AcDbArc
 50
270.0
 51
300.000000007
  0
ARC
  5
2E8
100
AcDbEntity
  8
RUNDUNGEN
100
AcDbCircle
 62
7
  6
CONTINUOUS
 10
167.9372806013
 20
111.7797315022
 40
0.8
100
AcDbArc
 50
59.9999999689
 51
90.0
  0
ARC
  5
2E9
100
AcDbEntity
  8
RUNDUNGEN
100
AcDbCircle
 62
7
  6
CONTINUOUS
 10
160.9052297937
 20
139.7297315022
 40
0.8
100
AcDbArc
 50
239.9999999929
 51
270.0
  0
ARC
  5
2EA
100
AcDbEntity
  8
RUNDUNGEN
100
AcDbCircle
 62
7
  6
CONTINUOUS
 10
160.9052297937
 20
111.7797315022
 40
0.8
100
AcDbArc
 50
90.0
 51
120.0000000302
  0
ARC
  5
2EB
100
AcDbEntity
  8
0
100
AcDbCircle
 62
7
  6
CONTINUOUS
 10
129.0212551975
 20
146.420052552
 40
0.2
100
AcDbArc
 50
271.439166666
 51
360.0
  0
ARC
  5
2EC
100
AcDbEntity
  8
0
100
AcDbCircle
 62
7
  6
CONTINUOUS
 10
127.4212551975
 20
146.3798549829
 40
0.2
100
AcDbArc
 50
181.439166666
 51
271.439166666
  0
SPLINE
  5
2ED
100
AcDbEntity
  8
0
100
AcDbSpline
 62
2
  6
CONTINUOUS
 70
0
 71
3
 72
13
 73
9
 74
0
 42
0.0000001
 43
0.0000001
 44
0.0000000001
 40
0.0
 40
0.0
 40
0.0
 40
0.0
 40
0.1666666667
 40
0.3333333333
 40
0.5
 40
0.6666666667
 40
0.8333333333
 40
1.0
 40
1.0
 40
1.0
 40
1.0
 10
167.4212551975
 20
112.5797315022
 30
0.0
 10
167.4212551975
 20
112.5797315022
 30
0.0
 10
167.3530562758
 20
112.5955612438
 30
0.0
 10
167.0418344281
 20
112.6627797297
 30
0.0
 10
166.5628288938
 20
112.7522109269
 30
0.0
 10
165.9289134523
 20
112.8436022664
 30
0.0
 10
165.1994499965
 20
112.9097553209
 30
0.0
 10
164.6801548981
 20
112.9258334591
 30
0.0
 10
164.4212551975
 20
112.9258334591
 30
0.0
  0
SPLINE
  5
2EE
100
AcDbEntity
  8
0
100
AcDbSpline
 62
2
  6
CONTINUOUS
 70
0
 71
3
 72
14
 73
10
 74
0
 42
0.0000001
 43
0.0000001
 44
0.0000000001
 40
0.0
 40
0.0
 40
0.0
 40
0.0
 40
0.1428571429
 40
0.2857142857
 40
0.4285714286
 40
0.5714285714
 40
0.7142857143
 40
0.8571428571
 40
1.0
 40
1.0
 40
1.0
 40
1.0
 10
164.4212551975
 20
112.9258334591
 30
0.0
 10
164.1991426888
 20
112.9258334591
 30
0.0
 10
163.7538248913
 20
112.9141706171
 30
0.0
 10
163.1108715655
 20
112.8638495845
 30
0.0
 10
162.5415463058
 20
112.7923807035
 30
0.0
 10
162.0564696233
 20
112.7119320601
 30
0.0
 10
161.6969902779
 20
112.6407642324
 30
0.0
 10
161.4729931524
 20
112.5916553277
 30
0.0
 10
161.4212551975
 20
112.5797315022
 30
0.0
 10
161.4212551975
 20
112.5797315022
 30
0.0
  0
SPLINE
  5
2EF
100
AcDbEntity
  8
0
100
AcDbSpline
 62
2
  6
CONTINUOUS
 70
0
 71
3
 72
13
 73
9
 74
0
 42
0.0000001
 43
0.0000001
 44
0.0000000001
 40
0.0
 40
0.0
 40
0.0
 40
0.0
 40
0.1666666667
 40
0.3333333333
 40
0.5
 40
0.6666666667
 40
0.8333333333
 40
1.0
 40
1.0
 40
1.0
 40
1.0
 10
164.4212551975
 20
138.5836295453
 30
0.0
 10
164.6803885803
 20
138.5836295453
 30
0.0
 10
165.2002184835
 20
138.599718728
 30
0.0
 10
165.9315600067
 20
138.66616298
 30
0.0
 10
166.5645921467
 20
138.7575482971
 30
0.0
 10
167.0442671641
 20
138.8471712768
 30
0.0
 10
167.3537695108
 20
138.9140725807
 30
0.0
 10
167.4212551975
 20
138.9297315022
 30
0.0
 10
167.4212551975
 20
138.9297315022
 30
0.0
  0
SPLINE
  5
2F0
100
AcDbEntity
  8
0
100
AcDbSpline
 62
2
  6
CONTINUOUS
 70
0
 71
3
 72
13
 73
9
 74
0
 42
0.0000001
 43
0.0000001
 44
0.0000000001
 40
0.0
 40
0.0
 40
0.0
 40
0.0
 40
0.1666666667
 40
0.3333333333
 40
0.5
 40
0.6666666667
 40
0.8333333333
 40
1.0
 40
1.0
 40
1.0
 40
1.0
 10
161.4212551975
 20
138.9297315022
 30
0.0
 10
161.4212551975
 20
138.9297315022
 30
0.0
 10
161.4887736438
 20
138.9140680683
 30
0.0
 10
161.7977314776
 20
138.8472745631
 30
0.0
 10
162.2776912935
 20
138.7575839847
 30
0.0
 10
162.91063672
 20
138.6661992626
 30
0.0
 10
163.6421995368
 20
138.5997199875
 30
0.0
 10
164.1620942473
 20
138.5836295453
 30
0.0
 10
164.4212551975
 20
138.5836295453
 30
0.0
  0
LINE
  5
2F1
100
AcDbEntity
  8
FASEN
100
AcDbLine
 62
7
  6
CONTINUOUS
 10
136.353851308
 20
157.229043118
 11
136.2352871676
 21
157.248616585
  0
LINE
  5
2F2
100
AcDbEntity
  8
FASEN
100
AcDbLine
 62
7
  6
CONTINUOUS
 10
136.2352871676
 20
157.248616585
 11
136.1988137585
 21
157.2546959434
  0
LINE
  5
2F3
100
AcDbEntity
  8
FASEN
100
AcDbLine
 62
7
  6
CONTINUOUS
 10
146.6072197846
 20
157.2486160219
 11
146.6436965524
 21
157.2546959409
  0
LINE
  5
2F4
100
AcDbEntity
  8
ACHSEN
100
AcDbLine
 62
7
  6
CONTINUOUS
 10
97.7712551975
 20
145.3587828009
 11
92.9212551975
 21
145.2517211157
  0
LINE
  5
2F5
100
AcDbEntity
  8
ACHSEN
100
AcDbLine
 62
7
  6
CONTINUOUS
 10
99.6848745454
 20
145.6812835781
 11
99.6998254835
 21
145.6833893075
  0
SPLINE
  5
2F6
100
AcDbEntity
  8
BEZUGSACHSEN
100
AcDbSpline
 62
7
  6
CONTINUOUS
 70
0
 71
3
 72
9
 73
5
 74
0
 42
0.0000001
 43
0.0000001
 44
0.0000000001
 40
0.0
 40
0.0
 40
0.0
 40
0.0
 40
0.2877221369
 40
1.0
 40
1.0
 40
1.0
 40
1.0
 10
161.9212551975
 20
112.5797315022
 30
0.0
 10
162.1274498597
 20
112.618949257
 30
0.0
 10
162.8476970034
 20
112.739240104
 30
0.0
 10
163.5769967412
 20
112.8019523851
 30
0.0
 10
164.0966997018
 20
112.8149942056
 30
0.0
  0
SPLINE
  5
2F7
100
AcDbEntity
  8
BEZUGSACHSEN
100
AcDbSpline
 62
7
  6
CONTINUOUS
 70
0
 71
3
 72
9
 73
5
 74
0
 42
0.0000001
 43
0.0000001
 44
0.0000000001
 40
0.0
 40
0.0
 40
0.0
 40
0.0
 40
0.2877255055
 40
1.0
 40
1.0
 40
1.0
 40
1.0
 10
166.9212551975
 20
138.9297315022
 30
0.0
 10
166.7150459242
 20
138.8905109573
 30
0.0
 10
165.9947558802
 20
138.7702141154
 30
0.0
 10
165.2654123035
 20
138.7075028166
 30
0.0
 10
164.7456808895
 20
138.6944654953
 30
0.0
  0
SPLINE
  5
2F8
100
AcDbEntity
  8
BEZUGSACHSEN
100
AcDbSpline
 62
7
  6
CONTINUOUS
 70
0
 71
3
 72
9
 73
5
 74
0
 42
0.0000001
 43
0.0000001
 44
0.0000000001
 40
0.0
 40
0.0
 40
0.0
 40
0.0
 40
0.7122765598
 40
1.0
 40
1.0
 40
1.0
 40
1.0
 10
164.0962389114
 20
138.6944806005
 30
0.0
 10
163.5766466225
 20
138.7075381218
 30
0.0
 10
162.8475024833
 20
138.7702527736
 30
0.0
 10
162.1274074856
 20
138.890521742
 30
0.0
 10
161.9212551975
 20
138.9297315022
 30
0.0
  0
SPLINE
  5
2F9
100
AcDbEntity
  8
BEZUGSACHSEN
100
AcDbSpline
 62
7
  6
CONTINUOUS
 70
0
 71
3
 72
9
 73
5
 74
0
 42
0.0000001
 43
0.0000001
 44
0.0000000001
 40
0.0
 40
0.0
 40
0.0
 40
0.0
 40
0.7122798401
 40
1.0
 40
1.0
 40
1.0
 40
1.0
 10
164.7463869437
 20
112.8149794608
 30
0.0
 10
165.2659541293
 20
112.8019179337
 30
0.0
 10
165.995059273
 20
112.7392023842
 30
0.0
 10
166.7151161083
 20
112.6189387386
 30
0.0
 10
166.9212551975
 20
112.5797315022
 30
0.0
  0
SPLINE
  5
2FA
100
AcDbEntity
  8
ACHSEN
100
AcDbSpline
 62
7
  6
CONTINUOUS
 70
0
 71
3
 72
10
 73
6
 74
0
 42
0.0000001
 43
0.0000001
 44
0.0000000001
 40
0.0
 40
0.0
 40
0.0
 40
0.0
 40
0.0929965444
 40
0.3287693884
 40
1.0
 40
1.0
 40
1.0
 40
1.0
 10
99.6998254831
 20
145.6833893074
 30
0.0
 10
99.6397239082
 20
145.6754058101
 30
0.0
 10
99.4276714778
 20
145.6440891426
 30
0.0
 10
98.7829739655
 20
145.5471416408
 30
0.0
 10
98.2006727182
 20
145.4430713476
 30
0.0
 10
97.7712551975
 20
145.3587828009
 30
0.0
  0
SPLINE
  5
2FB
100
AcDbEntity
  8
ACHSEN
100
AcDbSpline
 62
7
  6
CONTINUOUS
 70
0
 71
3
 72
11
 73
7
 74
0
 42
0.0000001
 43
0.0000001
 44
0.0000000001
 40
0.0
 40
0.0
 40
0.0
 40
0.0
 40
0.1537099379
 40
0.500508937
 40
0.8472910559
 40
1.0
 40
1.0
 40
1.0
 40
1.0
 10
118.6006165307
 20
146.1582498376
 30
0.0
 10
118.1370312616
 20
146.0869728829
 30
0.0
 10
116.6227989474
 20
145.8829151105
 30
0.0
 10
114.0400245199
 20
145.6974060786
 30
0.0
 10
111.45397849
 20
145.7503532973
 30
0.0
 10
109.9346893073
 20
145.88011979
 30
0.0
 10
109.4712551975
 20
145.9288885044
 30
0.0
  0
SPLINE
  5
2FC
100
AcDbEntity
  8
FASEN
100
AcDbSpline
 62
7
  6
CONTINUOUS
 70
0
 71
3
 72
14
 73
10
 74
0
 42
0.0000001
 43
0.0000001
 44
0.0000000001
 40
0.0
 40
0.0
 40
0.0
 40
0.0
 40
0.0157900598
 40
0.0631403562
 40
0.142047617
 40
0.2523628535
 40
0.3937103412
 40
0.5656951827
 40
1.0
 40
1.0
 40
1.0
 40
1.0
 10
146.6436965519
 20
157.2546959411
 30
0.0
 10
146.6418820213
 20
157.2549630613
 30
0.0
 10
146.634660418
 20
157.2523759893
 30
0.0
 10
146.6183727656
 20
157.2510004619
 30
0.0
 10
146.5912747926
 20
157.2457214667
 30
0.0
 10
146.5533938103
 20
157.2397633396
 30
0.0
 10
146.5048398356
 20
157.2316411005
 30
0.0
 10
146.4191251522
 20
157.2177560821
 30
0.0
 10
146.3495781606
 20
157.2066524222
 30
0.0
 10
146.2997431321
 20
157.1988219732
 30
0.0
  0
SPLINE
  5
2FD
100
AcDbEntity
  8
0
100
AcDbSpline
 62
7
  6
CONTINUOUS
 70
0
 71
3
 72
13
 73
9
 74
0
 42
0.0000001
 43
0.0000001
 44
0.0000000001
 40
0.0
 40
0.0
 40
0.0
 40
0.0
 40
0.1753307868
 40
0.3422637982
 40
0.4768046258
 40
0.5947351366
 40
0.8062611466
 40
1.0
 40
1.0
 40
1.0
 40
1.0
 10
129.0262783086
 20
104.2273027621
 30
0.0
 10
128.9623655637
 20
104.2542429237
 30
0.0
 10
128.8245885204
 20
104.2829809098
 30
0.0
 10
128.6369415222
 20
104.2342020918
 30
0.0
 10
128.4953568385
 20
104.1453601888
 30
0.0
 10
128.3588916157
 20
104.021757577
 30
0.0
 10
128.2304729292
 20
103.8578809709
 30
0.0
 10
128.1494329322
 20
103.7192099786
 30
0.0
 10
128.1141484163
 20
103.6511748513
 30
0.0
  0
SPLINE
  5
2FE
100
AcDbEntity
  8
0
100
AcDbSpline
 62
7
  6
CONTINUOUS
 70
0
 71
3
 72
13
 73
9
 74
0
 42
0.0000001
 43
0.0000001
 44
0.0000000001
 40
0.0
 40
0.0
 40
0.0
 40
0.0
 40
0.286526882
 40
0.4543474408
 40
0.5599589325
 40
0.648267425
 40
0.8182504149
 40
1.0
 40
1.0
 40
1.0
 40
1.0
 10
129.0262783086
 20
104.2273027621
 30
0.0
 10
129.0516645925
 20
104.2166020702
 30
0.0
 10
129.0943898019
 20
104.2038031477
 30
0.0
 10
129.1495796952
 20
104.2080070141
 30
0.0
 10
129.1807647558
 20
104.2252930898
 30
0.0
 10
129.2038270606
 20
104.2523047305
 30
0.0
 10
129.2180658522
 20
104.2932833174
 30
0.0
 10
129.2208455262
 20
104.3271002637
 30
0.0
 10
129.2211689908
 20
104.344572377
 30
0.0
  0
SPLINE
  5
2FF
100
AcDbEntity
  8
0
100
AcDbSpline
 62
7
  6
CONTINUOUS
 70
0
 71
3
 72
17
 73
13
 74
0
 42
0.0000001
 43
0.0000001
 44
0.0000000001
 40
0.0
 40
0.0
 40
0.0
 40
0.0
 40
0.125135549
 40
0.2502986125
 40
0.3754807531
 40
0.5006727147
 40
0.6258456077
 40
0.6884746641
 40
0.7511065344
 40
0.8746656069
 40
0.9373062378
 40
1.0
 40
1.0
 40
1.0
 40
1.0
 10
128.1141484163
 20
132.1692712629
 30
0.0
 10
128.13121676
 20
132.0979449543
 30
0.0
 10
128.1674833218
 20
131.9557712728
 30
0.0
 10
128.2295297954
 20
131.7445777629
 30
0.0
 10
128.3011109545
 20
131.5363400731
 30
0.0
 10
128.3854510095
 20
131.332837465
 30
0.0
 10
128.4706203631
 20
131.1699545701
 30
0.0
 10
128.5542747695
 20
131.0486430224
 30
0.0
 10
128.6491098899
 20
130.9393158699
 30
0.0
 10
128.783718272
 20
130.8532397312
 30
0.0
 10
128.9342453037
 20
130.8748326196
 30
0.0
 10
128.9975531229
 20
130.914769574
 30
0.0
 10
129.0262783086
 20
130.9376819553
 30
0.0
  0
SPLINE
  5
300
100
AcDbEntity
  8
0
100
AcDbSpline
 62
7
  6
CONTINUOUS
 70
0
 71
3
 72
13
 73
9
 74
0
 42
0.0000001
 43
0.0000001
 44
0.0000000001
 40
0.0
 40
0.0
 40
0.0
 40
0.0
 40
0.1670510693
 40
0.3289369806
 40
0.4609641718
 40
0.578209763
 40
0.7939442568
 40
1.0
 40
1.0
 40
1.0
 40
1.0
 10
129.0262783086
 20
142.0992097892
 30
0.0
 10
128.9618448578
 20
142.1234448942
 30
0.0
 10
128.8226438649
 20
142.1453792366
 30
0.0
 10
128.6360358766
 20
142.0889030644
 30
0.0
 10
128.4945748385
 20
141.9933396098
 30
0.0
 10
128.3570462411
 20
141.8589721407
 30
0.0
 10
128.2276265366
 20
141.6765998821
 30
0.0
 10
128.14862657
 20
141.521347641
 30
0.0
 10
128.1141484163
 20
141.4437483924
 30
0.0
  0
SPLINE
  5
301
100
AcDbEntity
  8
0
100
AcDbSpline
 62
7
  6
CONTINUOUS
 70
0
 71
3
 72
16
 73
12
 74
0
 42
0.0000001
 43
0.0000001
 44
0.0000000001
 40
0.0
 40
0.0
 40
0.0
 40
0.0
 40
0.0735401093
 40
0.1545841369
 40
0.2292313659
 40
0.2978973002
 40
0.4259913051
 40
0.5473045002
 40
0.6644420892
 40
0.7785599955
 40
1.0
 40
1.0
 40
1.0
 40
1.0
 10
129.0262783086
 20
142.0992097892
 30
0.0
 10
129.0387301274
 20
142.0945263347
 30
0.0
 10
129.067880368
 20
142.0904458258
 30
0.0
 10
129.1073499217
 20
142.1086878358
 30
0.0
 10
129.1349113878
 20
142.1390911873
 30
0.0
 10
129.1608073006
 20
142.1809686198
 30
0.0
 10
129.1818870864
 20
142.2349005553
 30
0.0
 10
129.198415928
 20
142.2991714462
 30
0.0
 10
129.2092318749
 20
142.3620899591
 30
0.0
 10
129.2183200416
 20
142.4435050888
 30
0.0
 10
129.2208259087
 20
142.5042419433
 30
0.0
 10
129.2211689908
 20
142.5442991896
 30
0.0
  0
SPLINE
  5
302
100
AcDbEntity
  8
0
100
AcDbSpline
 62
7
  6
CONTINUOUS
 70
0
 71
3
 72
17
 73
13
 74
0
 42
0.0000001
 43
0.0000001
 44
0.0000000001
 40
0.0
 40
0.0
 40
0.0
 40
0.0
 40
0.2841775711
 40
0.4146661432
 40
0.5373502072
 40
0.652341305
 40
0.7602377654
 40
0.8121867936
 40
0.8638391814
 40
0.9180398508
 40
0.9497831112
 40
1.0
 40
1.0
 40
1.0
 40
1.0
 10
127.2213182866
 20
104.072329623
 30
0.0
 10
127.2213182866
 20
103.9527561856
 30
0.0
 10
127.2211754732
 20
103.778273526
 30
0.0
 10
127.2235554685
 20
103.5521834419
 30
0.0
 10
127.2281750363
 20
103.3973139396
 30
0.0
 10
127.2381026135
 20
103.2522148187
 30
0.0
 10
127.2542169289
 20
103.1374533449
 30
0.0
 10
127.2761853307
 20
103.0510762515
 30
0.0
 10
127.2994894579
 20
102.9887766327
 30
0.0
 10
127.3296241574
 20
102.9384316109
 30
0.0
 10
127.3707137055
 20
102.8981843456
 30
0.0
 10
127.4051544039
 20
102.8843438313
 30
0.0
 10
127.4262783086
 20
102.8838461107
 30
0.0
  0
SPLINE
  5
303
100
AcDbEntity
  8
0
100
AcDbSpline
 62
7
  6
CONTINUOUS
 70
0
 71
3
 72
9
 73
5
 74
0
 42
0.0000001
 43
0.0000001
 44
0.0000000001
 40
0.0
 40
0.0
 40
0.0
 40
0.0
 40
0.2573720101
 40
1.0
 40
1.0
 40
1.0
 40
1.0
 10
128.1141484163
 20
103.6511748513
 30
0.0
 10
128.0790090281
 20
103.5834195571
 30
0.0
 10
127.9400208926
 20
103.3214479061
 30
0.0
 10
127.791037402
 20
103.0647387561
 30
0.0
 10
127.6742839483
 20
102.8780026269
 30
0.0
  0
SPLINE
  5
304
100
AcDbEntity
  8
0
100
AcDbSpline
 62
7
  6
CONTINUOUS
 70
0
 71
3
 72
12
 73
8
 74
0
 42
0.0000001
 43
0.0000001
 44
0.0000000001
 40
0.0
 40
0.0
 40
0.0
 40
0.0
 40
0.128679218
 40
0.2561331636
 40
0.5063352459
 40
0.7539715031
 40
1.0
 40
1.0
 40
1.0
 40
1.0
 10
142.8825800629
 20
116.4055101877
 30
0.0
 10
142.9134561885
 20
116.4055101877
 30
0.0
 10
142.975370815
 20
116.3931869612
 30
0.0
 10
143.0815917421
 20
116.3312721701
 30
0.0
 10
143.1809630155
 20
116.214510605
 30
0.0
 10
143.262339306
 20
116.0550157963
 30
0.0
 10
143.300016046
 20
115.9422604346
 30
0.0
 10
143.3155927648
 20
115.8853188832
 30
0.0
  0
SPLINE
  5
305
100
AcDbEntity
  8
0
100
AcDbSpline
 62
7
  6
CONTINUOUS
 70
0
 71
3
 72
9
 73
5
 74
0
 42
0.0000001
 43
0.0000001
 44
0.0000000001
 40
0.0
 40
0.0
 40
0.0
 40
0.0
 40
0.1680195226
 40
1.0
 40
1.0
 40
1.0
 40
1.0
 10
143.3155927648
 20
95.8407766557
 30
0.0
 10
143.2987444918
 20
95.8204565398
 30
0.0
 10
143.1832912092
 20
95.7119755636
 30
0.0
 10
143.0132869742
 20
95.6741387419
 30
0.0
 10
142.8825800629
 20
95.6741387419
 30
0.0
  0
SPLINE
  5
306
100
AcDbEntity
  8
0
100
AcDbSpline
 62
7
  6
CONTINUOUS
 70
0
 71
3
 72
12
 73
8
 74
0
 42
0.0000001
 43
0.0000001
 44
0.0000000001
 40
0.0
 40
0.0
 40
0.0
 40
0.0
 40
0.2460454262
 40
0.4936983158
 40
0.7439199328
 40
0.8713555617
 40
1.0
 40
1.0
 40
1.0
 40
1.0
 10
139.5269176302
 20
115.8853188832
 30
0.0
 10
139.5424954428
 20
115.942264433
 30
0.0
 10
139.5801774624
 20
116.0550249384
 30
0.0
 10
139.6615532103
 20
116.2145416065
 30
0.0
 10
139.7609578222
 20
116.3312691392
 30
0.0
 10
139.8671536386
 20
116.3932169776
 30
0.0
 10
139.9290625083
 20
116.4055101877
 30
0.0
 10
139.9599303321
 20
116.4055101877
 30
0.0
  0
SPLINE
  5
307
100
AcDbEntity
  8
0
100
AcDbSpline
 62
7
  6
CONTINUOUS
 70
0
 71
3
 72
9
 73
5
 74
0
 42
0.0000001
 43
0.0000001
 44
0.0000000001
 40
0.0
 40
0.0
 40
0.0
 40
0.0
 40
0.3641598889
 40
1.0
 40
1.0
 40
1.0
 40
1.0
 10
139.9599303321
 20
95.6741387419
 30
0.0
 10
139.9025539103
 20
95.6741387419
 30
0.0
 10
139.7463675772
 20
95.6902578359
 30
0.0
 10
139.5908615865
 20
95.7636560748
 30
0.0
 10
139.5269176302
 20
95.8407766557
 30
0.0
  0
SPLINE
  5
308
100
AcDbEntity
  8
0
100
AcDbSpline
 62
7
  6
CONTINUOUS
 70
0
 71
3
 72
9
 73
5
 74
0
 42
0.0000001
 43
0.0000001
 44
0.0000000001
 40
0.0
 40
0.0
 40
0.0
 40
0.0
 40
0.3642526053
 40
1.0
 40
1.0
 40
1.0
 40
1.0
 10
142.8825800629
 20
155.8353242625
 30
0.0
 10
142.9399714694
 20
155.8353242625
 30
0.0
 10
143.096160928
 20
155.819209707
 30
0.0
 10
143.2516577133
 20
155.7457961899
 30
0.0
 10
143.3155927648
 20
155.6686863487
 30
0.0
  0
SPLINE
  5
309
100
AcDbEntity
  8
0
100
AcDbSpline
 62
7
  6
CONTINUOUS
 70
0
 71
3
 72
17
 73
13
 74
0
 42
0.0000001
 43
0.0000001
 44
0.0000000001
 40
0.0
 40
0.0
 40
0.0
 40
0.0
 40
0.2536810086
 40
0.3797805479
 40
0.5052013146
 40
0.6297018311
 40
0.6915472735
 40
0.7529628459
 40
0.813907906
 40
0.8744772172
 40
0.9358455192
 40
1.0
 40
1.0
 40
1.0
 40
1.0
 10
129.2212633377
 20
130.3316856974
 30
0.0
 10
129.2213064946
 20
130.3927965924
 30
0.0
 10
129.220099686
 20
130.4843309992
 30
0.0
 10
129.2119566857
 20
130.6057938275
 30
0.0
 10
129.2019431608
 20
130.6958484518
 30
0.0
 10
129.1889022541
 20
130.7699219081
 30
0.0
 10
129.1739239019
 20
130.8277167739
 30
0.0
 10
129.1595585587
 20
130.8698197894
 30
0.0
 10
129.1401291408
 20
130.9093905121
 30
0.0
 10
129.1138541686
 20
130.9457640545
 30
0.0
 10
129.067485084
 20
130.9633243715
 30
0.0
 10
129.0383602158
 20
130.947318978
 30
0.0
 10
129.0262783086
 20
130.9376819553
 30
0.0
  0
SPLINE
  5
30A
100
AcDbEntity
  8
0
100
AcDbSpline
 62
7
  6
CONTINUOUS
 70
0
 71
3
 72
21
 73
17
 74
0
 42
0.0000001
 43
0.0000001
 44
0.0000000001
 40
0.0
 40
0.0
 40
0.0
 40
0.0
 40
0.0152736556
 40
0.0307400416
 40
0.0615944727
 40
0.0924597446
 40
0.1233512662
 40
0.1852330485
 40
0.2472659363
 40
0.3094463907
 40
0.3717660941
 40
0.4967787028
 40
0.6222117836
 40
0.747963109
 40
0.8739278454
 40
1.0
 40
1.0
 40
1.0
 40
1.0
 10
127.4262783086
 20
133.9406746889
 30
0.0
 10
127.4110159934
 20
133.9406122696
 30
0.0
 10
127.3853278285
 20
133.9146151149
 30
0.0
 10
127.3595867359
 20
133.8608625791
 30
0.0
 10
127.335939206
 20
133.7860906861
 30
0.0
 10
127.3161408327
 20
133.6959958617
 30
0.0
 10
127.2951631577
 20
133.5740984975
 30
0.0
 10
127.2762597576
 20
133.4205496941
 30
0.0
 10
127.2600321175
 20
133.2352657419
 30
0.0
 10
127.2482629229
 20
133.0492316745
 30
0.0
 10
127.236808283
 20
132.8001558222
 30
0.0
 10
127.2283945189
 20
132.4877103031
 30
0.0
 10
127.2236420707
 20
132.1118148232
 30
0.0
 10
127.2218276481
 20
131.734944767
 30
0.0
 10
127.2213543099
 20
131.357434134
 30
0.0
 10
127.2213182866
 20
131.1055822351
 30
0.0
 10
127.2213182866
 20
130.9796026328
 30
0.0
  0
SPLINE
  5
30B
100
AcDbEntity
  8
0
100
AcDbSpline
 62
7
  6
CONTINUOUS
 70
0
 71
3
 72
17
 73
13
 74
0
 42
0.0000001
 43
0.0000001
 44
0.0000000001
 40
0.0
 40
0.0
 40
0.0
 40
0.0
 40
0.2182009024
 40
0.3349220057
 40
0.456586696
 40
0.5831112211
 40
0.7144823146
 40
0.7820564401
 40
0.8510300181
 40
0.92186225
 40
0.958727904
 40
1.0
 40
1.0
 40
1.0
 40
1.0
 10
127.2213182866
 20
142.2122622508
 30
0.0
 10
127.2213182866
 20
142.0799832366
 30
0.0
 10
127.2213005992
 20
141.8769435752
 30
0.0
 10
127.223707708
 20
141.6001548049
 30
0.0
 10
127.2285329016
 20
141.3789824023
 30
0.0
 10
127.2388186396
 20
141.1490674214
 30
0.0
 10
127.254943663
 20
140.9523987262
 30
0.0
 10
127.2765177636
 20
140.7911978546
 30
0.0
 10
127.2991222342
 20
140.6680275626
 30
0.0
 10
127.3287180304
 20
140.5628768319
 30
0.0
 10
127.3631497052
 20
140.4834069777
 30
0.0
 10
127.4012628417
 20
140.439186601
 30
0.0
 10
127.4262783086
 20
140.439673707
 30
0.0
  0
SPLINE
  5
30C
100
AcDbEntity
  8
0
100
AcDbSpline
 62
7
  6
CONTINUOUS
 70
0
 71
3
 72
11
 73
7
 74
0
 42
0.0000001
 43
0.0000001
 44
0.0000000001
 40
0.0
 40
0.0
 40
0.0
 40
0.0
 40
0.2163338898
 40
0.4581730139
 40
0.72121324
 40
1.0
 40
1.0
 40
1.0
 40
1.0
 10
127.6742839483
 20
140.4445029349
 30
0.0
 10
127.5885825604
 20
139.9817813792
 30
0.0
 10
127.4663140744
 20
138.9905699818
 30
0.0
 10
127.4117320333
 20
137.421223271
 30
0.0
 10
127.4763595456
 20
135.7164368395
 30
0.0
 10
127.5956681634
 20
134.5430165227
 30
0.0
 10
127.6742839483
 20
133.9416889449
 30
0.0
  0
SPLINE
  5
30D
100
AcDbEntity
  8
0
100
AcDbSpline
 62
7
  6
CONTINUOUS
 70
0
 71
3
 72
12
 73
8
 74
0
 42
0.0000001
 43
0.0000001
 44
0.0000000001
 40
0.0
 40
0.0
 40
0.0
 40
0.0
 40
0.2460280129
 40
0.4936634005
 40
0.7438647573
 40
0.8713194616
 40
1.0
 40
1.0
 40
1.0
 40
1.0
 10
143.3155927648
 20
135.6241441212
 30
0.0
 10
143.3000160778
 20
135.5672026859
 30
0.0
 10
143.2623395826
 20
135.4544475111
 30
0.0
 10
143.1809631287
 20
135.2949536704
 30
0.0
 10
143.0815933495
 20
135.1781906111
 30
0.0
 10
142.9753713254
 20
135.116277303
 30
0.0
 10
142.9134565031
 20
135.1039528167
 30
0.0
 10
142.8825800629
 20
135.1039528167
 30
0.0
  0
SPLINE
  5
30E
100
AcDbEntity
  8
0
100
AcDbSpline
 62
7
  6
CONTINUOUS
 70
0
 71
3
 72
9
 73
5
 74
0
 42
0.0000001
 43
0.0000001
 44
0.0000000001
 40
0.0
 40
0.0
 40
0.0
 40
0.0
 40
0.1680322176
 40
1.0
 40
1.0
 40
1.0
 40
1.0
 10
139.5269176302
 20
155.6686863487
 30
0.0
 10
139.5437671892
 20
155.6890080155
 30
0.0
 10
139.659221766
 20
155.7974880475
 30
0.0
 10
139.8292253151
 20
155.8353242625
 30
0.0
 10
139.9599303321
 20
155.8353242625
 30
0.0
  0
SPLINE
  5
30F
100
AcDbEntity
  8
0
100
AcDbSpline
 62
7
  6
CONTINUOUS
 70
0
 71
3
 72
12
 73
8
 74
0
 42
0.0000001
 43
0.0000001
 44
0.0000000001
 40
0.0
 40
0.0
 40
0.0
 40
0.0
 40
0.1286448926
 40
0.256081
 40
0.5063027424
 40
0.7539549585
 40
1.0
 40
1.0
 40
1.0
 40
1.0
 10
139.9599303321
 20
135.1039528167
 30
0.0
 10
139.9290624006
 20
135.1039528167
 30
0.0
 10
139.8671534063
 20
135.1162464405
 30
0.0
 10
139.7609571091
 20
135.1781939042
 30
0.0
 10
139.661553127
 20
135.2949221062
 30
0.0
 10
139.5801772806
 20
135.4544383442
 30
0.0
 10
139.5424954178
 20
135.5671986628
 30
0.0
 10
139.5269176302
 20
135.6241441212
 30
0.0
  0
LINE
  5
310
100
AcDbEntity
  8
0
100
AcDbLine
 62
7
  6
CONTINUOUS
 10
127.4316568292
 20
102.3293466963
 11
127.6742839483
 21
102.8780026269
  0
ELLIPSE
  5
311
100
AcDbEntity
  8
0
100
AcDbEllipse
 62
7
  6
CONTINUOUS
 10
127.0741010081
 20
125.7547315022
 30
0.0
 11
14.7536831607
 21
31.0932549156
 31
0.0
 40
0.3419987131
 41
-1.0912395858
 42
-0.1578061866
  0
ELLIPSE
  5
312
100
AcDbEntity
  8
0
100
AcDbEllipse
 62
7
  6
CONTINUOUS
 10
155.7684093869
 20
125.7547315022
 30
0.0
 11
-14.7536831607
 21
31.0932549156
 31
0.0
 40
0.3419987131
 41
0.1578061866
 42
1.0912395858
  0
ELLIPSE
  5
313
100
AcDbEntity
  8
0
100
AcDbEllipse
 62
7
  6
CONTINUOUS
 10
155.7684093869
 20
125.7547315022
 30
0.0
 11
14.7536831607
 21
31.0932549156
 31
0.0
 40
0.3419987131
 41
-4.2328322393
 42
-3.2993988402
  0
ELLIPSE
  5
314
100
AcDbEntity
  8
0
100
AcDbEllipse
 62
7
  6
CONTINUOUS
 10
127.0741010081
 20
125.7547315022
 30
0.0
 11
-14.7536831607
 21
31.0932549156
 31
0.0
 40
0.3419987131
 41
-2.9837864669
 42
-2.0503530678
  0
ENDSEC
  0
SECTION
  2
OBJECTS
  0
DICTIONARY
  5
C
100
AcDbDictionary
280
0
281
1
  3
ACAD_GROUP
350
D
  3
ACAD_MLINESTYLE
350
17
  3
ACAD_LAYOUT
350
1A
  3
ACAD_PLOTSETTINGS
350
19
  3
ACAD_PLOTSTYLENAME
350
E
  0
DICTIONARY
  5
D
102
{ACAD_REACTORS
330
C
102
}
100
AcDbDictionary
280
0
281
1
  0
ACDBDICTIONARYWDFLT
  5
E
102
{ACAD_REACTORS
330
C
102
}
100
AcDbDictionary
281
1
  3
Normal
350
F
100
AcDbDictionaryWithDefault
340
F
  0
DICTIONARY
  5
17
102
{ACAD_REACTORS
330
C
102
}
100
AcDbDictionary
280
0
281
1
  3
Standard
350
18
  0
DICTIONARY
  5
19
102
{ACAD_REACTORS
330
C
102
}
100
AcDbDictionary
281
1
  0
DICTIONARY
  5
1A
102
{ACAD_REACTORS
330
C
102
}
100
AcDbDictionary
281
1
  3
Model
350
315
  3
Layout1
350
316
  0
ACDBPLACEHOLDER
  5
F
102
{ACAD_REACTORS
330
E
102
}
  0
MLINESTYLE
  5
18
102
{ACAD_REACTORS
330
17
102
}
100
AcDbMlineStyle
  2
STANDARD
 70
0
  3

 62
256
 51
90.0
 52
90.0
 71
2
 49
0.5
 62
256
  6
BYLAYER
 49
-0.5
 62
256
  6
BYLAYER
  0
LAYOUT
  5
315
102
{ACAD_REACTORS
330
1A
102
}
100
AcDbPlotSettings
  1

  2
none_device
  4
ISO_A4_(297.00_x_210.00_MM)
  6

 40
0.0
 41
0.0
 42
0.0
 43
0.0
 44
297.0
 45
210.0
 46
0.0
 47
0.0
 48
0.0
 49
0.0
140
0.0
141
0.0
142
1.0
143
1.0
 70
1024
 72
1
 73
0
 74
0
  7

 75
0
147
1.0
148
0.0
149
0.0
100
AcDbLayout
  1
Model
 70
0
 71
0
 10
0.0
 20
0.0
 11
297.0
 21
210.0
 12
0.0
 22
0.0
 32
0.0
 14
0.0
 24
0.0
 34
0.0
 15
0.0
 25
0.0
 35
0.0
146
0.0
 13
0.0
 23
0.0
 33
0.0
 16
1.0
 26
0.0
 36
0.0
 17
0.0
 27
1.0
 37
0.0
 76
0
330
217
345
0
346
0
  0
LAYOUT
  5
316
102
{ACAD_REACTORS
330
1A
102
}
100
AcDbPlotSettings
  1

  2
none_device
  4
ISO_A4_(297.00_x_210.00_MM)
  6

 40
0.0
 41
0.0
 42
0.0
 43
0.0
 44
297.0
 45
210.0
 46
0.0
 47
0.0
 48
0.0
 49
0.0
140
0.0
141
0.0
142
1.0
143
1.0
 70
0
 72
1
 73
0
 74
0
  7

 75
0
147
1.0
148
0.0
149
0.0
100
AcDbLayout
  1
Layout1
 70
0
 71
1
 10
0.0
 20
0.0
 11
297.0
 21
210.0
 12
0.0
 22
0.0
 32
0.0
 14
0.0
 24
0.0
 34
0.0
 15
0.0
 25
0.0
 35
0.0
146
0.0
 13
0.0
 23
0.0
 33
0.0
 16
1.0
 26
0.0
 36
0.0
 17
0.0
 27
1.0
 37
0.0
 76
0
330
218
345
0
346
0
  0
ENDSEC
  0
EOF
