999
DXF file: 200_cc6-145-32-3-bmg.dxf
999
Pro/ENGINEER 2010430 by Parametric Technology Corporation
  0
SECTION
  2
HEADER
  9
$ACADVER
  1
AC1021
  9
$DWGCODEPAGE
  3
ANSI_1252
  9
$EXTMAX
 10
420.0
 20
297.0
 30
0.0
  9
$EXTMIN
 10
0.0
 20
0.0
 30
0.0
  9
$LIMMIN
 10
0.0
 20
0.0
  9
$LIMMAX
 10
420.0
 20
297.0
  9
$VIEWCTR
 10
210.0
 20
148.5
  9
$VIEWSIZE
 40
297.0
  9
$CLAYER
  8
0
  9
$LTSCALE
 40
23.1
  9
$CELTYPE
  6
BYLAYER
  9
$DIMSCALE
 40
1.0
  9
$DIMASZ
 40
3.5
  9
$DIMEXO
 40
2.625
  9
$DIMDLI
 40
15.96
  9
$DIMEXE
 40
7.56
  9
$DIMCEN
 40
3.78
  9
$DIMLFAC
 40
1.0
  9
$DIMBLK
  1
_FILLED
  9
$DIMTXT
 40
3.5
  9
$DIMTOL
 70
0
  9
$DIMLIM
 70
0
  9
$DIMTFAC
 40
1.0
  9
$PDMODE
 70
3
  9
$PDSIZE
 40
0.3125
  9
$HANDSEED
  5
2D3
  9
$TILEMODE
 70
1
  9
$MEASUREMENT
 70
1
  9
$INSUNITS
 70
4
  0
ENDSEC
  0
SECTION
  2
CLASSES
  0
CLASS
  1
ACDBDICTIONARYWDFLT
  2
AcDbDictionaryWithDefault
  3
AutoCAD 2000
 90
0
 91
1
280
0
281
0
  0
CLASS
  1
ACDBPLACEHOLDER
  2
AcDbPlaceHolder
  3
AutoCAD 2000
 90
0
 91
1
280
0
281
0
  0
CLASS
  1
LAYOUT
  2
AcDbLayout
  3
AutoCAD 2000
 90
0
 91
0
280
0
281
0
  0
ENDSEC
  0
SECTION
  2
TABLES
  0
TABLE
  2
VPORT
  5
8
100
AcDbSymbolTable
 70
2
  0
VPORT
  5
1F4
100
AcDbSymbolTableRecord
100
AcDbViewportTableRecord
  2
*ACTIVE
 70
0
 10
0.0
 20
0.0
 11
1.0
 21
1.0
 12
210.0
 22
148.5
 13
0.0
 23
0.0
 14
1.0
 24
1.0
 15
0.0
 25
0.0
 16
0.0
 26
0.0
 36
1.0
 17
0.0
 27
0.0
 37
0.0
 40
297.0
 41
1.4141414141
 42
50.0
 43
0.0
 44
0.0
 50
0.0
 51
0.0
 71
0
 72
100
 73
1
 74
1
 75
0
 76
0
 77
0
 78
0
  0
ENDTAB
  0
TABLE
  2
LTYPE
  5
5
100
AcDbSymbolTable
 70
6
  0
LTYPE
  5
14
100
AcDbSymbolTableRecord
100
AcDbLinetypeTableRecord
  2
BYBLOCK
 70
0
  3

 72
65
 73
0
 40
0.0
  0
LTYPE
  5
15
100
AcDbSymbolTableRecord
100
AcDbLinetypeTableRecord
  2
BYLAYER
 70
0
  3

 72
65
 73
0
 40
0.0
  0
LTYPE
  5
16
100
AcDbSymbolTableRecord
100
AcDbLinetypeTableRecord
  2
CONTINUOUS
 70
64
  3
Solid line
 72
65
 73
0
 40
0.0
  0
LTYPE
  5
1F5
100
AcDbSymbolTableRecord
100
AcDbLinetypeTableRecord
  2
CENTER
 70
64
  3
____ _ ____ _ ____ _ ____ _ ____ _ ____ _ ____
 72
65
 73
4
 40
0.6
 49
0.375
 74
0
 49
-0.075
 74
0
 49
0.075
 74
0
 49
-0.075
 74
0
  0
LTYPE
  5
1F6
100
AcDbSymbolTableRecord
100
AcDbLinetypeTableRecord
  2
HIDDEN
 70
64
  3
- - - - - - - - - - - - - - - - - - - -
 72
65
 73
2
 40
0.2
 49
0.1
 74
0
 49
-0.1
 74
0
  0
LTYPE
  5
1F7
100
AcDbSymbolTableRecord
100
AcDbLinetypeTableRecord
  2
PHANTOM
 70
64
  3
_____ _ _ _____ _ _ _____ _ _ _____
 72
65
 73
6
 40
0.8
 49
0.45
 74
0
 49
-0.05
 74
0
 49
0.1
 74
0
 49
-0.05
 74
0
 49
0.1
 74
0
 49
-0.05
 74
0
  0
LTYPE
  5
1F8
100
AcDbSymbolTableRecord
100
AcDbLinetypeTableRecord
  2
DOT
 70
64
  3
. . . . . . . . . . . . . . . . . . . .
 72
65
 73
2
 40
0.2
 49
0.1
 74
0
 49
-0.1
 74
0
  0
LTYPE
  5
1F9
100
AcDbSymbolTableRecord
100
AcDbLinetypeTableRecord
  2
DASHED
 70
64
  3
- - - - - - - - - - - - - - - - - - - -
 72
65
 73
2
 40
0.2
 49
0.1
 74
0
 49
-0.1
 74
0
  0
ENDTAB
  0
TABLE
  2
LAYER
  5
2
100
AcDbSymbolTable
 70
36
  0
LAYER
  5
10
100
AcDbSymbolTableRecord
100
AcDbLayerTableRecord
  2
0
 70
0
 62
7
  6
CONTINUOUS
370
-3
390
F
  0
LAYER
  5
1FA
100
AcDbSymbolTableRecord
100
AcDbLayerTableRecord
  2
DEFAULT_1
 70
0
 62
7
  6
CENTER
370
-3
390
F
  0
LAYER
  5
1FB
100
AcDbSymbolTableRecord
100
AcDbLayerTableRecord
  2
DEFAULT_2
 70
0
 62
8
  6
HIDDEN
370
-3
390
F
  0
LAYER
  5
1FC
100
AcDbSymbolTableRecord
100
AcDbLayerTableRecord
  2
DEFAULT_3
 70
0
 62
7
  6
PHANTOM
370
-3
390
F
  0
LAYER
  5
1FD
100
AcDbSymbolTableRecord
100
AcDbLayerTableRecord
  2
1
 70
0
 62
7
  6
CONTINUOUS
370
-3
390
F
  0
LAYER
  5
1FE
100
AcDbSymbolTableRecord
100
AcDbLayerTableRecord
  2
2
 70
0
 62
7
  6
CONTINUOUS
370
-3
390
F
  0
LAYER
  5
1FF
100
AcDbSymbolTableRecord
100
AcDbLayerTableRecord
  2
4
 70
0
 62
7
  6
CONTINUOUS
370
-3
390
F
  0
LAYER
  5
200
100
AcDbSymbolTableRecord
100
AcDbLayerTableRecord
  2
5
 70
0
 62
7
  6
CONTINUOUS
370
-3
390
F
  0
LAYER
  5
201
100
AcDbSymbolTableRecord
100
AcDbLayerTableRecord
  2
6
 70
0
 62
7
  6
CONTINUOUS
370
-3
390
F
  0
LAYER
  5
202
100
AcDbSymbolTableRecord
100
AcDbLayerTableRecord
  2
ACHSEN
 70
0
 62
7
  6
CONTINUOUS
370
-3
390
F
  0
LAYER
  5
203
100
AcDbSymbolTableRecord
100
AcDbLayerTableRecord
  2
ANALYSEN
 70
0
 62
7
  6
CONTINUOUS
370
-3
390
F
  0
LAYER
  5
204
100
AcDbSymbolTableRecord
100
AcDbLayerTableRecord
  2
AUFMASS_WEICHBEARBEITUNG
 70
0
 62
7
  6
CONTINUOUS
370
-3
390
F
  0
LAYER
  5
205
100
AcDbSymbolTableRecord
100
AcDbLayerTableRecord
  2
AUFMASS_WEICHBE_INNENKONTUR
 70
0
 62
7
  6
CONTINUOUS
370
-3
390
F
  0
LAYER
  5
206
100
AcDbSymbolTableRecord
100
AcDbLayerTableRecord
  2
AUSSENKONTUR
 70
0
 62
7
  6
CONTINUOUS
370
-3
390
F
  0
LAYER
  5
207
100
AcDbSymbolTableRecord
100
AcDbLayerTableRecord
  2
BEZUGSACHSEN
 70
0
 62
7
  6
CONTINUOUS
370
-3
390
F
  0
LAYER
  5
208
100
AcDbSymbolTableRecord
100
AcDbLayerTableRecord
  2
BEZUGSACHSENKENNZEICHEN
 70
0
 62
7
  6
CONTINUOUS
370
-3
390
F
  0
LAYER
  5
209
100
AcDbSymbolTableRecord
100
AcDbLayerTableRecord
  2
BEZUGSEBENEN
 70
0
 62
7
  6
CONTINUOUS
370
-3
390
F
  0
LAYER
  5
20A
100
AcDbSymbolTableRecord
100
AcDbLayerTableRecord
  2
BEZUGSEBENE_B
 70
0
 62
7
  6
CONTINUOUS
370
-3
390
F
  0
LAYER
  5
20B
100
AcDbSymbolTableRecord
100
AcDbLayerTableRecord
  2
BEZUGSPUNKTE
 70
0
 62
7
  6
CONTINUOUS
370
-3
390
F
  0
LAYER
  5
20C
100
AcDbSymbolTableRecord
100
AcDbLayerTableRecord
  2
BOHRUNGEN
 70
0
 62
7
  6
CONTINUOUS
370
-3
390
F
  0
LAYER
  5
20D
100
AcDbSymbolTableRecord
100
AcDbLayerTableRecord
  2
EBENEN
 70
0
 62
7
  6
CONTINUOUS
370
-3
390
F
  0
LAYER
  5
20E
100
AcDbSymbolTableRecord
100
AcDbLayerTableRecord
  2
FASEN
 70
0
 62
7
  6
CONTINUOUS
370
-3
390
F
  0
LAYER
  5
20F
100
AcDbSymbolTableRecord
100
AcDbLayerTableRecord
  2
FLAECHEN
 70
0
 62
7
  6
CONTINUOUS
370
-3
390
F
  0
LAYER
  5
210
100
AcDbSymbolTableRecord
100
AcDbLayerTableRecord
  2
FORM_LAGE_TOLERANZEN
 70
0
 62
7
  6
CONTINUOUS
370
-3
390
F
  0
LAYER
  5
211
100
AcDbSymbolTableRecord
100
AcDbLayerTableRecord
  2
GEWINDE
 70
0
 62
7
  6
CONTINUOUS
370
-3
390
F
  0
LAYER
  5
212
100
AcDbSymbolTableRecord
100
AcDbLayerTableRecord
  2
HILFEN
 70
0
 62
7
  6
CONTINUOUS
370
-3
390
F
  0
LAYER
  5
213
100
AcDbSymbolTableRecord
100
AcDbLayerTableRecord
  2
INNENKONTUR
 70
0
 62
7
  6
CONTINUOUS
370
-3
390
F
  0
LAYER
  5
214
100
AcDbSymbolTableRecord
100
AcDbLayerTableRecord
  2
KOORDINATENSYSTEME
 70
0
 62
7
  6
CONTINUOUS
370
-3
390
F
  0
LAYER
  5
215
100
AcDbSymbolTableRecord
100
AcDbLayerTableRecord
  2
KOORDSYS
 70
0
 62
7
  6
CONTINUOUS
370
-3
390
F
  0
LAYER
  5
216
100
AcDbSymbolTableRecord
100
AcDbLayerTableRecord
  2
KURVEN
 70
0
 62
7
  6
CONTINUOUS
370
-3
390
F
  0
LAYER
  5
217
100
AcDbSymbolTableRecord
100
AcDbLayerTableRecord
  2
KURVE_FUER_GTOL_DETAILANSICHT
 70
0
 62
7
  6
CONTINUOUS
370
-3
390
F
  0
LAYER
  5
218
100
AcDbSymbolTableRecord
100
AcDbLayerTableRecord
  2
KURVE_GAUGE2_POLIGON_INNENEINST
 70
0
 62
7
  6
CONTINUOUS
370
-3
390
F
  0
LAYER
  5
219
100
AcDbSymbolTableRecord
100
AcDbLayerTableRecord
  2
KURVE_PHANTOM1_GAUGE_PIN_1
 70
0
 62
7
  6
CONTINUOUS
370
-3
390
F
  0
LAYER
  5
21A
100
AcDbSymbolTableRecord
100
AcDbLayerTableRecord
  2
KURVE_PHANTOM2_GAUGE_PIN1
 70
0
 62
7
  6
CONTINUOUS
370
-3
390
F
  0
LAYER
  5
21B
100
AcDbSymbolTableRecord
100
AcDbLayerTableRecord
  2
KURVE_POLIGON_BEMASUNG
 70
0
 62
7
  6
CONTINUOUS
370
-3
390
F
  0
LAYER
  5
21C
100
AcDbSymbolTableRecord
100
AcDbLayerTableRecord
  2
NOCUT
 70
0
 62
7
  6
CONTINUOUS
370
-3
390
F
  0
LAYER
  5
21D
100
AcDbSymbolTableRecord
100
AcDbLayerTableRecord
  2
PLATZIERUNG
 70
0
 62
7
  6
CONTINUOUS
370
-3
390
F
  0
LAYER
  5
21E
100
AcDbSymbolTableRecord
100
AcDbLayerTableRecord
  2
PUNKTE
 70
0
 62
7
  6
CONTINUOUS
370
-3
390
F
  0
LAYER
  5
21F
100
AcDbSymbolTableRecord
100
AcDbLayerTableRecord
  2
RUNDUNGEN
 70
0
 62
7
  6
CONTINUOUS
370
-3
390
F
  0
LAYER
  5
220
100
AcDbSymbolTableRecord
100
AcDbLayerTableRecord
  2
SK1
 70
0
 62
7
  6
CONTINUOUS
370
-3
390
F
  0
LAYER
  5
221
100
AcDbSymbolTableRecord
100
AcDbLayerTableRecord
  2
SK2
 70
0
 62
7
  6
CONTINUOUS
370
-3
390
F
  0
LAYER
  5
222
100
AcDbSymbolTableRecord
100
AcDbLayerTableRecord
  2
SK4
 70
0
 62
7
  6
CONTINUOUS
370
-3
390
F
  0
LAYER
  5
223
100
AcDbSymbolTableRecord
100
AcDbLayerTableRecord
  2
S_ACHSEN
 70
0
 62
7
  6
CONTINUOUS
370
-3
390
F
  0
LAYER
  5
224
100
AcDbSymbolTableRecord
100
AcDbLayerTableRecord
  2
S_EBENEN
 70
0
 62
7
  6
CONTINUOUS
370
-3
390
F
  0
LAYER
  5
225
100
AcDbSymbolTableRecord
100
AcDbLayerTableRecord
  2
S_KOORDSYS
 70
0
 62
7
  6
CONTINUOUS
370
-3
390
F
  0
LAYER
  5
226
100
AcDbSymbolTableRecord
100
AcDbLayerTableRecord
  2
TEIL_STARTBEZUEGE
 70
0
 62
7
  6
CONTINUOUS
370
-3
390
F
  0
LAYER
  5
227
100
AcDbSymbolTableRecord
100
AcDbLayerTableRecord
  2
TOL_BEZUEGE
 70
0
 62
7
  6
CONTINUOUS
370
-3
390
F
  0
LAYER
  5
228
100
AcDbSymbolTableRecord
100
AcDbLayerTableRecord
  2
VERBFLAECHE
 70
0
 62
7
  6
CONTINUOUS
370
-3
390
F
  0
LAYER
  5
229
100
AcDbSymbolTableRecord
100
AcDbLayerTableRecord
  2
VERERBUNG
 70
0
 62
7
  6
CONTINUOUS
370
-3
390
F
  0
LAYER
  5
22A
100
AcDbSymbolTableRecord
100
AcDbLayerTableRecord
  2
VOLGEOM
 70
0
 62
7
  6
CONTINUOUS
370
-3
390
F
  0
LAYER
  5
22B
100
AcDbSymbolTableRecord
100
AcDbLayerTableRecord
  2
VOLUMEN
 70
0
 62
7
  6
CONTINUOUS
370
-3
390
F
  0
LAYER
  5
22C
100
AcDbSymbolTableRecord
100
AcDbLayerTableRecord
  2
XSEC_DATUMS
 70
0
 62
7
  6
CONTINUOUS
370
-3
390
F
  0
LAYER
  5
22D
100
AcDbSymbolTableRecord
100
AcDbLayerTableRecord
  2
ZEICHNUNG
 70
0
 62
7
  6
CONTINUOUS
370
-3
390
F
  0
ENDTAB
  0
TABLE
  2
STYLE
  5
3
100
AcDbSymbolTable
 70
1
  0
STYLE
  5
11
100
AcDbSymbolTableRecord
100
AcDbTextStyleTableRecord
  2
STANDARD
 70
0
 40
0.0
 41
0.7
 50
0.0
 71
0
 42
0.2
  3
txt
  4

  0
STYLE
  5
22E
100
AcDbSymbolTableRecord
100
AcDbTextStyleTableRecord
  2
TEXTSTYLE_1
 70
0
 40
0.0
 41
0.8
 50
0.0
 71
0
 42
0.2
  3
gdt
  4

  0
STYLE
  5
22F
100
AcDbSymbolTableRecord
100
AcDbTextStyleTableRecord
  2
TEXTSTYLE_2
 70
0
 40
0.0
 41
0.7
 50
0.0
 71
0
 42
0.2
  3
gdt
  4

  0
ENDTAB
  0
TABLE
  2
VIEW
  5
6
100
AcDbSymbolTable
 70
0
  0
ENDTAB
  0
TABLE
  2
UCS
  5
7
100
AcDbSymbolTable
 70
0
  0
ENDTAB
  0
TABLE
  2
APPID
  5
9
100
AcDbSymbolTable
 70
1
  0
APPID
  5
230
100
AcDbSymbolTableRecord
100
AcDbRegAppTableRecord
  2
ACAD
 70
0
  0
ENDTAB
  0
TABLE
  2
BLOCK_RECORD
  5
1
100
AcDbSymbolTable
 70
0
  0
BLOCK_RECORD
  5
231
100
AcDbSymbolTableRecord
100
AcDbBlockTableRecord
  2
*Model_Space
  0
BLOCK_RECORD
  5
232
100
AcDbSymbolTableRecord
100
AcDbBlockTableRecord
  2
*Paper_Space
  0
BLOCK_RECORD
  5
233
100
AcDbSymbolTableRecord
100
AcDbBlockTableRecord
  2
_FILLED
  0
BLOCK_RECORD
  5
234
100
AcDbSymbolTableRecord
100
AcDbBlockTableRecord
  2
*D0
  0
BLOCK_RECORD
  5
235
100
AcDbSymbolTableRecord
100
AcDbBlockTableRecord
  2
*D1
  0
BLOCK_RECORD
  5
236
100
AcDbSymbolTableRecord
100
AcDbBlockTableRecord
  2
*D2
  0
BLOCK_RECORD
  5
237
100
AcDbSymbolTableRecord
100
AcDbBlockTableRecord
  2
*D3
  0
BLOCK_RECORD
  5
238
100
AcDbSymbolTableRecord
100
AcDbBlockTableRecord
  2
*D4
  0
BLOCK_RECORD
  5
239
100
AcDbSymbolTableRecord
100
AcDbBlockTableRecord
  2
*D5
  0
ENDTAB
  0
TABLE
  2
DIMSTYLE
  5
A
100
AcDbSymbolTable
 70
1
100
AcDbDimStyleTable
 71
0
  0
DIMSTYLE
105
23A
100
AcDbSymbolTableRecord
100
AcDbDimStyleTableRecord
  2
STANDARD
 70
0
  3

  4

 40
1.0
 41
3.5
 42
0.0625
 43
0.38
 44
0.18
 45
0.0
 46
0.0
 47
0.005
 48
0.005
140
3.5
141
0.09
142
0.0
143
25.4
144
1.0
145
0.0
146
1.0
147
0.09
 71
0.0
 72
0.0
 73
0
 74
0
 75
0
 76
0
 77
1
 78
8
170
0
171
2
172
0
173
0
174
0
175
0
176
0
177
0
178
5
270
2
271
3
272
3
273
2
274
2
275
0
280
0
281
0
282
0
283
1
284
8
285
0
286
0
287
3
288
0
340
11
341
233
342
233
343
233
344
233
  0
DIMSTYLE
105
23B
100
AcDbSymbolTableRecord
100
AcDbDimStyleTableRecord
  2
DIMSTYLE_1
 70
0
  3

  4

 40
1.0
 41
3.5
 42
0.0625
 43
0.38
 44
0.18
 45
0.0
 46
0.0
 47
0.0
 48
0.0
140
3.5
141
0.09
142
0.0
143
25.4
144
1.0
145
0.0
146
1.0
147
0.09
 71
0.0
 72
0.0
 73
0
 74
0
 75
0
 76
0
 77
1
 78
8
170
0
171
2
172
0
173
0
174
0
175
0
176
0
177
0
178
5
270
2
271
2
272
2
273
2
274
2
275
0
280
0
281
0
282
0
283
1
284
8
285
0
286
0
287
3
288
0
340
11
341
233
342
233
343
233
344
233
  0
DIMSTYLE
105
23C
100
AcDbSymbolTableRecord
100
AcDbDimStyleTableRecord
  2
DIMSTYLE_2
 70
0
  3

  4

 40
1.0
 41
3.5
 42
0.0625
 43
0.38
 44
0.18
 45
0.0
 46
0.0
 47
0.0
 48
0.0
140
3.5
141
0.09
142
0.0
143
25.4
144
1.0
145
0.0
146
1.0
147
0.09
 71
0.0
 72
0.0
 73
0
 74
0
 75
0
 76
0
 77
1
 78
8
170
0
171
2
172
0
173
0
174
0
175
0
176
0
177
0
178
5
270
2
271
2
272
2
273
2
274
2
275
0
280
0
281
0
282
0
283
1
284
8
285
0
286
0
287
3
288
0
340
11
341
233
342
233
343
233
344
233
  0
DIMSTYLE
105
23D
100
AcDbSymbolTableRecord
100
AcDbDimStyleTableRecord
  2
DIMSTYLE_3
 70
0
  3

  4

 40
1.0
 41
3.5
 42
0.0625
 43
0.38
 44
0.18
 45
0.0
 46
0.0
 47
0.0
 48
0.0
140
3.5
141
0.09
142
0.0
143
25.4
144
1.0
145
0.0
146
1.0
147
0.09
 71
0.0
 72
0.0
 73
0
 74
0
 75
0
 76
0
 77
1
 78
8
170
0
171
2
172
0
173
0
174
0
175
0
176
0
177
0
178
5
270
2
271
3
272
3
273
2
274
2
275
0
280
0
281
0
282
0
283
1
284
8
285
0
286
0
287
3
288
0
340
11
341
233
342
233
343
233
344
233
  0
ENDTAB
  0
ENDSEC
  0
SECTION
  2
BLOCKS
  0
BLOCK
  5
20
100
AcDbEntity
  8
0
100
AcDbBlockBegin
  2
*Model_Space
 70
0
 10
0.0
 20
0.0
 30
0.0
  3
*Model_Space
  1

  0
ENDBLK
  5
21
100
AcDbEntity
  8
0
100
AcDbBlockEnd
  0
BLOCK
  5
1C
100
AcDbEntity
  8
0
100
AcDbBlockBegin
  2
*Paper_Space
 70
0
 10
0.0
 20
0.0
 30
0.0
  3
*Paper_Space
  1

  0
ENDBLK
  5
1D
100
AcDbEntity
  8
0
100
AcDbBlockEnd
  0
BLOCK
  5
23E
100
AcDbEntity
  8
0
100
AcDbBlockBegin
  2
_FILLED
 70
64
 10
0.0
 20
0.0
  3
_FILLED
  1

  0
SOLID
  5
23F
100
AcDbEntity
  8
0
  6
BYBLOCK
 62
0
100
AcDbTrace
 10
0.0
 20
0.0
 11
-1.0
 21
0.125
 12
-1.0
 22
-0.125
 13
-1.0
 23
-0.125
  0
ENDBLK
  5
240
100
AcDbEntity
  8
0
  6
BYBLOCK
 62
0
100
AcDbBlockEnd
  0
BLOCK
  5
241
100
AcDbEntity
  8
SK2
100
AcDbBlockBegin
 62
2
  6
CONTINUOUS
  2
*D0
 70
65
 10
0.0
 20
0.0
  3
*D0
  1

  0
MTEXT
  5
242
100
AcDbEntity
  8
SK2
100
AcDbMText
 62
5
  6
CONTINUOUS
  7
STANDARD
 71
2
 72
1
 10
190.3608756249
 20
209.0554378124
 30
0.0
 11
1.0
 21
0.0
 31
0.0
 44
0.9
  1
80
 40
3.5
 41
5.5
  0
LINE
  5
243
100
AcDbEntity
  8
SK2
100
AcDbLine
 62
2
  6
CONTINUOUS
 10
150.3608756249
 20
178.2560473208
 11
150.3608756249
 21
206.1804378124
  0
LINE
  5
244
100
AcDbEntity
  8
SK2
100
AcDbLine
 62
2
  6
CONTINUOUS
 10
230.3608756249
 20
178.2560473208
 11
230.3608756249
 21
206.1804378124
  0
LINE
  5
245
100
AcDbEntity
  8
SK2
100
AcDbLine
 62
2
  6
CONTINUOUS
 10
150.3608756249
 20
204.6804378124
 11
190.3608756249
 21
204.6804378124
  0
LINE
  5
246
100
AcDbEntity
  8
SK2
100
AcDbLine
 62
2
  6
CONTINUOUS
 10
230.3608756249
 20
204.6804378124
 11
190.3608756249
 21
204.6804378124
  0
INSERT
  5
247
100
AcDbEntity
  8
SK2
100
AcDbBlockReference
 62
2
  6
CONTINUOUS
  2
_FILLED
 10
150.3608756249
 20
204.6804378124
 41
3.5
 42
3.5
 43
3.5
 50
180.0
  0
INSERT
  5
248
100
AcDbEntity
  8
SK2
100
AcDbBlockReference
 62
2
  6
CONTINUOUS
  2
_FILLED
 10
230.3608756249
 20
204.6804378124
 41
3.5
 42
3.5
 43
3.5
  0
ENDBLK
  5
249
100
AcDbEntity
  8
0
  6
BYBLOCK
 62
0
100
AcDbBlockEnd
  0
BLOCK
  5
24A
100
AcDbEntity
  8
SK2
100
AcDbBlockBegin
 62
2
  6
CONTINUOUS
  2
*D1
 70
65
 10
0.0
 20
0.0
  3
*D1
  1

  0
MTEXT
  5
24B
100
AcDbEntity
  8
SK2
100
AcDbMText
 62
5
  6
CONTINUOUS
  7
STANDARD
 71
2
 72
1
 10
201.3858756249
 20
202.0554378124
 30
0.0
 11
1.0
 21
0.0
 31
0.0
 44
0.9
  1
57.95
 40
3.5
 41
12.5
  0
LINE
  5
24C
100
AcDbEntity
  8
SK2
100
AcDbLine
 62
2
  6
CONTINUOUS
 10
230.3608756249
 20
178.2560473208
 11
230.3608756249
 21
199.1804378124
  0
LINE
  5
24D
100
AcDbEntity
  8
SK2
100
AcDbLine
 62
2
  6
CONTINUOUS
 10
172.4108756249
 20
188.1804378124
 11
172.4108756249
 21
199.1804378124
  0
LINE
  5
24E
100
AcDbEntity
  8
SK2
100
AcDbLine
 62
2
  6
CONTINUOUS
 10
230.3608756249
 20
197.6804378124
 11
201.3858756249
 21
197.6804378124
  0
LINE
  5
24F
100
AcDbEntity
  8
SK2
100
AcDbLine
 62
2
  6
CONTINUOUS
 10
172.4108756249
 20
197.6804378124
 11
201.3858756249
 21
197.6804378124
  0
INSERT
  5
250
100
AcDbEntity
  8
SK2
100
AcDbBlockReference
 62
2
  6
CONTINUOUS
  2
_FILLED
 10
230.3608756249
 20
197.6804378124
 41
3.5
 42
3.5
 43
3.5
  0
INSERT
  5
251
100
AcDbEntity
  8
SK2
100
AcDbBlockReference
 62
2
  6
CONTINUOUS
  2
_FILLED
 10
172.4108756249
 20
197.6804378124
 41
3.5
 42
3.5
 43
3.5
 50
180.0
  0
ENDBLK
  5
252
100
AcDbEntity
  8
0
  6
BYBLOCK
 62
0
100
AcDbBlockEnd
  0
BLOCK
  5
253
100
AcDbEntity
  8
SK2
100
AcDbBlockBegin
 62
2
  6
CONTINUOUS
  2
*D2
 70
65
 10
0.0
 20
0.0
  3
*D2
  1

  0
MTEXT
  5
254
100
AcDbEntity
  8
SK2
100
AcDbMText
 62
5
  6
CONTINUOUS
  7
TEXTSTYLE_2
 71
2
 72
1
 10
243.9858756249
 20
155.1804378124
 30
0.0
 11
0.0
 21
1.0
 31
0.0
 44
0.9
  1
{\Fgdt;n}\Ftxt;45
 40
3.5
 41
9.9166666667
  0
LINE
  5
255
100
AcDbEntity
  8
SK2
100
AcDbLine
 62
2
  6
CONTINUOUS
 10
231.8608756249
 20
132.6804378124
 11
249.8608756249
 21
132.6804378124
  0
LINE
  5
256
100
AcDbEntity
  8
SK2
100
AcDbLine
 62
2
  6
CONTINUOUS
 10
231.8608756249
 20
177.6804378124
 11
249.8608756249
 21
177.6804378124
  0
LINE
  5
257
100
AcDbEntity
  8
SK2
100
AcDbLine
 62
2
  6
CONTINUOUS
 10
248.3608756249
 20
132.6804378124
 11
248.3608756249
 21
155.1804378124
  0
LINE
  5
258
100
AcDbEntity
  8
SK2
100
AcDbLine
 62
2
  6
CONTINUOUS
 10
248.3608756249
 20
177.6804378124
 11
248.3608756249
 21
155.1804378124
  0
INSERT
  5
259
100
AcDbEntity
  8
SK2
100
AcDbBlockReference
 62
2
  6
CONTINUOUS
  2
_FILLED
 10
248.3608756249
 20
132.6804378124
 41
3.5
 42
3.5
 43
3.5
 50
270.0
  0
INSERT
  5
25A
100
AcDbEntity
  8
SK2
100
AcDbBlockReference
 62
2
  6
CONTINUOUS
  2
_FILLED
 10
248.3608756249
 20
177.6804378124
 41
3.5
 42
3.5
 43
3.5
 50
90.0
  0
ENDBLK
  5
25B
100
AcDbEntity
  8
0
  6
BYBLOCK
 62
0
100
AcDbBlockEnd
  0
BLOCK
  5
25C
100
AcDbEntity
  8
SK2
100
AcDbBlockBegin
 62
2
  6
CONTINUOUS
  2
*D3
 70
65
 10
0.0
 20
0.0
  3
*D3
  1

  0
MTEXT
  5
25D
100
AcDbEntity
  8
SK2
100
AcDbMText
 62
5
  6
CONTINUOUS
  7
STANDARD
 71
2
 72
1
 10
210.6647413264
 20
191.7491051685
 30
0.0
 11
0.5812381937
 21
0.8137334712
 31
0.0
 44
0.9
  1
4.5\Fgdt;{\Fgdt;~}
 40
3.5
 41
9.5833333333
  0
LINE
  5
25E
100
AcDbEntity
  8
SK2
100
AcDbLine
 62
2
  6
CONTINUOUS
 10
227.94395872
 20
177.8706532981
 11
211.713885286
 21
179.1479877793
  0
LINE
  5
25F
100
AcDbEntity
  8
SK2
100
AcDbLine
 62
2
  6
CONTINUOUS
 10
228.8608756249
 20
177.6804378124
 11
211.6562250908
 21
177.6804378124
  0
ARC
  5
260
100
AcDbEntity
  8
SK2
100
AcDbCircle
 62
2
  6
CONTINUOUS
 10
230.3608756249
 20
177.6804378124
 40
17.2046505341
100
AcDbArc
 50
144.462322208
 51
175.5
  0
ARC
  5
261
100
AcDbEntity
  8
SK2
100
AcDbCircle
 62
2
  6
CONTINUOUS
 10
230.3608756249
 20
177.6804378124
 40
17.2046505341
100
AcDbArc
 50
180.0
 51
199.9814972351
  0
ARC
  5
262
100
AcDbEntity
  8
SK2
100
AcDbCircle
 62
2
  6
CONTINUOUS
 10
230.3608756249
 20
177.6804378124
 40
17.2046505341
100
AcDbArc
 50
175.5
 51
180.0
  0
SOLID
  5
263
100
AcDbEntity
  8
SK2
100
AcDbTrace
 62
2
  6
CONTINUOUS
 10
213.4063365086
 20
182.5520270648
 11
213.2092612866
 21
179.0302991357
 12
214.2671595304
 22
182.3951553816
 13
214.2671595304
 23
182.3951553816
  0
SOLID
  5
264
100
AcDbEntity
  8
SK2
100
AcDbTrace
 62
2
  6
CONTINUOUS
 10
213.9468586091
 20
174.2429525558
 11
213.1562250908
 21
177.6804378124
 12
213.0763812069
 22
174.1541038515
 13
213.0763812069
 23
174.1541038515
  0
ENDBLK
  5
265
100
AcDbEntity
  8
0
  6
BYBLOCK
 62
0
100
AcDbBlockEnd
  0
BLOCK
  5
266
100
AcDbEntity
  8
2
100
AcDbBlockBegin
 62
2
  6
CONTINUOUS
  2
*D4
 70
65
 10
0.0
 20
0.0
  3
*D4
  1

  0
MTEXT
  5
267
100
AcDbEntity
  8
2
100
AcDbMText
 62
5
  6
CONTINUOUS
  7
TEXTSTYLE_2
 71
2
 72
1
 10
236.9858756249
 20
155.1804378124
 30
0.0
 11
0.0
 21
1.0
 31
0.0
 44
0.9
  1
{\Fgdt;n}\Ftxt;32
 40
3.5
 41
9.9166666667
  0
LINE
  5
268
100
AcDbEntity
  8
2
100
AcDbLine
 62
2
  6
CONTINUOUS
 10
231.8608756249
 20
139.2026878124
 11
242.8608756249
 21
139.2026878124
  0
LINE
  5
269
100
AcDbEntity
  8
2
100
AcDbLine
 62
2
  6
CONTINUOUS
 10
231.8608756249
 20
171.1581878124
 11
242.8608756249
 21
171.1581878124
  0
LINE
  5
26A
100
AcDbEntity
  8
2
100
AcDbLine
 62
2
  6
CONTINUOUS
 10
241.3608756249
 20
139.2026878124
 11
241.3608756249
 21
155.1804378124
  0
LINE
  5
26B
100
AcDbEntity
  8
2
100
AcDbLine
 62
2
  6
CONTINUOUS
 10
241.3608756249
 20
171.1581878124
 11
241.3608756249
 21
155.1804378124
  0
INSERT
  5
26C
100
AcDbEntity
  8
2
100
AcDbBlockReference
 62
2
  6
CONTINUOUS
  2
_FILLED
 10
241.3608756249
 20
139.2026878124
 41
3.5
 42
3.5
 43
3.5
 50
270.0
  0
INSERT
  5
26D
100
AcDbEntity
  8
2
100
AcDbBlockReference
 62
2
  6
CONTINUOUS
  2
_FILLED
 10
241.3608756249
 20
171.1581878124
 41
3.5
 42
3.5
 43
3.5
 50
90.0
  0
ENDBLK
  5
26E
100
AcDbEntity
  8
0
  6
BYBLOCK
 62
0
100
AcDbBlockEnd
  0
BLOCK
  5
26F
100
AcDbEntity
  8
2
100
AcDbBlockBegin
 62
2
  6
CONTINUOUS
  2
*D5
 70
65
 10
0.0
 20
0.0
  3
*D5
  1

  0
MTEXT
  5
270
100
AcDbEntity
  8
2
100
AcDbMText
 62
5
  6
CONTINUOUS
  7
STANDARD
 71
2
 72
1
 10
171.3608756249
 20
216.0554378124
 30
0.0
 11
1.0
 21
0.0
 31
0.0
 44
0.9
  1
118
 40
3.5
 41
6.75
  0
LINE
  5
271
100
AcDbEntity
  8
2
100
AcDbLine
 62
2
  6
CONTINUOUS
 10
230.3608756249
 20
178.2560473208
 11
230.3608756249
 21
213.1804378124
  0
LINE
  5
272
100
AcDbEntity
  8
2
100
AcDbLine
 62
2
  6
CONTINUOUS
 10
112.3608756249
 20
156.6804378124
 11
112.3608756249
 21
213.1804378124
  0
LINE
  5
273
100
AcDbEntity
  8
2
100
AcDbLine
 62
2
  6
CONTINUOUS
 10
230.3608756249
 20
211.6804378124
 11
171.3608756249
 21
211.6804378124
  0
LINE
  5
274
100
AcDbEntity
  8
2
100
AcDbLine
 62
2
  6
CONTINUOUS
 10
112.3608756249
 20
211.6804378124
 11
171.3608756249
 21
211.6804378124
  0
INSERT
  5
275
100
AcDbEntity
  8
2
100
AcDbBlockReference
 62
2
  6
CONTINUOUS
  2
_FILLED
 10
230.3608756249
 20
211.6804378124
 41
3.5
 42
3.5
 43
3.5
  0
INSERT
  5
276
100
AcDbEntity
  8
2
100
AcDbBlockReference
 62
2
  6
CONTINUOUS
  2
_FILLED
 10
112.3608756249
 20
211.6804378124
 41
3.5
 42
3.5
 43
3.5
 50
180.0
  0
ENDBLK
  5
277
100
AcDbEntity
  8
0
  6
BYBLOCK
 62
0
100
AcDbBlockEnd
  0
ENDSEC
  0
SECTION
  2
ENTITIES
  0
DIMENSION
  5
278
100
AcDbEntity
  8
SK2
100
AcDbDimension
 62
2
  6
CONTINUOUS
  2
*D0
 10
230.3608756249
 20
204.6804378124
 11
187.6108756249
 21
207.3054378124
 70
160
 71
2
 42
80.0
  3
DIMSTYLE_1
100
AcDbAlignedDimension
 13
150.3608756249
 23
178.2560473208
 14
230.3608756249
 24
178.2560473208
100
AcDbRotatedDimension
  0
DIMENSION
  5
279
100
AcDbEntity
  8
SK2
100
AcDbDimension
 62
2
  6
CONTINUOUS
  2
*D1
 10
172.4108756249
 20
197.6804378124
 11
195.1358756249
 21
200.3054378124
 70
160
 71
2
 42
57.95
  3
DIMSTYLE_1
100
AcDbAlignedDimension
 13
230.3608756249
 23
178.2560473208
 14
172.4108756249
 24
188.1804378124
 50
180.0
100
AcDbRotatedDimension
  0
DIMENSION
  5
27A
100
AcDbEntity
  8
SK2
100
AcDbDimension
 62
2
  6
CONTINUOUS
  2
*D2
 10
248.3608756249
 20
177.6804378124
 11
246.8467247982
 21
152.9640710839
 70
160
 71
2
 42
45.0
  1
%%c<>
  3
DIMSTYLE_1
100
AcDbAlignedDimension
 13
231.8608756249
 23
132.6804378124
 14
231.8608756249
 24
177.6804378124
 50
90.0
100
AcDbRotatedDimension
  0
DIMENSION
  5
27B
100
AcDbEntity
  8
SK2
100
AcDbDimension
 62
2
  6
CONTINUOUS
  2
*D3
 10
211.6562250908
 20
177.6804378124
 11
213.2699513182
 21
192.9364126394
 70
162
 71
2
 42
0.0785398163
  3
DIMSTYLE_2
100
AcDb2LineAngularDimension
 13
211.713885286
 23
179.1479877793
 14
227.94395872
 24
177.8706532981
 15
228.8608756249
 25
177.6804378124
 16
213.1694892529
 26
178.3558892226
  0
DIMENSION
  5
27C
100
AcDbEntity
  8
2
100
AcDbDimension
 62
2
  6
CONTINUOUS
  2
*D4
 10
241.3608756249
 20
171.1581878124
 11
239.8467247982
 21
152.9640710839
 70
160
 71
2
 42
31.9555
  1
%%c<>
  3
DIMSTYLE_3
100
AcDbAlignedDimension
 13
231.8608756249
 23
139.2026878124
 14
231.8608756249
 24
171.1581878124
 50
90.0
100
AcDbRotatedDimension
  0
DIMENSION
  5
27D
100
AcDbEntity
  8
2
100
AcDbDimension
 62
2
  6
CONTINUOUS
  2
*D5
 10
112.3608756249
 20
211.6804378124
 11
167.9858756249
 21
214.3054378124
 70
160
 71
2
 42
118.0
  3
DIMSTYLE_1
100
AcDbAlignedDimension
 13
230.3608756249
 23
178.2560473208
 14
112.3608756249
 24
156.6804378124
 50
180.0
100
AcDbRotatedDimension
  0
MTEXT
  5
27E
100
AcDbEntity
  8
6
100
AcDbMText
 62
5
  6
CONTINUOUS
  7
STANDARD
 71
1
 72
1
 10
139.5741815328
 20
82.3507156451
 30
0.0
 11
1.0
 21
0.0
 31
0.0
 44
0.9
  3
Für diese Unterlage behalten wir das Ur-\Pheberrecht. Sie darf nur für den von uns\Pbestimmten Zweck benutzt und ohne unsere \PZustimmung weder vervielfältigt noch \PDritten zugänglich gemacht werden.\P \PWe own the copyright of this document. It\Pde
  1
termined and may neither be copied or\Pmade accessible to outsiders without our\Ppermission.\P \PCe plan reste notre propriété. Il ne peut\Pétre utilisé, copié ou reproduit sans notre\Paccord.
 40
3.5
 41
103.5833333333
  0
LINE
  5
27F
100
AcDbEntity
  8
1
100
AcDbLine
 62
6
  6
CONTINUOUS
 10
112.3608756249
 20
134.5505638046
 11
112.3608756249
 21
175.8103118202
  0
LINE
  5
280
100
AcDbEntity
  8
1
100
AcDbLine
 62
6
  6
CONTINUOUS
 10
113.2269010287
 20
176.3103118202
 11
113.2269010287
 21
159.1171109058
  0
LINE
  5
281
100
AcDbEntity
  8
1
100
AcDbLine
 62
6
  6
CONTINUOUS
 10
113.2269010287
 20
151.2437647191
 11
113.2269010287
 21
134.0505638046
  0
LINE
  5
282
100
AcDbEntity
  8
1
100
AcDbLine
 62
6
  6
CONTINUOUS
 10
118.8108756249
 20
151.1064002036
 11
118.8108756249
 21
159.2544754213
  0
LINE
  5
283
100
AcDbEntity
  8
1
100
AcDbLine
 62
6
  6
CONTINUOUS
 10
112.3608756249
 20
175.8103118202
 11
113.2269010287
 21
176.3103118202
  0
LINE
  5
284
100
AcDbEntity
  8
1
100
AcDbLine
 62
6
  6
CONTINUOUS
 10
112.3608756249
 20
134.5505638046
 11
113.2269010287
 21
134.0505638046
  0
LINE
  5
285
100
AcDbEntity
  8
1
100
AcDbLine
 62
6
  6
CONTINUOUS
 10
150.3608795756
 20
186.3804338617
 11
150.6608796136
 21
186.6804338237
  0
LINE
  5
286
100
AcDbEntity
  8
1
100
AcDbLine
 62
6
  6
CONTINUOUS
 10
150.3608795756
 20
123.9804417631
 11
150.6608796136
 21
123.6804418011
  0
LINE
  5
287
100
AcDbEntity
  8
1
100
AcDbLine
 62
6
  6
CONTINUOUS
 10
172.4108756249
 20
123.6804378124
 11
150.6608756249
 21
123.6804378124
  0
LINE
  5
288
100
AcDbEntity
  8
1
100
AcDbLine
 62
9
  6
CONTINUOUS
 10
112.3608756249
 20
170.0202459469
 11
113.2269010287
 21
170.2702459469
  0
LINE
  5
289
100
AcDbEntity
  8
1
100
AcDbLine
 62
6
  6
CONTINUOUS
 10
229.4393347206
 20
132.5954109704
 11
173.2824165292
 21
128.1757656587
  0
LINE
  5
28A
100
AcDbEntity
  8
1
100
AcDbLine
 62
6
  6
CONTINUOUS
 10
163.9376705441
 20
125.0998450521
 11
160.7840807056
 21
125.0998450521
  0
LINE
  5
28B
100
AcDbEntity
  8
1
100
AcDbLine
 62
9
  6
CONTINUOUS
 10
112.3608756249
 20
140.3406296779
 11
113.2269010287
 21
140.0906296779
  0
LINE
  5
28C
100
AcDbEntity
  8
1
100
AcDbLine
 62
9
  6
CONTINUOUS
 10
149.0717512769
 20
177.2054921938
 11
149.0717512769
 21
171.0410696891
  0
LINE
  5
28D
100
AcDbEntity
  8
1
100
AcDbLine
 62
9
  6
CONTINUOUS
 10
149.0717512769
 20
133.155383431
 11
149.0717512769
 21
139.3198059358
  0
LINE
  5
28E
100
AcDbEntity
  8
1
100
AcDbLine
 62
6
  6
CONTINUOUS
 10
113.2269010287
 20
134.0505638046
 11
149.1690874963
 21
133.1475709767
  0
LINE
  5
28F
100
AcDbEntity
  8
1
100
AcDbLine
 62
6
  6
CONTINUOUS
 10
150.1608756249
 20
132.6469532075
 11
150.1608756249
 21
133.1282928714
  0
LINE
  5
290
100
AcDbEntity
  8
1
100
AcDbLine
 62
6
  6
CONTINUOUS
 10
150.1608756249
 20
140.1424290749
 11
150.1608756249
 21
170.21844655
  0
LINE
  5
291
100
AcDbEntity
  8
1
100
AcDbLine
 62
6
  6
CONTINUOUS
 10
150.1608756249
 20
177.2325827535
 11
150.1608756249
 21
177.7139224173
  0
LINE
  5
292
100
AcDbEntity
  8
1
100
AcDbLine
 62
6
  6
CONTINUOUS
 10
150.3608756249
 20
123.9804378124
 11
150.3608756249
 21
186.3804378124
  0
LINE
  5
293
100
AcDbEntity
  8
1
100
AcDbLine
 62
6
  6
CONTINUOUS
 10
150.6608756249
 20
123.6804378124
 11
150.6608756249
 21
186.6804378124
  0
LINE
  5
294
100
AcDbEntity
  8
1
100
AcDbLine
 62
9
  6
CONTINUOUS
 10
113.2269010287
 20
140.0906296779
 11
149.1690874963
 21
139.639133264
  0
LINE
  5
295
100
AcDbEntity
  8
1
100
AcDbLine
 62
9
  6
CONTINUOUS
 10
160.5242730845
 20
185.1628097456
 11
160.5242730845
 21
164.8400119885
  0
LINE
  5
296
100
AcDbEntity
  8
1
100
AcDbLine
 62
9
  6
CONTINUOUS
 10
160.5242730845
 20
145.5208636364
 11
160.5242730845
 21
125.1980658793
  0
LINE
  5
297
100
AcDbEntity
  8
1
100
AcDbLine
 62
9
  6
CONTINUOUS
 10
160.7840807056
 20
185.2610305728
 11
160.7840807056
 21
164.529659127
  0
LINE
  5
298
100
AcDbEntity
  8
1
100
AcDbLine
 62
9
  6
CONTINUOUS
 10
160.7840807056
 20
145.8312164979
 11
160.7840807056
 21
125.0998450521
  0
LINE
  5
299
100
AcDbEntity
  8
1
100
AcDbLine
 62
6
  6
CONTINUOUS
 10
163.9376705441
 20
145.8312164979
 11
160.7840807056
 21
145.8312164979
  0
LINE
  5
29A
100
AcDbEntity
  8
1
100
AcDbLine
 62
9
  6
CONTINUOUS
 10
163.9376705441
 20
185.2610305728
 11
163.9376705441
 21
164.529659127
  0
LINE
  5
29B
100
AcDbEntity
  8
1
100
AcDbLine
 62
9
  6
CONTINUOUS
 10
163.9376705441
 20
145.8312164979
 11
163.9376705441
 21
125.0998450521
  0
LINE
  5
29C
100
AcDbEntity
  8
1
100
AcDbLine
 62
9
  6
CONTINUOUS
 10
164.1974781653
 20
185.1628097456
 11
164.1974781653
 21
164.8400119885
  0
LINE
  5
29D
100
AcDbEntity
  8
1
100
AcDbLine
 62
9
  6
CONTINUOUS
 10
164.1974781653
 20
145.5208636364
 11
164.1974781653
 21
125.1980658793
  0
LINE
  5
29E
100
AcDbEntity
  8
1
100
AcDbLine
 62
6
  6
CONTINUOUS
 10
172.4108756249
 20
186.6804378124
 11
172.4108756249
 21
123.6804378124
  0
LINE
  5
29F
100
AcDbEntity
  8
4
100
AcDbLine
 62
7
  6
CENTER
 10
235.1334587794
 20
155.1804378124
 11
109.3608756249
 21
155.1804378124
  0
LINE
  5
2A0
100
AcDbEntity
  8
1
100
AcDbLine
 62
9
  6
CONTINUOUS
 10
173.2824165292
 20
182.1851099662
 11
173.2824165292
 21
128.1757656587
  0
LINE
  5
2A1
100
AcDbEntity
  8
1
100
AcDbLine
 62
6
  6
CONTINUOUS
 10
163.9376705441
 20
164.529659127
 11
160.7840807056
 21
164.529659127
  0
LINE
  5
2A2
100
AcDbEntity
  8
1
100
AcDbLine
 62
9
  6
CONTINUOUS
 10
113.2269010287
 20
170.2702459469
 11
149.1690874963
 21
170.7217423609
  0
LINE
  5
2A3
100
AcDbEntity
  8
1
100
AcDbLine
 62
9
  6
CONTINUOUS
 10
113.2269010287
 20
176.3103118202
 11
149.0716165235
 21
177.210855838
  0
LINE
  5
2A4
100
AcDbEntity
  8
1
100
AcDbLine
 62
6
  6
CONTINUOUS
 10
149.0716165235
 20
177.210855838
 11
149.1690874963
 21
177.2133046481
  0
LINE
  5
2A5
100
AcDbEntity
  8
1
100
AcDbLine
 62
6
  6
CONTINUOUS
 10
229.4393347206
 20
177.7654646545
 11
173.2824165292
 21
182.1851099662
  0
LINE
  5
2A6
100
AcDbEntity
  8
1
100
AcDbLine
 62
6
  6
CONTINUOUS
 10
163.9376705441
 20
185.2610305728
 11
160.7840807056
 21
185.2610305728
  0
LINE
  5
2A7
100
AcDbEntity
  8
1
100
AcDbLine
 62
6
  6
CONTINUOUS
 10
172.4108756249
 20
186.6804378124
 11
150.6608756249
 21
186.6804378124
  0
LINE
  5
2A8
100
AcDbEntity
  8
1
100
AcDbLine
 62
9
  6
CONTINUOUS
 10
229.4393347206
 20
177.7654646545
 11
229.4393347206
 21
132.5954109704
  0
LINE
  5
2A9
100
AcDbEntity
  8
1
100
AcDbLine
 62
9
  6
CONTINUOUS
 10
230.3608756249
 20
176.7685473208
 11
230.3608756249
 21
133.5923283041
  0
LINE
  5
2AA
100
AcDbEntity
  8
SK1
100
AcDbLine
 62
8
  6
HIDDEN
 10
165.8608756249
 20
139.25
 11
230.3608756249
 21
139.25
  0
LINE
  5
2AB
100
AcDbEntity
  8
SK1
100
AcDbLine
 62
8
  6
HIDDEN
 10
165.8608756249
 20
170.75
 11
165.8608756249
 21
139.25
  0
LINE
  5
2AC
100
AcDbEntity
  8
SK1
100
AcDbLine
 62
8
  6
HIDDEN
 10
165.8608756249
 20
170.75
 11
230.3608756249
 21
170.75
  0
CIRCLE
  5
2AD
100
AcDbEntity
  8
1
100
AcDbCircle
 62
6
  6
CONTINUOUS
 10
134.8608756249
 20
155.1804378124
 40
4.05
  0
ARC
  5
2AE
100
AcDbEntity
  8
1
100
AcDbCircle
 62
6
  6
CONTINUOUS
 10
229.3608756249
 20
133.5923283041
 40
1.0
100
AcDbArc
 50
274.5
 51
360.0
  0
ARC
  5
2AF
100
AcDbEntity
  8
1
100
AcDbCircle
 62
6
  6
CONTINUOUS
 10
229.3608756249
 20
176.7685473208
 40
1.0
100
AcDbArc
 50
0.0
 51
85.5
  0
ARC
  5
2B0
100
AcDbEntity
  8
1
100
AcDbCircle
 62
6
  6
CONTINUOUS
 10
173.3608756249
 20
183.1820272999
 40
1.0
100
AcDbArc
 50
198.1948723388
 51
265.5
  0
ARC
  5
2B1
100
AcDbEntity
  8
1
100
AcDbCircle
 62
6
  6
CONTINUOUS
 10
173.3608756249
 20
127.178848325
 40
1.0
100
AcDbArc
 50
94.5
 51
161.8051276612
  0
ARC
  5
2B2
100
AcDbEntity
  8
1
100
AcDbCircle
 62
6
  6
CONTINUOUS
 10
149.7608756249
 20
131.7304378124
 40
1.0
100
AcDbArc
 50
53.0944092854
 51
66.4218215218
  0
ARC
  5
2B3
100
AcDbEntity
  8
1
100
AcDbCircle
 62
6
  6
CONTINUOUS
 10
149.7608756249
 20
178.6304378124
 40
1.0
100
AcDbArc
 50
293.5781784782
 51
306.9055907146
  0
SPLINE
  5
2B4
100
AcDbEntity
  8
1
100
AcDbSpline
 62
6
  6
CONTINUOUS
 70
0
 71
3
 72
11
 73
7
 74
0
 42
0.0000001
 43
0.0000001
 44
0.0000000001
 40
0.0
 40
0.0
 40
0.0
 40
0.0
 40
0.2792266351
 40
0.6466183963
 40
0.856318859
 40
1.0
 40
1.0
 40
1.0
 40
1.0
 10
150.1608756249
 20
133.1282928714
 30
0.0
 10
150.0686911834
 20
133.1338337301
 30
0.0
 10
149.8551591008
 20
133.1462562619
 30
0.0
 10
149.5718403481
 20
133.1494868274
 30
0.0
 10
149.3334920454
 20
133.1461973529
 30
0.0
 10
149.2165932949
 20
133.1463774657
 30
0.0
 10
149.1690874963
 20
133.1475709767
 30
0.0
  0
SPLINE
  5
2B5
100
AcDbEntity
  8
1
100
AcDbSpline
 62
6
  6
CONTINUOUS
 70
0
 71
3
 72
11
 73
7
 74
0
 42
0.0000001
 43
0.0000001
 44
0.0000000001
 40
0.0
 40
0.0
 40
0.0
 40
0.0
 40
0.1436789829
 40
0.3533727994
 40
0.7207697646
 40
1.0
 40
1.0
 40
1.0
 40
1.0
 10
149.1690874963
 20
177.2133046481
 30
0.0
 10
149.2165925814
 20
177.2144981412
 30
0.0
 10
149.333488419
 20
177.2146784348
 30
0.0
 10
149.5718355296
 20
177.2113884142
 30
0.0
 10
149.8551549925
 20
177.2146194318
 30
0.0
 10
150.0686899947
 20
177.2270418233
 30
0.0
 10
150.1608756249
 20
177.2325827535
 30
0.0
  0
SPLINE
  5
2B6
100
AcDbEntity
  8
1
100
AcDbSpline
 62
6
  6
CONTINUOUS
 70
0
 71
3
 72
23
 73
19
 74
0
 42
0.0000001
 43
0.0000001
 44
0.0000000001
 40
0.0
 40
0.0
 40
0.0
 40
0.0
 40
0.06255947
 40
0.1250919718
 40
0.1876015239
 40
0.2501036383
 40
0.3126277572
 40
0.3751877006
 40
0.4377763078
 40
0.5003662098
 40
0.5629167283
 40
0.6253973361
 40
0.6878066377
 40
0.7501702637
 40
0.8125354296
 40
0.8749546773
 40
0.9374473998
 40
1.0
 40
1.0
 40
1.0
 40
1.0
 10
130.4108756249
 20
155.1804378124
 30
0.0
 10
130.4108756249
 20
155.4692339351
 30
0.0
 10
130.4742876196
 20
156.0486518037
 30
0.0
 10
130.7532271623
 20
156.8751910186
 30
0.0
 10
131.1983399189
 20
157.6250683677
 30
0.0
 10
131.7849922861
 20
158.2694492652
 30
0.0
 10
132.4851643573
 20
158.7879546277
 30
0.0
 10
133.2699706638
 20
159.1664806984
 30
0.0
 10
134.1105869853
 20
159.3960564501
 30
0.0
 10
134.978517922
 20
159.4718652498
 30
0.0
 10
135.8456309162
 20
159.3927569954
 30
0.0
 10
136.6841400095
 20
159.1609441584
 30
0.0
 10
137.4664315668
 20
158.7818682167
 30
0.0
 10
138.1646990999
 20
158.2644264643
 30
0.0
 10
138.7507323271
 20
157.6220031245
 30
0.0
 10
139.1964676476
 20
156.8739606324
 30
0.0
 10
139.4764846977
 20
156.048422781
 30
0.0
 10
139.5402369581
 20
155.4692022216
 30
0.0
 10
139.5402369581
 20
155.1804378124
 30
0.0
  0
SPLINE
  5
2B7
100
AcDbEntity
  8
1
100
AcDbSpline
 62
6
  6
CONTINUOUS
 70
0
 71
3
 72
23
 73
19
 74
0
 42
0.0000001
 43
0.0000001
 44
0.0000000001
 40
0.0
 40
0.0
 40
0.0
 40
0.0
 40
0.0625525375
 40
0.1250452467
 40
0.1874644807
 40
0.2498295522
 40
0.3121931064
 40
0.3746024242
 40
0.437083047
 40
0.4996335751
 40
0.5622235654
 40
0.6248122545
 40
0.6873722366
 40
0.7498964219
 40
0.8123986006
 40
0.8749081112
 40
0.9374405554
 40
1.0
 40
1.0
 40
1.0
 40
1.0
 10
139.5402369581
 20
155.1804378124
 30
0.0
 10
139.5402369581
 20
154.8916736926
 30
0.0
 10
139.4764847161
 20
154.3124535066
 30
0.0
 10
139.1964681658
 20
153.4869159297
 30
0.0
 10
138.7507332496
 20
152.738873839
 30
0.0
 10
138.1647008686
 20
152.0964508947
 30
0.0
 10
137.466434263
 20
151.5790090764
 30
0.0
 10
136.6841431557
 20
151.1999326298
 30
0.0
 10
135.845634038
 20
150.9681191513
 30
0.0
 10
134.9785205656
 20
150.8890103404
 30
0.0
 10
134.110588749
 20
150.9648188114
 30
0.0
 10
133.2699714255
 20
151.194394611
 30
0.0
 10
132.4851642788
 20
151.5729209608
 30
0.0
 10
131.7849916479
 20
152.0914269086
 30
0.0
 10
131.1983391445
 20
152.7358082552
 30
0.0
 10
130.7532267144
 20
153.4856856064
 30
0.0
 10
130.4742875375
 20
154.3122243233
 30
0.0
 10
130.4108756249
 20
154.8916418069
 30
0.0
 10
130.4108756249
 20
155.1804378124
 30
0.0
  0
SPLINE
  5
2B8
100
AcDbEntity
  8
1
100
AcDbSpline
 62
6
  6
CONTINUOUS
 70
0
 71
3
 72
19
 73
15
 74
0
 42
0.0000001
 43
0.0000001
 44
0.0000000001
 40
0.0
 40
0.0
 40
0.0
 40
0.0
 40
0.2037939915
 40
0.388270694
 40
0.5502650095
 40
0.6872654185
 40
0.7459278673
 40
0.7979503841
 40
0.8434696177
 40
0.8828365492
 40
0.9167289971
 40
0.946303096
 40
0.9733150436
 40
1.0
 40
1.0
 40
1.0
 40
1.0
 10
149.0717512769
 20
139.3198059358
 30
0.0
 10
148.9586751641
 20
138.8912782645
 30
0.0
 10
148.7590170325
 20
138.0705411085
 30
0.0
 10
148.530326857
 20
136.8953678449
 30
0.0
 10
148.3886838864
 20
135.8529392129
 30
0.0
 10
148.3416234571
 20
135.0752507904
 30
0.0
 10
148.3558095475
 20
134.5364490002
 30
0.0
 10
148.3887495359
 20
134.1979924216
 30
0.0
 10
148.4442933531
 20
133.9049522175
 30
0.0
 10
148.5225144579
 20
133.6579217115
 30
0.0
 10
148.6238184949
 20
133.4571332701
 30
0.0
 10
148.7495102188
 20
133.3030787704
 30
0.0
 10
148.9005499684
 20
133.1984184404
 30
0.0
 10
149.0143912583
 20
133.1641916846
 30
0.0
 10
149.0717512769
 20
133.155383431
 30
0.0
  0
SPLINE
  5
2B9
100
AcDbEntity
  8
1
100
AcDbSpline
 62
6
  6
CONTINUOUS
 70
0
 71
3
 72
9
 73
5
 74
0
 42
0.0000001
 43
0.0000001
 44
0.0000000001
 40
0.0
 40
0.0
 40
0.0
 40
0.0
 40
0.2480316357
 40
1.0
 40
1.0
 40
1.0
 40
1.0
 10
149.0717512769
 20
139.3198059358
 30
0.0
 10
149.0787941871
 20
139.3464966475
 30
0.0
 10
149.1080782695
 20
139.4538658784
 30
0.0
 10
149.1412451787
 20
139.5602113083
 30
0.0
 10
149.1690874963
 20
139.639133264
 30
0.0
  0
SPLINE
  5
2BA
100
AcDbEntity
  8
1
100
AcDbSpline
 62
6
  6
CONTINUOUS
 70
0
 71
3
 72
9
 73
5
 74
0
 42
0.0000001
 43
0.0000001
 44
0.0000000001
 40
0.0
 40
0.0
 40
0.0
 40
0.0
 40
0.2512577147
 40
1.0
 40
1.0
 40
1.0
 40
1.0
 10
112.3608756249
 20
158.5530967825
 30
0.0
 10
112.4307440436
 20
158.6042307856
 30
0.0
 10
112.7118411893
 20
158.80360164
 30
0.0
 10
113.0038849873
 20
158.987369565
 30
0.0
 10
113.2269010287
 20
159.1171109058
 30
0.0
  0
SPLINE
  5
2BB
100
AcDbEntity
  8
1
100
AcDbSpline
 62
6
  6
CONTINUOUS
 70
0
 71
3
 72
9
 73
5
 74
0
 42
0.0000001
 43
0.0000001
 44
0.0000000001
 40
0.0
 40
0.0
 40
0.0
 40
0.0
 40
0.2488743751
 40
1.0
 40
1.0
 40
1.0
 40
1.0
 10
113.2269010287
 20
151.2437647191
 30
0.0
 10
113.1527743781
 20
151.2868884826
 30
0.0
 10
112.8569618456
 20
151.4636132431
 30
0.0
 10
112.5697400812
 20
151.6549189958
 30
0.0
 10
112.3608756249
 20
151.8077788424
 30
0.0
  0
SPLINE
  5
2BC
100
AcDbEntity
  8
1
100
AcDbSpline
 62
6
  6
CONTINUOUS
 70
0
 71
3
 72
19
 73
15
 74
0
 42
0.0000001
 43
0.0000001
 44
0.0000000001
 40
0.0
 40
0.0
 40
0.0
 40
0.0
 40
0.1246259215
 40
0.2495031734
 40
0.3120621012
 40
0.3746746129
 40
0.4373272541
 40
0.5000000765
 40
0.5626728802
 40
0.6253255087
 40
0.6879380258
 40
0.7504969218
 40
0.8753741145
 40
1.0
 40
1.0
 40
1.0
 40
1.0
 10
118.8108756249
 20
159.2544754213
 30
0.0
 10
119.0476103809
 20
158.9560649072
 30
0.0
 10
119.5068325782
 20
158.3467893789
 30
0.0
 10
120.0190786458
 20
157.5395988556
 30
0.0
 10
120.3580435102
 20
156.8536768728
 30
0.0
 10
120.5620573458
 20
156.3158415448
 30
0.0
 10
120.6973031149
 20
155.7556202556
 30
0.0
 10
120.7451737522
 20
155.1804371861
 30
0.0
 10
120.6973026674
 20
154.6052542168
 30
0.0
 10
120.5620569519
 20
154.0450330035
 30
0.0
 10
120.3580429672
 20
153.5071978524
 30
0.0
 10
120.0190781543
 20
152.8212761464
 30
0.0
 10
119.5068323582
 20
152.0140859116
 30
0.0
 10
119.0476103126
 20
151.4048106316
 30
0.0
 10
118.8108756249
 20
151.1064002036
 30
0.0
  0
SPLINE
  5
2BD
100
AcDbEntity
  8
1
100
AcDbSpline
 62
6
  6
CONTINUOUS
 70
0
 71
3
 72
13
 73
9
 74
0
 42
0.0000001
 43
0.0000001
 44
0.0000000001
 40
0.0
 40
0.0
 40
0.0
 40
0.0
 40
0.1283043752
 40
0.2554758285
 40
0.3813579187
 40
0.5062382818
 40
0.7538178539
 40
1.0
 40
1.0
 40
1.0
 40
1.0
 10
163.9376705441
 20
145.8312164979
 30
0.0
 10
163.956091155
 20
145.8312164979
 30
0.0
 10
163.9930455233
 20
145.8239389853
 30
0.0
 10
164.040982646
 20
145.7961460414
 30
0.0
 10
164.0807508798
 20
145.7587488748
 30
0.0
 10
164.1243503775
 20
145.7017492026
 30
0.0
 10
164.1653091277
 20
145.6222552841
 30
0.0
 10
164.1880519149
 20
145.5549277494
 30
0.0
 10
164.1974781653
 20
145.5208636364
 30
0.0
  0
SPLINE
  5
2BE
100
AcDbEntity
  8
1
100
AcDbSpline
 62
6
  6
CONTINUOUS
 70
0
 71
3
 72
9
 73
5
 74
0
 42
0.0000001
 43
0.0000001
 44
0.0000000001
 40
0.0
 40
0.0
 40
0.0
 40
0.0
 40
0.3699164562
 40
1.0
 40
1.0
 40
1.0
 40
1.0
 10
164.1974781653
 20
125.1980658793
 30
0.0
 10
164.1746821041
 20
125.1715253289
 30
0.0
 10
164.0938508363
 20
125.1166832587
 30
0.0
 10
163.9972636547
 20
125.0998450521
 30
0.0
 10
163.9376705441
 20
125.0998450521
 30
0.0
  0
SPLINE
  5
2BF
100
AcDbEntity
  8
1
100
AcDbSpline
 62
6
  6
CONTINUOUS
 70
0
 71
3
 72
13
 73
9
 74
0
 42
0.0000001
 43
0.0000001
 44
0.0000000001
 40
0.0
 40
0.0
 40
0.0
 40
0.0
 40
0.2461935427
 40
0.4937876791
 40
0.6186839284
 40
0.744586516
 40
0.8717448616
 40
1.0
 40
1.0
 40
1.0
 40
1.0
 10
160.5242730845
 20
145.5208636364
 30
0.0
 10
160.533699787
 20
145.5549293836
 30
0.0
 10
160.5564437813
 20
145.6222606374
 30
0.0
 10
160.597407178
 20
145.7017592256
 30
0.0
 10
160.6410121153
 20
145.7587639993
 30
0.0
 10
160.6807849331
 20
145.796162093
 30
0.0
 10
160.7287222545
 20
145.8239429991
 30
0.0
 10
160.7656671327
 20
145.8312164979
 30
0.0
 10
160.7840807056
 20
145.8312164979
 30
0.0
  0
SPLINE
  5
2C0
100
AcDbEntity
  8
1
100
AcDbSpline
 62
6
  6
CONTINUOUS
 70
0
 71
3
 72
9
 73
5
 74
0
 42
0.0000001
 43
0.0000001
 44
0.0000000001
 40
0.0
 40
0.0
 40
0.0
 40
0.0
 40
0.6300587113
 40
1.0
 40
1.0
 40
1.0
 40
1.0
 10
160.7840807056
 20
125.0998450521
 30
0.0
 10
160.7244899344
 20
125.0998450521
 30
0.0
 10
160.6279032199
 20
125.11668265
 30
0.0
 10
160.5470706796
 20
125.1715235431
 30
0.0
 10
160.5242730845
 20
125.1980658793
 30
0.0
  0
SPLINE
  5
2C1
100
AcDbEntity
  8
1
100
AcDbSpline
 62
6
  6
CONTINUOUS
 70
0
 71
3
 72
9
 73
5
 74
0
 42
0.0000001
 43
0.0000001
 44
0.0000000001
 40
0.0
 40
0.0
 40
0.0
 40
0.0
 40
0.6300835438
 40
1.0
 40
1.0
 40
1.0
 40
1.0
 10
163.9376705441
 20
185.2610305728
 30
0.0
 10
163.9972636547
 20
185.2610305728
 30
0.0
 10
164.0938508363
 20
185.2441923662
 30
0.0
 10
164.1746821041
 20
185.189350296
 30
0.0
 10
164.1974781653
 20
185.1628097456
 30
0.0
  0
SPLINE
  5
2C2
100
AcDbEntity
  8
1
100
AcDbSpline
 62
6
  6
CONTINUOUS
 70
0
 71
3
 72
13
 73
9
 74
0
 42
0.0000001
 43
0.0000001
 44
0.0000000001
 40
0.0
 40
0.0
 40
0.0
 40
0.0
 40
0.2461821461
 40
0.4937617182
 40
0.6186420813
 40
0.7445241715
 40
0.8716956248
 40
1.0
 40
1.0
 40
1.0
 40
1.0
 10
164.1974781653
 20
164.8400119885
 30
0.0
 10
164.1880519149
 20
164.8059478754
 30
0.0
 10
164.1653091277
 20
164.7386203408
 30
0.0
 10
164.1243503775
 20
164.6591264223
 30
0.0
 10
164.0807508798
 20
164.6021267501
 30
0.0
 10
164.040982646
 20
164.5647295835
 30
0.0
 10
163.9930455233
 20
164.5369366396
 30
0.0
 10
163.956091155
 20
164.529659127
 30
0.0
 10
163.9376705441
 20
164.529659127
 30
0.0
  0
SPLINE
  5
2C3
100
AcDbEntity
  8
1
100
AcDbSpline
 62
6
  6
CONTINUOUS
 70
0
 71
3
 72
9
 73
5
 74
0
 42
0.0000001
 43
0.0000001
 44
0.0000000001
 40
0.0
 40
0.0
 40
0.0
 40
0.0
 40
0.3699412887
 40
1.0
 40
1.0
 40
1.0
 40
1.0
 10
160.5242730845
 20
185.1628097456
 30
0.0
 10
160.5470706796
 20
185.1893520818
 30
0.0
 10
160.6279032199
 20
185.2441929749
 30
0.0
 10
160.7244899344
 20
185.2610305728
 30
0.0
 10
160.7840807056
 20
185.2610305728
 30
0.0
  0
SPLINE
  5
2C4
100
AcDbEntity
  8
1
100
AcDbSpline
 62
6
  6
CONTINUOUS
 70
0
 71
3
 72
13
 73
9
 74
0
 42
0.0000001
 43
0.0000001
 44
0.0000000001
 40
0.0
 40
0.0
 40
0.0
 40
0.0
 40
0.1282551384
 40
0.255413484
 40
0.3813160716
 40
0.5062123209
 40
0.7538064573
 40
1.0
 40
1.0
 40
1.0
 40
1.0
 10
160.7840807056
 20
164.529659127
 30
0.0
 10
160.7656671327
 20
164.529659127
 30
0.0
 10
160.7287222545
 20
164.5369326258
 30
0.0
 10
160.6807849331
 20
164.5647135319
 30
0.0
 10
160.6410121153
 20
164.6021116256
 30
0.0
 10
160.597407178
 20
164.6591163993
 30
0.0
 10
160.5564437813
 20
164.7386149875
 30
0.0
 10
160.533699787
 20
164.8059462413
 30
0.0
 10
160.5242730845
 20
164.8400119885
 30
0.0
  0
SPLINE
  5
2C5
100
AcDbEntity
  8
1
100
AcDbSpline
 62
6
  6
CONTINUOUS
 70
0
 71
3
 72
18
 73
14
 74
0
 42
0.0000001
 43
0.0000001
 44
0.0000000001
 40
0.0
 40
0.0
 40
0.0
 40
0.0
 40
0.1246833901
 40
0.1886609457
 40
0.2543388541
 40
0.3216199029
 40
0.3885073702
 40
0.4533954453
 40
0.5165769633
 40
0.6398757774
 40
0.7610929319
 40
0.8810214261
 40
1.0
 40
1.0
 40
1.0
 40
1.0
 10
150.1608756249
 20
170.21844655
 30
0.0
 10
150.1268898179
 20
170.1633645923
 30
0.0
 10
150.0697947591
 20
170.0827857793
 30
0.0
 10
149.9738004763
 20
169.9914198679
 30
0.0
 10
149.885930121
 20
169.9369135368
 30
0.0
 10
149.7816670877
 20
169.9141233614
 30
0.0
 10
149.6780296027
 20
169.9373710371
 30
0.0
 10
149.5909212973
 20
169.9909721884
 30
0.0
 10
149.495260047
 20
170.0804514771
 30
0.0
 10
149.4006179093
 20
170.2104538912
 30
0.0
 10
149.3096384997
 20
170.3765278377
 30
0.0
 10
149.2334913107
 20
170.5474414655
 30
0.0
 10
149.1896347911
 20
170.6634989088
 30
0.0
 10
149.1690874963
 20
170.7217423609
 30
0.0
  0
SPLINE
  5
2C6
100
AcDbEntity
  8
1
100
AcDbSpline
 62
6
  6
CONTINUOUS
 70
0
 71
3
 72
9
 73
5
 74
0
 42
0.0000001
 43
0.0000001
 44
0.0000000001
 40
0.0
 40
0.0
 40
0.0
 40
0.0
 40
0.2769872898
 40
1.0
 40
1.0
 40
1.0
 40
1.0
 10
149.1690874963
 20
133.1475709767
 30
0.0
 10
149.1600713164
 20
133.1477974946
 30
0.0
 10
149.1275363931
 20
133.1489841707
 30
0.0
 10
149.0950206446
 20
133.151810167
 30
0.0
 10
149.0717512769
 20
133.155383431
 30
0.0
  0
SPLINE
  5
2C7
100
AcDbEntity
  8
1
100
AcDbSpline
 62
6
  6
CONTINUOUS
 70
0
 71
3
 72
19
 73
15
 74
0
 42
0.0000001
 43
0.0000001
 44
0.0000000001
 40
0.0
 40
0.0
 40
0.0
 40
0.0
 40
0.0266849564
 40
0.053696904
 40
0.0832710029
 40
0.1171634508
 40
0.1565303823
 40
0.2020496159
 40
0.2540721327
 40
0.3127345815
 40
0.4497349904
 40
0.6117293059
 40
0.7962060085
 40
1.0
 40
1.0
 40
1.0
 40
1.0
 10
149.0717512769
 20
177.2054921938
 30
0.0
 10
149.0143912583
 20
177.1966839403
 30
0.0
 10
148.9005499684
 20
177.1624571845
 30
0.0
 10
148.7495102188
 20
177.0577968545
 30
0.0
 10
148.6238184949
 20
176.9037423548
 30
0.0
 10
148.5225144579
 20
176.7029539135
 30
0.0
 10
148.4442933531
 20
176.4559234074
 30
0.0
 10
148.3887495359
 20
176.1628832033
 30
0.0
 10
148.3558095475
 20
175.8244266247
 30
0.0
 10
148.3416234571
 20
175.2856248345
 30
0.0
 10
148.3886838863
 20
174.5079364121
 30
0.0
 10
148.530326857
 20
173.4655077802
 30
0.0
 10
148.7590170324
 20
172.2903345166
 30
0.0
 10
148.958675164
 20
171.4695973605
 30
0.0
 10
149.0717512769
 20
171.0410696891
 30
0.0
  0
SPLINE
  5
2C8
100
AcDbEntity
  8
1
100
AcDbSpline
 62
6
  6
CONTINUOUS
 70
0
 71
3
 72
9
 73
5
 74
0
 42
0.0000001
 43
0.0000001
 44
0.0000000001
 40
0.0
 40
0.0
 40
0.0
 40
0.0
 40
0.2520323469
 40
1.0
 40
1.0
 40
1.0
 40
1.0
 10
149.1690874963
 20
170.7217423609
 30
0.0
 10
149.1597555617
 20
170.7481947036
 30
0.0
 10
149.124040724
 20
170.8536132082
 30
0.0
 10
149.092990444
 20
170.9605790303
 30
0.0
 10
149.0717512769
 20
171.0410696891
 30
0.0
  0
SPLINE
  5
2C9
100
AcDbEntity
  8
1
100
AcDbSpline
 62
6
  6
CONTINUOUS
 70
0
 71
3
 72
9
 73
5
 74
0
 42
0.0000001
 43
0.0000001
 44
0.0000000001
 40
0.0
 40
0.0
 40
0.0
 40
0.0
 40
0.2252240457
 40
1.0
 40
1.0
 40
1.0
 40
1.0
 10
149.0717512769
 20
177.2054921938
 30
0.0
 10
149.0790002339
 20
177.2066053499
 30
0.0
 10
149.1112904848
 20
177.2108713375
 30
0.0
 10
149.1438665733
 20
177.2126710108
 30
0.0
 10
149.1690874963
 20
177.2133046481
 30
0.0
  0
SPLINE
  5
2CA
100
AcDbEntity
  8
1
100
AcDbSpline
 62
6
  6
CONTINUOUS
 70
0
 71
3
 72
18
 73
14
 74
0
 42
0.0000001
 43
0.0000001
 44
0.0000000001
 40
0.0
 40
0.0
 40
0.0
 40
0.0
 40
0.1189824806
 40
0.2389152783
 40
0.3601371329
 40
0.4834409541
 40
0.5466277508
 40
0.6115180869
 40
0.6783970325
 40
0.745665841
 40
0.8113366527
 40
0.8753140638
 40
1.0
 40
1.0
 40
1.0
 40
1.0
 10
149.1690874963
 20
139.639133264
 30
0.0
 10
149.1896354674
 20
139.6973786331
 30
0.0
 10
149.2334938109
 20
139.8134399566
 30
0.0
 10
149.3096432003
 20
139.9843599201
 30
0.0
 10
149.4006285076
 20
140.1504393371
 30
0.0
 10
149.4952802541
 20
140.2804440115
 30
0.0
 10
149.5909502203
 20
140.3699249384
 30
0.0
 10
149.6780665064
 20
140.4235110972
 30
0.0
 10
149.7816940086
 20
140.4467560391
 30
0.0
 10
149.8859406714
 20
140.4239581632
 30
0.0
 10
149.9738003841
 20
140.3694559614
 30
0.0
 10
150.0697936217
 20
140.278092213
 30
0.0
 10
150.1268891212
 20
140.1975121617
 30
0.0
 10
150.1608756249
 20
140.1424290749
 30
0.0
  0
SPLINE
  5
2CB
100
AcDbEntity
  8
1
100
AcDbSpline
 62
6
  6
CONTINUOUS
 70
0
 71
3
 72
8
 73
4
 74
0
 42
0.0000001
 43
0.0000001
 44
0.0000000001
 40
0.0
 40
0.0
 40
0.0
 40
0.0
 40
1.0
 40
1.0
 40
1.0
 40
1.0
 10
118.8108756249
 20
151.1064002036
 30
0.0
 10
116.9495194966
 20
151.1508993617
 30
0.0
 10
115.088192677
 20
151.1966456021
 30
0.0
 10
113.2269010287
 20
151.2437647191
 30
0.0
  0
SPLINE
  5
2CC
100
AcDbEntity
  8
1
100
AcDbSpline
 62
6
  6
CONTINUOUS
 70
0
 71
3
 72
8
 73
4
 74
0
 42
0.0000001
 43
0.0000001
 44
0.0000000001
 40
0.0
 40
0.0
 40
0.0
 40
0.0
 40
1.0
 40
1.0
 40
1.0
 40
1.0
 10
113.2269010287
 20
159.1171109058
 30
0.0
 10
115.088192677
 20
159.1642300228
 30
0.0
 10
116.9495194966
 20
159.2099762632
 30
0.0
 10
118.8108756249
 20
159.2544754213
 30
0.0
  0
ELLIPSE
  5
2CD
100
AcDbEntity
  8
1
100
AcDbEllipse
 62
6
  6
CONTINUOUS
 10
176.7080298142
 20
155.1804378124
 30
0.0
 11
14.7536831607
 21
31.0932549156
 31
0.0
 40
0.3419987131
 41
-4.2398389323
 42
-3.2923921473
  0
ELLIPSE
  5
2CE
100
AcDbEntity
  8
1
100
AcDbEllipse
 62
6
  6
CONTINUOUS
 10
148.0137214355
 20
155.1804378124
 30
0.0
 11
14.7536831607
 21
31.0932549156
 31
0.0
 40
0.3419987131
 41
-1.0982462787
 42
-0.1507994937
  0
ELLIPSE
  5
2CF
100
AcDbEntity
  8
1
100
AcDbEllipse
 62
6
  6
CONTINUOUS
 10
176.7080298142
 20
155.1804378124
 30
0.0
 11
-14.7536831607
 21
31.0932549156
 31
0.0
 40
0.3419987131
 41
0.1507994937
 42
1.0982462787
  0
ELLIPSE
  5
2D0
100
AcDbEntity
  8
1
100
AcDbEllipse
 62
6
  6
CONTINUOUS
 10
148.0137214355
 20
155.1804378124
 30
0.0
 11
-14.7536831607
 21
31.0932549156
 31
0.0
 40
0.3419987131
 41
-2.9907931599
 42
-2.0433463749
  0
ENDSEC
  0
SECTION
  2
OBJECTS
  0
DICTIONARY
  5
C
100
AcDbDictionary
280
0
281
1
  3
ACAD_GROUP
350
D
  3
ACAD_MLINESTYLE
350
17
  3
ACAD_LAYOUT
350
1A
  3
ACAD_PLOTSETTINGS
350
19
  3
ACAD_PLOTSTYLENAME
350
E
  0
DICTIONARY
  5
D
102
{ACAD_REACTORS
330
C
102
}
100
AcDbDictionary
280
0
281
1
  0
ACDBDICTIONARYWDFLT
  5
E
102
{ACAD_REACTORS
330
C
102
}
100
AcDbDictionary
281
1
  3
Normal
350
F
100
AcDbDictionaryWithDefault
340
F
  0
DICTIONARY
  5
17
102
{ACAD_REACTORS
330
C
102
}
100
AcDbDictionary
280
0
281
1
  3
Standard
350
18
  0
DICTIONARY
  5
19
102
{ACAD_REACTORS
330
C
102
}
100
AcDbDictionary
281
1
  0
DICTIONARY
  5
1A
102
{ACAD_REACTORS
330
C
102
}
100
AcDbDictionary
281
1
  3
Model
350
2D1
  3
Layout1
350
2D2
  0
ACDBPLACEHOLDER
  5
F
102
{ACAD_REACTORS
330
E
102
}
  0
MLINESTYLE
  5
18
102
{ACAD_REACTORS
330
17
102
}
100
AcDbMlineStyle
  2
STANDARD
 70
0
  3

 62
256
 51
90.0
 52
90.0
 71
2
 49
0.5
 62
256
  6
BYLAYER
 49
-0.5
 62
256
  6
BYLAYER
  0
LAYOUT
  5
2D1
102
{ACAD_REACTORS
330
1A
102
}
100
AcDbPlotSettings
  1

  2
none_device
  4
ISO_A3_(420.00_x_297.00_MM)
  6

 40
0.0
 41
0.0
 42
0.0
 43
0.0
 44
420.0
 45
297.0
 46
0.0
 47
0.0
 48
0.0
 49
0.0
140
0.0
141
0.0
142
1.0
143
1.0
 70
1024
 72
1
 73
0
 74
0
  7

 75
0
147
1.0
148
0.0
149
0.0
100
AcDbLayout
  1
Model
 70
0
 71
0
 10
0.0
 20
0.0
 11
420.0
 21
297.0
 12
0.0
 22
0.0
 32
0.0
 14
0.0
 24
0.0
 34
0.0
 15
0.0
 25
0.0
 35
0.0
146
0.0
 13
0.0
 23
0.0
 33
0.0
 16
1.0
 26
0.0
 36
0.0
 17
0.0
 27
1.0
 37
0.0
 76
0
330
231
345
0
346
0
  0
LAYOUT
  5
2D2
102
{ACAD_REACTORS
330
1A
102
}
100
AcDbPlotSettings
  1

  2
none_device
  4
ISO_A3_(420.00_x_297.00_MM)
  6

 40
0.0
 41
0.0
 42
0.0
 43
0.0
 44
420.0
 45
297.0
 46
0.0
 47
0.0
 48
0.0
 49
0.0
140
0.0
141
0.0
142
1.0
143
1.0
 70
0
 72
1
 73
0
 74
0
  7

 75
0
147
1.0
148
0.0
149
0.0
100
AcDbLayout
  1
Layout1
 70
0
 71
1
 10
0.0
 20
0.0
 11
420.0
 21
297.0
 12
0.0
 22
0.0
 32
0.0
 14
0.0
 24
0.0
 34
0.0
 15
0.0
 25
0.0
 35
0.0
146
0.0
 13
0.0
 23
0.0
 33
0.0
 16
1.0
 26
0.0
 36
0.0
 17
0.0
 27
1.0
 37
0.0
 76
0
330
232
345
0
346
0
  0
ENDSEC
  0
EOF
