999
DXF file: 200_a63-146-32-bmg.dxf
999
Pro/ENGINEER 2010430 by Parametric Technology Corporation
  0
SECTION
  2
HEADER
  9
$ACADVER
  1
AC1021
  9
$DWGCODEPAGE
  3
ANSI_1252
  9
$EXTMAX
 10
420.0
 20
297.0
 30
0.0
  9
$EXTMIN
 10
0.0
 20
0.0
 30
0.0
  9
$LIMMIN
 10
0.0
 20
0.0
  9
$LIMMAX
 10
420.0
 20
297.0
  9
$VIEWCTR
 10
210.0
 20
148.5
  9
$VIEWSIZE
 40
297.0
  9
$CLAYER
  8
0
  9
$LTSCALE
 40
23.1
  9
$CELTYPE
  6
BYLAYER
  9
$DIMSCALE
 40
1.0
  9
$DIMASZ
 40
3.5
  9
$DIMEXO
 40
2.625
  9
$DIMDLI
 40
15.96
  9
$DIMEXE
 40
7.56
  9
$DIMCEN
 40
3.78
  9
$DIMLFAC
 40
1.0
  9
$DIMBLK
  1
_FILLED
  9
$DIMTXT
 40
3.5
  9
$DIMTOL
 70
0
  9
$DIMLIM
 70
0
  9
$DIMTFAC
 40
1.0
  9
$PDMODE
 70
3
  9
$PDSIZE
 40
0.3125
  9
$HANDSEED
  5
3BF
  9
$TILEMODE
 70
1
  9
$MEASUREMENT
 70
1
  9
$INSUNITS
 70
4
  0
ENDSEC
  0
SECTION
  2
CLASSES
  0
CLASS
  1
ACDBDICTIONARYWDFLT
  2
AcDbDictionaryWithDefault
  3
AutoCAD 2000
 90
0
 91
1
280
0
281
0
  0
CLASS
  1
ACDBPLACEHOLDER
  2
AcDbPlaceHolder
  3
AutoCAD 2000
 90
0
 91
1
280
0
281
0
  0
CLASS
  1
LAYOUT
  2
AcDbLayout
  3
AutoCAD 2000
 90
0
 91
0
280
0
281
0
  0
ENDSEC
  0
SECTION
  2
TABLES
  0
TABLE
  2
VPORT
  5
8
100
AcDbSymbolTable
 70
2
  0
VPORT
  5
1F4
100
AcDbSymbolTableRecord
100
AcDbViewportTableRecord
  2
*ACTIVE
 70
0
 10
0.0
 20
0.0
 11
1.0
 21
1.0
 12
210.0
 22
148.5
 13
0.0
 23
0.0
 14
1.0
 24
1.0
 15
0.0
 25
0.0
 16
0.0
 26
0.0
 36
1.0
 17
0.0
 27
0.0
 37
0.0
 40
297.0
 41
1.4141414141
 42
50.0
 43
0.0
 44
0.0
 50
0.0
 51
0.0
 71
0
 72
100
 73
1
 74
1
 75
0
 76
0
 77
0
 78
0
  0
ENDTAB
  0
TABLE
  2
LTYPE
  5
5
100
AcDbSymbolTable
 70
6
  0
LTYPE
  5
14
100
AcDbSymbolTableRecord
100
AcDbLinetypeTableRecord
  2
BYBLOCK
 70
0
  3

 72
65
 73
0
 40
0.0
  0
LTYPE
  5
15
100
AcDbSymbolTableRecord
100
AcDbLinetypeTableRecord
  2
BYLAYER
 70
0
  3

 72
65
 73
0
 40
0.0
  0
LTYPE
  5
16
100
AcDbSymbolTableRecord
100
AcDbLinetypeTableRecord
  2
CONTINUOUS
 70
64
  3
Solid line
 72
65
 73
0
 40
0.0
  0
LTYPE
  5
1F5
100
AcDbSymbolTableRecord
100
AcDbLinetypeTableRecord
  2
CENTER
 70
64
  3
____ _ ____ _ ____ _ ____ _ ____ _ ____ _ ____
 72
65
 73
4
 40
0.6
 49
0.375
 74
0
 49
-0.075
 74
0
 49
0.075
 74
0
 49
-0.075
 74
0
  0
LTYPE
  5
1F6
100
AcDbSymbolTableRecord
100
AcDbLinetypeTableRecord
  2
HIDDEN
 70
64
  3
- - - - - - - - - - - - - - - - - - - -
 72
65
 73
2
 40
0.2
 49
0.1
 74
0
 49
-0.1
 74
0
  0
LTYPE
  5
1F7
100
AcDbSymbolTableRecord
100
AcDbLinetypeTableRecord
  2
PHANTOM
 70
64
  3
_____ _ _ _____ _ _ _____ _ _ _____
 72
65
 73
6
 40
0.8
 49
0.45
 74
0
 49
-0.05
 74
0
 49
0.1
 74
0
 49
-0.05
 74
0
 49
0.1
 74
0
 49
-0.05
 74
0
  0
LTYPE
  5
1F8
100
AcDbSymbolTableRecord
100
AcDbLinetypeTableRecord
  2
DOT
 70
64
  3
. . . . . . . . . . . . . . . . . . . .
 72
65
 73
2
 40
0.2
 49
0.1
 74
0
 49
-0.1
 74
0
  0
LTYPE
  5
1F9
100
AcDbSymbolTableRecord
100
AcDbLinetypeTableRecord
  2
DASHED
 70
64
  3
- - - - - - - - - - - - - - - - - - - -
 72
65
 73
2
 40
0.2
 49
0.1
 74
0
 49
-0.1
 74
0
  0
ENDTAB
  0
TABLE
  2
LAYER
  5
2
100
AcDbSymbolTable
 70
36
  0
LAYER
  5
10
100
AcDbSymbolTableRecord
100
AcDbLayerTableRecord
  2
0
 70
0
 62
7
  6
CONTINUOUS
370
-3
390
F
  0
LAYER
  5
1FA
100
AcDbSymbolTableRecord
100
AcDbLayerTableRecord
  2
DEFAULT_1
 70
0
 62
7
  6
CENTER
370
-3
390
F
  0
LAYER
  5
1FB
100
AcDbSymbolTableRecord
100
AcDbLayerTableRecord
  2
DEFAULT_2
 70
0
 62
8
  6
HIDDEN
370
-3
390
F
  0
LAYER
  5
1FC
100
AcDbSymbolTableRecord
100
AcDbLayerTableRecord
  2
DEFAULT_3
 70
0
 62
7
  6
PHANTOM
370
-3
390
F
  0
LAYER
  5
1FD
100
AcDbSymbolTableRecord
100
AcDbLayerTableRecord
  2
1
 70
0
 62
7
  6
CONTINUOUS
370
-3
390
F
  0
LAYER
  5
1FE
100
AcDbSymbolTableRecord
100
AcDbLayerTableRecord
  2
2
 70
0
 62
7
  6
CONTINUOUS
370
-3
390
F
  0
LAYER
  5
1FF
100
AcDbSymbolTableRecord
100
AcDbLayerTableRecord
  2
4
 70
0
 62
7
  6
CONTINUOUS
370
-3
390
F
  0
LAYER
  5
200
100
AcDbSymbolTableRecord
100
AcDbLayerTableRecord
  2
5
 70
0
 62
7
  6
CONTINUOUS
370
-3
390
F
  0
LAYER
  5
201
100
AcDbSymbolTableRecord
100
AcDbLayerTableRecord
  2
6
 70
0
 62
7
  6
CONTINUOUS
370
-3
390
F
  0
LAYER
  5
202
100
AcDbSymbolTableRecord
100
AcDbLayerTableRecord
  2
ACHSEN
 70
0
 62
7
  6
CONTINUOUS
370
-3
390
F
  0
LAYER
  5
203
100
AcDbSymbolTableRecord
100
AcDbLayerTableRecord
  2
ANALYSEN
 70
0
 62
7
  6
CONTINUOUS
370
-3
390
F
  0
LAYER
  5
204
100
AcDbSymbolTableRecord
100
AcDbLayerTableRecord
  2
AUFMASS_WEICHBEARBEITUNG
 70
0
 62
7
  6
CONTINUOUS
370
-3
390
F
  0
LAYER
  5
205
100
AcDbSymbolTableRecord
100
AcDbLayerTableRecord
  2
AUFMASS_WEICHBE_INNENKONTUR
 70
0
 62
7
  6
CONTINUOUS
370
-3
390
F
  0
LAYER
  5
206
100
AcDbSymbolTableRecord
100
AcDbLayerTableRecord
  2
AUSSENKONTUR
 70
0
 62
7
  6
CONTINUOUS
370
-3
390
F
  0
LAYER
  5
207
100
AcDbSymbolTableRecord
100
AcDbLayerTableRecord
  2
BEZUGSACHSEN
 70
0
 62
7
  6
CONTINUOUS
370
-3
390
F
  0
LAYER
  5
208
100
AcDbSymbolTableRecord
100
AcDbLayerTableRecord
  2
BEZUGSACHSENKENNZEICHEN
 70
0
 62
7
  6
CONTINUOUS
370
-3
390
F
  0
LAYER
  5
209
100
AcDbSymbolTableRecord
100
AcDbLayerTableRecord
  2
BEZUGSEBENEN
 70
0
 62
7
  6
CONTINUOUS
370
-3
390
F
  0
LAYER
  5
20A
100
AcDbSymbolTableRecord
100
AcDbLayerTableRecord
  2
BEZUGSEBENE_B
 70
0
 62
7
  6
CONTINUOUS
370
-3
390
F
  0
LAYER
  5
20B
100
AcDbSymbolTableRecord
100
AcDbLayerTableRecord
  2
BEZUGSPUNKTE
 70
0
 62
7
  6
CONTINUOUS
370
-3
390
F
  0
LAYER
  5
20C
100
AcDbSymbolTableRecord
100
AcDbLayerTableRecord
  2
BOHRUNGEN
 70
0
 62
7
  6
CONTINUOUS
370
-3
390
F
  0
LAYER
  5
20D
100
AcDbSymbolTableRecord
100
AcDbLayerTableRecord
  2
EBENEN
 70
0
 62
7
  6
CONTINUOUS
370
-3
390
F
  0
LAYER
  5
20E
100
AcDbSymbolTableRecord
100
AcDbLayerTableRecord
  2
FASEN
 70
0
 62
7
  6
CONTINUOUS
370
-3
390
F
  0
LAYER
  5
20F
100
AcDbSymbolTableRecord
100
AcDbLayerTableRecord
  2
FLAECHEN
 70
0
 62
7
  6
CONTINUOUS
370
-3
390
F
  0
LAYER
  5
210
100
AcDbSymbolTableRecord
100
AcDbLayerTableRecord
  2
GEWINDE
 70
0
 62
7
  6
CONTINUOUS
370
-3
390
F
  0
LAYER
  5
211
100
AcDbSymbolTableRecord
100
AcDbLayerTableRecord
  2
HILFEN
 70
0
 62
7
  6
CONTINUOUS
370
-3
390
F
  0
LAYER
  5
212
100
AcDbSymbolTableRecord
100
AcDbLayerTableRecord
  2
INNENKONTUR
 70
0
 62
7
  6
CONTINUOUS
370
-3
390
F
  0
LAYER
  5
213
100
AcDbSymbolTableRecord
100
AcDbLayerTableRecord
  2
KOORDINATENSYSTEME
 70
0
 62
7
  6
CONTINUOUS
370
-3
390
F
  0
LAYER
  5
214
100
AcDbSymbolTableRecord
100
AcDbLayerTableRecord
  2
KOORDSYS
 70
0
 62
7
  6
CONTINUOUS
370
-3
390
F
  0
LAYER
  5
215
100
AcDbSymbolTableRecord
100
AcDbLayerTableRecord
  2
KURVEN
 70
0
 62
7
  6
CONTINUOUS
370
-3
390
F
  0
LAYER
  5
216
100
AcDbSymbolTableRecord
100
AcDbLayerTableRecord
  2
KURVE_FUER_GTOL_DETAILANSICHT
 70
0
 62
7
  6
CONTINUOUS
370
-3
390
F
  0
LAYER
  5
217
100
AcDbSymbolTableRecord
100
AcDbLayerTableRecord
  2
KURVE_GAUGE2_POLIGON_INNENEINST
 70
0
 62
7
  6
CONTINUOUS
370
-3
390
F
  0
LAYER
  5
218
100
AcDbSymbolTableRecord
100
AcDbLayerTableRecord
  2
KURVE_PHANTOM1_GAUGE_PIN_1
 70
0
 62
7
  6
CONTINUOUS
370
-3
390
F
  0
LAYER
  5
219
100
AcDbSymbolTableRecord
100
AcDbLayerTableRecord
  2
KURVE_PHANTOM2_GAUGE_PIN1
 70
0
 62
7
  6
CONTINUOUS
370
-3
390
F
  0
LAYER
  5
21A
100
AcDbSymbolTableRecord
100
AcDbLayerTableRecord
  2
KURVE_POLIGON_BEMASUNG
 70
0
 62
7
  6
CONTINUOUS
370
-3
390
F
  0
LAYER
  5
21B
100
AcDbSymbolTableRecord
100
AcDbLayerTableRecord
  2
NOCUT
 70
0
 62
7
  6
CONTINUOUS
370
-3
390
F
  0
LAYER
  5
21C
100
AcDbSymbolTableRecord
100
AcDbLayerTableRecord
  2
PLATZIERUNG
 70
0
 62
7
  6
CONTINUOUS
370
-3
390
F
  0
LAYER
  5
21D
100
AcDbSymbolTableRecord
100
AcDbLayerTableRecord
  2
PUNKTE
 70
0
 62
7
  6
CONTINUOUS
370
-3
390
F
  0
LAYER
  5
21E
100
AcDbSymbolTableRecord
100
AcDbLayerTableRecord
  2
RUNDUNGEN
 70
0
 62
7
  6
CONTINUOUS
370
-3
390
F
  0
LAYER
  5
21F
100
AcDbSymbolTableRecord
100
AcDbLayerTableRecord
  2
SK1
 70
0
 62
7
  6
CONTINUOUS
370
-3
390
F
  0
LAYER
  5
220
100
AcDbSymbolTableRecord
100
AcDbLayerTableRecord
  2
SK2
 70
0
 62
7
  6
CONTINUOUS
370
-3
390
F
  0
LAYER
  5
221
100
AcDbSymbolTableRecord
100
AcDbLayerTableRecord
  2
SK4
 70
0
 62
7
  6
CONTINUOUS
370
-3
390
F
  0
LAYER
  5
222
100
AcDbSymbolTableRecord
100
AcDbLayerTableRecord
  2
S_ACHSEN
 70
0
 62
7
  6
CONTINUOUS
370
-3
390
F
  0
LAYER
  5
223
100
AcDbSymbolTableRecord
100
AcDbLayerTableRecord
  2
S_EBENEN
 70
0
 62
7
  6
CONTINUOUS
370
-3
390
F
  0
LAYER
  5
224
100
AcDbSymbolTableRecord
100
AcDbLayerTableRecord
  2
S_KOORDSYS
 70
0
 62
7
  6
CONTINUOUS
370
-3
390
F
  0
LAYER
  5
225
100
AcDbSymbolTableRecord
100
AcDbLayerTableRecord
  2
TEIL_STARTBEZUEGE
 70
0
 62
7
  6
CONTINUOUS
370
-3
390
F
  0
LAYER
  5
226
100
AcDbSymbolTableRecord
100
AcDbLayerTableRecord
  2
TOL_BEZUEGE
 70
0
 62
7
  6
CONTINUOUS
370
-3
390
F
  0
LAYER
  5
227
100
AcDbSymbolTableRecord
100
AcDbLayerTableRecord
  2
VERBFLAECHE
 70
0
 62
7
  6
CONTINUOUS
370
-3
390
F
  0
LAYER
  5
228
100
AcDbSymbolTableRecord
100
AcDbLayerTableRecord
  2
VERERBUNG
 70
0
 62
7
  6
CONTINUOUS
370
-3
390
F
  0
LAYER
  5
229
100
AcDbSymbolTableRecord
100
AcDbLayerTableRecord
  2
VOLGEOM
 70
0
 62
7
  6
CONTINUOUS
370
-3
390
F
  0
LAYER
  5
22A
100
AcDbSymbolTableRecord
100
AcDbLayerTableRecord
  2
VOLUMEN
 70
0
 62
7
  6
CONTINUOUS
370
-3
390
F
  0
LAYER
  5
22B
100
AcDbSymbolTableRecord
100
AcDbLayerTableRecord
  2
XSEC_DATUMS
 70
0
 62
7
  6
CONTINUOUS
370
-3
390
F
  0
LAYER
  5
22C
100
AcDbSymbolTableRecord
100
AcDbLayerTableRecord
  2
ZEICHNUNG
 70
0
 62
7
  6
CONTINUOUS
370
-3
390
F
  0
LAYER
  5
22D
100
AcDbSymbolTableRecord
100
AcDbLayerTableRecord
  2
ZEICHNUNGSBEMASSUNGEN
 70
0
 62
7
  6
CONTINUOUS
370
-3
390
F
  0
ENDTAB
  0
TABLE
  2
STYLE
  5
3
100
AcDbSymbolTable
 70
1
  0
STYLE
  5
11
100
AcDbSymbolTableRecord
100
AcDbTextStyleTableRecord
  2
STANDARD
 70
0
 40
0.0
 41
0.7
 50
0.0
 71
0
 42
0.2
  3
txt
  4

  0
STYLE
  5
22E
100
AcDbSymbolTableRecord
100
AcDbTextStyleTableRecord
  2
TEXTSTYLE_1
 70
0
 40
0.0
 41
0.8
 50
0.0
 71
0
 42
0.2
  3
gdt
  4

  0
STYLE
  5
22F
100
AcDbSymbolTableRecord
100
AcDbTextStyleTableRecord
  2
TEXTSTYLE_2
 70
0
 40
0.0
 41
0.7
 50
0.0
 71
0
 42
0.2
  3
gdt
  4

  0
ENDTAB
  0
TABLE
  2
VIEW
  5
6
100
AcDbSymbolTable
 70
0
  0
ENDTAB
  0
TABLE
  2
UCS
  5
7
100
AcDbSymbolTable
 70
0
  0
ENDTAB
  0
TABLE
  2
APPID
  5
9
100
AcDbSymbolTable
 70
1
  0
APPID
  5
230
100
AcDbSymbolTableRecord
100
AcDbRegAppTableRecord
  2
ACAD
 70
0
  0
ENDTAB
  0
TABLE
  2
BLOCK_RECORD
  5
1
100
AcDbSymbolTable
 70
0
  0
BLOCK_RECORD
  5
231
100
AcDbSymbolTableRecord
100
AcDbBlockTableRecord
  2
*Model_Space
  0
BLOCK_RECORD
  5
232
100
AcDbSymbolTableRecord
100
AcDbBlockTableRecord
  2
*Paper_Space
  0
BLOCK_RECORD
  5
233
100
AcDbSymbolTableRecord
100
AcDbBlockTableRecord
  2
_FILLED
  0
BLOCK_RECORD
  5
234
100
AcDbSymbolTableRecord
100
AcDbBlockTableRecord
  2
*D0
  0
BLOCK_RECORD
  5
235
100
AcDbSymbolTableRecord
100
AcDbBlockTableRecord
  2
*D1
  0
BLOCK_RECORD
  5
236
100
AcDbSymbolTableRecord
100
AcDbBlockTableRecord
  2
*D2
  0
BLOCK_RECORD
  5
237
100
AcDbSymbolTableRecord
100
AcDbBlockTableRecord
  2
*D3
  0
BLOCK_RECORD
  5
238
100
AcDbSymbolTableRecord
100
AcDbBlockTableRecord
  2
*D4
  0
BLOCK_RECORD
  5
239
100
AcDbSymbolTableRecord
100
AcDbBlockTableRecord
  2
*D5
  0
BLOCK_RECORD
  5
23A
100
AcDbSymbolTableRecord
100
AcDbBlockTableRecord
  2
*D6
  0
BLOCK_RECORD
  5
23B
100
AcDbSymbolTableRecord
100
AcDbBlockTableRecord
  2
*D7
  0
ENDTAB
  0
TABLE
  2
DIMSTYLE
  5
A
100
AcDbSymbolTable
 70
1
100
AcDbDimStyleTable
 71
0
  0
DIMSTYLE
105
23C
100
AcDbSymbolTableRecord
100
AcDbDimStyleTableRecord
  2
STANDARD
 70
0
  3

  4

 40
1.0
 41
3.5
 42
0.0625
 43
0.38
 44
0.18
 45
0.0
 46
0.0
 47
0.005
 48
0.005
140
3.5
141
0.09
142
0.0
143
25.4
144
1.0
145
0.0
146
1.0
147
0.09
 71
0.0
 72
0.0
 73
0
 74
0
 75
0
 76
0
 77
1
 78
8
170
0
171
2
172
0
173
0
174
0
175
0
176
0
177
0
178
5
270
2
271
3
272
3
273
2
274
2
275
0
280
0
281
0
282
0
283
1
284
8
285
0
286
0
287
3
288
0
340
11
341
233
342
233
343
233
344
233
  0
DIMSTYLE
105
23D
100
AcDbSymbolTableRecord
100
AcDbDimStyleTableRecord
  2
DIMSTYLE_1
 70
0
  3

  4

 40
1.0
 41
3.5
 42
0.0625
 43
0.38
 44
0.18
 45
0.0
 46
0.0
 47
0.0
 48
0.0
140
3.5
141
0.09
142
0.0
143
25.4
144
1.0
145
0.0
146
1.0
147
0.09
 71
0.0
 72
0.0
 73
0
 74
0
 75
0
 76
0
 77
1
 78
8
170
0
171
2
172
0
173
0
174
0
175
0
176
0
177
0
178
5
270
2
271
3
272
3
273
2
274
2
275
0
280
0
281
0
282
0
283
1
284
8
285
0
286
0
287
3
288
0
340
11
341
233
342
233
343
233
344
233
  0
DIMSTYLE
105
23E
100
AcDbSymbolTableRecord
100
AcDbDimStyleTableRecord
  2
DIMSTYLE_2
 70
0
  3

  4

 40
1.0
 41
3.5
 42
0.0625
 43
0.38
 44
0.18
 45
0.0
 46
0.0
 47
0.0
 48
0.0
140
3.5
141
0.09
142
0.0
143
25.4
144
1.0
145
0.0
146
1.0
147
0.09
 71
0.0
 72
0.0
 73
0
 74
0
 75
0
 76
0
 77
1
 78
8
170
0
171
2
172
0
173
0
174
0
175
0
176
0
177
0
178
5
270
2
271
3
272
3
273
2
274
2
275
0
280
0
281
0
282
0
283
1
284
8
285
0
286
0
287
3
288
0
340
11
341
233
342
233
343
233
344
233
  0
DIMSTYLE
105
23F
100
AcDbSymbolTableRecord
100
AcDbDimStyleTableRecord
  2
DIMSTYLE_3
 70
0
  3

  4

 40
1.0
 41
3.5
 42
0.0625
 43
0.38
 44
0.18
 45
0.0
 46
0.0
 47
0.0
 48
0.0
140
3.5
141
0.09
142
0.0
143
25.4
144
1.0
145
0.0
146
1.0
147
0.09
 71
0.0
 72
0.0
 73
0
 74
0
 75
0
 76
0
 77
1
 78
8
170
0
171
2
172
0
173
0
174
0
175
0
176
0
177
0
178
5
270
2
271
2
272
2
273
2
274
2
275
0
280
0
281
0
282
0
283
1
284
8
285
0
286
0
287
3
288
0
340
11
341
233
342
233
343
233
344
233
  0
DIMSTYLE
105
240
100
AcDbSymbolTableRecord
100
AcDbDimStyleTableRecord
  2
DIMSTYLE_4
 70
0
  3

  4

 40
1.0
 41
3.5
 42
0.0625
 43
0.38
 44
0.18
 45
0.0
 46
0.0
 47
0.0
 48
0.0
140
3.5
141
0.09
142
0.0
143
25.4
144
1.0
145
0.0
146
1.0
147
0.09
 71
0.0
 72
0.0
 73
0
 74
0
 75
0
 76
0
 77
1
 78
8
170
0
171
2
172
0
173
0
174
0
175
0
176
0
177
0
178
5
270
2
271
2
272
2
273
2
274
2
275
0
280
0
281
0
282
0
283
1
284
8
285
0
286
0
287
3
288
0
340
11
341
233
342
233
343
233
344
233
  0
ENDTAB
  0
ENDSEC
  0
SECTION
  2
BLOCKS
  0
BLOCK
  5
20
100
AcDbEntity
  8
0
100
AcDbBlockBegin
  2
*Model_Space
 70
0
 10
0.0
 20
0.0
 30
0.0
  3
*Model_Space
  1

  0
ENDBLK
  5
21
100
AcDbEntity
  8
0
100
AcDbBlockEnd
  0
BLOCK
  5
1C
100
AcDbEntity
  8
0
100
AcDbBlockBegin
  2
*Paper_Space
 70
0
 10
0.0
 20
0.0
 30
0.0
  3
*Paper_Space
  1

  0
ENDBLK
  5
1D
100
AcDbEntity
  8
0
100
AcDbBlockEnd
  0
BLOCK
  5
241
100
AcDbEntity
  8
0
100
AcDbBlockBegin
  2
_FILLED
 70
64
 10
0.0
 20
0.0
  3
_FILLED
  1

  0
SOLID
  5
242
100
AcDbEntity
  8
0
  6
BYBLOCK
 62
0
100
AcDbTrace
 10
0.0
 20
0.0
 11
-1.0
 21
0.125
 12
-1.0
 22
-0.125
 13
-1.0
 23
-0.125
  0
ENDBLK
  5
243
100
AcDbEntity
  8
0
  6
BYBLOCK
 62
0
100
AcDbBlockEnd
  0
BLOCK
  5
244
100
AcDbEntity
  8
ZEICHNUNGSBEMASSUNGEN
100
AcDbBlockBegin
 62
2
  6
CONTINUOUS
  2
*D0
 70
65
 10
0.0
 20
0.0
  3
*D0
  1

  0
MTEXT
  5
245
100
AcDbEntity
  8
ZEICHNUNGSBEMASSUNGEN
100
AcDbMText
 62
5
  6
CONTINUOUS
  7
STANDARD
 71
1
 72
1
 10
179.8219746453
 20
192.1578861206
 30
0.0
 11
0.6078682203
 21
0.7940379253
 31
0.0
 44
0.9
  1
R1
 40
3.5
 41
4.75
  0
LINE
  5
246
100
AcDbEntity
  8
ZEICHNUNGSBEMASSUNGEN
100
AcDbLine
 62
2
  6
CONTINUOUS
 10
176.7030074046
 20
180.8863998872
 11
186.1832646147
 21
193.2701428018
  0
INSERT
  5
247
100
AcDbEntity
  8
ZEICHNUNGSBEMASSUNGEN
100
AcDbBlockReference
 62
2
  6
CONTINUOUS
  2
_FILLED
 10
176.7030074046
 20
180.8863998872
 41
3.5
 42
3.5
 43
3.5
 50
232.5644794832
  0
ENDBLK
  5
248
100
AcDbEntity
  8
0
  6
BYBLOCK
 62
0
100
AcDbBlockEnd
  0
BLOCK
  5
249
100
AcDbEntity
  8
2
100
AcDbBlockBegin
 62
2
  6
CONTINUOUS
  2
*D1
 70
65
 10
0.0
 20
0.0
  3
*D1
  1

  0
MTEXT
  5
24A
100
AcDbEntity
  8
2
100
AcDbMText
 62
5
  6
CONTINUOUS
  7
TEXTSTYLE_2
 71
2
 72
1
 10
356.9858756249
 20
155.1804378124
 30
0.0
 11
0.0
 21
1.0
 31
0.0
 44
0.9
  1
{\Fgdt;n}\Ftxt;32
 40
3.5
 41
9.9166666667
  0
LINE
  5
24B
100
AcDbEntity
  8
2
100
AcDbLine
 62
2
  6
CONTINUOUS
 10
351.8108756249
 20
139.1804378124
 11
362.8608756249
 21
139.1804378124
  0
LINE
  5
24C
100
AcDbEntity
  8
2
100
AcDbLine
 62
2
  6
CONTINUOUS
 10
351.8108756249
 20
171.1804378124
 11
362.8608756249
 21
171.1804378124
  0
LINE
  5
24D
100
AcDbEntity
  8
2
100
AcDbLine
 62
2
  6
CONTINUOUS
 10
361.3608756249
 20
139.1804378124
 11
361.3608756249
 21
155.1804378124
  0
LINE
  5
24E
100
AcDbEntity
  8
2
100
AcDbLine
 62
2
  6
CONTINUOUS
 10
361.3608756249
 20
171.1804378124
 11
361.3608756249
 21
155.1804378124
  0
INSERT
  5
24F
100
AcDbEntity
  8
2
100
AcDbBlockReference
 62
2
  6
CONTINUOUS
  2
_FILLED
 10
361.3608756249
 20
139.1804378124
 41
3.5
 42
3.5
 43
3.5
 50
270.0
  0
INSERT
  5
250
100
AcDbEntity
  8
2
100
AcDbBlockReference
 62
2
  6
CONTINUOUS
  2
_FILLED
 10
361.3608756249
 20
171.1804378124
 41
3.5
 42
3.5
 43
3.5
 50
90.0
  0
ENDBLK
  5
251
100
AcDbEntity
  8
0
  6
BYBLOCK
 62
0
100
AcDbBlockEnd
  0
BLOCK
  5
252
100
AcDbEntity
  8
SK2
100
AcDbBlockBegin
 62
2
  6
CONTINUOUS
  2
*D2
 70
65
 10
0.0
 20
0.0
  3
*D2
  1

  0
MTEXT
  5
253
100
AcDbEntity
  8
SK2
100
AcDbMText
 62
5
  6
CONTINUOUS
  7
TEXTSTYLE_2
 71
2
 72
1
 10
363.9858756249
 20
155.1804378124
 30
0.0
 11
0.0
 21
1.0
 31
0.0
 44
0.9
  1
{\Fgdt;n}\Ftxt;44
 40
3.5
 41
10.1666666667
  0
LINE
  5
254
100
AcDbEntity
  8
SK2
100
AcDbLine
 62
2
  6
CONTINUOUS
 10
351.8108756249
 20
133.1804378124
 11
369.8608756249
 21
133.1804378124
  0
LINE
  5
255
100
AcDbEntity
  8
SK2
100
AcDbLine
 62
2
  6
CONTINUOUS
 10
351.8108756249
 20
177.1804378124
 11
369.8608756249
 21
177.1804378124
  0
LINE
  5
256
100
AcDbEntity
  8
SK2
100
AcDbLine
 62
2
  6
CONTINUOUS
 10
368.3608756249
 20
133.1804378124
 11
368.3608756249
 21
155.1804378124
  0
LINE
  5
257
100
AcDbEntity
  8
SK2
100
AcDbLine
 62
2
  6
CONTINUOUS
 10
368.3608756249
 20
177.1804378124
 11
368.3608756249
 21
155.1804378124
  0
INSERT
  5
258
100
AcDbEntity
  8
SK2
100
AcDbBlockReference
 62
2
  6
CONTINUOUS
  2
_FILLED
 10
368.3608756249
 20
133.1804378124
 41
3.5
 42
3.5
 43
3.5
 50
270.0
  0
INSERT
  5
259
100
AcDbEntity
  8
SK2
100
AcDbBlockReference
 62
2
  6
CONTINUOUS
  2
_FILLED
 10
368.3608756249
 20
177.1804378124
 41
3.5
 42
3.5
 43
3.5
 50
90.0
  0
ENDBLK
  5
25A
100
AcDbEntity
  8
0
  6
BYBLOCK
 62
0
100
AcDbBlockEnd
  0
BLOCK
  5
25B
100
AcDbEntity
  8
SK2
100
AcDbBlockBegin
 62
2
  6
CONTINUOUS
  2
*D3
 70
65
 10
0.0
 20
0.0
  3
*D3
  1

  0
MTEXT
  5
25C
100
AcDbEntity
  8
SK2
100
AcDbMText
 62
5
  6
CONTINUOUS
  7
STANDARD
 71
2
 72
1
 10
263.3108756249
 20
202.0554378124
 30
0.0
 11
1.0
 21
0.0
 31
0.0
 44
0.9
  1
174
 40
3.5
 41
7.5
  0
LINE
  5
25D
100
AcDbEntity
  8
SK2
100
AcDbLine
 62
2
  6
CONTINUOUS
 10
176.3108756249
 20
187.6804378124
 11
176.3108756249
 21
199.1804378124
  0
LINE
  5
25E
100
AcDbEntity
  8
SK2
100
AcDbLine
 62
2
  6
CONTINUOUS
 10
350.3108756249
 20
177.7560473208
 11
350.3108756249
 21
199.1804378124
  0
LINE
  5
25F
100
AcDbEntity
  8
SK2
100
AcDbLine
 62
2
  6
CONTINUOUS
 10
176.3108756249
 20
197.6804378124
 11
263.3108756249
 21
197.6804378124
  0
LINE
  5
260
100
AcDbEntity
  8
SK2
100
AcDbLine
 62
2
  6
CONTINUOUS
 10
350.3108756249
 20
197.6804378124
 11
263.3108756249
 21
197.6804378124
  0
INSERT
  5
261
100
AcDbEntity
  8
SK2
100
AcDbBlockReference
 62
2
  6
CONTINUOUS
  2
_FILLED
 10
176.3108756249
 20
197.6804378124
 41
3.5
 42
3.5
 43
3.5
 50
180.0
  0
INSERT
  5
262
100
AcDbEntity
  8
SK2
100
AcDbBlockReference
 62
2
  6
CONTINUOUS
  2
_FILLED
 10
350.3108756249
 20
197.6804378124
 41
3.5
 42
3.5
 43
3.5
  0
ENDBLK
  5
263
100
AcDbEntity
  8
0
  6
BYBLOCK
 62
0
100
AcDbBlockEnd
  0
BLOCK
  5
264
100
AcDbEntity
  8
2
100
AcDbBlockBegin
 62
2
  6
CONTINUOUS
  2
*D4
 70
65
 10
0.0
 20
0.0
  3
*D4
  1

  0
MTEXT
  5
265
100
AcDbEntity
  8
2
100
AcDbMText
 62
5
  6
CONTINUOUS
  7
STANDARD
 71
2
 72
1
 10
250.3108756249
 20
209.0554378124
 30
0.0
 11
1.0
 21
0.0
 31
0.0
 44
0.9
  1
200
 40
3.5
 41
8.25
  0
LINE
  5
266
100
AcDbEntity
  8
2
100
AcDbLine
 62
2
  6
CONTINUOUS
 10
350.3108756249
 20
177.7560473208
 11
350.3108756249
 21
206.1804378124
  0
LINE
  5
267
100
AcDbEntity
  8
2
100
AcDbLine
 62
2
  6
CONTINUOUS
 10
150.3108756249
 20
187.6804378124
 11
150.3108756249
 21
206.1804378124
  0
LINE
  5
268
100
AcDbEntity
  8
2
100
AcDbLine
 62
2
  6
CONTINUOUS
 10
350.3108756249
 20
204.6804378124
 11
250.3108756249
 21
204.6804378124
  0
LINE
  5
269
100
AcDbEntity
  8
2
100
AcDbLine
 62
2
  6
CONTINUOUS
 10
150.3108756249
 20
204.6804378124
 11
250.3108756249
 21
204.6804378124
  0
INSERT
  5
26A
100
AcDbEntity
  8
2
100
AcDbBlockReference
 62
2
  6
CONTINUOUS
  2
_FILLED
 10
350.3108756249
 20
204.6804378124
 41
3.5
 42
3.5
 43
3.5
  0
INSERT
  5
26B
100
AcDbEntity
  8
2
100
AcDbBlockReference
 62
2
  6
CONTINUOUS
  2
_FILLED
 10
150.3108756249
 20
204.6804378124
 41
3.5
 42
3.5
 43
3.5
 50
180.0
  0
ENDBLK
  5
26C
100
AcDbEntity
  8
0
  6
BYBLOCK
 62
0
100
AcDbBlockEnd
  0
BLOCK
  5
26D
100
AcDbEntity
  8
SK2
100
AcDbBlockBegin
 62
2
  6
CONTINUOUS
  2
*D5
 70
65
 10
0.0
 20
0.0
  3
*D5
  1

  0
MTEXT
  5
26E
100
AcDbEntity
  8
SK2
100
AcDbMText
 62
5
  6
CONTINUOUS
  7
STANDARD
 71
2
 72
1
 10
234.3608756249
 20
216.0554378124
 30
0.0
 11
1.0
 21
0.0
 31
0.0
 44
0.9
  1
232
 40
3.5
 41
8.0
  0
LINE
  5
26F
100
AcDbEntity
  8
SK2
100
AcDbLine
 62
2
  6
CONTINUOUS
 10
350.3108756249
 20
177.7560473208
 11
350.3108756249
 21
213.1804378124
  0
LINE
  5
270
100
AcDbEntity
  8
SK2
100
AcDbLine
 62
2
  6
CONTINUOUS
 10
118.4108756249
 20
165.1804378124
 11
118.4108756249
 21
213.1804378124
  0
LINE
  5
271
100
AcDbEntity
  8
SK2
100
AcDbLine
 62
2
  6
CONTINUOUS
 10
350.3108756249
 20
211.6804378124
 11
234.3608756249
 21
211.6804378124
  0
LINE
  5
272
100
AcDbEntity
  8
SK2
100
AcDbLine
 62
2
  6
CONTINUOUS
 10
118.4108756249
 20
211.6804378124
 11
234.3608756249
 21
211.6804378124
  0
INSERT
  5
273
100
AcDbEntity
  8
SK2
100
AcDbBlockReference
 62
2
  6
CONTINUOUS
  2
_FILLED
 10
350.3108756249
 20
211.6804378124
 41
3.5
 42
3.5
 43
3.5
  0
INSERT
  5
274
100
AcDbEntity
  8
SK2
100
AcDbBlockReference
 62
2
  6
CONTINUOUS
  2
_FILLED
 10
118.4108756249
 20
211.6804378124
 41
3.5
 42
3.5
 43
3.5
 50
180.0
  0
ENDBLK
  5
275
100
AcDbEntity
  8
0
  6
BYBLOCK
 62
0
100
AcDbBlockEnd
  0
BLOCK
  5
276
100
AcDbEntity
  8
2
100
AcDbBlockBegin
 62
2
  6
CONTINUOUS
  2
*D6
 70
65
 10
0.0
 20
0.0
  3
*D6
  1

  0
MTEXT
  5
277
100
AcDbEntity
  8
2
100
AcDbMText
 62
5
  6
CONTINUOUS
  7
TEXTSTYLE_2
 71
2
 72
1
 10
370.9858756249
 20
155.1804378124
 30
0.0
 11
0.0
 21
1.0
 31
0.0
 44
0.9
  1
{\Fgdt;n}\Ftxt;53
 40
3.5
 41
9.6666666667
  0
LINE
  5
278
100
AcDbEntity
  8
2
100
AcDbLine
 62
2
  6
CONTINUOUS
 10
196.3108756249
 20
128.7054378124
 11
376.8608756249
 21
128.7054378124
  0
LINE
  5
279
100
AcDbEntity
  8
2
100
AcDbLine
 62
2
  6
CONTINUOUS
 10
196.3108756249
 20
181.6554378124
 11
345.3108756249
 21
181.6554378124
  0
LINE
  5
27A
100
AcDbEntity
  8
2
100
AcDbLine
 62
2
  6
CONTINUOUS
 10
355.3108756249
 20
181.6554378124
 11
376.8608756249
 21
181.6554378124
  0
LINE
  5
27B
100
AcDbEntity
  8
2
100
AcDbLine
 62
2
  6
CONTINUOUS
 10
375.3608756249
 20
128.7054378124
 11
375.3608756249
 21
155.1804378124
  0
LINE
  5
27C
100
AcDbEntity
  8
2
100
AcDbLine
 62
2
  6
CONTINUOUS
 10
375.3608756249
 20
181.6554378124
 11
375.3608756249
 21
155.1804378124
  0
INSERT
  5
27D
100
AcDbEntity
  8
2
100
AcDbBlockReference
 62
2
  6
CONTINUOUS
  2
_FILLED
 10
375.3608756249
 20
128.7054378124
 41
3.5
 42
3.5
 43
3.5
 50
270.0
  0
INSERT
  5
27E
100
AcDbEntity
  8
2
100
AcDbBlockReference
 62
2
  6
CONTINUOUS
  2
_FILLED
 10
375.3608756249
 20
181.6554378124
 41
3.5
 42
3.5
 43
3.5
 50
90.0
  0
ENDBLK
  5
27F
100
AcDbEntity
  8
0
  6
BYBLOCK
 62
0
100
AcDbBlockEnd
  0
BLOCK
  5
280
100
AcDbEntity
  8
SK2
100
AcDbBlockBegin
 62
2
  6
CONTINUOUS
  2
*D7
 70
65
 10
0.0
 20
0.0
  3
*D7
  1

  0
MTEXT
  5
281
100
AcDbEntity
  8
SK2
100
AcDbMText
 62
5
  6
CONTINUOUS
  7
STANDARD
 71
2
 72
1
 10
343.2928777211
 20
188.6537553034
 30
0.0
 11
0.1390453559
 21
-0.9902860137
 31
0.0
 44
0.9
  1
4.5\Fgdt;{\Fgdt;~}
 40
3.5
 41
9.5833333333
  0
LINE
  5
282
100
AcDbEntity
  8
SK2
100
AcDbLine
 62
2
  6
CONTINUOUS
 10
338.143594577
 20
178.1380235983
 11
336.3608756249
 21
178.2783266226
  0
LINE
  5
283
100
AcDbEntity
  8
SK2
100
AcDbLine
 62
2
  6
CONTINUOUS
 10
336.3608756249
 20
181.6554378124
 11
338.2817941578
 21
181.6554378124
  0
ARC
  5
284
100
AcDbEntity
  8
SK2
100
AcDbCircle
 62
2
  6
CONTINUOUS
 10
293.4506094305
 20
181.6554378124
 40
43.3311847273
100
AcDbArc
 50
347.5663448451
 51
355.5
  0
ARC
  5
285
100
AcDbEntity
  8
SK2
100
AcDbCircle
 62
2
  6
CONTINUOUS
 10
293.4506094305
 20
181.6554378124
 40
43.3311847273
100
AcDbArc
 50
0.0
 51
7.9926088811
  0
ARC
  5
286
100
AcDbEntity
  8
SK2
100
AcDbCircle
 62
2
  6
CONTINUOUS
 10
293.4506094305
 20
181.6554378124
 40
43.3311847273
100
AcDbArc
 50
355.5
 51
360.0
  0
SOLID
  5
287
100
AcDbEntity
  8
SK2
100
AcDbTrace
 62
2
  6
CONTINUOUS
 10
336.6673663053
 20
174.7285264495
 11
336.6482185764
 21
178.2557122419
 12
335.7985467955
 22
174.832341956
 13
335.7985467955
 23
174.832341956
  0
SOLID
  5
288
100
AcDbEntity
  8
SK2
100
AcDbTrace
 62
2
  6
CONTINUOUS
 10
336.2033361685
 20
185.1349194699
 11
336.7817941578
 21
181.6554378124
 12
337.0776226684
 22
185.1702481547
 13
337.0776226684
 23
185.1702481547
  0
ENDBLK
  5
289
100
AcDbEntity
  8
0
  6
BYBLOCK
 62
0
100
AcDbBlockEnd
  0
ENDSEC
  0
SECTION
  2
ENTITIES
  0
DIMENSION
  5
28A
100
AcDbEntity
  8
ZEICHNUNGSBEMASSUNGEN
100
AcDbDimension
 62
2
  6
CONTINUOUS
  2
*D0
 10
177.3108756249
 20
181.6804378124
 11
182.6552280377
 21
192.9799568076
 70
164
 71
1
 42
1.0
  1
<>
  3
DIMSTYLE_1
100
AcDbRadialDimension
 15
176.7030074046
 25
180.8863998872
  0
DIMENSION
  5
28B
100
AcDbEntity
  8
2
100
AcDbDimension
 62
2
  6
CONTINUOUS
  2
*D1
 10
361.3608756249
 20
171.1804378124
 11
359.8467247982
 21
152.9640710839
 70
160
 71
2
 42
32.0
  1
%%c<>
  3
DIMSTYLE_2
100
AcDbAlignedDimension
 13
351.8108756249
 23
139.1804378124
 14
351.8108756249
 24
171.1804378124
 50
90.0
100
AcDbRotatedDimension
  0
DIMENSION
  5
28C
100
AcDbEntity
  8
SK2
100
AcDbDimension
 62
2
  6
CONTINUOUS
  2
*D2
 10
368.3608756249
 20
177.1804378124
 11
366.8747293992
 21
152.9081962925
 70
160
 71
2
 42
44.0
  1
%%c<>
  3
DIMSTYLE_3
100
AcDbAlignedDimension
 13
351.8108756249
 23
133.1804378124
 14
351.8108756249
 24
177.1804378124
 50
90.0
100
AcDbRotatedDimension
  0
DIMENSION
  5
28D
100
AcDbEntity
  8
SK2
100
AcDbDimension
 62
2
  6
CONTINUOUS
  2
*D3
 10
350.3108756249
 20
197.6804378124
 11
259.5608756249
 21
200.3054378124
 70
160
 71
2
 42
174.0
  3
DIMSTYLE_3
100
AcDbAlignedDimension
 13
176.3108756249
 23
187.6804378124
 14
350.3108756249
 24
177.7560473208
100
AcDbRotatedDimension
  0
DIMENSION
  5
28E
100
AcDbEntity
  8
2
100
AcDbDimension
 62
2
  6
CONTINUOUS
  2
*D4
 10
150.3108756249
 20
204.6804378124
 11
246.1858756249
 21
207.3054378124
 70
160
 71
2
 42
200.0
  3
DIMSTYLE_3
100
AcDbAlignedDimension
 13
350.3108756249
 23
177.7560473208
 14
150.3108756249
 24
187.6804378124
 50
180.0
100
AcDbRotatedDimension
  0
DIMENSION
  5
28F
100
AcDbEntity
  8
SK2
100
AcDbDimension
 62
2
  6
CONTINUOUS
  2
*D5
 10
118.4108756249
 20
211.6804378124
 11
230.3608756249
 21
214.3054378124
 70
160
 71
2
 42
231.9
  3
DIMSTYLE_3
100
AcDbAlignedDimension
 13
350.3108756249
 23
177.7560473208
 14
118.4108756249
 24
165.1804378124
 50
180.0
100
AcDbRotatedDimension
  0
DIMENSION
  5
290
100
AcDbEntity
  8
2
100
AcDbDimension
 62
2
  6
CONTINUOUS
  2
*D6
 10
375.3608756249
 20
181.6554378124
 11
373.8187201972
 21
153.0199458754
 70
160
 71
2
 42
52.95
  1
%%c<>
  3
DIMSTYLE_3
100
AcDbAlignedDimension
 13
196.3108756249
 23
128.7054378124
 14
196.3108756249
 24
181.6554378124
 50
90.0
100
AcDbRotatedDimension
  0
DIMENSION
  5
291
100
AcDbEntity
  8
SK2
100
AcDbDimension
 62
2
  6
CONTINUOUS
  2
*D7
 10
338.2817941578
 20
181.6554378124
 11
339.2902164297
 21
189.1776660251
 70
162
 71
2
 42
0.0785398163
  3
DIMSTYLE_4
100
AcDb2LineAngularDimension
 13
336.3608756249
 23
178.2783266226
 14
338.143594577
 24
178.1380235983
 15
336.3608756249
 25
181.6554378124
 16
336.7483873847
 26
179.9542634834
  0
MTEXT
  5
292
100
AcDbEntity
  8
6
100
AcDbMText
 62
5
  6
CONTINUOUS
  7
STANDARD
 71
1
 72
1
 10
139.5741815328
 20
82.3507156451
 30
0.0
 11
1.0
 21
0.0
 31
0.0
 44
0.9
  3
Für diese Unterlage behalten wir das Ur-\Pheberrecht. Sie darf nur für den von uns\Pbestimmten Zweck benutzt und ohne unsere \PZustimmung weder vervielfältigt noch \PDritten zugänglich gemacht werden.\P \PWe own the copyright of this document. It\Pde
  1
termined and may neither be copied or\Pmade accessible to outsiders without our\Ppermission.\P \PCe plan reste notre propriété. Il ne peut\Pétre utilisé, copié ou reproduit sans notre\Paccord.
 40
3.5
 41
103.5833333333
  0
LINE
  5
293
100
AcDbEntity
  8
1
100
AcDbLine
 62
9
  6
CONTINUOUS
 10
118.4608756249
 20
133.5994017455
 11
118.4608756249
 21
146.5433495621
  0
LINE
  5
294
100
AcDbEntity
  8
BEZUGSACHSEN
100
AcDbLine
 62
7
  6
CONTINUOUS
 10
118.4608756249
 20
133.5994017455
 11
118.4608756249
 21
147.7604378124
  0
LINE
  5
295
100
AcDbEntity
  8
1
100
AcDbLine
 62
6
  6
CONTINUOUS
 10
118.4608756249
 20
146.5433495621
 11
118.4608756249
 21
147.7604378124
  0
LINE
  5
296
100
AcDbEntity
  8
1
100
AcDbLine
 62
6
  6
CONTINUOUS
 10
118.4608756249
 20
162.6004378124
 11
118.4608756249
 21
163.8175260628
  0
LINE
  5
297
100
AcDbEntity
  8
BEZUGSACHSEN
100
AcDbLine
 62
7
  6
CONTINUOUS
 10
118.4608756249
 20
162.6004378124
 11
118.4608756249
 21
176.7614737598
  0
LINE
  5
298
100
AcDbEntity
  8
1
100
AcDbLine
 62
9
  6
CONTINUOUS
 10
118.4608756249
 20
163.8175260628
 11
118.4608756249
 21
176.7614737598
  0
LINE
  5
299
100
AcDbEntity
  8
BEZUGSACHSEN
100
AcDbLine
 62
9
  6
CONTINUOUS
 10
119.6008325606
 20
177.9600229339
 11
119.6008325606
 21
164.3103621775
  0
LINE
  5
29A
100
AcDbEntity
  8
1
100
AcDbLine
 62
9
  6
CONTINUOUS
 10
119.6008325606
 20
177.9600229339
 11
119.6008325606
 21
164.3103621775
  0
LINE
  5
29B
100
AcDbEntity
  8
BEZUGSACHSEN
100
AcDbLine
 62
9
  6
CONTINUOUS
 10
119.6008325606
 20
146.0505134474
 11
119.6008325606
 21
132.400852691
  0
LINE
  5
29C
100
AcDbEntity
  8
1
100
AcDbLine
 62
9
  6
CONTINUOUS
 10
119.6008325606
 20
146.0505134474
 11
119.6008325606
 21
132.400852691
  0
LINE
  5
29D
100
AcDbEntity
  8
BEZUGSACHSEN
100
AcDbLine
 62
7
  6
CONTINUOUS
 10
119.6108756249
 20
147.7845123454
 11
119.6108756249
 21
148.9104378124
  0
LINE
  5
29E
100
AcDbEntity
  8
1
100
AcDbLine
 62
6
  6
CONTINUOUS
 10
119.6108756249
 20
147.7845123454
 11
119.6108756249
 21
148.9104378124
  0
LINE
  5
29F
100
AcDbEntity
  8
BEZUGSACHSEN
100
AcDbLine
 62
7
  6
CONTINUOUS
 10
119.6108756249
 20
161.4504378124
 11
119.6108756249
 21
162.5763632795
  0
LINE
  5
2A0
100
AcDbEntity
  8
1
100
AcDbLine
 62
6
  6
CONTINUOUS
 10
119.6108756249
 20
161.4504378124
 11
119.6108756249
 21
162.5763632795
  0
LINE
  5
2A1
100
AcDbEntity
  8
BEZUGSACHSEN
100
AcDbLine
 62
9
  6
CONTINUOUS
 10
123.1608756249
 20
145.614349939
 11
123.1608756249
 21
148.9104378124
  0
LINE
  5
2A2
100
AcDbEntity
  8
1
100
AcDbLine
 62
9
  6
CONTINUOUS
 10
123.1608756249
 20
145.614349939
 11
123.1608756249
 21
148.9104378124
  0
LINE
  5
2A3
100
AcDbEntity
  8
BEZUGSACHSEN
100
AcDbLine
 62
9
  6
CONTINUOUS
 10
123.1608756249
 20
161.4504378124
 11
123.1608756249
 21
164.7465256859
  0
LINE
  5
2A4
100
AcDbEntity
  8
1
100
AcDbLine
 62
9
  6
CONTINUOUS
 10
123.1608756249
 20
161.4504378124
 11
123.1608756249
 21
164.7465256859
  0
LINE
  5
2A5
100
AcDbEntity
  8
BEZUGSACHSEN
100
AcDbLine
 62
7
  6
CONTINUOUS
 10
124.5608756249
 20
162.4692264395
 11
124.5608756249
 21
147.8916491854
  0
LINE
  5
2A6
100
AcDbEntity
  8
1
100
AcDbLine
 62
6
  6
CONTINUOUS
 10
124.5608756249
 20
162.4692264395
 11
124.5608756249
 21
147.8916491854
  0
LINE
  5
2A7
100
AcDbEntity
  8
BEZUGSACHSEN
100
AcDbLine
 62
7
  6
CONTINUOUS
 10
148.3608756249
 20
179.4008619621
 11
148.3608756249
 21
130.9600136628
  0
LINE
  5
2A8
100
AcDbEntity
  8
1
100
AcDbLine
 62
6
  6
CONTINUOUS
 10
148.3608756249
 20
179.4008619621
 11
148.3608756249
 21
130.9600136628
  0
LINE
  5
2A9
100
AcDbEntity
  8
BEZUGSACHSEN
100
AcDbLine
 62
9
  6
CONTINUOUS
 10
149.0309858579
 20
131.1395691586
 11
149.0309858579
 21
179.2213064663
  0
LINE
  5
2AA
100
AcDbEntity
  8
1
100
AcDbLine
 62
9
  6
CONTINUOUS
 10
149.0309858579
 20
131.1395691586
 11
149.0309858579
 21
179.2213064663
  0
LINE
  5
2AB
100
AcDbEntity
  8
BEZUGSACHSEN
100
AcDbLine
 62
9
  6
CONTINUOUS
 10
149.186277285
 20
131.1600136628
 11
149.186277285
 21
179.2008619621
  0
LINE
  5
2AC
100
AcDbEntity
  8
1
100
AcDbLine
 62
9
  6
CONTINUOUS
 10
149.186277285
 20
131.1600136628
 11
149.186277285
 21
179.2008619621
  0
LINE
  5
2AD
100
AcDbEntity
  8
BEZUGSACHSEN
100
AcDbLine
 62
9
  6
CONTINUOUS
 10
150.0587059944
 20
131.1600136628
 11
150.0587059944
 21
179.2008619621
  0
LINE
  5
2AE
100
AcDbEntity
  8
1
100
AcDbLine
 62
9
  6
CONTINUOUS
 10
150.0587059944
 20
131.1600136628
 11
150.0587059944
 21
179.2008619621
  0
LINE
  5
2AF
100
AcDbEntity
  8
BEZUGSACHSEN
100
AcDbLine
 62
7
  6
CONTINUOUS
 10
150.3608756249
 20
186.6804378124
 11
150.3608756249
 21
123.6804378124
  0
LINE
  5
2B0
100
AcDbEntity
  8
1
100
AcDbLine
 62
6
  6
CONTINUOUS
 10
150.3608756249
 20
186.6804378124
 11
150.3608756249
 21
123.6804378124
  0
LINE
  5
2B1
100
AcDbEntity
  8
FASEN
100
AcDbLine
 62
9
  6
CONTINUOUS
 10
162.4978860279
 20
135.3304378124
 11
162.4978860279
 21
134.9304378124
  0
LINE
  5
2B2
100
AcDbEntity
  8
1
100
AcDbLine
 62
9
  6
CONTINUOUS
 10
162.4978860279
 20
135.3304378124
 11
162.4978860279
 21
134.9304378124
  0
LINE
  5
2B3
100
AcDbEntity
  8
BEZUGSACHSEN
100
AcDbLine
 62
7
  6
CONTINUOUS
 10
118.4608756249
 20
147.7604378124
 11
119.6108756249
 21
148.9104378124
  0
LINE
  5
2B4
100
AcDbEntity
  8
1
100
AcDbLine
 62
6
  6
CONTINUOUS
 10
118.4608756249
 20
147.7604378124
 11
119.6108756249
 21
148.9104378124
  0
LINE
  5
2B5
100
AcDbEntity
  8
BEZUGSACHSEN
100
AcDbLine
 62
7
  6
CONTINUOUS
 10
119.6108756249
 20
161.4504378124
 11
118.4608756249
 21
162.6004378124
  0
LINE
  5
2B6
100
AcDbEntity
  8
1
100
AcDbLine
 62
6
  6
CONTINUOUS
 10
119.6108756249
 20
161.4504378124
 11
118.4608756249
 21
162.6004378124
  0
LINE
  5
2B7
100
AcDbEntity
  8
0
100
AcDbLine
 62
9
  6
CONTINUOUS
 10
163.3283756249
 20
147.1629378124
 11
163.3283756249
 21
147.5629378124
  0
LINE
  5
2B8
100
AcDbEntity
  8
1
100
AcDbLine
 62
9
  6
CONTINUOUS
 10
163.3283756249
 20
147.1629378124
 11
163.3283756249
 21
147.5629378124
  0
LINE
  5
2B9
100
AcDbEntity
  8
0
100
AcDbLine
 62
9
  6
CONTINUOUS
 10
163.3283756249
 20
162.7979378124
 11
163.3283756249
 21
163.1979378124
  0
LINE
  5
2BA
100
AcDbEntity
  8
1
100
AcDbLine
 62
9
  6
CONTINUOUS
 10
163.3283756249
 20
162.7979378124
 11
163.3283756249
 21
163.1979378124
  0
LINE
  5
2BB
100
AcDbEntity
  8
0
100
AcDbLine
 62
7
  6
CONTINUOUS
 10
164.9689427934
 20
186.6804378124
 11
164.9689427934
 21
163.1979378124
  0
LINE
  5
2BC
100
AcDbEntity
  8
1
100
AcDbLine
 62
6
  6
CONTINUOUS
 10
164.9689427934
 20
186.6804378124
 11
164.9689427934
 21
163.1979378124
  0
LINE
  5
2BD
100
AcDbEntity
  8
0
100
AcDbLine
 62
7
  6
CONTINUOUS
 10
164.9689427934
 20
147.1629378124
 11
164.9689427934
 21
135.3304378124
  0
LINE
  5
2BE
100
AcDbEntity
  8
1
100
AcDbLine
 62
6
  6
CONTINUOUS
 10
164.9689427934
 20
147.1629378124
 11
164.9689427934
 21
135.3304378124
  0
LINE
  5
2BF
100
AcDbEntity
  8
0
100
AcDbLine
 62
7
  6
CONTINUOUS
 10
164.9689427934
 20
130.7217481501
 11
164.9689427934
 21
123.6804378124
  0
LINE
  5
2C0
100
AcDbEntity
  8
1
100
AcDbLine
 62
6
  6
CONTINUOUS
 10
164.9689427934
 20
130.7217481501
 11
164.9689427934
 21
123.6804378124
  0
LINE
  5
2C1
100
AcDbEntity
  8
0
100
AcDbLine
 62
7
  6
CONTINUOUS
 10
166.4483756249
 20
184.1179704227
 11
166.4483756249
 21
163.1979378124
  0
LINE
  5
2C2
100
AcDbEntity
  8
1
100
AcDbLine
 62
6
  6
CONTINUOUS
 10
166.4483756249
 20
184.1179704227
 11
166.4483756249
 21
163.1979378124
  0
LINE
  5
2C3
100
AcDbEntity
  8
0
100
AcDbLine
 62
7
  6
CONTINUOUS
 10
166.4483756249
 20
126.2428951625
 11
166.4483756249
 21
147.1629378124
  0
LINE
  5
2C4
100
AcDbEntity
  8
1
100
AcDbLine
 62
6
  6
CONTINUOUS
 10
166.4483756249
 20
126.2428951625
 11
166.4483756249
 21
147.1629378124
  0
LINE
  5
2C5
100
AcDbEntity
  8
0
100
AcDbLine
 62
9
  6
CONTINUOUS
 10
167.1983756249
 20
127.7054378124
 11
167.1983756249
 21
147.5702062128
  0
LINE
  5
2C6
100
AcDbEntity
  8
1
100
AcDbLine
 62
9
  6
CONTINUOUS
 10
167.1983756249
 20
127.7054378124
 11
167.1983756249
 21
147.5702062128
  0
LINE
  5
2C7
100
AcDbEntity
  8
0
100
AcDbLine
 62
9
  6
CONTINUOUS
 10
167.1983756249
 20
162.7906694121
 11
167.1983756249
 21
182.6554378124
  0
LINE
  5
2C8
100
AcDbEntity
  8
1
100
AcDbLine
 62
9
  6
CONTINUOUS
 10
167.1983756249
 20
162.7906694121
 11
167.1983756249
 21
182.6554378124
  0
LINE
  5
2C9
100
AcDbEntity
  8
0
100
AcDbLine
 62
9
  6
CONTINUOUS
 10
169.5233756249
 20
127.7054378124
 11
169.5233756249
 21
147.5702062128
  0
LINE
  5
2CA
100
AcDbEntity
  8
1
100
AcDbLine
 62
9
  6
CONTINUOUS
 10
169.5233756249
 20
127.7054378124
 11
169.5233756249
 21
147.5702062128
  0
LINE
  5
2CB
100
AcDbEntity
  8
0
100
AcDbLine
 62
9
  6
CONTINUOUS
 10
169.5233756249
 20
162.7906694121
 11
169.5233756249
 21
182.6554378124
  0
LINE
  5
2CC
100
AcDbEntity
  8
1
100
AcDbLine
 62
9
  6
CONTINUOUS
 10
169.5233756249
 20
162.7906694121
 11
169.5233756249
 21
182.6554378124
  0
LINE
  5
2CD
100
AcDbEntity
  8
0
100
AcDbLine
 62
7
  6
CONTINUOUS
 10
170.2733756249
 20
126.2428951625
 11
170.2733756249
 21
147.1629378124
  0
LINE
  5
2CE
100
AcDbEntity
  8
1
100
AcDbLine
 62
6
  6
CONTINUOUS
 10
170.2733756249
 20
126.2428951625
 11
170.2733756249
 21
147.1629378124
  0
LINE
  5
2CF
100
AcDbEntity
  8
0
100
AcDbLine
 62
7
  6
CONTINUOUS
 10
170.2733756249
 20
163.1979378124
 11
170.2733756249
 21
184.1179704227
  0
LINE
  5
2D0
100
AcDbEntity
  8
1
100
AcDbLine
 62
6
  6
CONTINUOUS
 10
170.2733756249
 20
163.1979378124
 11
170.2733756249
 21
184.1179704227
  0
LINE
  5
2D1
100
AcDbEntity
  8
BEZUGSACHSEN
100
AcDbLine
 62
7
  6
CONTINUOUS
 10
170.2733756249
 20
184.1179849819
 11
171.7528084564
 21
186.6804378124
  0
LINE
  5
2D2
100
AcDbEntity
  8
1
100
AcDbLine
 62
6
  6
CONTINUOUS
 10
170.2733756249
 20
184.1179849819
 11
171.7528084564
 21
186.6804378124
  0
LINE
  5
2D3
100
AcDbEntity
  8
BEZUGSACHSEN
100
AcDbLine
 62
7
  6
CONTINUOUS
 10
170.2733756249
 20
126.242890643
 11
171.7528084564
 21
123.6804378124
  0
LINE
  5
2D4
100
AcDbEntity
  8
1
100
AcDbLine
 62
6
  6
CONTINUOUS
 10
170.2733756249
 20
126.242890643
 11
171.7528084564
 21
123.6804378124
  0
LINE
  5
2D5
100
AcDbEntity
  8
0
100
AcDbLine
 62
7
  6
CONTINUOUS
 10
171.7528084564
 20
186.6804378124
 11
171.7528084564
 21
163.1979378124
  0
LINE
  5
2D6
100
AcDbEntity
  8
1
100
AcDbLine
 62
6
  6
CONTINUOUS
 10
171.7528084564
 20
186.6804378124
 11
171.7528084564
 21
163.1979378124
  0
LINE
  5
2D7
100
AcDbEntity
  8
0
100
AcDbLine
 62
7
  6
CONTINUOUS
 10
171.7528084564
 20
147.1629378124
 11
171.7528084564
 21
135.3304378124
  0
LINE
  5
2D8
100
AcDbEntity
  8
1
100
AcDbLine
 62
6
  6
CONTINUOUS
 10
171.7528084564
 20
147.1629378124
 11
171.7528084564
 21
135.3304378124
  0
LINE
  5
2D9
100
AcDbEntity
  8
0
100
AcDbLine
 62
7
  6
CONTINUOUS
 10
171.7528084564
 20
130.7217481501
 11
171.7528084564
 21
123.6804378124
  0
LINE
  5
2DA
100
AcDbEntity
  8
1
100
AcDbLine
 62
6
  6
CONTINUOUS
 10
171.7528084564
 20
130.7217481501
 11
171.7528084564
 21
123.6804378124
  0
LINE
  5
2DB
100
AcDbEntity
  8
0
100
AcDbLine
 62
7
  6
CONTINUOUS
 10
176.3108756249
 20
123.6804379085
 11
176.3108756249
 21
152.8804378124
  0
LINE
  5
2DC
100
AcDbEntity
  8
1
100
AcDbLine
 62
6
  6
CONTINUOUS
 10
176.3108756249
 20
123.6804379085
 11
176.3108756249
 21
152.8804378124
  0
LINE
  5
2DD
100
AcDbEntity
  8
0
100
AcDbLine
 62
7
  6
CONTINUOUS
 10
176.3108756249
 20
157.4804378124
 11
176.3108756249
 21
186.6804263486
  0
LINE
  5
2DE
100
AcDbEntity
  8
1
100
AcDbLine
 62
6
  6
CONTINUOUS
 10
176.3108756249
 20
157.4804378124
 11
176.3108756249
 21
186.6804263486
  0
LINE
  5
2DF
100
AcDbEntity
  8
0
100
AcDbLine
 62
9
  6
CONTINUOUS
 10
177.3108756249
 20
180.6804378124
 11
177.3108756249
 21
129.6804378124
  0
LINE
  5
2E0
100
AcDbEntity
  8
1
100
AcDbLine
 62
9
  6
CONTINUOUS
 10
177.3108756249
 20
180.6804378124
 11
177.3108756249
 21
129.6804378124
  0
LINE
  5
2E1
100
AcDbEntity
  8
0
100
AcDbLine
 62
7
  6
CONTINUOUS
 10
193.4929824061
 20
181.3625445936
 11
193.1037688437
 21
180.9733310313
  0
LINE
  5
2E2
100
AcDbEntity
  8
1
100
AcDbLine
 62
6
  6
CONTINUOUS
 10
193.4929824061
 20
181.3625445936
 11
193.1037688437
 21
180.9733310313
  0
LINE
  5
2E3
100
AcDbEntity
  8
BEZUGSACHSEN
100
AcDbLine
 62
9
  6
CONTINUOUS
 10
118.4608756249
 20
147.0841006395
 11
119.6108756249
 21
147.7845123454
  0
LINE
  5
2E4
100
AcDbEntity
  8
1
100
AcDbLine
 62
9
  6
CONTINUOUS
 10
118.4608756249
 20
147.0841006395
 11
119.6108756249
 21
147.7845123454
  0
LINE
  5
2E5
100
AcDbEntity
  8
BEZUGSACHSEN
100
AcDbLine
 62
9
  6
CONTINUOUS
 10
119.6108756249
 20
162.5763632795
 11
118.4608756249
 21
163.2767749854
  0
LINE
  5
2E6
100
AcDbEntity
  8
1
100
AcDbLine
 62
9
  6
CONTINUOUS
 10
119.6108756249
 20
162.5763632795
 11
118.4608756249
 21
163.2767749854
  0
LINE
  5
2E7
100
AcDbEntity
  8
0
100
AcDbLine
 62
9
  6
CONTINUOUS
 10
192.3966620625
 20
180.6804378124
 11
192.3966620625
 21
129.6804378124
  0
LINE
  5
2E8
100
AcDbEntity
  8
1
100
AcDbLine
 62
9
  6
CONTINUOUS
 10
192.3966620625
 20
180.6804378124
 11
192.3966620625
 21
129.6804378124
  0
LINE
  5
2E9
100
AcDbEntity
  8
0
100
AcDbLine
 62
9
  6
CONTINUOUS
 10
193.1037688437
 20
180.9733310313
 11
193.1037688437
 21
129.3875445936
  0
LINE
  5
2EA
100
AcDbEntity
  8
1
100
AcDbLine
 62
9
  6
CONTINUOUS
 10
193.1037688437
 20
180.9733310313
 11
193.1037688437
 21
129.3875445936
  0
LINE
  5
2EB
100
AcDbEntity
  8
0
100
AcDbLine
 62
9
  6
CONTINUOUS
 10
193.4929824061
 20
181.3625445936
 11
193.4929824061
 21
128.9983310313
  0
LINE
  5
2EC
100
AcDbEntity
  8
1
100
AcDbLine
 62
9
  6
CONTINUOUS
 10
193.4929824061
 20
181.3625445936
 11
193.4929824061
 21
128.9983310313
  0
LINE
  5
2ED
100
AcDbEntity
  8
0
100
AcDbLine
 62
9
  6
CONTINUOUS
 10
194.2000891873
 20
181.6554378124
 11
194.2000891873
 21
128.7054378124
  0
LINE
  5
2EE
100
AcDbEntity
  8
1
100
AcDbLine
 62
9
  6
CONTINUOUS
 10
194.2000891873
 20
181.6554378124
 11
194.2000891873
 21
128.7054378124
  0
LINE
  5
2EF
100
AcDbEntity
  8
BEZUGSACHSEN
100
AcDbLine
 62
7
  6
CONTINUOUS
 10
164.9689427934
 20
123.6804378124
 11
166.4483756249
 21
126.242890643
  0
LINE
  5
2F0
100
AcDbEntity
  8
1
100
AcDbLine
 62
6
  6
CONTINUOUS
 10
164.9689427934
 20
123.6804378124
 11
166.4483756249
 21
126.242890643
  0
LINE
  5
2F1
100
AcDbEntity
  8
0
100
AcDbLine
 62
7
  6
CONTINUOUS
 10
193.4929824061
 20
128.9983310313
 11
193.1037688437
 21
129.3875445936
  0
LINE
  5
2F2
100
AcDbEntity
  8
1
100
AcDbLine
 62
6
  6
CONTINUOUS
 10
193.4929824061
 20
128.9983310313
 11
193.1037688437
 21
129.3875445936
  0
LINE
  5
2F3
100
AcDbEntity
  8
BEZUGSACHSEN
100
AcDbLine
 62
7
  6
CONTINUOUS
 10
164.9689427934
 20
186.6804378124
 11
166.4483756249
 21
184.1179849819
  0
LINE
  5
2F4
100
AcDbEntity
  8
1
100
AcDbLine
 62
6
  6
CONTINUOUS
 10
164.9689427934
 20
186.6804378124
 11
166.4483756249
 21
184.1179849819
  0
LINE
  5
2F5
100
AcDbEntity
  8
0
100
AcDbLine
 62
7
  6
CONTINUOUS
 10
349.4393347206
 20
133.1329109704
 11
293.1829543121
 21
128.7054378124
  0
LINE
  5
2F6
100
AcDbEntity
  8
1
100
AcDbLine
 62
6
  6
CONTINUOUS
 10
349.4393347206
 20
133.1329109704
 11
293.1829543121
 21
128.7054378124
  0
LINE
  5
2F7
100
AcDbEntity
  8
BEZUGSACHSEN
100
AcDbLine
 62
7
  6
CONTINUOUS
 10
164.9689427934
 20
123.6804378124
 11
150.3608756249
 21
123.6804378124
  0
LINE
  5
2F8
100
AcDbEntity
  8
1
100
AcDbLine
 62
6
  6
CONTINUOUS
 10
164.9689427934
 20
123.6804378124
 11
150.3608756249
 21
123.6804378124
  0
LINE
  5
2F9
100
AcDbEntity
  8
BEZUGSACHSEN
100
AcDbLine
 62
7
  6
CONTINUOUS
 10
171.7528084564
 20
123.6804378124
 11
176.3108756249
 21
123.6804378124
  0
LINE
  5
2FA
100
AcDbEntity
  8
1
100
AcDbLine
 62
6
  6
CONTINUOUS
 10
171.7528084564
 20
123.6804378124
 11
176.3108756249
 21
123.6804378124
  0
LINE
  5
2FB
100
AcDbEntity
  8
BEZUGSACHSEN
100
AcDbLine
 62
7
  6
CONTINUOUS
 10
167.1983756249
 20
127.7054378124
 11
169.5233756249
 21
127.7054378124
  0
LINE
  5
2FC
100
AcDbEntity
  8
1
100
AcDbLine
 62
6
  6
CONTINUOUS
 10
167.1983756249
 20
127.7054378124
 11
169.5233756249
 21
127.7054378124
  0
LINE
  5
2FD
100
AcDbEntity
  8
0
100
AcDbLine
 62
7
  6
CONTINUOUS
 10
293.1829543121
 20
128.7054378124
 11
194.2000891873
 21
128.7054378124
  0
LINE
  5
2FE
100
AcDbEntity
  8
1
100
AcDbLine
 62
6
  6
CONTINUOUS
 10
293.1829543121
 20
128.7054378124
 11
194.2000891873
 21
128.7054378124
  0
LINE
  5
2FF
100
AcDbEntity
  8
0
100
AcDbLine
 62
7
  6
CONTINUOUS
 10
192.3966620625
 20
129.6804378124
 11
177.3108756249
 21
129.6804378124
  0
LINE
  5
300
100
AcDbEntity
  8
1
100
AcDbLine
 62
6
  6
CONTINUOUS
 10
192.3966620625
 20
129.6804378124
 11
177.3108756249
 21
129.6804378124
  0
LINE
  5
301
100
AcDbEntity
  8
BEZUGSACHSEN
100
AcDbLine
 62
7
  6
CONTINUOUS
 10
148.3608756249
 20
130.9600136628
 11
119.6008325606
 21
132.400852691
  0
LINE
  5
302
100
AcDbEntity
  8
1
100
AcDbLine
 62
6
  6
CONTINUOUS
 10
148.3608756249
 20
130.9600136628
 11
119.6008325606
 21
132.400852691
  0
LINE
  5
303
100
AcDbEntity
  8
0
100
AcDbLine
 62
7
  6
CONTINUOUS
 10
155.6964879872
 20
130.7217481501
 11
164.9689427934
 21
130.7217481501
  0
LINE
  5
304
100
AcDbEntity
  8
1
100
AcDbLine
 62
6
  6
CONTINUOUS
 10
155.6964879872
 20
130.7217481501
 11
164.9689427934
 21
130.7217481501
  0
LINE
  5
305
100
AcDbEntity
  8
0
100
AcDbLine
 62
7
  6
CONTINUOUS
 10
171.7528084564
 20
130.7217481501
 11
176.3108756249
 21
130.7217481501
  0
LINE
  5
306
100
AcDbEntity
  8
1
100
AcDbLine
 62
6
  6
CONTINUOUS
 10
171.7528084564
 20
130.7217481501
 11
176.3108756249
 21
130.7217481501
  0
LINE
  5
307
100
AcDbEntity
  8
BEZUGSACHSEN
100
AcDbLine
 62
7
  6
CONTINUOUS
 10
150.0587059944
 20
131.1600136628
 11
149.186277285
 21
131.1600136628
  0
LINE
  5
308
100
AcDbEntity
  8
1
100
AcDbLine
 62
6
  6
CONTINUOUS
 10
150.0587059944
 20
131.1600136628
 11
149.186277285
 21
131.1600136628
  0
LINE
  5
309
100
AcDbEntity
  8
0
100
AcDbLine
 62
7
  6
CONTINUOUS
 10
176.3108756249
 20
134.9304378124
 11
170.2733756249
 21
134.9304378124
  0
LINE
  5
30A
100
AcDbEntity
  8
1
100
AcDbLine
 62
6
  6
CONTINUOUS
 10
176.3108756249
 20
134.9304378124
 11
170.2733756249
 21
134.9304378124
  0
LINE
  5
30B
100
AcDbEntity
  8
0
100
AcDbLine
 62
7
  6
CONTINUOUS
 10
166.4483756249
 20
134.9304378124
 11
162.4978860279
 21
134.9304378124
  0
LINE
  5
30C
100
AcDbEntity
  8
1
100
AcDbLine
 62
6
  6
CONTINUOUS
 10
166.4483756249
 20
134.9304378124
 11
162.4978860279
 21
134.9304378124
  0
LINE
  5
30D
100
AcDbEntity
  8
0
100
AcDbLine
 62
7
  6
CONTINUOUS
 10
162.4978860279
 20
135.3304378124
 11
166.4483756249
 21
135.3304378124
  0
LINE
  5
30E
100
AcDbEntity
  8
1
100
AcDbLine
 62
6
  6
CONTINUOUS
 10
162.4978860279
 20
135.3304378124
 11
166.4483756249
 21
135.3304378124
  0
LINE
  5
30F
100
AcDbEntity
  8
0
100
AcDbLine
 62
7
  6
CONTINUOUS
 10
170.2733756249
 20
135.3304378124
 11
176.3108756249
 21
135.3304378124
  0
LINE
  5
310
100
AcDbEntity
  8
1
100
AcDbLine
 62
6
  6
CONTINUOUS
 10
170.2733756249
 20
135.3304378124
 11
176.3108756249
 21
135.3304378124
  0
LINE
  5
311
100
AcDbEntity
  8
BEZUGSACHSEN
100
AcDbLine
 62
9
  6
CONTINUOUS
 10
123.9259344592
 20
146.0304378124
 11
119.7628669541
 21
146.0304378124
  0
LINE
  5
312
100
AcDbEntity
  8
1
100
AcDbLine
 62
9
  6
CONTINUOUS
 10
123.9259344592
 20
146.0304378124
 11
119.7628669541
 21
146.0304378124
  0
LINE
  5
313
100
AcDbEntity
  8
BEZUGSACHSEN
100
AcDbLine
 62
7
  6
CONTINUOUS
 10
149.0309858579
 20
131.1395691586
 11
148.3608756249
 21
130.9600136628
  0
LINE
  5
314
100
AcDbEntity
  8
1
100
AcDbLine
 62
6
  6
CONTINUOUS
 10
149.0309858579
 20
131.1395691586
 11
148.3608756249
 21
130.9600136628
  0
LINE
  5
315
100
AcDbEntity
  8
0
100
AcDbLine
 62
7
  6
CONTINUOUS
 10
163.3283756249
 20
147.1629378124
 11
166.4917780392
 21
147.1629378124
  0
LINE
  5
316
100
AcDbEntity
  8
1
100
AcDbLine
 62
6
  6
CONTINUOUS
 10
163.3283756249
 20
147.1629378124
 11
166.4917780392
 21
147.1629378124
  0
LINE
  5
317
100
AcDbEntity
  8
0
100
AcDbLine
 62
7
  6
CONTINUOUS
 10
170.2299732106
 20
147.1629378124
 11
176.3108756249
 21
147.1629378124
  0
LINE
  5
318
100
AcDbEntity
  8
1
100
AcDbLine
 62
6
  6
CONTINUOUS
 10
170.2299732106
 20
147.1629378124
 11
176.3108756249
 21
147.1629378124
  0
LINE
  5
319
100
AcDbEntity
  8
0
100
AcDbLine
 62
7
  6
CONTINUOUS
 10
176.3108756249
 20
147.5629378124
 11
169.578304294
 21
147.5629378124
  0
LINE
  5
31A
100
AcDbEntity
  8
1
100
AcDbLine
 62
6
  6
CONTINUOUS
 10
176.3108756249
 20
147.5629378124
 11
169.578304294
 21
147.5629378124
  0
LINE
  5
31B
100
AcDbEntity
  8
0
100
AcDbLine
 62
7
  6
CONTINUOUS
 10
167.1434469558
 20
147.5629378124
 11
163.3283756249
 21
147.5629378124
  0
LINE
  5
31C
100
AcDbEntity
  8
1
100
AcDbLine
 62
6
  6
CONTINUOUS
 10
167.1434469558
 20
147.5629378124
 11
163.3283756249
 21
147.5629378124
  0
LINE
  5
31D
100
AcDbEntity
  8
0
100
AcDbLine
 62
7
  6
CONTINUOUS
 10
167.1983756249
 20
147.5702062128
 11
169.5233756249
 21
147.5702062128
  0
LINE
  5
31E
100
AcDbEntity
  8
1
100
AcDbLine
 62
6
  6
CONTINUOUS
 10
167.1983756249
 20
147.5702062128
 11
169.5233756249
 21
147.5702062128
  0
LINE
  5
31F
100
AcDbEntity
  8
BEZUGSACHSEN
100
AcDbLine
 62
7
  6
CONTINUOUS
 10
123.1608756249
 20
148.9104378124
 11
119.6108756249
 21
148.9104378124
  0
LINE
  5
320
100
AcDbEntity
  8
1
100
AcDbLine
 62
6
  6
CONTINUOUS
 10
123.1608756249
 20
148.9104378124
 11
119.6108756249
 21
148.9104378124
  0
LINE
  5
321
100
AcDbEntity
  8
4
100
AcDbLine
 62
7
  6
CENTER
 10
354.3999054604
 20
155.1804378124
 11
115.4608756249
 21
155.1804378124
  0
LINE
  5
322
100
AcDbEntity
  8
BEZUGSACHSEN
100
AcDbLine
 62
9
  6
CONTINUOUS
 10
145.710170833
 20
155.1804378424
 11
145.11090754
 21
155.1804378291
  0
LINE
  5
323
100
AcDbEntity
  8
1
100
AcDbLine
 62
9
  6
CONTINUOUS
 10
145.710170833
 20
155.1804378424
 11
145.11090754
 21
155.1804378291
  0
LINE
  5
324
100
AcDbEntity
  8
BEZUGSACHSEN
100
AcDbLine
 62
9
  6
CONTINUOUS
 10
137.0115764781
 20
155.1804377723
 11
137.6108370421
 21
155.180437785
  0
LINE
  5
325
100
AcDbEntity
  8
1
100
AcDbLine
 62
9
  6
CONTINUOUS
 10
137.0115764781
 20
155.1804377723
 11
137.6108370421
 21
155.180437785
  0
LINE
  5
326
100
AcDbEntity
  8
BEZUGSACHSEN
100
AcDbLine
 62
7
  6
CONTINUOUS
 10
123.1608756249
 20
161.4504378124
 11
119.6108756249
 21
161.4504378124
  0
LINE
  5
327
100
AcDbEntity
  8
1
100
AcDbLine
 62
9
  6
CONTINUOUS
 10
123.1608756249
 20
161.4504378124
 11
119.6108756249
 21
161.4504378124
  0
LINE
  5
328
100
AcDbEntity
  8
BEZUGSACHSEN
100
AcDbLine
 62
7
  6
CONTINUOUS
 10
149.0309858579
 20
179.2213064663
 11
148.3608756249
 21
179.4008619621
  0
LINE
  5
329
100
AcDbEntity
  8
1
100
AcDbLine
 62
6
  6
CONTINUOUS
 10
149.0309858579
 20
179.2213064663
 11
148.3608756249
 21
179.4008619621
  0
LINE
  5
32A
100
AcDbEntity
  8
0
100
AcDbLine
 62
7
  6
CONTINUOUS
 10
167.1983756249
 20
162.7906694121
 11
169.5233756249
 21
162.7906694121
  0
LINE
  5
32B
100
AcDbEntity
  8
1
100
AcDbLine
 62
6
  6
CONTINUOUS
 10
167.1983756249
 20
162.7906694121
 11
169.5233756249
 21
162.7906694121
  0
LINE
  5
32C
100
AcDbEntity
  8
0
100
AcDbLine
 62
7
  6
CONTINUOUS
 10
163.3283756249
 20
162.7979378124
 11
167.1434469558
 21
162.7979378124
  0
LINE
  5
32D
100
AcDbEntity
  8
1
100
AcDbLine
 62
6
  6
CONTINUOUS
 10
163.3283756249
 20
162.7979378124
 11
167.1434469558
 21
162.7979378124
  0
LINE
  5
32E
100
AcDbEntity
  8
0
100
AcDbLine
 62
7
  6
CONTINUOUS
 10
169.578304294
 20
162.7979378124
 11
176.3108756249
 21
162.7979378124
  0
LINE
  5
32F
100
AcDbEntity
  8
1
100
AcDbLine
 62
6
  6
CONTINUOUS
 10
169.578304294
 20
162.7979378124
 11
176.3108756249
 21
162.7979378124
  0
LINE
  5
330
100
AcDbEntity
  8
0
100
AcDbLine
 62
7
  6
CONTINUOUS
 10
163.3283756249
 20
163.1979378124
 11
166.4917780392
 21
163.1979378124
  0
LINE
  5
331
100
AcDbEntity
  8
1
100
AcDbLine
 62
6
  6
CONTINUOUS
 10
163.3283756249
 20
163.1979378124
 11
166.4917780392
 21
163.1979378124
  0
LINE
  5
332
100
AcDbEntity
  8
0
100
AcDbLine
 62
7
  6
CONTINUOUS
 10
170.2299732106
 20
163.1979378124
 11
176.3108756249
 21
163.1979378124
  0
LINE
  5
333
100
AcDbEntity
  8
1
100
AcDbLine
 62
6
  6
CONTINUOUS
 10
170.2299732106
 20
163.1979378124
 11
176.3108756249
 21
163.1979378124
  0
LINE
  5
334
100
AcDbEntity
  8
BEZUGSACHSEN
100
AcDbLine
 62
9
  6
CONTINUOUS
 10
119.7628669541
 20
164.3304378124
 11
123.9259344592
 21
164.3304378124
  0
LINE
  5
335
100
AcDbEntity
  8
1
100
AcDbLine
 62
9
  6
CONTINUOUS
 10
119.7628669541
 20
164.3304378124
 11
123.9259344592
 21
164.3304378124
  0
LINE
  5
336
100
AcDbEntity
  8
BEZUGSACHSEN
100
AcDbLine
 62
7
  6
CONTINUOUS
 10
148.3608756249
 20
179.4008619621
 11
119.6008325606
 21
177.9600229339
  0
LINE
  5
337
100
AcDbEntity
  8
1
100
AcDbLine
 62
6
  6
CONTINUOUS
 10
148.3608756249
 20
179.4008619621
 11
119.6008325606
 21
177.9600229339
  0
LINE
  5
338
100
AcDbEntity
  8
BEZUGSACHSEN
100
AcDbLine
 62
7
  6
CONTINUOUS
 10
150.0587059944
 20
179.2008619621
 11
149.186277285
 21
179.2008619621
  0
LINE
  5
339
100
AcDbEntity
  8
1
100
AcDbLine
 62
6
  6
CONTINUOUS
 10
150.0587059944
 20
179.2008619621
 11
149.186277285
 21
179.2008619621
  0
LINE
  5
33A
100
AcDbEntity
  8
0
100
AcDbLine
 62
7
  6
CONTINUOUS
 10
192.3966620625
 20
180.6804378124
 11
177.3108756249
 21
180.6804378124
  0
LINE
  5
33B
100
AcDbEntity
  8
1
100
AcDbLine
 62
6
  6
CONTINUOUS
 10
192.3966620625
 20
180.6804378124
 11
177.3108756249
 21
180.6804378124
  0
LINE
  5
33C
100
AcDbEntity
  8
0
100
AcDbLine
 62
7
  6
CONTINUOUS
 10
293.1829543121
 20
181.6554378124
 11
194.2000891873
 21
181.6554378124
  0
LINE
  5
33D
100
AcDbEntity
  8
1
100
AcDbLine
 62
6
  6
CONTINUOUS
 10
293.1829543121
 20
181.6554378124
 11
194.2000891873
 21
181.6554378124
  0
LINE
  5
33E
100
AcDbEntity
  8
BEZUGSACHSEN
100
AcDbLine
 62
7
  6
CONTINUOUS
 10
167.1983756249
 20
182.6554378124
 11
169.5233756249
 21
182.6554378124
  0
LINE
  5
33F
100
AcDbEntity
  8
1
100
AcDbLine
 62
6
  6
CONTINUOUS
 10
167.1983756249
 20
182.6554378124
 11
169.5233756249
 21
182.6554378124
  0
LINE
  5
340
100
AcDbEntity
  8
BEZUGSACHSEN
100
AcDbLine
 62
7
  6
CONTINUOUS
 10
164.9689427934
 20
186.6804378124
 11
150.3608756249
 21
186.6804378124
  0
LINE
  5
341
100
AcDbEntity
  8
1
100
AcDbLine
 62
6
  6
CONTINUOUS
 10
164.9689427934
 20
186.6804378124
 11
150.3608756249
 21
186.6804378124
  0
LINE
  5
342
100
AcDbEntity
  8
BEZUGSACHSEN
100
AcDbLine
 62
7
  6
CONTINUOUS
 10
171.7528084564
 20
186.6804378124
 11
176.3108756249
 21
186.6804378124
  0
LINE
  5
343
100
AcDbEntity
  8
1
100
AcDbLine
 62
6
  6
CONTINUOUS
 10
171.7528084564
 20
186.6804378124
 11
176.3108756249
 21
186.6804378124
  0
LINE
  5
344
100
AcDbEntity
  8
0
100
AcDbLine
 62
7
  6
CONTINUOUS
 10
349.4393347206
 20
177.2279646545
 11
293.1829543121
 21
181.6554378124
  0
LINE
  5
345
100
AcDbEntity
  8
1
100
AcDbLine
 62
6
  6
CONTINUOUS
 10
349.4393347206
 20
177.2279646545
 11
293.1829543121
 21
181.6554378124
  0
LINE
  5
346
100
AcDbEntity
  8
0
100
AcDbLine
 62
7
  6
CONTINUOUS
 10
293.1829543121
 20
181.6554378124
 11
293.1829543121
 21
128.7054378124
  0
LINE
  5
347
100
AcDbEntity
  8
1
100
AcDbLine
 62
6
  6
CONTINUOUS
 10
293.1829543121
 20
181.6554378124
 11
293.1829543121
 21
128.7054378124
  0
LINE
  5
348
100
AcDbEntity
  8
0
100
AcDbLine
 62
9
  6
CONTINUOUS
 10
349.4393347206
 20
177.2279646545
 11
349.4393347206
 21
133.1329109704
  0
LINE
  5
349
100
AcDbEntity
  8
1
100
AcDbLine
 62
9
  6
CONTINUOUS
 10
349.4393347206
 20
177.2279646545
 11
349.4393347206
 21
133.1329109704
  0
LINE
  5
34A
100
AcDbEntity
  8
0
100
AcDbLine
 62
7
  6
CONTINUOUS
 10
350.3608756249
 20
176.2310473208
 11
350.3608756249
 21
134.1298283041
  0
LINE
  5
34B
100
AcDbEntity
  8
1
100
AcDbLine
 62
6
  6
CONTINUOUS
 10
350.3608756249
 20
176.2310473208
 11
350.3608756249
 21
134.1298283041
  0
LINE
  5
34C
100
AcDbEntity
  8
SK1
100
AcDbLine
 62
8
  6
HIDDEN
 10
285.8608756249
 20
139.25
 11
350.3608756249
 21
139.25
  0
LINE
  5
34D
100
AcDbEntity
  8
SK1
100
AcDbLine
 62
8
  6
HIDDEN
 10
285.8608756249
 20
170.75
 11
350.3608756249
 21
170.75
  0
LINE
  5
34E
100
AcDbEntity
  8
SK1
100
AcDbLine
 62
8
  6
HIDDEN
 10
285.8608756249
 20
170.75
 11
285.8608756249
 21
139.25
  0
ARC
  5
34F
100
AcDbEntity
  8
0
100
AcDbCircle
 62
7
  6
CONTINUOUS
 10
165.4048842666
 20
139.2498374511
 40
12.9221231013
100
AcDbArc
 50
219.3764540951
 51
221.2968513847
  0
ARC
  5
350
100
AcDbEntity
  8
1
100
AcDbCircle
 62
6
  6
CONTINUOUS
 10
165.4048842666
 20
139.2498374511
 40
12.9221231013
100
AcDbArc
 50
219.3764540951
 51
221.2968513847
  0
ARC
  5
351
100
AcDbEntity
  8
0
100
AcDbCircle
 62
7
  6
CONTINUOUS
 10
162.4978860279
 20
127.3304378124
 40
8.0
100
AcDbArc
 50
90.0
 51
152.2781440426
  0
ARC
  5
352
100
AcDbEntity
  8
1
100
AcDbCircle
 62
6
  6
CONTINUOUS
 10
162.4978860279
 20
127.3304378124
 40
8.0
100
AcDbArc
 50
90.0
 51
152.2781440426
  0
ARC
  5
353
100
AcDbEntity
  8
0
100
AcDbCircle
 62
7
  6
CONTINUOUS
 10
162.4978860279
 20
127.3304378124
 40
7.6000000734
100
AcDbArc
 50
90.0
 51
153.4982568503
  0
ARC
  5
354
100
AcDbEntity
  8
1
100
AcDbCircle
 62
6
  6
CONTINUOUS
 10
162.4978860279
 20
127.3304378124
 40
7.6000000734
100
AcDbArc
 50
90.0
 51
153.4982568503
  0
ARC
  5
355
100
AcDbEntity
  8
BEZUGSACHSEN
100
AcDbCircle
 62
7
  6
CONTINUOUS
 10
123.1608756249
 20
150.3104378124
 40
1.4
100
AcDbArc
 50
270.0
 51
354.856646903
  0
ARC
  5
356
100
AcDbEntity
  8
1
100
AcDbCircle
 62
9
  6
CONTINUOUS
 10
123.1608756249
 20
150.3104378124
 40
1.4
100
AcDbArc
 50
270.0
 51
354.8576388686
  0
ARC
  5
357
100
AcDbEntity
  8
BEZUGSACHSEN
100
AcDbCircle
 62
7
  6
CONTINUOUS
 10
119.6608756249
 20
133.5993495956
 40
1.2
100
AcDbArc
 50
180.0
 51
267.131957271
  0
ARC
  5
358
100
AcDbEntity
  8
1
100
AcDbCircle
 62
6
  6
CONTINUOUS
 10
119.6608756249
 20
133.5993495956
 40
1.2
100
AcDbArc
 50
180.0
 51
267.131957271
  0
ARC
  5
359
100
AcDbEntity
  8
0
100
AcDbCircle
 62
7
  6
CONTINUOUS
 10
177.3108756249
 20
128.6804378124
 40
1.0
100
AcDbArc
 50
90.0
 51
174.6662961832
  0
ARC
  5
35A
100
AcDbEntity
  8
1
100
AcDbCircle
 62
6
  6
CONTINUOUS
 10
177.3108756249
 20
128.6804378124
 40
1.0
100
AcDbArc
 50
90.0
 51
180.0
  0
ARC
  5
35B
100
AcDbEntity
  8
BEZUGSACHSEN
100
AcDbCircle
 62
7
  6
CONTINUOUS
 10
167.1983756249
 20
126.9554378124
 40
0.75
100
AcDbArc
 50
90.0
 51
180.0
  0
ARC
  5
35C
100
AcDbEntity
  8
BEZUGSACHSEN
100
AcDbCircle
 62
7
  6
CONTINUOUS
 10
169.5233756249
 20
126.9554378124
 40
0.75
100
AcDbArc
 50
0.0
 51
90.0
  0
ARC
  5
35D
100
AcDbEntity
  8
1
100
AcDbCircle
 62
6
  6
CONTINUOUS
 10
169.5233756249
 20
126.9554378124
 40
0.75
100
AcDbArc
 50
0.0
 51
90.0
  0
ARC
  5
35E
100
AcDbEntity
  8
1
100
AcDbCircle
 62
6
  6
CONTINUOUS
 10
167.1983756249
 20
126.9554378124
 40
0.75
100
AcDbArc
 50
90.0
 51
180.0
  0
ARC
  5
35F
100
AcDbEntity
  8
BEZUGSACHSEN
100
AcDbCircle
 62
7
  6
CONTINUOUS
 10
150.0587059944
 20
130.5600136628
 40
0.6
100
AcDbArc
 50
59.7213542695
 51
90.0
  0
ARC
  5
360
100
AcDbEntity
  8
BEZUGSACHSEN
100
AcDbCircle
 62
7
  6
CONTINUOUS
 10
149.186277285
 20
130.5600136628
 40
0.6
100
AcDbArc
 50
90.0
 51
105.0
  0
ARC
  5
361
100
AcDbEntity
  8
1
100
AcDbCircle
 62
6
  6
CONTINUOUS
 10
149.186277285
 20
130.5600136628
 40
0.6
100
AcDbArc
 50
90.0
 51
105.0
  0
ARC
  5
362
100
AcDbEntity
  8
1
100
AcDbCircle
 62
6
  6
CONTINUOUS
 10
150.0587059944
 20
130.5600136628
 40
0.6
100
AcDbArc
 50
59.7213542695
 51
90.0
  0
ARC
  5
363
100
AcDbEntity
  8
0
100
AcDbCircle
 62
7
  6
CONTINUOUS
 10
169.7330114198
 20
146.9425599349
 40
0.5436335442
100
AcDbArc
 50
23.914908806
 51
29.6672798974
  0
ARC
  5
364
100
AcDbEntity
  8
1
100
AcDbCircle
 62
6
  6
CONTINUOUS
 10
169.7330114198
 20
146.9425599349
 40
0.5436335442
100
AcDbArc
 50
23.914908806
 51
29.6672798974
  0
ARC
  5
365
100
AcDbEntity
  8
0
100
AcDbCircle
 62
7
  6
CONTINUOUS
 10
22.2511959044
 20
194.7977040954
 40
156.4419490014
100
AcDbArc
 50
335.8213605441
 51
337.1802663193
  0
ARC
  5
366
100
AcDbEntity
  8
1
100
AcDbCircle
 62
6
  6
CONTINUOUS
 10
22.2511959044
 20
194.7977040954
 40
156.4419490014
100
AcDbArc
 50
335.8213605441
 51
337.1802663193
  0
ARC
  5
367
100
AcDbEntity
  8
0
100
AcDbCircle
 62
7
  6
CONTINUOUS
 10
163.3283756249
 20
155.1804378124
 40
8.0175
100
AcDbArc
 50
90.0
 51
270.0
  0
ARC
  5
368
100
AcDbEntity
  8
1
100
AcDbCircle
 62
6
  6
CONTINUOUS
 10
163.3283756249
 20
155.1804378124
 40
8.0175
100
AcDbArc
 50
90.0
 51
270.0
  0
ARC
  5
369
100
AcDbEntity
  8
0
100
AcDbCircle
 62
7
  6
CONTINUOUS
 10
163.3283756249
 20
155.1804378124
 40
7.6175
100
AcDbArc
 50
89.9999999787
 51
270.000000023
  0
ARC
  5
36A
100
AcDbEntity
  8
1
100
AcDbCircle
 62
6
  6
CONTINUOUS
 10
163.3283756249
 20
155.1804378124
 40
7.6175
100
AcDbArc
 50
89.9999999787
 51
270.000000023
  0
CIRCLE
  5
36B
100
AcDbEntity
  8
BEZUGSACHSEN
100
AcDbCircle
 62
7
  6
CONTINUOUS
 10
141.3608756249
 20
155.1804378124
 40
3.75
  0
CIRCLE
  5
36C
100
AcDbEntity
  8
1
100
AcDbCircle
 62
6
  6
CONTINUOUS
 10
141.3608756249
 20
155.1804378124
 40
3.75
  0
ARC
  5
36D
100
AcDbEntity
  8
BEZUGSACHSEN
100
AcDbCircle
 62
7
  6
CONTINUOUS
 10
123.1608756249
 20
160.0504378124
 40
1.4
100
AcDbArc
 50
5.1433530298
 51
90.0
  0
ARC
  5
36E
100
AcDbEntity
  8
1
100
AcDbCircle
 62
9
  6
CONTINUOUS
 10
123.1608756249
 20
160.0504378124
 40
1.4
100
AcDbArc
 50
5.1423610638
 51
90.0
  0
ARC
  5
36F
100
AcDbEntity
  8
0
100
AcDbCircle
 62
7
  6
CONTINUOUS
 10
166.9887410633
 20
163.4183162913
 40
0.5436349154
100
AcDbArc
 50
203.9149140472
 51
209.6678478358
  0
ARC
  5
370
100
AcDbEntity
  8
1
100
AcDbCircle
 62
6
  6
CONTINUOUS
 10
166.9887410633
 20
163.4183162913
 40
0.5436349154
100
AcDbArc
 50
203.9149140472
 51
209.6678478358
  0
ARC
  5
371
100
AcDbEntity
  8
BEZUGSACHSEN
100
AcDbCircle
 62
7
  6
CONTINUOUS
 10
119.6608756249
 20
176.7615260293
 40
1.2
100
AcDbArc
 50
92.868042729
 51
180.0
  0
ARC
  5
372
100
AcDbEntity
  8
1
100
AcDbCircle
 62
6
  6
CONTINUOUS
 10
119.6608756249
 20
176.7615260293
 40
1.2
100
AcDbArc
 50
92.868042729
 51
180.0
  0
ARC
  5
373
100
AcDbEntity
  8
BEZUGSACHSEN
100
AcDbCircle
 62
7
  6
CONTINUOUS
 10
150.0587059944
 20
179.8008619621
 40
0.6
100
AcDbArc
 50
270.0
 51
300.2786457305
  0
ARC
  5
374
100
AcDbEntity
  8
BEZUGSACHSEN
100
AcDbCircle
 62
7
  6
CONTINUOUS
 10
149.186277285
 20
179.8008619621
 40
0.6
100
AcDbArc
 50
255.0
 51
270.0
  0
ARC
  5
375
100
AcDbEntity
  8
1
100
AcDbCircle
 62
6
  6
CONTINUOUS
 10
150.0587059944
 20
179.8008619621
 40
0.6
100
AcDbArc
 50
270.0
 51
300.2786457305
  0
ARC
  5
376
100
AcDbEntity
  8
1
100
AcDbCircle
 62
6
  6
CONTINUOUS
 10
149.186277285
 20
179.8008619621
 40
0.6
100
AcDbArc
 50
255.0
 51
270.0
  0
ARC
  5
377
100
AcDbEntity
  8
0
100
AcDbCircle
 62
7
  6
CONTINUOUS
 10
177.3108756249
 20
181.6804378124
 40
1.0
100
AcDbArc
 50
185.3337038168
 51
270.0
  0
ARC
  5
378
100
AcDbEntity
  8
1
100
AcDbCircle
 62
6
  6
CONTINUOUS
 10
177.3108756249
 20
181.6804378124
 40
1.0
100
AcDbArc
 50
185.3329628248
 51
270.0
  0
ARC
  5
379
100
AcDbEntity
  8
BEZUGSACHSEN
100
AcDbCircle
 62
7
  6
CONTINUOUS
 10
167.1983756249
 20
183.4054378124
 40
0.75
100
AcDbArc
 50
180.0
 51
270.0
  0
ARC
  5
37A
100
AcDbEntity
  8
BEZUGSACHSEN
100
AcDbCircle
 62
7
  6
CONTINUOUS
 10
169.5233756249
 20
183.4054378124
 40
0.75
100
AcDbArc
 50
270.0
 51
360.0
  0
ARC
  5
37B
100
AcDbEntity
  8
1
100
AcDbCircle
 62
6
  6
CONTINUOUS
 10
169.5233756249
 20
183.4054378124
 40
0.75
100
AcDbArc
 50
270.0
 51
360.0
  0
ARC
  5
37C
100
AcDbEntity
  8
1
100
AcDbCircle
 62
6
  6
CONTINUOUS
 10
167.1983756249
 20
183.4054378124
 40
0.75
100
AcDbArc
 50
180.0
 51
270.0
  0
ARC
  5
37D
100
AcDbEntity
  8
BEZUGSACHSEN
100
AcDbCircle
 62
7
  6
CONTINUOUS
 10
214.5807517044
 20
-595.9229093539
 40
766.1433176281
100
AcDbArc
 50
96.8531348206
 51
97.1091520674
  0
ARC
  5
37E
100
AcDbEntity
  8
1
100
AcDbCircle
 62
6
  6
CONTINUOUS
 10
214.5807517044
 20
-595.9229093539
 40
766.1433176281
100
AcDbArc
 50
96.8531348206
 51
97.1091520674
  0
ARC
  5
37F
100
AcDbEntity
  8
0
100
AcDbCircle
 62
7
  6
CONTINUOUS
 10
192.3966620625
 20
128.6804378124
 40
1.0
100
AcDbArc
 50
45.0
 51
90.0
  0
ARC
  5
380
100
AcDbEntity
  8
1
100
AcDbCircle
 62
6
  6
CONTINUOUS
 10
192.3966620625
 20
128.6804378124
 40
1.0
100
AcDbArc
 50
45.0
 51
90.0
  0
ARC
  5
381
100
AcDbEntity
  8
0
100
AcDbCircle
 62
7
  6
CONTINUOUS
 10
194.2000891873
 20
129.7054378124
 40
1.0
100
AcDbArc
 50
225.0
 51
270.0
  0
ARC
  5
382
100
AcDbEntity
  8
1
100
AcDbCircle
 62
6
  6
CONTINUOUS
 10
194.2000891873
 20
129.7054378124
 40
1.0
100
AcDbArc
 50
225.0
 51
270.0
  0
ARC
  5
383
100
AcDbEntity
  8
0
100
AcDbCircle
 62
7
  6
CONTINUOUS
 10
349.3608756249
 20
134.1298283041
 40
1.0
100
AcDbArc
 50
274.5
 51
360.0
  0
ARC
  5
384
100
AcDbEntity
  8
1
100
AcDbCircle
 62
6
  6
CONTINUOUS
 10
349.3608756249
 20
134.1298283041
 40
1.0
100
AcDbArc
 50
274.5
 51
360.0
  0
ARC
  5
385
100
AcDbEntity
  8
0
100
AcDbCircle
 62
7
  6
CONTINUOUS
 10
192.3966620625
 20
181.6804378124
 40
1.0
100
AcDbArc
 50
270.0
 51
315.0
  0
ARC
  5
386
100
AcDbEntity
  8
1
100
AcDbCircle
 62
6
  6
CONTINUOUS
 10
192.3966620625
 20
181.6804378124
 40
1.0
100
AcDbArc
 50
270.0
 51
315.0
  0
ARC
  5
387
100
AcDbEntity
  8
0
100
AcDbCircle
 62
7
  6
CONTINUOUS
 10
194.2000891873
 20
180.6554378124
 40
1.0
100
AcDbArc
 50
90.0
 51
135.0
  0
ARC
  5
388
100
AcDbEntity
  8
1
100
AcDbCircle
 62
6
  6
CONTINUOUS
 10
194.2000891873
 20
180.6554378124
 40
1.0
100
AcDbArc
 50
90.0
 51
135.0
  0
ARC
  5
389
100
AcDbEntity
  8
BEZUGSACHSEN
100
AcDbCircle
 62
7
  6
CONTINUOUS
 10
214.5807517044
 20
906.2837849788
 40
766.1433176281
100
AcDbArc
 50
262.8908479326
 51
263.1468651794
  0
ARC
  5
38A
100
AcDbEntity
  8
1
100
AcDbCircle
 62
6
  6
CONTINUOUS
 10
214.5807517044
 20
906.2837849788
 40
766.1433176281
100
AcDbArc
 50
262.8908479326
 51
263.1468651794
  0
ARC
  5
38B
100
AcDbEntity
  8
0
100
AcDbCircle
 62
7
  6
CONTINUOUS
 10
314.4705553453
 20
194.7977040954
 40
156.4419490014
100
AcDbArc
 50
202.8197336807
 51
204.1786394559
  0
ARC
  5
38C
100
AcDbEntity
  8
1
100
AcDbCircle
 62
6
  6
CONTINUOUS
 10
314.4705553453
 20
194.7977040954
 40
156.4419490014
100
AcDbArc
 50
202.8197336807
 51
204.1786394559
  0
ARC
  5
38D
100
AcDbEntity
  8
0
100
AcDbCircle
 62
7
  6
CONTINUOUS
 10
349.3608756249
 20
176.2310473208
 40
1.0
100
AcDbArc
 50
0.0
 51
85.5
  0
ARC
  5
38E
100
AcDbEntity
  8
1
100
AcDbCircle
 62
6
  6
CONTINUOUS
 10
349.3608756249
 20
176.2310473208
 40
1.0
100
AcDbArc
 50
0.0
 51
85.5
  0
SPLINE
  5
38F
100
AcDbEntity
  8
BEZUGSACHSEN
100
AcDbSpline
 62
7
  6
CONTINUOUS
 70
0
 71
3
 72
15
 73
11
 74
0
 42
0.0000001
 43
0.0000001
 44
0.0000000001
 40
0.0
 40
0.0
 40
0.0
 40
0.0
 40
0.1392837668
 40
0.2624472982
 40
0.3711119227
 40
0.4748383192
 40
0.5860552078
 40
0.7109860539
 40
0.8497116077
 40
1.0
 40
1.0
 40
1.0
 40
1.0
 10
118.4608756249
 20
163.8175260628
 30
0.0
 10
118.4608756249
 20
163.8642267901
 30
0.0
 10
118.4669681829
 20
163.9525167826
 30
0.0
 10
118.5023787038
 20
164.0732976083
 30
0.0
 10
118.5700876437
 20
164.1672008828
 30
0.0
 10
118.6695900389
 20
164.2193165866
 30
0.0
 10
118.7856545856
 20
164.2267047752
 30
0.0
 10
118.9094237022
 20
164.1998119912
 30
0.0
 10
119.0378962699
 20
164.1459320534
 30
0.0
 10
119.1219340925
 20
164.0972513599
 30
0.0
 10
119.1643357992
 20
164.0700245952
 30
0.0
  0
LINE
  5
390
100
AcDbEntity
  8
BEZUGSACHSEN
100
AcDbLine
 62
7
  6
CONTINUOUS
 10
119.7628669541
 20
146.0304378124
 11
119.6008325606
 21
146.0505134474
  0
SPLINE
  5
391
100
AcDbEntity
  8
0
100
AcDbSpline
 62
7
  6
CONTINUOUS
 70
0
 71
3
 72
11
 73
7
 74
0
 42
0.0000001
 43
0.0000001
 44
0.0000000001
 40
0.0
 40
0.0
 40
0.0
 40
0.0
 40
0.280023642
 40
0.542425744
 40
0.7816488393
 40
1.0
 40
1.0
 40
1.0
 40
1.0
 10
167.1434469558
 20
147.5629378124
 30
0.0
 10
167.0688653108
 20
147.5585139176
 30
0.0
 10
166.9247466538
 20
147.5323928674
 30
0.0
 10
166.7330933847
 20
147.4446207328
 30
0.0
 10
166.5837320374
 20
147.3200814972
 30
0.0
 10
166.5153700686
 20
147.2162051435
 30
0.0
 10
166.4917780392
 20
147.1629378124
 30
0.0
  0
SPLINE
  5
392
100
AcDbEntity
  8
0
100
AcDbSpline
 62
7
  6
CONTINUOUS
 70
0
 71
3
 72
8
 73
4
 74
0
 42
0.0000001
 43
0.0000001
 44
0.0000000001
 40
0.0
 40
0.0
 40
0.0
 40
0.0
 40
1.0
 40
1.0
 40
1.0
 40
1.0
 10
167.1983756249
 20
147.5702062128
 30
0.0
 10
167.1799064664
 20
147.5702062128
 30
0.0
 10
167.161300382
 20
147.567666976
 30
0.0
 10
167.1434469558
 20
147.5629378124
 30
0.0
  0
SPLINE
  5
393
100
AcDbEntity
  8
0
100
AcDbSpline
 62
7
  6
CONTINUOUS
 70
0
 71
3
 72
8
 73
4
 74
0
 42
0.0000001
 43
0.0000001
 44
0.0000000001
 40
0.0
 40
0.0
 40
0.0
 40
0.0
 40
1.0
 40
1.0
 40
1.0
 40
1.0
 10
167.1434469558
 20
162.7979378124
 30
0.0
 10
167.161300382
 20
162.7932086489
 30
0.0
 10
167.1799064664
 20
162.7906694121
 30
0.0
 10
167.1983756249
 20
162.7906694121
 30
0.0
  0
SPLINE
  5
394
100
AcDbEntity
  8
0
100
AcDbSpline
 62
7
  6
CONTINUOUS
 70
0
 71
3
 72
10
 73
6
 74
0
 42
0.0000001
 43
0.0000001
 44
0.0000000001
 40
0.0
 40
0.0
 40
0.0
 40
0.0
 40
0.221525064
 40
0.4631404166
 40
1.0
 40
1.0
 40
1.0
 40
1.0
 10
166.5163715698
 20
163.149232693
 30
0.0
 10
166.5435348857
 20
163.1015040325
 30
0.0
 10
166.6155684761
 20
163.009814954
 30
0.0
 10
166.8155810289
 20
162.860099213
 30
0.0
 10
167.0105908459
 20
162.8058183232
 30
0.0
 10
167.1434469558
 20
162.7979378124
 30
0.0
  0
SPLINE
  5
395
100
AcDbEntity
  8
0
100
AcDbSpline
 62
7
  6
CONTINUOUS
 70
0
 71
3
 72
11
 73
7
 74
0
 42
0.0000001
 43
0.0000001
 44
0.0000000001
 40
0.0
 40
0.0
 40
0.0
 40
0.0
 40
0.2800239541
 40
0.5424259265
 40
0.7816489587
 40
1.0
 40
1.0
 40
1.0
 40
1.0
 10
169.578304294
 20
162.7979378124
 30
0.0
 10
169.6528860219
 20
162.8023617122
 30
0.0
 10
169.7970047284
 20
162.8284827941
 30
0.0
 10
169.9886579987
 20
162.9162549927
 30
0.0
 10
170.1380192644
 20
163.0407941934
 30
0.0
 10
170.2063811941
 20
163.1446705106
 30
0.0
 10
170.2299732106
 20
163.1979378124
 30
0.0
  0
SPLINE
  5
396
100
AcDbEntity
  8
0
100
AcDbSpline
 62
7
  6
CONTINUOUS
 70
0
 71
3
 72
8
 73
4
 74
0
 42
0.0000001
 43
0.0000001
 44
0.0000000001
 40
0.0
 40
0.0
 40
0.0
 40
0.0
 40
1.0
 40
1.0
 40
1.0
 40
1.0
 10
169.5233756249
 20
162.7906694121
 30
0.0
 10
169.5418447834
 20
162.7906694121
 30
0.0
 10
169.5604508678
 20
162.7932086489
 30
0.0
 10
169.578304294
 20
162.7979378124
 30
0.0
  0
SPLINE
  5
397
100
AcDbEntity
  8
0
100
AcDbSpline
 62
7
  6
CONTINUOUS
 70
0
 71
3
 72
8
 73
4
 74
0
 42
0.0000001
 43
0.0000001
 44
0.0000000001
 40
0.0
 40
0.0
 40
0.0
 40
0.0
 40
1.0
 40
1.0
 40
1.0
 40
1.0
 10
169.578304294
 20
147.5629378124
 30
0.0
 10
169.5604508678
 20
147.567666976
 30
0.0
 10
169.5418447834
 20
147.5702062128
 30
0.0
 10
169.5233756249
 20
147.5702062128
 30
0.0
  0
SPLINE
  5
398
100
AcDbEntity
  8
0
100
AcDbSpline
 62
7
  6
CONTINUOUS
 70
0
 71
3
 72
10
 73
6
 74
0
 42
0.0000001
 43
0.0000001
 44
0.0000000001
 40
0.0
 40
0.0
 40
0.0
 40
0.0
 40
0.2215246594
 40
0.4631398764
 40
1.0
 40
1.0
 40
1.0
 40
1.0
 10
170.2053823891
 20
147.2116381722
 30
0.0
 10
170.178219397
 20
147.2593673561
 30
0.0
 10
170.1061861047
 20
147.3510576095
 30
0.0
 10
169.9061728924
 20
147.5007755431
 30
0.0
 10
169.7111614934
 20
147.5550572371
 30
0.0
 10
169.578304294
 20
147.5629378124
 30
0.0
  0
SPLINE
  5
399
100
AcDbEntity
  8
BEZUGSACHSEN
100
AcDbSpline
 62
7
  6
CONTINUOUS
 70
0
 71
3
 72
10
 73
6
 74
0
 42
0.0000001
 43
0.0000001
 44
0.0000000001
 40
0.0
 40
0.0
 40
0.0
 40
0.0
 40
0.4995089506
 40
0.7497954098
 40
1.0
 40
1.0
 40
1.0
 40
1.0
 10
119.1643357992
 20
164.0700245952
 30
0.0
 10
119.2252248709
 20
164.1282156837
 30
0.0
 10
119.3244962525
 20
164.2089389942
 30
0.0
 10
119.4762903854
 20
164.2840495095
 30
0.0
 10
119.5589604126
 20
164.3052103175
 30
0.0
 10
119.6008325606
 20
164.3103621775
 30
0.0
  0
SPLINE
  5
39A
100
AcDbEntity
  8
BEZUGSACHSEN
100
AcDbSpline
 62
7
  6
CONTINUOUS
 70
0
 71
3
 72
23
 73
19
 74
0
 42
0.0000001
 43
0.0000001
 44
0.0000000001
 40
0.0
 40
0.0
 40
0.0
 40
0.0
 40
0.0626617366
 40
0.1252864813
 40
0.1878708074
 40
0.2504353617
 40
0.3130242922
 40
0.3756625642
 40
0.4383308019
 40
0.5009649291
 40
0.5634864447
 40
0.6258484292
 40
0.6880693061
 40
0.7502315684
 40
0.81244948
 40
0.8748163682
 40
0.9373508008
 40
1.0
 40
1.0
 40
1.0
 40
1.0
 10
137.0116271726
 20
155.1804378124
 30
0.0
 10
137.0114129731
 20
155.4651678907
 30
0.0
 10
137.0681639386
 20
156.0360428838
 30
0.0
 10
137.3183335136
 20
156.8577241248
 30
0.0
 10
137.7248155624
 20
157.6143255603
 30
0.0
 10
138.2717147415
 20
158.2762126594
 30
0.0
 10
138.9378186193
 20
158.8183607507
 30
0.0
 10
139.6973947061
 20
159.2201145403
 30
0.0
 10
140.5207733332
 20
159.4664665141
 30
0.0
 10
141.3757388068
 20
159.548407024
 30
0.0
 10
142.2289938259
 20
159.4633285758
 30
0.0
 10
143.047740926
 20
159.2148603773
 30
0.0
 10
143.8010942432
 20
158.8126060538
 30
0.0
 10
144.4608624675
 20
158.2713469273
 30
0.0
 10
145.0026948916
 20
157.6111940723
 30
0.0
 10
145.4056239116
 20
156.8561434036
 30
0.0
 10
145.6540279404
 20
156.0355058811
 30
0.0
 10
145.7102583575
 20
155.4651109708
 30
0.0
 10
145.7101240772
 20
155.1804378124
 30
0.0
  0
SPLINE
  5
39B
100
AcDbEntity
  8
BEZUGSACHSEN
100
AcDbSpline
 62
7
  6
CONTINUOUS
 70
0
 71
3
 72
23
 73
19
 74
0
 42
0.0000001
 43
0.0000001
 44
0.0000000001
 40
0.0
 40
0.0
 40
0.0
 40
0.0
 40
0.0626490935
 40
0.12518349
 40
0.1875503549
 40
0.2497683936
 40
0.3119309941
 40
0.3741517376
 40
0.436513677
 40
0.4990351895
 40
0.5616692795
 40
0.6243374884
 40
0.6869758249
 40
0.7495645509
 40
0.8121291438
 40
0.8747134194
 40
0.9373381803
 40
1.0
 40
1.0
 40
1.0
 40
1.0
 10
145.7101240772
 20
155.1804378124
 30
0.0
 10
145.7103157033
 20
154.8957651556
 30
0.0
 10
145.6539979025
 20
154.3253737125
 30
0.0
 10
145.4056581088
 20
153.5047224943
 30
0.0
 10
145.0026578537
 20
152.7497083397
 30
0.0
 10
144.4608896914
 20
152.0895037435
 30
0.0
 10
143.801084123
 20
151.5482801025
 30
0.0
 10
143.0477423865
 20
151.1460109571
 30
0.0
 10
142.2289926693
 20
150.8975467543
 30
0.0
 10
141.3757389317
 20
150.812468728
 30
0.0
 10
140.5207728582
 20
150.8944093054
 30
0.0
 10
139.6973971901
 20
151.14076466
 30
0.0
 10
138.9378106303
 20
151.5425042819
 30
0.0
 10
138.2717375309
 20
152.0846832465
 30
0.0
 10
137.7247858773
 20
152.7465294708
 30
0.0
 10
137.3183639072
 20
153.5031598123
 30
0.0
 10
137.0681245622
 20
154.3248292208
 30
0.0
 10
137.0114853815
 20
154.8957072994
 30
0.0
 10
137.0116271726
 20
155.1804378124
 30
0.0
  0
SPLINE
  5
39C
100
AcDbEntity
  8
BEZUGSACHSEN
100
AcDbSpline
 62
7
  6
CONTINUOUS
 70
0
 71
3
 72
11
 73
7
 74
0
 42
0.0000001
 43
0.0000001
 44
0.0000000001
 40
0.0
 40
0.0
 40
0.0
 40
0.0
 40
0.248927633
 40
0.4980005472
 40
0.748086818
 40
1.0
 40
1.0
 40
1.0
 40
1.0
 10
123.9259344592
 20
164.3304378124
 30
0.0
 10
124.023159764
 20
164.1964001358
 30
0.0
 10
124.1965758067
 20
163.9125415529
 30
0.0
 10
124.3968095642
 20
163.455336741
 30
0.0
 10
124.5283488045
 20
162.971347856
 30
0.0
 10
124.5608756249
 20
162.6367988321
 30
0.0
 10
124.5608756249
 20
162.4692264395
 30
0.0
  0
SPLINE
  5
39D
100
AcDbEntity
  8
BEZUGSACHSEN
100
AcDbSpline
 62
7
  6
CONTINUOUS
 70
0
 71
3
 72
11
 73
7
 74
0
 42
0.0000001
 43
0.0000001
 44
0.0000000001
 40
0.0
 40
0.0
 40
0.0
 40
0.0
 40
0.2575266787
 40
0.5098598655
 40
0.7566594094
 40
1.0
 40
1.0
 40
1.0
 40
1.0
 10
123.1608756249
 20
164.7465256859
 30
0.0
 10
123.23861085
 20
164.7558720418
 30
0.0
 10
123.3975639217
 20
164.7454445882
 30
0.0
 10
123.6107695419
 20
164.6497268252
 30
0.0
 10
123.7865771593
 20
164.5052688275
 30
0.0
 10
123.882495298
 20
164.3903243232
 30
0.0
 10
123.9259344592
 20
164.3304378124
 30
0.0
  0
LINE
  5
39E
100
AcDbEntity
  8
BEZUGSACHSEN
100
AcDbLine
 62
7
  6
CONTINUOUS
 10
119.6008325606
 20
164.3103621775
 11
119.7628669541
 21
164.3304378124
  0
SPLINE
  5
39F
100
AcDbEntity
  8
BEZUGSACHSEN
100
AcDbSpline
 62
7
  6
CONTINUOUS
 70
0
 71
3
 72
11
 73
7
 74
0
 42
0.0000001
 43
0.0000001
 44
0.0000000001
 40
0.0
 40
0.0
 40
0.0
 40
0.0
 40
0.2519136956
 40
0.5020002169
 40
0.7510730491
 40
1.0
 40
1.0
 40
1.0
 40
1.0
 10
124.5608756249
 20
147.8916491854
 30
0.0
 10
124.5608756249
 20
147.724076448
 30
0.0
 10
124.5283487386
 20
147.3895268916
 30
0.0
 10
124.3968090626
 20
146.9055376644
 30
0.0
 10
124.196575681
 20
146.4483330335
 30
0.0
 10
124.0231594994
 20
146.1644751244
 30
0.0
 10
123.9259344592
 20
146.0304378124
 30
0.0
  0
SPLINE
  5
3A0
100
AcDbEntity
  8
BEZUGSACHSEN
100
AcDbSpline
 62
7
  6
CONTINUOUS
 70
0
 71
3
 72
11
 73
7
 74
0
 42
0.0000001
 43
0.0000001
 44
0.0000000001
 40
0.0
 40
0.0
 40
0.0
 40
0.0
 40
0.2434212854
 40
0.490244526
 40
0.7425150589
 40
1.0
 40
1.0
 40
1.0
 40
1.0
 10
123.9259344592
 20
146.0304378124
 30
0.0
 10
123.8824804232
 20
145.970530795
 30
0.0
 10
123.7865406988
 20
145.8555593891
 30
0.0
 10
123.6107110323
 20
145.7111058432
 30
0.0
 10
123.3975229923
 20
145.6153969307
 30
0.0
 10
123.2385990917
 20
145.6050049969
 30
0.0
 10
123.1608756249
 20
145.614349939
 30
0.0
  0
SPLINE
  5
3A1
100
AcDbEntity
  8
BEZUGSACHSEN
100
AcDbSpline
 62
7
  6
CONTINUOUS
 70
0
 71
3
 72
15
 73
11
 74
0
 42
0.0000001
 43
0.0000001
 44
0.0000000001
 40
0.0
 40
0.0
 40
0.0
 40
0.0
 40
0.1502897484
 40
0.289015622
 40
0.4139457887
 40
0.5251622843
 40
0.6288886288
 40
0.7375530236
 40
0.8607162671
 40
1.0
 40
1.0
 40
1.0
 40
1.0
 10
119.1643357992
 20
146.2908510297
 30
0.0
 10
119.1219337109
 20
146.26362402
 30
0.0
 10
119.0378953685
 20
146.2149431041
 30
0.0
 10
118.9094224406
 20
146.1610631333
 30
0.0
 10
118.7856535011
 20
146.1341707454
 30
0.0
 10
118.6695893468
 20
146.1415592063
 30
0.0
 10
118.5700873652
 20
146.1936751818
 30
0.0
 10
118.5023786781
 20
146.2875783323
 30
0.0
 10
118.4669681629
 20
146.4083589608
 30
0.0
 10
118.4608756249
 20
146.4966488473
 30
0.0
 10
118.4608756249
 20
146.5433495621
 30
0.0
  0
SPLINE
  5
3A2
100
AcDbEntity
  8
0
100
AcDbSpline
 62
7
  6
CONTINUOUS
 70
0
 71
3
 72
11
 73
7
 74
0
 42
0.0000001
 43
0.0000001
 44
0.0000000001
 40
0.0
 40
0.0
 40
0.0
 40
0.0
 40
0.250000034
 40
0.5
 40
0.749999966
 40
1.0
 40
1.0
 40
1.0
 40
1.0
 10
176.3108756249
 20
157.4804378124
 30
0.0
 10
176.3108756249
 20
157.0971035033
 30
0.0
 10
176.3139894366
 20
156.3304392911
 30
0.0
 10
176.3168375632
 20
155.1804378124
 30
0.0
 10
176.3139894366
 20
154.0304363338
 30
0.0
 10
176.3108756249
 20
153.2637721216
 30
0.0
 10
176.3108756249
 20
152.8804378124
 30
0.0
  0
SPLINE
  5
3A3
100
AcDbEntity
  8
BEZUGSACHSEN
100
AcDbSpline
 62
7
  6
CONTINUOUS
 70
0
 71
3
 72
10
 73
6
 74
0
 42
0.0000001
 43
0.0000001
 44
0.0000000001
 40
0.0
 40
0.0
 40
0.0
 40
0.0
 40
0.2502085961
 40
0.5004921768
 40
1.0
 40
1.0
 40
1.0
 40
1.0
 10
119.6008325606
 20
146.0505134474
 30
0.0
 10
119.5589597449
 20
146.0556653895
 30
0.0
 10
119.4762895254
 20
146.0768263702
 30
0.0
 10
119.3244957248
 20
146.1519374418
 30
0.0
 10
119.2252247295
 20
146.2326600763
 30
0.0
 10
119.1643357992
 20
146.2908510297
 30
0.0
  0
SPLINE
  5
3A4
100
AcDbEntity
  8
1
100
AcDbSpline
 62
6
  6
CONTINUOUS
 70
0
 71
3
 72
10
 73
6
 74
0
 42
0.0000001
 43
0.0000001
 44
0.0000000001
 40
0.0
 40
0.0
 40
0.0
 40
0.0
 40
0.221525064
 40
0.4631404166
 40
1.0
 40
1.0
 40
1.0
 40
1.0
 10
166.5163715698
 20
163.149232693
 30
0.0
 10
166.5435348857
 20
163.1015040325
 30
0.0
 10
166.6155684761
 20
163.009814954
 30
0.0
 10
166.8155810289
 20
162.860099213
 30
0.0
 10
167.0105908459
 20
162.8058183232
 30
0.0
 10
167.1434469558
 20
162.7979378124
 30
0.0
  0
SPLINE
  5
3A5
100
AcDbEntity
  8
1
100
AcDbSpline
 62
6
  6
CONTINUOUS
 70
0
 71
3
 72
8
 73
4
 74
0
 42
0.0000001
 43
0.0000001
 44
0.0000000001
 40
0.0
 40
0.0
 40
0.0
 40
0.0
 40
1.0
 40
1.0
 40
1.0
 40
1.0
 10
167.1434469558
 20
162.7979378124
 30
0.0
 10
167.161300382
 20
162.7932086489
 30
0.0
 10
167.1799064664
 20
162.7906694121
 30
0.0
 10
167.1983756249
 20
162.7906694121
 30
0.0
  0
SPLINE
  5
3A6
100
AcDbEntity
  8
1
100
AcDbSpline
 62
6
  6
CONTINUOUS
 70
0
 71
3
 72
8
 73
4
 74
0
 42
0.0000001
 43
0.0000001
 44
0.0000000001
 40
0.0
 40
0.0
 40
0.0
 40
0.0
 40
1.0
 40
1.0
 40
1.0
 40
1.0
 10
167.1983756249
 20
147.5702062128
 30
0.0
 10
167.1799064664
 20
147.5702062128
 30
0.0
 10
167.161300382
 20
147.567666976
 30
0.0
 10
167.1434469558
 20
147.5629378124
 30
0.0
  0
SPLINE
  5
3A7
100
AcDbEntity
  8
1
100
AcDbSpline
 62
6
  6
CONTINUOUS
 70
0
 71
3
 72
11
 73
7
 74
0
 42
0.0000001
 43
0.0000001
 44
0.0000000001
 40
0.0
 40
0.0
 40
0.0
 40
0.0
 40
0.280023642
 40
0.542425744
 40
0.7816488393
 40
1.0
 40
1.0
 40
1.0
 40
1.0
 10
167.1434469558
 20
147.5629378124
 30
0.0
 10
167.0688653108
 20
147.5585139176
 30
0.0
 10
166.9247466538
 20
147.5323928674
 30
0.0
 10
166.7330933847
 20
147.4446207328
 30
0.0
 10
166.5837320374
 20
147.3200814972
 30
0.0
 10
166.5153700686
 20
147.2162051435
 30
0.0
 10
166.4917780392
 20
147.1629378124
 30
0.0
  0
SPLINE
  5
3A8
100
AcDbEntity
  8
1
100
AcDbSpline
 62
6
  6
CONTINUOUS
 70
0
 71
3
 72
11
 73
7
 74
0
 42
0.0000001
 43
0.0000001
 44
0.0000000001
 40
0.0
 40
0.0
 40
0.0
 40
0.0
 40
0.2434212854
 40
0.490244526
 40
0.7425150589
 40
1.0
 40
1.0
 40
1.0
 40
1.0
 10
123.9259344592
 20
146.0304378124
 30
0.0
 10
123.8824804232
 20
145.970530795
 30
0.0
 10
123.7865406988
 20
145.8555593891
 30
0.0
 10
123.6107110323
 20
145.7111058432
 30
0.0
 10
123.3975229923
 20
145.6153969307
 30
0.0
 10
123.2385990917
 20
145.6050049969
 30
0.0
 10
123.1608756249
 20
145.614349939
 30
0.0
  0
SPLINE
  5
3A9
100
AcDbEntity
  8
1
100
AcDbSpline
 62
6
  6
CONTINUOUS
 70
0
 71
3
 72
11
 73
7
 74
0
 42
0.0000001
 43
0.0000001
 44
0.0000000001
 40
0.0
 40
0.0
 40
0.0
 40
0.0
 40
0.2575266787
 40
0.5098598655
 40
0.7566594094
 40
1.0
 40
1.0
 40
1.0
 40
1.0
 10
123.1608756249
 20
164.7465256859
 30
0.0
 10
123.23861085
 20
164.7558720418
 30
0.0
 10
123.3975639217
 20
164.7454445882
 30
0.0
 10
123.6107695419
 20
164.6497268252
 30
0.0
 10
123.7865771593
 20
164.5052688275
 30
0.0
 10
123.882495298
 20
164.3903243232
 30
0.0
 10
123.9259344592
 20
164.3304378124
 30
0.0
  0
SPLINE
  5
3AA
100
AcDbEntity
  8
1
100
AcDbSpline
 62
6
  6
CONTINUOUS
 70
0
 71
3
 72
11
 73
7
 74
0
 42
0.0000001
 43
0.0000001
 44
0.0000000001
 40
0.0
 40
0.0
 40
0.0
 40
0.0
 40
0.2519136956
 40
0.5020002169
 40
0.7510730491
 40
1.0
 40
1.0
 40
1.0
 40
1.0
 10
124.5608756249
 20
147.8916491854
 30
0.0
 10
124.5608756249
 20
147.724076448
 30
0.0
 10
124.5283487386
 20
147.3895268916
 30
0.0
 10
124.3968090626
 20
146.9055376644
 30
0.0
 10
124.196575681
 20
146.4483330335
 30
0.0
 10
124.0231594994
 20
146.1644751244
 30
0.0
 10
123.9259344592
 20
146.0304378124
 30
0.0
  0
SPLINE
  5
3AB
100
AcDbEntity
  8
1
100
AcDbSpline
 62
6
  6
CONTINUOUS
 70
0
 71
3
 72
11
 73
7
 74
0
 42
0.0000001
 43
0.0000001
 44
0.0000000001
 40
0.0
 40
0.0
 40
0.0
 40
0.0
 40
0.248927633
 40
0.4980005472
 40
0.748086818
 40
1.0
 40
1.0
 40
1.0
 40
1.0
 10
123.9259344592
 20
164.3304378124
 30
0.0
 10
124.023159764
 20
164.1964001358
 30
0.0
 10
124.1965758067
 20
163.9125415529
 30
0.0
 10
124.3968095642
 20
163.455336741
 30
0.0
 10
124.5283488045
 20
162.971347856
 30
0.0
 10
124.5608756249
 20
162.6367988321
 30
0.0
 10
124.5608756249
 20
162.4692264395
 30
0.0
  0
SPLINE
  5
3AC
100
AcDbEntity
  8
1
100
AcDbSpline
 62
6
  6
CONTINUOUS
 70
0
 71
3
 72
15
 73
11
 74
0
 42
0.0000001
 43
0.0000001
 44
0.0000000001
 40
0.0
 40
0.0
 40
0.0
 40
0.0
 40
0.1392837668
 40
0.2624472982
 40
0.3711119227
 40
0.4748383192
 40
0.5860552078
 40
0.7109860539
 40
0.8497116077
 40
1.0
 40
1.0
 40
1.0
 40
1.0
 10
118.4608756249
 20
163.8175260628
 30
0.0
 10
118.4608756249
 20
163.8642267901
 30
0.0
 10
118.4669681829
 20
163.9525167826
 30
0.0
 10
118.5023787038
 20
164.0732976083
 30
0.0
 10
118.5700876437
 20
164.1672008828
 30
0.0
 10
118.6695900389
 20
164.2193165866
 30
0.0
 10
118.7856545856
 20
164.2267047752
 30
0.0
 10
118.9094237022
 20
164.1998119912
 30
0.0
 10
119.0378962699
 20
164.1459320534
 30
0.0
 10
119.1219340925
 20
164.0972513599
 30
0.0
 10
119.1643357992
 20
164.0700245952
 30
0.0
  0
SPLINE
  5
3AD
100
AcDbEntity
  8
1
100
AcDbSpline
 62
6
  6
CONTINUOUS
 70
0
 71
3
 72
10
 73
6
 74
0
 42
0.0000001
 43
0.0000001
 44
0.0000000001
 40
0.0
 40
0.0
 40
0.0
 40
0.0
 40
0.2502085961
 40
0.5004921768
 40
1.0
 40
1.0
 40
1.0
 40
1.0
 10
119.6008325606
 20
146.0505134474
 30
0.0
 10
119.5589597449
 20
146.0556653895
 30
0.0
 10
119.4762895254
 20
146.0768263702
 30
0.0
 10
119.3244957248
 20
146.1519374418
 30
0.0
 10
119.2252247295
 20
146.2326600763
 30
0.0
 10
119.1643357992
 20
146.2908510297
 30
0.0
  0
SPLINE
  5
3AE
100
AcDbEntity
  8
1
100
AcDbSpline
 62
6
  6
CONTINUOUS
 70
0
 71
3
 72
15
 73
11
 74
0
 42
0.0000001
 43
0.0000001
 44
0.0000000001
 40
0.0
 40
0.0
 40
0.0
 40
0.0
 40
0.1502897484
 40
0.289015622
 40
0.4139457887
 40
0.5251622843
 40
0.6288886288
 40
0.7375530236
 40
0.8607162671
 40
1.0
 40
1.0
 40
1.0
 40
1.0
 10
119.1643357992
 20
146.2908510297
 30
0.0
 10
119.1219337109
 20
146.26362402
 30
0.0
 10
119.0378953685
 20
146.2149431041
 30
0.0
 10
118.9094224406
 20
146.1610631333
 30
0.0
 10
118.7856535011
 20
146.1341707454
 30
0.0
 10
118.6695893468
 20
146.1415592063
 30
0.0
 10
118.5700873652
 20
146.1936751818
 30
0.0
 10
118.5023786781
 20
146.2875783323
 30
0.0
 10
118.4669681629
 20
146.4083589608
 30
0.0
 10
118.4608756249
 20
146.4966488473
 30
0.0
 10
118.4608756249
 20
146.5433495621
 30
0.0
  0
SPLINE
  5
3AF
100
AcDbEntity
  8
1
100
AcDbSpline
 62
6
  6
CONTINUOUS
 70
0
 71
3
 72
10
 73
6
 74
0
 42
0.0000001
 43
0.0000001
 44
0.0000000001
 40
0.0
 40
0.0
 40
0.0
 40
0.0
 40
0.4995089506
 40
0.7497954098
 40
1.0
 40
1.0
 40
1.0
 40
1.0
 10
119.1643357992
 20
164.0700245952
 30
0.0
 10
119.2252248709
 20
164.1282156837
 30
0.0
 10
119.3244962525
 20
164.2089389942
 30
0.0
 10
119.4762903854
 20
164.2840495095
 30
0.0
 10
119.5589604126
 20
164.3052103175
 30
0.0
 10
119.6008325606
 20
164.3103621775
 30
0.0
  0
SPLINE
  5
3B0
100
AcDbEntity
  8
1
100
AcDbSpline
 62
6
  6
CONTINUOUS
 70
0
 71
3
 72
10
 73
6
 74
0
 42
0.0000001
 43
0.0000001
 44
0.0000000001
 40
0.0
 40
0.0
 40
0.0
 40
0.0
 40
0.2215246594
 40
0.4631398764
 40
1.0
 40
1.0
 40
1.0
 40
1.0
 10
170.2053823891
 20
147.2116381722
 30
0.0
 10
170.178219397
 20
147.2593673561
 30
0.0
 10
170.1061861047
 20
147.3510576095
 30
0.0
 10
169.9061728924
 20
147.5007755431
 30
0.0
 10
169.7111614934
 20
147.5550572371
 30
0.0
 10
169.578304294
 20
147.5629378124
 30
0.0
  0
SPLINE
  5
3B1
100
AcDbEntity
  8
1
100
AcDbSpline
 62
6
  6
CONTINUOUS
 70
0
 71
3
 72
8
 73
4
 74
0
 42
0.0000001
 43
0.0000001
 44
0.0000000001
 40
0.0
 40
0.0
 40
0.0
 40
0.0
 40
1.0
 40
1.0
 40
1.0
 40
1.0
 10
169.578304294
 20
147.5629378124
 30
0.0
 10
169.5604508678
 20
147.567666976
 30
0.0
 10
169.5418447834
 20
147.5702062128
 30
0.0
 10
169.5233756249
 20
147.5702062128
 30
0.0
  0
SPLINE
  5
3B2
100
AcDbEntity
  8
1
100
AcDbSpline
 62
6
  6
CONTINUOUS
 70
0
 71
3
 72
11
 73
7
 74
0
 42
0.0000001
 43
0.0000001
 44
0.0000000001
 40
0.0
 40
0.0
 40
0.0
 40
0.0
 40
0.250000034
 40
0.5
 40
0.749999966
 40
1.0
 40
1.0
 40
1.0
 40
1.0
 10
176.3108756249
 20
157.4804378124
 30
0.0
 10
176.3108756249
 20
157.0971035033
 30
0.0
 10
176.3139894366
 20
156.3304392911
 30
0.0
 10
176.3168375632
 20
155.1804378124
 30
0.0
 10
176.3139894366
 20
154.0304363338
 30
0.0
 10
176.3108756249
 20
153.2637721216
 30
0.0
 10
176.3108756249
 20
152.8804378124
 30
0.0
  0
SPLINE
  5
3B3
100
AcDbEntity
  8
1
100
AcDbSpline
 62
6
  6
CONTINUOUS
 70
0
 71
3
 72
23
 73
19
 74
0
 42
0.0000001
 43
0.0000001
 44
0.0000000001
 40
0.0
 40
0.0
 40
0.0
 40
0.0
 40
0.0626490935
 40
0.12518349
 40
0.1875503549
 40
0.2497683936
 40
0.3119309941
 40
0.3741517376
 40
0.436513677
 40
0.4990351895
 40
0.5616692795
 40
0.6243374884
 40
0.6869758249
 40
0.7495645509
 40
0.8121291438
 40
0.8747134194
 40
0.9373381803
 40
1.0
 40
1.0
 40
1.0
 40
1.0
 10
145.7101240772
 20
155.1804378124
 30
0.0
 10
145.7103157033
 20
154.8957651556
 30
0.0
 10
145.6539979025
 20
154.3253737125
 30
0.0
 10
145.4056581088
 20
153.5047224943
 30
0.0
 10
145.0026578537
 20
152.7497083397
 30
0.0
 10
144.4608896914
 20
152.0895037435
 30
0.0
 10
143.801084123
 20
151.5482801025
 30
0.0
 10
143.0477423865
 20
151.1460109571
 30
0.0
 10
142.2289926693
 20
150.8975467543
 30
0.0
 10
141.3757389317
 20
150.812468728
 30
0.0
 10
140.5207728582
 20
150.8944093054
 30
0.0
 10
139.6973971901
 20
151.14076466
 30
0.0
 10
138.9378106303
 20
151.5425042819
 30
0.0
 10
138.2717375309
 20
152.0846832465
 30
0.0
 10
137.7247858773
 20
152.7465294708
 30
0.0
 10
137.3183639072
 20
153.5031598123
 30
0.0
 10
137.0681245622
 20
154.3248292208
 30
0.0
 10
137.0114853815
 20
154.8957072994
 30
0.0
 10
137.0116271726
 20
155.1804378124
 30
0.0
  0
SPLINE
  5
3B4
100
AcDbEntity
  8
1
100
AcDbSpline
 62
6
  6
CONTINUOUS
 70
0
 71
3
 72
8
 73
4
 74
0
 42
0.0000001
 43
0.0000001
 44
0.0000000001
 40
0.0
 40
0.0
 40
0.0
 40
0.0
 40
1.0
 40
1.0
 40
1.0
 40
1.0
 10
169.5233756249
 20
162.7906694121
 30
0.0
 10
169.5418447834
 20
162.7906694121
 30
0.0
 10
169.5604508678
 20
162.7932086489
 30
0.0
 10
169.578304294
 20
162.7979378124
 30
0.0
  0
SPLINE
  5
3B5
100
AcDbEntity
  8
1
100
AcDbSpline
 62
6
  6
CONTINUOUS
 70
0
 71
3
 72
11
 73
7
 74
0
 42
0.0000001
 43
0.0000001
 44
0.0000000001
 40
0.0
 40
0.0
 40
0.0
 40
0.0
 40
0.2800239541
 40
0.5424259265
 40
0.7816489587
 40
1.0
 40
1.0
 40
1.0
 40
1.0
 10
169.578304294
 20
162.7979378124
 30
0.0
 10
169.6528860219
 20
162.8023617122
 30
0.0
 10
169.7970047284
 20
162.8284827941
 30
0.0
 10
169.9886579987
 20
162.9162549927
 30
0.0
 10
170.1380192644
 20
163.0407941934
 30
0.0
 10
170.2063811941
 20
163.1446705106
 30
0.0
 10
170.2299732106
 20
163.1979378124
 30
0.0
  0
LINE
  5
3B6
100
AcDbEntity
  8
1
100
AcDbLine
 62
6
  6
CONTINUOUS
 10
119.6008325606
 20
164.3103621775
 11
119.7628669541
 21
164.3304378124
  0
SPLINE
  5
3B7
100
AcDbEntity
  8
1
100
AcDbSpline
 62
6
  6
CONTINUOUS
 70
0
 71
3
 72
23
 73
19
 74
0
 42
0.0000001
 43
0.0000001
 44
0.0000000001
 40
0.0
 40
0.0
 40
0.0
 40
0.0
 40
0.0626617366
 40
0.1252864813
 40
0.1878708074
 40
0.2504353617
 40
0.3130242922
 40
0.3756625642
 40
0.4383308019
 40
0.5009649291
 40
0.5634864447
 40
0.6258484292
 40
0.6880693061
 40
0.7502315684
 40
0.81244948
 40
0.8748163682
 40
0.9373508008
 40
1.0
 40
1.0
 40
1.0
 40
1.0
 10
137.0116271726
 20
155.1804378124
 30
0.0
 10
137.0114129731
 20
155.4651678907
 30
0.0
 10
137.0681639386
 20
156.0360428838
 30
0.0
 10
137.3183335136
 20
156.8577241248
 30
0.0
 10
137.7248155624
 20
157.6143255603
 30
0.0
 10
138.2717147415
 20
158.2762126594
 30
0.0
 10
138.9378186193
 20
158.8183607507
 30
0.0
 10
139.6973947061
 20
159.2201145403
 30
0.0
 10
140.5207733332
 20
159.4664665141
 30
0.0
 10
141.3757388068
 20
159.548407024
 30
0.0
 10
142.2289938259
 20
159.4633285758
 30
0.0
 10
143.047740926
 20
159.2148603773
 30
0.0
 10
143.8010942432
 20
158.8126060538
 30
0.0
 10
144.4608624675
 20
158.2713469273
 30
0.0
 10
145.0026948916
 20
157.6111940723
 30
0.0
 10
145.4056239116
 20
156.8561434036
 30
0.0
 10
145.6540279404
 20
156.0355058811
 30
0.0
 10
145.7102583575
 20
155.4651109708
 30
0.0
 10
145.7101240772
 20
155.1804378124
 30
0.0
  0
LINE
  5
3B8
100
AcDbEntity
  8
1
100
AcDbLine
 62
6
  6
CONTINUOUS
 10
119.7628669541
 20
146.0304378124
 11
119.6008325606
 21
146.0505134474
  0
ELLIPSE
  5
3B9
100
AcDbEntity
  8
BEZUGSACHSEN
100
AcDbEllipse
 62
7
  6
CONTINUOUS
 10
116.7308756249
 20
146.0304378124
 30
0.0
 11
2.5832280827
 21
2.5832280827
 31
0.0
 40
0.4929164522
 41
-1.0222866714
 42
-0.4579647298
  0
ELLIPSE
  5
3BA
100
AcDbEntity
  8
BEZUGSACHSEN
100
AcDbEllipse
 62
7
  6
CONTINUOUS
 10
116.7308756249
 20
164.3304378124
 30
0.0
 11
2.5832280827
 21
-2.5832280827
 31
0.0
 40
0.4929164522
 41
0.4579647298
 42
1.0222866714
  0
ELLIPSE
  5
3BB
100
AcDbEntity
  8
1
100
AcDbEllipse
 62
6
  6
CONTINUOUS
 10
116.7308756249
 20
146.0304378124
 30
0.0
 11
2.5832280827
 21
2.5832280827
 31
0.0
 40
0.4929164522
 41
-1.0222866714
 42
-0.4579647298
  0
ELLIPSE
  5
3BC
100
AcDbEntity
  8
1
100
AcDbEllipse
 62
6
  6
CONTINUOUS
 10
116.7308756249
 20
164.3304378124
 30
0.0
 11
2.5832280827
 21
-2.5832280827
 31
0.0
 40
0.4929164522
 41
0.4579647298
 42
1.0222866714
  0
ENDSEC
  0
SECTION
  2
OBJECTS
  0
DICTIONARY
  5
C
100
AcDbDictionary
280
0
281
1
  3
ACAD_GROUP
350
D
  3
ACAD_MLINESTYLE
350
17
  3
ACAD_LAYOUT
350
1A
  3
ACAD_PLOTSETTINGS
350
19
  3
ACAD_PLOTSTYLENAME
350
E
  0
DICTIONARY
  5
D
102
{ACAD_REACTORS
330
C
102
}
100
AcDbDictionary
280
0
281
1
  0
ACDBDICTIONARYWDFLT
  5
E
102
{ACAD_REACTORS
330
C
102
}
100
AcDbDictionary
281
1
  3
Normal
350
F
100
AcDbDictionaryWithDefault
340
F
  0
DICTIONARY
  5
17
102
{ACAD_REACTORS
330
C
102
}
100
AcDbDictionary
280
0
281
1
  3
Standard
350
18
  0
DICTIONARY
  5
19
102
{ACAD_REACTORS
330
C
102
}
100
AcDbDictionary
281
1
  0
DICTIONARY
  5
1A
102
{ACAD_REACTORS
330
C
102
}
100
AcDbDictionary
281
1
  3
Model
350
3BD
  3
Layout1
350
3BE
  0
ACDBPLACEHOLDER
  5
F
102
{ACAD_REACTORS
330
E
102
}
  0
MLINESTYLE
  5
18
102
{ACAD_REACTORS
330
17
102
}
100
AcDbMlineStyle
  2
STANDARD
 70
0
  3

 62
256
 51
90.0
 52
90.0
 71
2
 49
0.5
 62
256
  6
BYLAYER
 49
-0.5
 62
256
  6
BYLAYER
  0
LAYOUT
  5
3BD
102
{ACAD_REACTORS
330
1A
102
}
100
AcDbPlotSettings
  1

  2
none_device
  4
ISO_A3_(420.00_x_297.00_MM)
  6

 40
0.0
 41
0.0
 42
0.0
 43
0.0
 44
420.0
 45
297.0
 46
0.0
 47
0.0
 48
0.0
 49
0.0
140
0.0
141
0.0
142
1.0
143
1.0
 70
1024
 72
1
 73
0
 74
0
  7

 75
0
147
1.0
148
0.0
149
0.0
100
AcDbLayout
  1
Model
 70
0
 71
0
 10
0.0
 20
0.0
 11
420.0
 21
297.0
 12
0.0
 22
0.0
 32
0.0
 14
0.0
 24
0.0
 34
0.0
 15
0.0
 25
0.0
 35
0.0
146
0.0
 13
0.0
 23
0.0
 33
0.0
 16
1.0
 26
0.0
 36
0.0
 17
0.0
 27
1.0
 37
0.0
 76
0
330
231
345
0
346
0
  0
LAYOUT
  5
3BE
102
{ACAD_REACTORS
330
1A
102
}
100
AcDbPlotSettings
  1

  2
none_device
  4
ISO_A3_(420.00_x_297.00_MM)
  6

 40
0.0
 41
0.0
 42
0.0
 43
0.0
 44
420.0
 45
297.0
 46
0.0
 47
0.0
 48
0.0
 49
0.0
140
0.0
141
0.0
142
1.0
143
1.0
 70
0
 72
1
 73
0
 74
0
  7

 75
0
147
1.0
148
0.0
149
0.0
100
AcDbLayout
  1
Layout1
 70
0
 71
1
 10
0.0
 20
0.0
 11
420.0
 21
297.0
 12
0.0
 22
0.0
 32
0.0
 14
0.0
 24
0.0
 34
0.0
 15
0.0
 25
0.0
 35
0.0
146
0.0
 13
0.0
 23
0.0
 33
0.0
 16
1.0
 26
0.0
 36
0.0
 17
0.0
 27
1.0
 37
0.0
 76
0
330
232
345
0
346
0
  0
ENDSEC
  0
EOF
