  0
SECTION
  2
HEADER
  9
$ACADVER
  1
AC1015
  9
$ACADMAINTVER
 70
     6
  9
$DWGCODEPAGE
  3
ANSI_1252
  9
$INSBASE
 10
0.0
 20
0.0
 30
0.0
  9
$EXTMIN
 10
-12.89332364530383
 20
236.3719218415
 30
0.0
  9
$EXTMAX
 10
290.171653304647
 20
365.583216293609
 30
0.0
  9
$LIMMIN
 10
0.0
 20
0.0
  9
$LIMMAX
 10
12.0
 20
9.0
  9
$ORTHOMODE
 70
     0
  9
$REGENMODE
 70
     1
  9
$FILLMODE
 70
     1
  9
$QTEXTMODE
 70
     0
  9
$MIRRTEXT
 70
     1
  9
$LTSCALE
 40
1.0
  9
$ATTMODE
 70
     1
  9
$TEXTSIZE
 40
0.2
  9
$TRACEWID
 40
0.05
  9
$TEXTSTYLE
  7
Standard
  9
$CLAYER
  8
0
  9
$CELTYPE
  6
ByLayer
  9
$CECOLOR
 62
   256
  9
$CELTSCALE
 40
1.0
  9
$DISPSILH
 70
     0
  9
$DIMSCALE
 40
1.0
  9
$DIMASZ
 40
0.18
  9
$DIMEXO
 40
0.0625
  9
$DIMDLI
 40
0.38
  9
$DIMRND
 40
0.0
  9
$DIMDLE
 40
0.0
  9
$DIMEXE
 40
0.18
  9
$DIMTP
 40
0.0
  9
$DIMTM
 40
0.0
  9
$DIMTXT
 40
0.18
  9
$DIMCEN
 40
0.09
  9
$DIMTSZ
 40
0.0
  9
$DIMTOL
 70
     0
  9
$DIMLIM
 70
     0
  9
$DIMTIH
 70
     1
  9
$DIMTOH
 70
     1
  9
$DIMSE1
 70
     0
  9
$DIMSE2
 70
     0
  9
$DIMTAD
 70
     0
  9
$DIMZIN
 70
     0
  9
$DIMBLK
  1

  9
$DIMASO
 70
     1
  9
$DIMSHO
 70
     1
  9
$DIMPOST
  1

  9
$DIMAPOST
  1

  9
$DIMALT
 70
     0
  9
$DIMALTD
 70
     2
  9
$DIMALTF
 40
25.4
  9
$DIMLFAC
 40
1.0
  9
$DIMTOFL
 70
     0
  9
$DIMTVP
 40
0.0
  9
$DIMTIX
 70
     0
  9
$DIMSOXD
 70
     0
  9
$DIMSAH
 70
     0
  9
$DIMBLK1
  1

  9
$DIMBLK2
  1

  9
$DIMSTYLE
  2
Standard
  9
$DIMCLRD
 70
     0
  9
$DIMCLRE
 70
     0
  9
$DIMCLRT
 70
     0
  9
$DIMTFAC
 40
1.0
  9
$DIMGAP
 40
0.09
  9
$DIMJUST
 70
     0
  9
$DIMSD1
 70
     0
  9
$DIMSD2
 70
     0
  9
$DIMTOLJ
 70
     1
  9
$DIMTZIN
 70
     0
  9
$DIMALTZ
 70
     0
  9
$DIMALTTZ
 70
     0
  9
$DIMUPT
 70
     0
  9
$DIMDEC
 70
     4
  9
$DIMTDEC
 70
     4
  9
$DIMALTU
 70
     2
  9
$DIMALTTD
 70
     2
  9
$DIMTXSTY
  7
Standard
  9
$DIMAUNIT
 70
     0
  9
$DIMADEC
 70
     0
  9
$DIMALTRND
 40
0.0
  9
$DIMAZIN
 70
     0
  9
$DIMDSEP
 70
    46
  9
$DIMATFIT
 70
     3
  9
$DIMFRAC
 70
     0
  9
$DIMLDRBLK
  1

  9
$DIMLUNIT
 70
     2
  9
$DIMLWD
 70
    -2
  9
$DIMLWE
 70
    -2
  9
$DIMTMOVE
 70
     0
  9
$LUNITS
 70
     2
  9
$LUPREC
 70
     4
  9
$SKETCHINC
 40
0.1
  9
$FILLETRAD
 40
0.5
  9
$AUNITS
 70
     0
  9
$AUPREC
 70
     0
  9
$MENU
  1
.
  9
$ELEVATION
 40
0.0
  9
$PELEVATION
 40
0.0
  9
$THICKNESS
 40
0.0
  9
$LIMCHECK
 70
     0
  9
$CHAMFERA
 40
0.5
  9
$CHAMFERB
 40
0.5
  9
$CHAMFERC
 40
1.0
  9
$CHAMFERD
 40
0.0
  9
$SKPOLY
 70
     0
  9
$TDCREATE
 40
2456748.728900058
  9
$TDUCREATE
 40
2456748.645566725
  9
$TDUPDATE
 40
2456748.728900069
  9
$TDUUPDATE
 40
2456748.645566736
  9
$TDINDWG
 40
0.0000000116
  9
$TDUSRTIMER
 40
0.0000000116
  9
$USRTIMER
 70
     1
  9
$ANGBASE
 50
0.0
  9
$ANGDIR
 70
     0
  9
$PDMODE
 70
     0
  9
$PDSIZE
 40
0.0
  9
$PLINEWID
 40
0.0
  9
$SPLFRAME
 70
     0
  9
$SPLINETYPE
 70
     6
  9
$SPLINESEGS
 70
     8
  9
$HANDSEED
  5
154
  9
$SURFTAB1
 70
     6
  9
$SURFTAB2
 70
     6
  9
$SURFTYPE
 70
     6
  9
$SURFU
 70
     6
  9
$SURFV
 70
     6
  9
$UCSBASE
  2

  9
$UCSNAME
  2

  9
$UCSORG
 10
0.0
 20
0.0
 30
0.0
  9
$UCSXDIR
 10
1.0
 20
0.0
 30
0.0
  9
$UCSYDIR
 10
0.0
 20
1.0
 30
0.0
  9
$UCSORTHOREF
  2

  9
$UCSORTHOVIEW
 70
     0
  9
$UCSORGTOP
 10
0.0
 20
0.0
 30
0.0
  9
$UCSORGBOTTOM
 10
0.0
 20
0.0
 30
0.0
  9
$UCSORGLEFT
 10
0.0
 20
0.0
 30
0.0
  9
$UCSORGRIGHT
 10
0.0
 20
0.0
 30
0.0
  9
$UCSORGFRONT
 10
0.0
 20
0.0
 30
0.0
  9
$UCSORGBACK
 10
0.0
 20
0.0
 30
0.0
  9
$PUCSBASE
  2

  9
$PUCSNAME
  2

  9
$PUCSORG
 10
0.0
 20
0.0
 30
0.0
  9
$PUCSXDIR
 10
1.0
 20
0.0
 30
0.0
  9
$PUCSYDIR
 10
0.0
 20
1.0
 30
0.0
  9
$PUCSORTHOREF
  2

  9
$PUCSORTHOVIEW
 70
     0
  9
$PUCSORGTOP
 10
0.0
 20
0.0
 30
0.0
  9
$PUCSORGBOTTOM
 10
0.0
 20
0.0
 30
0.0
  9
$PUCSORGLEFT
 10
0.0
 20
0.0
 30
0.0
  9
$PUCSORGRIGHT
 10
0.0
 20
0.0
 30
0.0
  9
$PUCSORGFRONT
 10
0.0
 20
0.0
 30
0.0
  9
$PUCSORGBACK
 10
0.0
 20
0.0
 30
0.0
  9
$USERI1
 70
     0
  9
$USERI2
 70
     0
  9
$USERI3
 70
     0
  9
$USERI4
 70
     0
  9
$USERI5
 70
     0
  9
$USERR1
 40
16.5
  9
$USERR2
 40
0.0
  9
$USERR3
 40
0.0
  9
$USERR4
 40
0.0
  9
$USERR5
 40
0.0
  9
$WORLDVIEW
 70
     1
  9
$SHADEDGE
 70
     3
  9
$SHADEDIF
 70
    70
  9
$TILEMODE
 70
     1
  9
$MAXACTVP
 70
    64
  9
$PINSBASE
 10
0.0
 20
0.0
 30
0.0
  9
$PLIMCHECK
 70
     0
  9
$PEXTMIN
 10
1.00000000000000E+20
 20
1.00000000000000E+20
 30
1.00000000000000E+20
  9
$PEXTMAX
 10
-1.00000000000000E+20
 20
-1.00000000000000E+20
 30
-1.00000000000000E+20
  9
$PLIMMIN
 10
0.0
 20
0.0
  9
$PLIMMAX
 10
12.0
 20
9.0
  9
$UNITMODE
 70
     0
  9
$VISRETAIN
 70
     1
  9
$PLINEGEN
 70
     0
  9
$PSLTSCALE
 70
     1
  9
$TREEDEPTH
 70
  3020
  9
$CMLSTYLE
  2
Standard
  9
$CMLJUST
 70
     0
  9
$CMLSCALE
 40
1.0
  9
$PROXYGRAPHICS
 70
     1
  9
$MEASUREMENT
 70
     1
  9
$CELWEIGHT
370
    -1
  9
$ENDCAPS
280
     0
  9
$JOINSTYLE
280
     0
  9
$LWDISPLAY
290
     0
  9
$INSUNITS
 70
     1
  9
$HYPERLINKBASE
  1

  9
$STYLESHEET
  1

  9
$XEDIT
290
     1
  9
$CEPSNTYPE
380
     0
  9
$PSTYLEMODE
290
     1
  9
$FINGERPRINTGUID
  2
{712FD318-4953-4D54-B6B2-7F8966AB4D51}
  9
$VERSIONGUID
  2
{FAEB1C32-E019-11D5-929B-00C0DF256EC4}
  9
$EXTNAMES
290
     1
  9
$PSVPSCALE
 40
0.0
  9
$OLESTARTUP
290
     0
  0
ENDSEC
  0
SECTION
  2
CLASSES
  0
CLASS
  1
ACDBDICTIONARYWDFLT
  2
AcDbDictionaryWithDefault
  3
ObjectDBX Classes
 90
        0
280
     0
281
     0
  0
CLASS
  1
VISUALSTYLE
  2
AcDbVisualStyle
  3
ObjectDBX Classes
 90
     4095
280
     0
281
     0
  0
CLASS
  1
SCALE
  2
AcDbScale
  3
ObjectDBX Classes
 90
     1153
280
     0
281
     0
  0
CLASS
  1

  2
exOdDbPolyline
  3

 90
        0
280
     0
281
     1
  0
CLASS
  1

  2
exOdDbCircle
  3

 90
        0
280
     0
281
     1
  0
CLASS
  1

  2
exOdDbSpline
  3

 90
        0
280
     0
281
     1
  0
CLASS
  1
DICTIONARYVAR
  2
AcDbDictionaryVar
  3
ObjectDBX Classes
 90
        0
280
     0
281
     0
  0
CLASS
  1
ACDBPLACEHOLDER
  2
AcDbPlaceHolder
  3
ObjectDBX Classes
 90
        0
280
     0
281
     0
  0
CLASS
  1
LAYOUT
  2
AcDbLayout
  3
ObjectDBX Classes
 90
        0
280
     0
281
     0
  0
ENDSEC
  0
SECTION
  2
TABLES
  0
TABLE
  2
VPORT
  5
8
330
0
100
AcDbSymbolTable
 70
     1
  0
VPORT
  5
29
330
8
100
AcDbSymbolTableRecord
100
AcDbViewportTableRecord
  2
*Active
 70
     0
 10
0.0
 20
0.0
 11
1.0
 21
1.0
 12
138.6391648296716
 22
300.9775690675545
 13
0.0
 23
0.0
 14
0.5
 24
0.5
 15
0.5
 25
0.5
 16
0.0
 26
0.0
 36
1.0
 17
0.0
 27
0.0
 37
0.0
 40
208.0089423968466
 41
1.60267857142857
 42
50.0
 43
0.0
 44
0.0
 50
0.0
 51
0.0
 71
     0
 72
   100
 73
     1
 74
     3
 75
     0
 76
     0
 77
     0
 78
     0
281
     0
 65
     1
110
0.0
120
0.0
130
0.0
111
1.0
121
0.0
131
0.0
112
0.0
122
1.0
132
0.0
 79
     0
146
0.0
  0
ENDTAB
  0
TABLE
  2
LTYPE
  5
5
330
0
100
AcDbSymbolTable
 70
     8
  0
LTYPE
  5
14
330
5
100
AcDbSymbolTableRecord
100
AcDbLinetypeTableRecord
  2
ByBlock
 70
     0
  3

 72
    65
 73
     0
 40
0.0
  0
LTYPE
  5
15
330
5
100
AcDbSymbolTableRecord
100
AcDbLinetypeTableRecord
  2
ByLayer
 70
     0
  3

 72
    65
 73
     0
 40
0.0
  0
LTYPE
  5
16
330
5
100
AcDbSymbolTableRecord
100
AcDbLinetypeTableRecord
  2
Continuous
 70
     0
  3
Solid line
 72
    65
 73
     0
 40
0.0
  0
LTYPE
  5
3B
330
5
100
AcDbSymbolTableRecord
100
AcDbLinetypeTableRecord
  2
DASHED
 70
     0
  3
Dashed
 72
    65
 73
     2
 40
15.0
 49
7.0
 74
     0
 49
-8.0
 74
     0
  0
LTYPE
  5
3C
330
5
100
AcDbSymbolTableRecord
100
AcDbLinetypeTableRecord
  2
DOTTED
 70
     0
  3
Dotted
 72
    65
 73
     2
 40
1.0
 49
0.0
 74
     0
 49
-1.0
 74
     0
  0
LTYPE
  5
3D
330
5
100
AcDbSymbolTableRecord
100
AcDbLinetypeTableRecord
  2
DOT_CENTER
 70
     0
  3
Dot_Center
 72
    65
 73
     4
 40
14.0
 49
12.0
 74
     0
 49
-1.0
 74
     0
 49
0.0
 74
     0
 49
-1.0
 74
     0
  0
LTYPE
  5
3E
330
5
100
AcDbSymbolTableRecord
100
AcDbLinetypeTableRecord
  2
LONG_DASHED
 70
     0
  3
Long_Dashed
 72
    65
 73
     2
 40
15.0
 49
10.0
 74
     0
 49
-5.0
 74
     0
  0
LTYPE
  5
3F
330
5
100
AcDbSymbolTableRecord
100
AcDbLinetypeTableRecord
  2
DASH_CENTER
 70
     0
  3
Dash_Center
 72
    65
 73
     4
 40
14.0
 49
11.0
 74
     0
 49
-1.0
 74
     0
 49
1.0
 74
     0
 49
-1.0
 74
     0
  0
LTYPE
  5
40
330
5
100
AcDbSymbolTableRecord
100
AcDbLinetypeTableRecord
  2
PHANTOM
 70
     0
  3
Phantom
 72
    65
 73
     6
 40
13.0
 49
10.0
 74
     0
 49
-1.0
 74
     0
 49
0.0
 74
     0
 49
-1.0
 74
     0
 49
0.0
 74
     0
 49
-1.0
 74
     0
  0
LTYPE
  5
41
330
5
100
AcDbSymbolTableRecord
100
AcDbLinetypeTableRecord
  2
CENTER_DASH_DASH
 70
     0
  3
Center_Dash_Dash
 72
    65
 73
     6
 40
14.0
 49
9.0
 74
     0
 49
-1.0
 74
     0
 49
1.0
 74
     0
 49
-1.0
 74
     0
 49
1.0
 74
     0
 49
-1.0
 74
     0
  0
ENDTAB
  0
TABLE
  2
LAYER
  5
2
330
0
100
AcDbSymbolTable
 70
     6
  0
LAYER
  5
10
330
2
100
AcDbSymbolTableRecord
100
AcDbLayerTableRecord
  2
0
 70
     0
 62
     7
  6
Continuous
370
    -3
390
F
  0
LAYER
  5
42
330
2
100
AcDbSymbolTableRecord
100
AcDbLayerTableRecord
  2
1
 70
     0
 62
     7
  6
Continuous
370
    -3
390
F
  0
LAYER
  5
43
330
2
100
AcDbSymbolTableRecord
100
AcDbLayerTableRecord
  2
BEZUGSACHSEN
 70
     0
 62
     7
  6
Continuous
370
    -3
390
F
  0
LAYER
  5
44
330
2
100
AcDbSymbolTableRecord
100
AcDbLayerTableRecord
  2
DEFAULT_2
 70
     0
 62
     7
  6
Continuous
370
    -3
390
F
  0
LAYER
  5
45
330
2
100
AcDbSymbolTableRecord
100
AcDbLayerTableRecord
  2
FASEN
 70
     0
 62
     7
  6
Continuous
370
    -3
390
F
  0
LAYER
  5
46
330
2
100
AcDbSymbolTableRecord
100
AcDbLayerTableRecord
  2
RUNDUNGEN
 70
     0
 62
     7
  6
Continuous
370
    -3
390
F
  0
ENDTAB
  0
TABLE
  2
STYLE
  5
3
330
0
100
AcDbSymbolTable
 70
     2
  0
STYLE
  5
11
330
3
100
AcDbSymbolTableRecord
100
AcDbTextStyleTableRecord
  2
Standard
 70
     0
 40
0.0
 41
1.0
 50
0.0
 71
     0
 42
0.2
  3
txt
  4

  0
STYLE
  5
6D
330
3
100
AcDbSymbolTableRecord
100
AcDbTextStyleTableRecord
  2
CONVERTER_11
 70
     0
 40
0.0
 41
0.72
 50
0.0
 71
     0
 42
0.2
  3
txt.shx
  4

  0
ENDTAB
  0
TABLE
  2
VIEW
  5
6
330
0
100
AcDbSymbolTable
 70
     0
  0
ENDTAB
  0
TABLE
  2
UCS
  5
7
330
0
100
AcDbSymbolTable
 70
     0
  0
ENDTAB
  0
TABLE
  2
APPID
  5
9
330
0
100
AcDbSymbolTable
 70
     1
  0
APPID
  5
12
330
9
100
AcDbSymbolTableRecord
100
AcDbRegAppTableRecord
  2
ACAD
 70
     0
  0
ENDTAB
  0
TABLE
  2
DIMSTYLE
  5
A
330
0
100
AcDbSymbolTable
 70
     8
100
AcDbDimStyleTable
  0
DIMSTYLE
105
27
330
A
100
AcDbSymbolTableRecord
100
AcDbDimStyleTableRecord
  2
Standard
 70
     0
340
11
  0
DIMSTYLE
105
105
102
{ACAD_REACTORS
330
106
102
}
330
A
100
AcDbSymbolTableRecord
100
AcDbDimStyleTableRecord
  2
ME10_DIM_10
 70
     0
  3
\U+2300<>
 41
3.5
 42
2.0
 44
2.0
 71
     1
 73
     0
 74
     0
 77
     1
 78
     8
140
3.5
146
0.7
147
2.0
172
     1
173
     1
176
     2
177
     2
178
     3
271
     2
272
     0
340
6D
  0
DIMSTYLE
105
110
102
{ACAD_REACTORS
330
111
102
}
330
A
100
AcDbSymbolTableRecord
100
AcDbDimStyleTableRecord
  2
ME10_DIM_11
 70
     0
  3
\U+2300<>
 41
3.5
 42
2.0
 44
2.0
 71
     1
 73
     0
 74
     0
 77
     1
 78
     8
140
3.5
146
0.7
147
2.0
172
     1
173
     1
176
     2
177
     2
178
     3
271
     2
272
     0
340
6D
  0
DIMSTYLE
105
11B
102
{ACAD_REACTORS
330
11C
102
}
330
A
100
AcDbSymbolTableRecord
100
AcDbDimStyleTableRecord
  2
ME10_DIM_12
 70
     0
  3
\U+2300<>
 41
3.5
 42
2.0
 44
2.0
 71
     1
 73
     0
 74
     0
 77
     1
 78
     8
140
3.5
146
0.7
147
2.0
172
     1
173
     1
176
     2
177
     2
178
     3
271
     2
272
     0
340
6D
  0
DIMSTYLE
105
126
102
{ACAD_REACTORS
330
127
102
}
330
A
100
AcDbSymbolTableRecord
100
AcDbDimStyleTableRecord
  2
ME10_DIM_13
 70
     0
  3
<>
 41
3.5
 42
2.0
 44
2.0
 71
     1
 73
     0
 74
     0
 77
     1
 78
     8
140
3.5
146
0.7
147
2.0
172
     1
173
     1
176
     2
177
     2
178
     3
271
     2
272
     0
340
6D
  0
DIMSTYLE
105
131
102
{ACAD_REACTORS
330
132
102
}
330
A
100
AcDbSymbolTableRecord
100
AcDbDimStyleTableRecord
  2
ME10_DIM_14
 70
     0
  3
<>
 41
3.5
 42
2.0
 44
2.0
 71
     1
 73
     0
 74
     0
 77
     1
 78
     8
140
3.5
146
0.7
147
2.0
172
     1
173
     1
176
     2
177
     2
178
     3
271
     2
272
     0
340
6D
  0
DIMSTYLE
105
13C
102
{ACAD_REACTORS
330
13D
102
}
330
A
100
AcDbSymbolTableRecord
100
AcDbDimStyleTableRecord
  2
ME10_DIM_15
 70
     0
  3
<>
 41
3.5
 42
2.0
 44
2.0
 71
     1
 73
     0
 74
     0
 77
     1
 78
     8
140
3.5
146
0.7
147
2.0
172
     1
173
     1
176
     2
177
     2
178
     3
271
     2
272
     0
340
6D
  0
DIMSTYLE
105
14E
102
{ACAD_REACTORS
330
14F
102
}
330
A
100
AcDbSymbolTableRecord
100
AcDbDimStyleTableRecord
  2
ME10_DIM_16
 70
     0
  3
<>
 41
3.5
 42
2.0
 44
2.0
 71
     1
 73
     0
 74
     0
 77
     1
 78
     8
140
3.5
146
0.7
147
2.0
172
     1
173
     1
176
     2
177
     2
178
     3
271
     2
272
     0
340
6D
  0
ENDTAB
  0
TABLE
  2
BLOCK_RECORD
  5
1
330
0
100
AcDbSymbolTable
 70
    10
  0
BLOCK_RECORD
  5
1F
330
1
100
AcDbSymbolTableRecord
100
AcDbBlockTableRecord
  2
*Model_Space
340
22
  0
BLOCK_RECORD
  5
1B
330
1
100
AcDbSymbolTableRecord
100
AcDbBlockTableRecord
  2
*Paper_Space
340
1E
  0
BLOCK_RECORD
  5
23
330
1
100
AcDbSymbolTableRecord
100
AcDbBlockTableRecord
  2
*Paper_Space0
340
26
  0
BLOCK_RECORD
  5
47
330
1
100
AcDbSymbolTableRecord
100
AcDbBlockTableRecord
  2
Urheberrecht_DE-EN
340
0
102
{BLKREFS
331
6C
102
}
  0
BLOCK_RECORD
  5
FC
330
1
100
AcDbSymbolTableRecord
100
AcDbBlockTableRecord
  2
*D2
340
0
  0
BLOCK_RECORD
  5
107
330
1
100
AcDbSymbolTableRecord
100
AcDbBlockTableRecord
  2
*D3
340
0
  0
BLOCK_RECORD
  5
112
330
1
100
AcDbSymbolTableRecord
100
AcDbBlockTableRecord
  2
*D4
340
0
  0
BLOCK_RECORD
  5
11D
330
1
100
AcDbSymbolTableRecord
100
AcDbBlockTableRecord
  2
*D5
340
0
  0
BLOCK_RECORD
  5
128
330
1
100
AcDbSymbolTableRecord
100
AcDbBlockTableRecord
  2
*D6
340
0
  0
BLOCK_RECORD
  5
133
330
1
100
AcDbSymbolTableRecord
100
AcDbBlockTableRecord
  2
*D7
340
0
  0
BLOCK_RECORD
  5
13E
330
1
100
AcDbSymbolTableRecord
100
AcDbBlockTableRecord
  2
*D8
340
0
102
{BLKREFS
331
144
102
}
  0
BLOCK_RECORD
  5
145
330
1
100
AcDbSymbolTableRecord
100
AcDbBlockTableRecord
  2
*D9
340
0
  0
ENDTAB
  0
ENDSEC
  0
SECTION
  2
BLOCKS
  0
BLOCK
  5
20
330
1F
100
AcDbEntity
  8
0
100
AcDbBlockBegin
  2
*Model_Space
 70
     0
 10
0.0
 20
0.0
 30
0.0
  3
*Model_Space
  1

  0
ENDBLK
  5
21
330
1F
100
AcDbEntity
  8
0
100
AcDbBlockEnd
  0
BLOCK
  5
1C
330
1B
100
AcDbEntity
 67
     1
  8
0
100
AcDbBlockBegin
  2
*Paper_Space
 70
     0
 10
0.0
 20
0.0
 30
0.0
  3
*Paper_Space
  1

  0
ENDBLK
  5
1D
330
1B
100
AcDbEntity
 67
     1
  8
0
100
AcDbBlockEnd
  0
BLOCK
  5
24
330
23
100
AcDbEntity
  8
0
100
AcDbBlockBegin
  2
*Paper_Space0
 70
     0
 10
0.0
 20
0.0
 30
0.0
  3
*Paper_Space0
  1

  0
ENDBLK
  5
25
330
23
100
AcDbEntity
  8
0
100
AcDbBlockEnd
  0
BLOCK
  5
48
330
47
100
AcDbEntity
  8
0
100
AcDbBlockBegin
  2
Urheberrecht_DE-EN
 70
     0
 10
1.10667635469617
 20
299.999849025015
 30
0.0
  3
Urheberrecht_DE-EN
  1

  0
MTEXT
  5
6E
330
47
100
AcDbEntity
  8
1
 62
     1
100
AcDbMText
 10
1.10667635469617
 20
299.999849025015
 30
0.0
 40
2.0
 41
0.0
 71
     7
 72
     1
  1
We own the copyright of this document. It \Pdetermined and may neither be copied or \Pmade accessible to outsiders without our\Ppermission.
  7
CONVERTER_11
 11
0.0
 21
1.0
 31
0.0
 73
     1
 44
0.90036014405762
  0
MTEXT
  5
6F
330
47
100
AcDbEntity
  8
1
 62
     1
100
AcDbMText
 10
1.10667635469617
 20
243.7104621077088
 30
0.0
 40
2.0
 41
0.0
 71
     7
 72
     1
  1
F\U+00fcr diese Unterlage behalten wir das Ur-\Pheberrecht. Sie darf nur f\U+00fcr den von uns \Pbestimmten Zweck benutzt und ohne unsere \PZustimmung weder vervielf\U+00e4ltigt noch\PDritten zug\U+00e4nglich gemacht werden.
  7
CONVERTER_11
 11
0.0
 21
1.0
 31
0.0
 73
     1
 44
0.90036014405762
  0
ENDBLK
  5
49
330
47
100
AcDbEntity
  8
0
100
AcDbBlockEnd
  0
BLOCK
  5
103
330
FC
100
AcDbEntity
  8
0
100
AcDbBlockBegin
  2
*D2
 70
     1
 10
0.0
 20
0.0
 30
0.0
  3
*D2
  1

  0
LINE
  5
FD
330
FC
100
AcDbEntity
  8
1
  6
Continuous
 62
     2
100
AcDbLine
 10
270.432754396776
 20
302.3719218415
 30
0.0
 11
270.432754396776
 21
270.3719218415
 31
0.0
  0
LINE
  5
FE
330
FC
100
AcDbEntity
  8
1
  6
Continuous
 62
     2
100
AcDbLine
 10
260.2068054069
 20
302.3719218415
 30
0.0
 11
272.432754396776
 21
302.3719218415
 31
0.0
  0
LINE
  5
FF
330
FC
100
AcDbEntity
  8
1
  6
Continuous
 62
     2
100
AcDbLine
 10
260.2068054069
 20
270.3719218415
 30
0.0
 11
272.432754396776
 21
270.3719218415
 31
0.0
  0
SOLID
  5
100
330
FC
100
AcDbEntity
  8
1
 62
     2
100
AcDbTrace
 10
270.8935381383318
 20
298.8719218415
 30
0.0
 11
269.9719706552201
 21
298.8719218415
 31
0.0
 12
270.432754396776
 22
302.3719218415
 32
0.0
 13
270.432754396776
 23
302.3719218415
 33
0.0
  0
SOLID
  5
101
330
FC
100
AcDbEntity
  8
1
 62
     2
100
AcDbTrace
 10
269.9719706552201
 20
273.8719218415
 30
0.0
 11
270.8935381383318
 21
273.8719218415
 31
0.0
 12
270.432754396776
 22
270.3719218415
 32
0.0
 13
270.432754396776
 23
270.3719218415
 33
0.0
  0
MTEXT
  5
102
330
FC
100
AcDbEntity
  8
1
 62
     3
100
AcDbMText
 10
268.432754396776
 20
277.602248783522
 30
0.0
 40
3.5
 41
0.0
 71
     7
 72
     1
  1
\C3;%%c\C3;\C3;32\C2;\H2.45;\S^ ;\C3;
  7
CONVERTER_11
 11
0.0
 21
1.0
 31
0.0
 73
     1
 44
0.60024009603842
  0
ENDBLK
  5
104
330
FC
100
AcDbEntity
  8
0
100
AcDbBlockEnd
  0
BLOCK
  5
10E
330
107
100
AcDbEntity
  8
0
100
AcDbBlockBegin
  2
*D3
 70
     1
 10
0.0
 20
0.0
 30
0.0
  3
*D3
  1

  0
LINE
  5
108
330
107
100
AcDbEntity
  8
1
  6
Continuous
 62
     2
100
AcDbLine
 10
278.443870032589
 20
308.3719218415466
 30
0.0
 11
278.443870032589
 21
264.3719218415487
 31
0.0
  0
LINE
  5
109
330
107
100
AcDbEntity
  8
1
  6
Continuous
 62
     2
100
AcDbLine
 10
260.2068054069
 20
308.3719218415466
 30
0.0
 11
280.443870032589
 21
308.3719218415466
 31
0.0
  0
LINE
  5
10A
330
107
100
AcDbEntity
  8
1
  6
Continuous
 62
     2
100
AcDbLine
 10
260.2068054069
 20
264.3719218415487
 30
0.0
 11
280.443870032589
 21
264.3719218415487
 31
0.0
  0
SOLID
  5
10B
330
107
100
AcDbEntity
  8
1
 62
     2
100
AcDbTrace
 10
278.9046537741449
 20
304.8719218415466
 30
0.0
 11
277.9830862910331
 21
304.8719218415466
 31
0.0
 12
278.443870032589
 22
308.3719218415466
 32
0.0
 13
278.443870032589
 23
308.3719218415466
 33
0.0
  0
SOLID
  5
10C
330
107
100
AcDbEntity
  8
1
 62
     2
100
AcDbTrace
 10
277.9830862910331
 20
267.8719218415487
 30
0.0
 11
278.9046537741449
 21
267.8719218415487
 31
0.0
 12
278.443870032589
 22
264.3719218415487
 32
0.0
 13
278.443870032589
 23
264.3719218415487
 33
0.0
  0
MTEXT
  5
10D
330
107
100
AcDbEntity
  8
1
 62
     3
100
AcDbMText
 10
276.443870032589
 20
277.411507935051
 30
0.0
 40
3.5
 41
0.0
 71
     7
 72
     1
  1
\C3;%%c\C3;\C3;44\C2;\H2.45;\S^ ;\C3;
  7
CONVERTER_11
 11
0.0
 21
1.0
 31
0.0
 73
     1
 44
0.60024009603842
  0
ENDBLK
  5
10F
330
107
100
AcDbEntity
  8
0
100
AcDbBlockEnd
  0
BLOCK
  5
119
330
112
100
AcDbEntity
  8
0
100
AcDbBlockBegin
  2
*D4
 70
     1
 10
0.0
 20
0.0
 30
0.0
  3
*D4
  1

  0
LINE
  5
113
330
112
100
AcDbEntity
  8
1
  6
Continuous
 62
     2
100
AcDbLine
 10
288.171653304647
 20
312.8719218415
 30
0.0
 11
288.171653304647
 21
259.8719218415
 31
0.0
  0
LINE
  5
114
330
112
100
AcDbEntity
  8
1
  6
Continuous
 62
     2
100
AcDbLine
 10
203.0288840941
 20
312.8719218415
 30
0.0
 11
290.171653304647
 21
312.8719218415
 31
0.0
  0
LINE
  5
115
330
112
100
AcDbEntity
  8
1
  6
Continuous
 62
     2
100
AcDbLine
 10
203.0288840941
 20
259.8719218415
 30
0.0
 11
290.171653304647
 21
259.8719218415
 31
0.0
  0
SOLID
  5
116
330
112
100
AcDbEntity
  8
1
 62
     2
100
AcDbTrace
 10
288.6324370462029
 20
309.3719218415
 30
0.0
 11
287.7108695630911
 21
309.3719218415
 31
0.0
 12
288.171653304647
 22
312.8719218415
 32
0.0
 13
288.171653304647
 23
312.8719218415
 33
0.0
  0
SOLID
  5
117
330
112
100
AcDbEntity
  8
1
 62
     2
100
AcDbTrace
 10
287.7108695630911
 20
263.3719218415
 30
0.0
 11
288.6324370462029
 21
263.3719218415
 31
0.0
 12
288.171653304647
 22
259.8719218415
 32
0.0
 13
288.171653304647
 23
259.8719218415
 33
0.0
  0
MTEXT
  5
118
330
112
100
AcDbEntity
  8
1
 62
     3
100
AcDbMText
 10
286.171653304647
 20
277.792989631994
 30
0.0
 40
3.5
 41
0.0
 71
     7
 72
     1
  1
\C3;%%c\C3;\C3;53\C2;\H2.45;\S^ ;\C3;
  7
CONVERTER_11
 11
0.0
 21
1.0
 31
0.0
 73
     1
 44
0.60024009603842
  0
ENDBLK
  5
11A
330
112
100
AcDbEntity
  8
0
100
AcDbBlockEnd
  0
BLOCK
  5
124
330
11D
100
AcDbEntity
  8
0
100
AcDbBlockBegin
  2
*D5
 70
     1
 10
0.0
 20
0.0
 30
0.0
  3
*D5
  1

  0
LINE
  5
11E
330
11D
100
AcDbEntity
  8
1
  6
Continuous
 62
     2
100
AcDbLine
 10
258.2068054069
 20
345.014689264343
 30
0.0
 11
87.2068054069
 21
345.014689264343
 31
0.0
  0
LINE
  5
11F
330
11D
100
AcDbEntity
  8
1
  6
Continuous
 62
     2
100
AcDbLine
 10
258.2068054069
 20
309.4475313499
 30
0.0
 11
258.2068054069
 21
347.014689264343
 31
0.0
  0
LINE
  5
120
330
11D
100
AcDbEntity
  8
1
  6
Continuous
 62
     2
100
AcDbLine
 10
87.2068054069
 20
338.3718849204
 30
0.0
 11
87.2068054069
 21
347.014689264343
 31
0.0
  0
SOLID
  5
121
330
11D
100
AcDbEntity
  8
1
 62
     2
100
AcDbTrace
 10
254.7068054069
 20
344.5539055227871
 30
0.0
 11
254.7068054069
 21
345.4754730058989
 31
0.0
 12
258.2068054069
 22
345.014689264343
 32
0.0
 13
258.2068054069
 23
345.014689264343
 33
0.0
  0
SOLID
  5
122
330
11D
100
AcDbEntity
  8
1
 62
     2
100
AcDbTrace
 10
90.7068054069
 20
345.4754730058989
 30
0.0
 11
90.7068054069
 21
344.5539055227871
 31
0.0
 12
87.2068054069
 22
345.014689264343
 32
0.0
 13
87.2068054069
 23
345.014689264343
 33
0.0
  0
MTEXT
  5
123
330
11D
100
AcDbEntity
  8
1
 62
     3
100
AcDbMText
 10
170.825662524667
 20
347.014689264343
 30
0.0
 40
3.5
 41
0.0
 71
     7
 72
     1
  1
\C3;\C3;\C3;171\C2;\H2.45;\S^ ;\C3;
  7
CONVERTER_11
 11
0.9999999999970619
 21
2.424068405545306E-6
 31
0.0
 73
     1
 44
0.60024009603842
  0
ENDBLK
  5
125
330
11D
100
AcDbEntity
  8
0
100
AcDbBlockEnd
  0
BLOCK
  5
12F
330
128
100
AcDbEntity
  8
0
100
AcDbBlockBegin
  2
*D6
 70
     1
 10
0.0
 20
0.0
 30
0.0
  3
*D6
  1

  0
LINE
  5
129
330
128
100
AcDbEntity
  8
1
  6
Continuous
 62
     2
100
AcDbLine
 10
258.2068054069
 20
352.644323203212
 30
0.0
 11
58.2068054069
 21
352.644323203212
 31
0.0
  0
LINE
  5
12A
330
128
100
AcDbEntity
  8
1
  6
Continuous
 62
     2
100
AcDbLine
 10
258.2068054069
 20
309.4475313499
 30
0.0
 11
258.2068054069
 21
354.644323203212
 31
0.0
  0
LINE
  5
12B
330
128
100
AcDbEntity
  8
1
  6
Continuous
 62
     2
100
AcDbLine
 10
58.2068054069
 20
338.3719218415
 30
0.0
 11
58.2068054069
 21
354.644323203212
 31
0.0
  0
SOLID
  5
12C
330
128
100
AcDbEntity
  8
1
 62
     2
100
AcDbTrace
 10
254.7068054069
 20
352.1835394616562
 30
0.0
 11
254.7068054069
 21
353.1051069447679
 31
0.0
 12
258.2068054069
 22
352.644323203212
 32
0.0
 13
258.2068054069
 23
352.644323203212
 33
0.0
  0
SOLID
  5
12D
330
128
100
AcDbEntity
  8
1
 62
     2
100
AcDbTrace
 10
61.7068054069
 20
353.1051069447679
 30
0.0
 11
61.7068054069
 21
352.1835394616562
 31
0.0
 12
58.2068054069
 22
352.644323203212
 32
0.0
 13
58.2068054069
 23
352.644323203212
 33
0.0
  0
MTEXT
  5
12E
330
128
100
AcDbEntity
  8
1
 62
     3
100
AcDbMText
 10
155.298617192344
 20
354.644323203212
 30
0.0
 40
3.5
 41
0.0
 71
     7
 72
     1
  1
\C3;\C3;\C3;200\C2;\H2.45;\S^ ;\C3;
  7
CONVERTER_11
 11
0.9999999999970619
 21
2.424068405545306E-6
 31
0.0
 73
     1
 44
0.60024009603842
  0
ENDBLK
  5
130
330
128
100
AcDbEntity
  8
0
100
AcDbBlockEnd
  0
BLOCK
  5
13A
330
133
100
AcDbEntity
  8
0
100
AcDbBlockBegin
  2
*D7
 70
     1
 10
0.0
 20
0.0
 30
0.0
  3
*D7
  1

  0
LINE
  5
134
330
133
100
AcDbEntity
  8
1
  6
Continuous
 62
     2
100
AcDbLine
 10
258.2068054069
 20
360.083216293609
 30
0.0
 11
8.2068054069
 21
360.083216293609
 31
0.0
  0
LINE
  5
135
330
133
100
AcDbEntity
  8
1
  6
Continuous
 62
     2
100
AcDbLine
 10
258.2068054069
 20
309.4475313499
 30
0.0
 11
258.2068054069
 21
362.083216293609
 31
0.0
  0
LINE
  5
136
330
133
100
AcDbEntity
  8
1
  6
Continuous
 62
     2
100
AcDbLine
 10
8.2068054069
 20
321.9721134041
 30
0.0
 11
8.2068054069
 21
362.083216293609
 31
0.0
  0
SOLID
  5
137
330
133
100
AcDbEntity
  8
1
 62
     2
100
AcDbTrace
 10
254.7068054069
 20
359.6224325520531
 30
0.0
 11
254.7068054069
 21
360.5440000351649
 31
0.0
 12
258.2068054069
 22
360.083216293609
 32
0.0
 13
258.2068054069
 23
360.083216293609
 33
0.0
  0
SOLID
  5
138
330
133
100
AcDbEntity
  8
1
 62
     2
100
AcDbTrace
 10
11.7068054069
 20
360.5440000351649
 30
0.0
 11
11.7068054069
 21
359.6224325520531
 31
0.0
 12
8.2068054069
 22
360.083216293609
 32
0.0
 13
8.2068054069
 23
360.083216293609
 33
0.0
  0
MTEXT
  5
139
330
133
100
AcDbEntity
  8
1
 62
     3
100
AcDbMText
 10
142.137498647794
 20
362.083216293609
 30
0.0
 40
3.5
 41
0.0
 71
     7
 72
     1
  1
\C3;\C3;\C3;250\C2;\H2.45;\S^ ;\C3;
  7
CONVERTER_11
 11
0.9999999999970619
 21
2.424068405545306E-6
 31
0.0
 73
     1
 44
0.60024009603842
  0
ENDBLK
  5
13B
330
133
100
AcDbEntity
  8
0
100
AcDbBlockEnd
  0
BLOCK
  5
142
330
13E
100
AcDbEntity
  8
0
100
AcDbBlockBegin
  2
*D8
 70
     1
 10
0.0
 20
0.0
 30
0.0
  3
*D8
  1

  0
LINE
  5
13F
330
13E
100
AcDbEntity
  8
1
  6
Continuous
 62
     2
100
AcDbLine
 10
100.3997004319384
 20
325.0979118951198
 30
0.0
 11
93.65783096892734
 21
316.0338111088826
 31
0.0
  0
SOLID
  5
140
330
13E
100
AcDbEntity
  8
1
 62
     2
100
AcDbTrace
 10
95.37694458361607
 20
319.1171485922396
 30
0.0
 11
96.1163936708516
 21
318.5671470710458
 31
0.0
 12
93.65783096892734
 22
316.0338111088826
 32
0.0
 13
93.65783096892734
 23
316.0338111088826
 33
0.0
  0
MTEXT
  5
141
330
13E
100
AcDbEntity
  8
1
 62
     3
100
AcDbMText
 10
93.36395737876425
 20
318.9898582206903
 30
0.0
 40
3.5
 41
0.0
 71
     7
 72
     1
  1
\C3; R\C3;\C3;16\C2;\H2.45;\S^ ;\C3;
  7
CONVERTER_11
 11
0.5968109023732914
 21
0.8023819207885842
 31
0.0
 73
     1
 44
0.60024009603842
  0
ENDBLK
  5
143
330
13E
100
AcDbEntity
  8
0
100
AcDbBlockEnd
  0
BLOCK
  5
14C
330
145
100
AcDbEntity
  8
0
100
AcDbBlockBegin
  2
*D9
 70
     1
 10
0.0
 20
0.0
 30
0.0
  3
*D9
  1

  0
LINE
  5
146
330
145
100
AcDbEntity
  8
1
  6
Continuous
 62
     2
100
AcDbLine
 10
238.5802668810065
 20
312.8719218415
 30
0.0
 11
240.5802668810065
 21
312.8719218415
 31
0.0
  0
LINE
  5
147
330
145
100
AcDbEntity
  8
1
  6
Continuous
 62
     2
100
AcDbLine
 10
203.0288840941
 20
312.8719218415
 30
0.0
 11
238.5802668810065
 21
312.8719218415
 31
0.0
  0
ARC
  5
148
330
145
100
AcDbEntity
  8
1
  6
Continuous
 62
     2
100
AcDbCircle
 10
201.0288840941
 20
312.8719218415
 30
0.0
 40
37.55138278690641
100
AcDbArc
 50
347.4895668250156
 51
16.68626301490134
  0
SOLID
  5
149
330
145
100
AcDbEntity
  8
1
 62
     2
100
AcDbTrace
 10
238.4848319914734
 20
306.3955314447012
 30
0.0
 11
237.5704712811882
 21
306.5105580390859
 31
0.0
 12
238.4645085000161
 22
309.925674304725
 32
0.0
 13
238.4645085000161
 23
309.925674304725
 33
0.0
  0
SOLID
  5
14A
330
145
100
AcDbEntity
  8
1
 62
     2
100
AcDbTrace
 10
237.9569326145604
 20
316.3466557951656
 30
0.0
 11
238.8774995385083
 21
316.3895878864504
 31
0.0
 12
238.5802668810065
 22
312.8719218415
 32
0.0
 13
238.5802668810065
 23
312.8719218415
 33
0.0
  0
MTEXT
  5
14B
330
145
100
AcDbEntity
  8
1
 62
     3
100
AcDbMText
 10
239.0658335543553
 20
324.2736138700712
 30
0.0
 40
3.5
 41
0.0
 71
     7
 72
     1
  1
\C3;\C3;\C3;4.5%%d\C2;\H2.45;\S^ ;\C3;
  7
CONVERTER_11
 11
0.2007169220042166
 21
-0.9796492827645786
 31
0.0
 73
     1
 44
0.60024009603842
  0
ENDBLK
  5
14D
330
145
100
AcDbEntity
  8
0
100
AcDbBlockEnd
  0
ENDSEC
  0
SECTION
  2
ENTITIES
  0
INSERT
  5
6C
330
1F
100
AcDbEntity
  8
0
100
AcDbBlockReference
  2
Urheberrecht_DE-EN
 10
1.10667635469617
 20
299.999849025015
 30
0.0
  0
LINE
  5
70
330
1F
100
AcDbEntity
  8
BEZUGSACHSEN
  6
Continuous
 62
     7
100
AcDbLine
 10
8.2068054069
 20
252.7717302786
 30
0.0
 11
8.2068054069
 21
274.3619218415
 31
0.0
  0
LINE
  5
71
330
1F
100
AcDbEntity
  8
BEZUGSACHSEN
  6
Continuous
 62
     7
100
AcDbLine
 10
8.2068054069
 20
298.3819218415
 30
0.0
 11
8.2068054069
 21
319.9721134041
 31
0.0
  0
LINE
  5
72
330
1F
100
AcDbEntity
  8
BEZUGSACHSEN
  6
Continuous
 62
     9
100
AcDbLine
 10
10.1067309221
 20
321.9696081099
 30
0.0
 11
10.1067309221
 21
302.0484542278
 31
0.0
  0
LINE
  5
73
330
1F
100
AcDbEntity
  8
BEZUGSACHSEN
  6
Continuous
 62
     9
100
AcDbLine
 10
10.1067309221
 20
270.6953894553
 30
0.0
 11
10.1067309221
 21
250.7742355732
 31
0.0
  0
LINE
  5
74
330
1F
100
AcDbEntity
  8
BEZUGSACHSEN
  6
Continuous
 62
     7
100
AcDbLine
 10
10.2068054069
 20
273.9682818932
 30
0.0
 11
10.2068054069
 21
276.3619218415
 31
0.0
  0
LINE
  5
75
330
1F
100
AcDbEntity
  8
BEZUGSACHSEN
  6
Continuous
 62
     7
100
AcDbLine
 10
10.2068054069
 20
296.3819218415
 30
0.0
 11
10.2068054069
 21
298.7755617899
 31
0.0
  0
LINE
  5
76
330
1F
100
AcDbEntity
  8
BEZUGSACHSEN
  6
Continuous
 62
     9
100
AcDbLine
 10
16.2068054069
 20
270.0132742541
 30
0.0
 11
16.2068054069
 21
276.3619218415
 31
0.0
  0
LINE
  5
77
330
1F
100
AcDbEntity
  8
BEZUGSACHSEN
  6
Continuous
 62
     9
100
AcDbLine
 10
16.2068054069
 20
296.3819218415
 30
0.0
 11
16.2068054069
 21
302.730569429
 31
0.0
  0
LINE
  5
78
330
1F
100
AcDbEntity
  8
BEZUGSACHSEN
  6
Continuous
 62
     7
100
AcDbLine
 10
18.2068054069
 20
299.2415773673
 30
0.0
 11
18.2068054069
 21
273.5022663158
 31
0.0
  0
LINE
  5
79
330
1F
100
AcDbEntity
  8
BEZUGSACHSEN
  6
Continuous
 62
     7
100
AcDbLine
 10
9.4737583339
 20
271.3619218415
 30
0.0
 11
9.3526480824
 21
271.1295858461
 31
0.0
  0
LINE
  5
7A
330
1F
100
AcDbEntity
  8
BEZUGSACHSEN
  6
Continuous
 62
     7
100
AcDbLine
 10
9.3526480824
 20
301.614257837
 30
0.0
 11
9.4737583339
 21
301.3819218415
 31
0.0
  0
LWPOLYLINE
  5
7B
330
1F
100
AcDbEntity
  8
BEZUGSACHSEN
  6
DOT_CENTER
 62
     7
100
AcDbPolyline
 90
        2
 70
     0
 43
0.25
 10
43.2068054069
 20
286.3719218415
 10
43.2068054069
 20
277.3719218415
  0
LWPOLYLINE
  5
7C
330
1F
100
AcDbEntity
  8
BEZUGSACHSEN
  6
DOT_CENTER
 62
     7
100
AcDbPolyline
 90
        2
 70
     0
 43
0.25
 10
43.2068054069
 20
286.3719218415
 10
43.2068054069
 20
295.3719218415
  0
LINE
  5
7D
330
1F
100
AcDbEntity
  8
BEZUGSACHSEN
  6
Continuous
 62
     7
100
AcDbLine
 10
8.2068054069
 20
274.3619218415
 30
0.0
 11
10.2068054069
 21
276.3619218415
 31
0.0
  0
LINE
  5
7E
330
1F
100
AcDbEntity
  8
BEZUGSACHSEN
  6
Continuous
 62
     7
100
AcDbLine
 10
10.2068054069
 20
296.3819218415
 30
0.0
 11
8.2068054069
 21
298.3819218415
 31
0.0
  0
LINE
  5
7F
330
1F
100
AcDbEntity
  8
BEZUGSACHSEN
  6
Continuous
 62
     7
100
AcDbLine
 10
55.7068054069
 20
324.2541718415
 30
0.0
 11
55.7068054069
 21
248.4896718415
 31
0.0
  0
LINE
  5
80
330
1F
100
AcDbEntity
  8
BEZUGSACHSEN
  6
Continuous
 62
     9
100
AcDbLine
 10
56.3260490209
 20
248.6555976678
 30
0.0
 11
56.3260490209
 21
324.0882460153
 31
0.0
  0
LINE
  5
81
330
1F
100
AcDbEntity
  8
BEZUGSACHSEN
  6
Continuous
 62
     9
100
AcDbLine
 10
56.584868066
 20
248.6896718415
 30
0.0
 11
56.584868066
 21
324.0541718415
 31
0.0
  0
LINE
  5
82
330
1F
100
AcDbEntity
  8
BEZUGSACHSEN
  6
Continuous
 62
     9
100
AcDbLine
 10
57.5062341182
 20
248.6896718415
 30
0.0
 11
57.5062341182
 21
324.0541718415
 31
0.0
  0
LINE
  5
83
330
1F
100
AcDbEntity
  8
BEZUGSACHSEN
  6
Continuous
 62
     7
100
AcDbLine
 10
58.2068054069
 20
336.3719218415
 30
0.0
 11
58.2068054069
 21
236.3719218415
 31
0.0
  0
LWPOLYLINE
  5
84
330
1F
100
AcDbEntity
  8
BEZUGSACHSEN
  6
DOT_CENTER
 62
     7
100
AcDbPolyline
 90
        2
 70
     0
 43
0.25
 10
65.2068054069
 20
328.5212936969
 10
65.2068054069
 20
339.3719218415
  0
LINE
  5
85
330
1F
100
AcDbEntity
  8
FASEN
  6
Continuous
 62
     9
100
AcDbLine
 10
71.1786793287
 20
254.4719218415
 30
0.0
 11
71.1786793287
 21
254.8719218415
 31
0.0
  0
LINE
  5
86
330
1F
100
AcDbEntity
  8
BEZUGSACHSEN
  6
Continuous
 62
     7
100
AcDbLine
 10
80.0818054069
 20
333.9945171057
 30
0.0
 11
81.454400671
 21
336.3719218415
 31
0.0
  0
LINE
  5
87
330
1F
100
AcDbEntity
  8
BEZUGSACHSEN
  6
Continuous
 62
     7
100
AcDbLine
 10
80.0818054069
 20
238.7493265774
 30
0.0
 11
81.454400671
 21
236.3719218415
 31
0.0
  0
LINE
  5
88
330
1F
100
AcDbEntity
  8
FASEN
  6
Continuous
 62
     9
100
AcDbLine
 10
73.2068054069
 20
276.7719218415
 30
0.0
 11
73.2068054069
 21
276.3719218415
 31
0.0
  0
LINE
  5
89
330
1F
100
AcDbEntity
  8
FASEN
  6
Continuous
 62
     9
100
AcDbLine
 10
73.2068054069
 20
295.9719218415
 30
0.0
 11
73.2068054069
 21
296.3719218415
 31
0.0
  0
LINE
  5
8A
330
1F
100
AcDbEntity
  8
0
  6
Continuous
 62
     7
100
AcDbLine
 10
74.9592101427
 20
336.3719218415
 30
0.0
 11
74.9592101427
 21
296.3719218415
 31
0.0
  0
LINE
  5
8B
330
1F
100
AcDbEntity
  8
0
  6
Continuous
 62
     7
100
AcDbLine
 10
74.9592101427
 20
276.3719218415
 30
0.0
 11
74.9592101427
 21
254.8719218415
 31
0.0
  0
LINE
  5
8C
330
1F
100
AcDbEntity
  8
0
  6
Continuous
 62
     7
100
AcDbLine
 10
74.9592101427
 20
247.5421652108
 30
0.0
 11
74.9592101427
 21
236.3719218415
 31
0.0
  0
LINE
  5
8D
330
1F
100
AcDbEntity
  8
0
  6
Continuous
 62
     7
100
AcDbLine
 10
76.3318054069
 20
333.9944836792
 30
0.0
 11
76.3318054069
 21
296.3719218415
 31
0.0
  0
LINE
  5
8E
330
1F
100
AcDbEntity
  8
0
  6
Continuous
 62
     7
100
AcDbLine
 10
76.3318054069
 20
276.3719218415
 30
0.0
 11
76.3318054069
 21
254.8719218415
 31
0.0
  0
LINE
  5
8F
330
1F
100
AcDbEntity
  8
0
  6
Continuous
 62
     7
100
AcDbLine
 10
76.3318054069
 20
238.7493641113
 30
0.0
 11
76.3318054069
 21
251.4899780884
 31
0.0
  0
LINE
  5
90
330
1F
100
AcDbEntity
  8
0
  6
Continuous
 62
     9
100
AcDbLine
 10
77.3318054069
 20
240.3719218415
 30
0.0
 11
77.3318054069
 21
252.8495412578
 31
0.0
  0
LINE
  5
91
330
1F
100
AcDbEntity
  8
0
  6
Continuous
 62
     9
100
AcDbLine
 10
77.3318054069
 20
254.8719218415
 30
0.0
 11
77.3318054069
 21
276.3719218415
 31
0.0
  0
LINE
  5
92
330
1F
100
AcDbEntity
  8
0
  6
Continuous
 62
     9
100
AcDbLine
 10
77.3318054069
 20
296.3719218415
 30
0.0
 11
77.3318054069
 21
332.3719218415
 31
0.0
  0
LINE
  5
93
330
1F
100
AcDbEntity
  8
0
  6
Continuous
 62
     9
100
AcDbLine
 10
79.0818054069
 20
240.3719218415
 30
0.0
 11
79.0818054069
 21
252.8495412578
 31
0.0
  0
LINE
  5
94
330
1F
100
AcDbEntity
  8
0
  6
Continuous
 62
     9
100
AcDbLine
 10
79.0818054069
 20
254.8719218415
 30
0.0
 11
79.0818054069
 21
276.3719218415
 31
0.0
  0
LINE
  5
95
330
1F
100
AcDbEntity
  8
0
  6
Continuous
 62
     9
100
AcDbLine
 10
79.0818054069
 20
296.3719218415
 30
0.0
 11
79.0818054069
 21
332.3719218415
 31
0.0
  0
LINE
  5
96
330
1F
100
AcDbEntity
  8
0
  6
Continuous
 62
     7
100
AcDbLine
 10
80.0818054069
 20
238.7493641113
 30
0.0
 11
80.0818054069
 21
251.4899780884
 31
0.0
  0
LINE
  5
97
330
1F
100
AcDbEntity
  8
0
  6
Continuous
 62
     7
100
AcDbLine
 10
80.0818054069
 20
254.8719218415
 30
0.0
 11
80.0818054069
 21
276.3719218415
 31
0.0
  0
LINE
  5
98
330
1F
100
AcDbEntity
  8
0
  6
Continuous
 62
     7
100
AcDbLine
 10
80.0818054069
 20
296.3719218415
 30
0.0
 11
80.0818054069
 21
333.9944836792
 31
0.0
  0
LINE
  5
99
330
1F
100
AcDbEntity
  8
0
  6
Continuous
 62
     7
100
AcDbLine
 10
81.454400671
 20
336.3719218415
 30
0.0
 11
81.454400671
 21
296.3719218415
 31
0.0
  0
LINE
  5
9A
330
1F
100
AcDbEntity
  8
0
  6
Continuous
 62
     7
100
AcDbLine
 10
81.454400671
 20
276.3719218415
 30
0.0
 11
81.454400671
 21
254.8719218415
 31
0.0
  0
LINE
  5
9B
330
1F
100
AcDbEntity
  8
0
  6
Continuous
 62
     7
100
AcDbLine
 10
81.454400671
 20
247.5421652108
 30
0.0
 11
81.454400671
 21
236.3719218415
 31
0.0
  0
LINE
  5
9C
330
1F
100
AcDbEntity
  8
0
  6
Continuous
 62
     7
100
AcDbLine
 10
87.2068054069
 20
336.3718849204
 30
0.0
 11
87.2068054069
 21
296.3719218415
 31
0.0
  0
LINE
  5
9D
330
1F
100
AcDbEntity
  8
0
  6
Continuous
 62
     7
100
AcDbLine
 10
87.2068054069
 20
276.3719218415
 30
0.0
 11
87.2068054069
 21
254.8719218415
 31
0.0
  0
LINE
  5
9E
330
1F
100
AcDbEntity
  8
0
  6
Continuous
 62
     7
100
AcDbLine
 10
87.2068054069
 20
247.5421652108
 30
0.0
 11
87.2068054069
 21
236.3719237093
 31
0.0
  0
LINE
  5
9F
330
1F
100
AcDbEntity
  8
FASEN
  6
Continuous
 62
     7
100
AcDbLine
 10
87.2068054069
 20
247.5421652108
 30
0.0
 11
87.2068054069
 21
254.8719218415
 31
0.0
  0
LINE
  5
A0
330
1F
100
AcDbEntity
  8
FASEN
  6
Continuous
 62
     7
100
AcDbLine
 10
87.2068054069
 20
276.3719218415
 30
0.0
 11
87.2068054069
 21
296.3719218415
 31
0.0
  0
LINE
  5
A1
330
1F
100
AcDbEntity
  8
BEZUGSACHSEN
  6
Continuous
 62
     9
100
AcDbLine
 10
8.2068054069
 20
272.9257378725
 30
0.0
 11
10.2068054069
 21
273.9682818932
 31
0.0
  0
LINE
  5
A2
330
1F
100
AcDbEntity
  8
BEZUGSACHSEN
  6
Continuous
 62
     7
100
AcDbLine
 10
74.9592101427
 20
236.3719218415
 30
0.0
 11
58.2068054069
 21
236.3719218415
 31
0.0
  0
LINE
  5
A3
330
1F
100
AcDbEntity
  8
BEZUGSACHSEN
  6
Continuous
 62
     7
100
AcDbLine
 10
81.454400671
 20
236.3719218415
 30
0.0
 11
87.2068054069
 21
236.3719218415
 31
0.0
  0
LINE
  5
A4
330
1F
100
AcDbEntity
  8
BEZUGSACHSEN
  6
Continuous
 62
     7
100
AcDbLine
 10
77.3318054069
 20
240.3719218415
 30
0.0
 11
79.0818054069
 21
240.3719218415
 31
0.0
  0
LINE
  5
A5
330
1F
100
AcDbEntity
  8
BEZUGSACHSEN
  6
Continuous
 62
     9
100
AcDbLine
 10
10.2068054069
 20
298.7755617899
 30
0.0
 11
8.2068054069
 21
299.8181058106
 31
0.0
  0
LINE
  5
A6
330
1F
100
AcDbEntity
  8
FASEN
  6
Continuous
 62
     7
100
AcDbLine
 10
63.6082913713
 20
247.5421652108
 30
0.0
 11
74.9592101427
 21
247.5421652108
 31
0.0
  0
LINE
  5
A7
330
1F
100
AcDbEntity
  8
0
  6
Continuous
 62
     7
100
AcDbLine
 10
81.454400671
 20
247.5421652108
 30
0.0
 11
87.2068054069
 21
247.5421652108
 31
0.0
  0
LINE
  5
A8
330
1F
100
AcDbEntity
  8
BEZUGSACHSEN
  6
Continuous
 62
     7
100
AcDbLine
 10
57.5062341182
 20
248.6896718415
 30
0.0
 11
56.584868066
 21
248.6896718415
 31
0.0
  0
LINE
  5
A9
330
1F
100
AcDbEntity
  8
BEZUGSACHSEN
  6
Continuous
 62
     7
100
AcDbLine
 10
10.1067309221
 20
250.7742355732
 30
0.0
 11
55.7068054069
 21
248.4896718415
 31
0.0
  0
LINE
  5
AA
330
1F
100
AcDbEntity
  8
RUNDUNGEN
  6
Continuous
 62
     9
100
AcDbLine
 10
103.2068054069
 20
312.8719218415
 30
0.0
 11
103.2068054069
 21
259.8719218415
 31
0.0
  0
LINE
  5
AB
330
1F
100
AcDbEntity
  8
RUNDUNGEN
  6
Continuous
 62
     7
100
AcDbLine
 10
257.2852645026
 20
264.2993949995
 30
0.0
 11
201.0288840941
 21
259.8719218415
 31
0.0
  0
LINE
  5
AC
330
1F
100
AcDbEntity
  8
0
  6
Continuous
 62
     7
100
AcDbLine
 10
201.0288840941
 20
259.8719218415
 30
0.0
 11
257.2852645026
 21
264.2993949995
 31
0.0
  0
LINE
  5
AD
330
1F
100
AcDbEntity
  8
0
  6
Continuous
 62
     7
100
AcDbLine
 10
77.3318054069
 20
252.8495412578
 30
0.0
 11
79.0818054069
 21
252.8495412578
 31
0.0
  0
LINE
  5
AE
330
1F
100
AcDbEntity
  8
FASEN
  6
Continuous
 62
     7
100
AcDbLine
 10
71.1786793287
 20
254.4719218415
 30
0.0
 11
87.2068054069
 21
254.4719218415
 31
0.0
  0
LINE
  5
AF
330
1F
100
AcDbEntity
  8
0
  6
Continuous
 62
     7
100
AcDbLine
 10
71.1786793287
 20
254.8719218415
 30
0.0
 11
87.2068054069
 21
254.8719218415
 31
0.0
  0
LINE
  5
B0
330
1F
100
AcDbEntity
  8
RUNDUNGEN
  6
Continuous
 62
     7
100
AcDbLine
 10
201.0288840941
 20
259.8719218415
 30
0.0
 11
103.2068054069
 21
259.8719218415
 31
0.0
  0
LINE
  5
B1
330
1F
100
AcDbEntity
  8
0
  6
Continuous
 62
     7
100
AcDbLine
 10
103.2068054069
 20
259.8719218415
 30
0.0
 11
201.0288840941
 21
259.8719218415
 31
0.0
  0
LINE
  5
B2
330
1F
100
AcDbEntity
  8
BEZUGSACHSEN
  6
Continuous
 62
     7
100
AcDbLine
 10
74.9592101427
 20
236.3719218415
 30
0.0
 11
76.3318054069
 21
238.7493265774
 31
0.0
  0
LINE
  5
B3
330
1F
100
AcDbEntity
  8
BEZUGSACHSEN
  6
Continuous
 62
     7
100
AcDbLine
 10
74.9592101427
 20
336.3719218415
 30
0.0
 11
76.3318054069
 21
333.9945171057
 31
0.0
  0
LINE
  5
B4
330
1F
100
AcDbEntity
  8
BEZUGSACHSEN
  6
Continuous
 62
     7
100
AcDbLine
 10
56.3260490209
 20
248.6555976678
 30
0.0
 11
55.7068054069
 21
248.4896718415
 31
0.0
  0
LWPOLYLINE
  5
B5
330
1F
100
AcDbEntity
  8
DEFAULT_2
  6
DASHED
 62
     8
100
AcDbPolyline
 90
        2
 70
     0
 43
0.35
 10
258.2068054069
 20
270.3719218415
 10
200.2068054069
 20
270.3719218415
  0
LINE
  5
B6
330
1F
100
AcDbEntity
  8
BEZUGSACHSEN
  6
Continuous
 62
     9
100
AcDbLine
 10
17.7606513538
 20
271.3619218415
 30
0.0
 11
9.4737583339
 21
271.3619218415
 31
0.0
  0
LINE
  5
B7
330
1F
100
AcDbEntity
  8
BEZUGSACHSEN
  6
Continuous
 62
     7
100
AcDbLine
 10
16.2068054069
 20
276.3619218415
 30
0.0
 11
10.2068054069
 21
276.3619218415
 31
0.0
  0
LINE
  5
B8
330
1F
100
AcDbEntity
  8
0
  6
Continuous
 62
     7
100
AcDbLine
 10
73.2068054069
 20
276.3719218415
 30
0.0
 11
87.2068054069
 21
276.3719218415
 31
0.0
  0
LINE
  5
B9
330
1F
100
AcDbEntity
  8
FASEN
  6
Continuous
 62
     7
100
AcDbLine
 10
87.2068054069
 20
276.7719218415
 30
0.0
 11
73.2068054069
 21
276.7719218415
 31
0.0
  0
LWPOLYLINE
  5
BA
330
1F
100
AcDbEntity
  8
BEZUGSACHSEN
  6
DOT_CENTER
 62
     7
100
AcDbPolyline
 90
        2
 70
     0
 43
0.25
 10
261.2068054069
 20
286.3719218415
 10
5.2068054069
 20
286.3719218415
  0
LINE
  5
BB
330
1F
100
AcDbEntity
  8
FASEN
  6
Continuous
 62
     7
100
AcDbLine
 10
73.2068054069
 20
295.9719218415
 30
0.0
 11
87.2068054069
 21
295.9719218415
 31
0.0
  0
LINE
  5
BC
330
1F
100
AcDbEntity
  8
0
  6
Continuous
 62
     7
100
AcDbLine
 10
73.2068054069
 20
296.3719218415
 30
0.0
 11
87.2068054069
 21
296.3719218415
 31
0.0
  0
LINE
  5
BD
330
1F
100
AcDbEntity
  8
BEZUGSACHSEN
  6
Continuous
 62
     7
100
AcDbLine
 10
16.2068054069
 20
296.3819218415
 30
0.0
 11
10.2068054069
 21
296.3819218415
 31
0.0
  0
LINE
  5
BE
330
1F
100
AcDbEntity
  8
BEZUGSACHSEN
  6
Continuous
 62
     9
100
AcDbLine
 10
9.4737583339
 20
301.3819218415
 30
0.0
 11
17.7606513538
 21
301.3819218415
 31
0.0
  0
LWPOLYLINE
  5
BF
330
1F
100
AcDbEntity
  8
DEFAULT_2
  6
DASHED
 62
     8
100
AcDbPolyline
 90
        2
 70
     0
 43
0.35
 10
258.2068054069
 20
302.3719218415
 10
200.2068054069
 20
302.3719218415
  0
LINE
  5
C0
330
1F
100
AcDbEntity
  8
BEZUGSACHSEN
  6
Continuous
 62
     7
100
AcDbLine
 10
56.3260490209
 20
324.0882460153
 30
0.0
 11
55.7068054069
 21
324.2541718415
 31
0.0
  0
LINE
  5
C1
330
1F
100
AcDbEntity
  8
RUNDUNGEN
  6
Continuous
 62
     7
100
AcDbLine
 10
201.0288840941
 20
312.8719218415
 30
0.0
 11
103.2068054069
 21
312.8719218415
 31
0.0
  0
LINE
  5
C2
330
1F
100
AcDbEntity
  8
RUNDUNGEN
  6
Continuous
 62
     7
100
AcDbLine
 10
257.2852645026
 20
308.4444486836
 30
0.0
 11
201.0288840941
 21
312.8719218415
 31
0.0
  0
LINE
  5
C3
330
1F
100
AcDbEntity
  8
0
  6
Continuous
 62
     7
100
AcDbLine
 10
201.0288840941
 20
312.8719218415
 30
0.0
 11
257.2852645026
 21
308.4444486836
 31
0.0
  0
LINE
  5
C4
330
1F
100
AcDbEntity
  8
BEZUGSACHSEN
  6
Continuous
 62
     7
100
AcDbLine
 10
55.7068054069
 20
324.2541718415
 30
0.0
 11
10.1067309221
 21
321.9696081099
 31
0.0
  0
LINE
  5
C5
330
1F
100
AcDbEntity
  8
BEZUGSACHSEN
  6
Continuous
 62
     7
100
AcDbLine
 10
57.5062341182
 20
324.0541718415
 30
0.0
 11
56.584868066
 21
324.0541718415
 31
0.0
  0
LINE
  5
C6
330
1F
100
AcDbEntity
  8
BEZUGSACHSEN
  6
Continuous
 62
     7
100
AcDbLine
 10
77.3318054069
 20
332.3719218415
 30
0.0
 11
79.0818054069
 21
332.3719218415
 31
0.0
  0
LINE
  5
C7
330
1F
100
AcDbEntity
  8
BEZUGSACHSEN
  6
Continuous
 62
     7
100
AcDbLine
 10
74.9592101427
 20
336.3719218415
 30
0.0
 11
70.2068054069
 21
336.3719218415
 31
0.0
  0
LINE
  5
C8
330
1F
100
AcDbEntity
  8
BEZUGSACHSEN
  6
Continuous
 62
     7
100
AcDbLine
 10
60.2068054069
 20
336.3719218415
 30
0.0
 11
58.2068054069
 21
336.3719218415
 31
0.0
  0
LINE
  5
C9
330
1F
100
AcDbEntity
  8
BEZUGSACHSEN
  6
Continuous
 62
     7
100
AcDbLine
 10
81.454400671
 20
336.3719218415
 30
0.0
 11
87.2068054069
 21
336.3719218415
 31
0.0
  0
LWPOLYLINE
  5
CA
330
1F
100
AcDbEntity
  8
DEFAULT_2
  6
DASHED
 62
     8
100
AcDbPolyline
 90
        2
 70
     0
 43
0.35
 10
200.2068054069
 20
302.3719218415
 10
200.2068054069
 20
270.3719218415
  0
LINE
  5
CB
330
1F
100
AcDbEntity
  8
0
  6
Continuous
 62
     7
100
AcDbLine
 10
201.0288840941
 20
312.8719218415
 30
0.0
 11
201.0288840941
 21
259.8719218415
 31
0.0
  0
LINE
  5
CC
330
1F
100
AcDbEntity
  8
RUNDUNGEN
  6
Continuous
 62
     9
100
AcDbLine
 10
257.2852645026
 20
264.2993949995
 30
0.0
 11
257.2852645026
 21
308.4444486836
 31
0.0
  0
LINE
  5
CD
330
1F
100
AcDbEntity
  8
RUNDUNGEN
  6
Continuous
 62
     7
100
AcDbLine
 10
258.2068054069
 20
265.2963123332
 30
0.0
 11
258.2068054069
 21
307.4475313499
 31
0.0
  0
LWPOLYLINE
  5
CE
330
1F
100
AcDbEntity
  8
1
  6
Continuous
 62
     7
100
AcDbPolyline
 90
        2
 70
     0
 43
0.25
 10
258.2068054069
 20
307.4475313499
 10
258.2068054069
 20
308.3719218415466
  0
LWPOLYLINE
  5
CF
330
1F
100
AcDbEntity
  8
1
  6
Continuous
 62
     7
100
AcDbPolyline
 90
        2
 70
     0
 43
0.25
 10
257.2852645026
 20
308.4444486836
 10
258.2068054068949
 20
308.3719218415466
  0
LWPOLYLINE
  5
D0
330
1F
100
AcDbEntity
  8
1
  6
Continuous
 62
     7
100
AcDbPolyline
 90
        2
 70
     0
 43
0.25
 10
257.2852645026
 20
264.2993949995
 10
258.2068054069
 20
264.3719218415487
  0
LWPOLYLINE
  5
D1
330
1F
100
AcDbEntity
  8
1
  6
Continuous
 62
     7
100
AcDbPolyline
 90
        2
 70
     0
 43
0.25
 10
258.2068054069
 20
265.2963123332
 10
258.2068054069
 20
264.3719218415487
  0
ARC
  5
D2
330
1F
100
AcDbEntity
  8
FASEN
  6
Continuous
 62
     7
100
AcDbCircle
 10
76.1074594298
 20
261.9031851116
 30
0.0
 40
19.03859487309966
100
AcDbArc
 50
227.4837701982989
 51
228.9651953374996
  0
ARC
  5
D3
330
1F
100
AcDbEntity
  8
FASEN
  6
Continuous
 62
     7
100
AcDbCircle
 10
71.1786793287
 20
246.8719218415
 30
0.0
 40
8.0
100
AcDbArc
 50
90.0
 51
172.8323734889971
  0
ARC
  5
D4
330
1F
100
AcDbEntity
  8
FASEN
  6
Continuous
 62
     7
100
AcDbCircle
 10
71.1786793287
 20
246.8719218415
 30
0.0
 40
7.59998219489998
100
AcDbArc
 50
90.0
 51
174.9405171273017
  0
ARC
  5
D5
330
1F
100
AcDbEntity
  8
BEZUGSACHSEN
  6
Continuous
 62
     7
100
AcDbCircle
 10
16.2068054069
 20
278.3619218415
 30
0.0
 40
2.0
100
AcDbArc
 50
270.0
 51
359.9999999999137
  0
ARC
  5
D6
330
1F
100
AcDbEntity
  8
BEZUGSACHSEN
  6
Continuous
 62
     7
100
AcDbCircle
 10
10.2068054069
 20
252.7717302785
 30
0.0
 40
2.0
100
AcDbArc
 50
179.9999999971356
 51
267.1318795108407
  0
ARC
  5
D7
330
1F
100
AcDbEntity
  8
BEZUGSACHSEN
  6
Continuous
 62
     7
100
AcDbCircle
 10
77.3318054069
 20
239.3719218415
 30
0.0
 40
1.0
100
AcDbArc
 50
90.0
 51
180.0
  0
ARC
  5
D8
330
1F
100
AcDbEntity
  8
BEZUGSACHSEN
  6
Continuous
 62
     7
100
AcDbCircle
 10
56.584868066
 20
247.6896718415
 30
0.0
 40
1.0
100
AcDbArc
 50
90.0
 51
104.9999999996981
  0
ARC
  5
D9
330
1F
100
AcDbEntity
  8
BEZUGSACHSEN
  6
Continuous
 62
     7
100
AcDbCircle
 10
57.5062341182
 20
247.6896718415
 30
0.0
 40
0.9999999999998127
100
AcDbArc
 50
45.49026120128689
 51
90.0
  0
ARC
  5
DA
330
1F
100
AcDbEntity
  8
0
  6
Continuous
 62
     7
100
AcDbCircle
 10
-166.3909744758
 20
355.806389432
 30
0.0
 40
264.5204223904126
100
AcDbArc
 50
335.840076470597
 51
336.5770705491
  0
ARC
  5
DB
330
1F
100
AcDbEntity
  8
BEZUGSACHSEN
  6
Continuous
 62
     7
100
AcDbCircle
 10
65.222013418
 20
386.4246916084
 30
0.0
 40
50.30340021045197
100
AcDbArc
 50
264.2781515102013
 51
269.9826780125999
  0
ARC
  5
DC
330
1F
100
AcDbEntity
  8
BEZUGSACHSEN
  6
Continuous
 62
     7
100
AcDbCircle
 10
65.1915974058
 20
386.4246914077
 30
0.0
 40
50.30340000969736
100
AcDbArc
 50
270.017321976058
 51
275.7218485012565
  0
ARC
  5
DD
330
1F
100
AcDbEntity
  8
0
  6
Continuous
 62
     7
100
AcDbCircle
 10
73.2068054069
 20
286.3719218415
 30
0.0
 40
10.0
100
AcDbArc
 50
90.0
 51
270.0
  0
ARC
  5
DE
330
1F
100
AcDbEntity
  8
FASEN
  6
Continuous
 62
     7
100
AcDbCircle
 10
73.2068054069
 20
286.3719218415
 30
0.0
 40
9.599999195900011
100
AcDbArc
 50
90.0
 51
270.0
  0
ARC
  5
DF
330
1F
100
AcDbEntity
  8
BEZUGSACHSEN
  6
Continuous
 62
     7
100
AcDbCircle
 10
16.2068054069
 20
294.3819218415
 30
0.0
 40
2.0
100
AcDbArc
 50
0.0
 51
90.0
  0
ARC
  5
E0
330
1F
100
AcDbEntity
  8
BEZUGSACHSEN
  6
Continuous
 62
     7
100
AcDbCircle
 10
10.2068054069
 20
319.9721134046
 30
0.0
 40
2.000000000052351
100
AcDbArc
 50
92.86812048915935
 51
180.0000000143238
  0
ARC
  5
E1
330
1F
100
AcDbEntity
  8
BEZUGSACHSEN
  6
Continuous
 62
     7
100
AcDbCircle
 10
77.3318054069
 20
333.3719218415
 30
0.0
 40
1.0
100
AcDbArc
 50
180.0
 51
270.0
  0
ARC
  5
E2
330
1F
100
AcDbEntity
  8
BEZUGSACHSEN
  6
Continuous
 62
     7
100
AcDbCircle
 10
56.584868066
 20
325.0541718415
 30
0.0
 40
0.9999999999133335
100
AcDbArc
 50
254.9999999988192
 51
270.0
  0
ARC
  5
E3
330
1F
100
AcDbEntity
  8
BEZUGSACHSEN
  6
Continuous
 62
     7
100
AcDbCircle
 10
57.5062341182
 20
325.0541718415
 30
0.0
 40
1.0
100
AcDbArc
 50
270.0
 51
314.5097387987131
  0
ARC
  5
E4
330
1F
100
AcDbEntity
  8
BEZUGSACHSEN
  6
Continuous
 62
     7
100
AcDbCircle
 10
194.5368520051
 20
-1319.6708374484
 30
0.0
 40
1632.172763697999
100
AcDbArc
 50
96.2726189838
 51
96.48809068979999
  0
ARC
  5
E5
330
1F
100
AcDbEntity
  8
RUNDUNGEN
  6
Continuous
 62
     7
100
AcDbCircle
 10
103.2068054069
 20
243.8719218415
 30
0.0
 40
16.0
100
AcDbArc
 50
90.0
 51
180.0
  0
ARC
  5
E6
330
1F
100
AcDbEntity
  8
RUNDUNGEN
  6
Continuous
 62
     7
100
AcDbCircle
 10
257.2068054069
 20
265.2963123332
 30
0.0
 40
0.9999999999647582
100
AcDbArc
 50
274.4999999985585
 51
0.0
  0
ARC
  5
E7
330
1F
100
AcDbEntity
  8
BEZUGSACHSEN
  6
Continuous
 62
     7
100
AcDbCircle
 10
79.0818054069
 20
239.3719218415
 30
0.0
 40
1.0
100
AcDbArc
 50
0.0
 51
90.0
  0
ARC
  5
E8
330
1F
100
AcDbEntity
  8
BEZUGSACHSEN
  6
Continuous
 62
     7
100
AcDbCircle
 10
194.5368520103
 20
1892.4146811787
 30
0.0
 40
1632.1727637455
100
AcDbArc
 50
263.5119093102
 51
263.7273810162
  0
ARC
  5
E9
330
1F
100
AcDbEntity
  8
0
  6
Continuous
 62
     7
100
AcDbCircle
 10
322.80458529
 20
355.8063894322
 30
0.0
 40
264.5204223909002
100
AcDbArc
 50
203.4229294509001
 51
204.1599235293982
  0
ARC
  5
EA
330
1F
100
AcDbEntity
  8
RUNDUNGEN
  6
Continuous
 62
     7
100
AcDbCircle
 10
103.2068054069
 20
328.8719218415
 30
0.0
 40
16.0
100
AcDbArc
 50
180.0
 51
270.0
  0
ARC
  5
EB
330
1F
100
AcDbEntity
  8
BEZUGSACHSEN
  6
Continuous
 62
     7
100
AcDbCircle
 10
79.0818054069
 20
333.3719218415
 30
0.0
 40
1.0
100
AcDbArc
 50
270.0
 51
0.0
  0
ARC
  5
EC
330
1F
100
AcDbEntity
  8
RUNDUNGEN
  6
Continuous
 62
     7
100
AcDbCircle
 10
257.2068054069
 20
307.4475313499
 30
0.0
 40
1.0
100
AcDbArc
 50
0.0
 51
85.50000000144182
  0
CIRCLE
  5
ED
330
1F
100
AcDbEntity
  8
BEZUGSACHSEN
  6
Continuous
 62
     7
100
AcDbCircle
 10
43.2068054069
 20
286.3719218415
 30
0.0
 40
6.0
  0
SPLINE
  5
EE
330
1F
100
AcDbEntity
  8
BEZUGSACHSEN
  6
Continuous
 62
     7
100
AcDbSpline
210
0.0
220
0.0
230
1.0
 70
     8
 71
     3
 72
    19
 73
    15
 74
    13
 42
0.0000000001
 43
0.0000000001
 44
0.00000001
 40
0.0
 40
0.0
 40
0.0
 40
0.0
 40
0.1462385987725593
 40
0.2927479274617596
 40
0.436479070569322
 40
0.5801659235669265
 40
0.7203799971999754
 40
0.8606059381930062
 40
0.9980411883273714
 40
1.135484020375766
 40
1.40541563103577
 40
1.675815514023697
 40
1.943997429454848
 40
2.211934834785523
 40
2.211934834785523
 40
2.211934834785523
 40
2.211934834785523
 10
16.2068054069
 20
302.730569429
 30
0.0
 10
16.25552021223803
 20
302.7338775063109
 30
0.0
 10
16.35304000809979
 20
302.7404997851401
 30
0.0
 10
16.49837626839387
 20
302.7241404723899
 30
0.0
 10
16.63903320549737
 20
302.6889687063197
 30
0.0
 10
16.77188533893236
 20
302.6361630197034
 30
0.0
 10
16.89633980200141
 20
302.5684912319928
 30
0.0
 10
17.01114235918369
 20
302.4891910306196
 30
0.0
 10
17.11725229697341
 20
302.400106391043
 30
0.0
 10
17.24635476215545
 20
302.2721588554718
 30
0.0
 10
17.38939461205323
 20
302.096356566566
 30
0.0
 10
17.53430221373977
 20
301.8686711006788
 30
0.0
 10
17.65893896214076
 20
301.6300084811547
 30
0.0
 10
17.72675753334333
 20
301.4645922407009
 30
0.0
 10
17.7606513538
 20
301.3819218415
 30
0.0
 11
16.2068054069
 21
302.730569429
 31
0.0
 11
16.3529392687169
 21
302.7361031620474
 31
0.0
 11
16.49864862954854
 21
302.7208137683709
 31
0.0
 11
16.6380787110743
 21
302.6859154322397
 31
0.0
 11
16.77171104798507
 21
302.6331109792445
 31
0.0
 11
16.89502483880405
 21
302.5663749661884
 31
0.0
 11
17.01055595014306
 21
302.4869024750977
 31
0.0
 11
17.11596849993163
 21
302.3987172023672
 31
0.0
 11
17.21375700362783
 21
302.3021359380022
 31
0.0
 11
17.38500539951453
 21
302.0934805730107
 31
0.0
 11
17.53134782002715
 21
301.8661042490928
 31
0.0
 11
17.65521544579963
 21
301.6282422070394
 31
0.0
 11
17.7606513538
 21
301.3819218415
 31
0.0
  0
SPLINE
  5
EF
330
1F
100
AcDbEntity
  8
BEZUGSACHSEN
  6
Continuous
 62
     7
100
AcDbSpline
210
0.0
220
0.0
230
1.0
 70
     8
 71
     3
 72
    11
 73
     7
 74
     5
 42
0.0000000001
 43
0.0000000001
 44
0.00000001
 40
0.0
 40
0.0
 40
0.0
 40
0.0
 40
0.5521269407070051
 40
1.105196183368503
 40
1.651906304781417
 40
2.19819704880953
 40
2.19819704880953
 40
2.19819704880953
 40
2.19819704880953
 10
18.2068054069
 20
273.5022663158
 30
0.0
 10
18.20021996927193
 20
273.318131125388
 30
0.0
 10
18.1870378548056
 20
272.9495464854018
 30
0.0
 10
18.08954949098831
 20
272.4061220806898
 30
0.0
 10
17.94991217790082
 20
271.8748479511602
 30
0.0
 10
17.82372215573431
 20
271.5328534710277
 30
0.0
 10
17.7606513538
 20
271.3619218415
 30
0.0
 11
18.2068054069
 21
273.5022663158
 31
0.0
 11
18.17406082447004
 21
272.9511112097038
 31
0.0
 11
18.08199417150456
 21
272.4057587378198
 31
0.0
 11
17.9415026866369
 21
271.8774083810158
 31
0.0
 11
17.7606513538
 21
271.3619218415
 31
0.0
  0
SPLINE
  5
F0
330
1F
100
AcDbEntity
  8
BEZUGSACHSEN
  6
Continuous
 62
     7
100
AcDbSpline
210
0.0
220
0.0
230
1.0
 70
     8
 71
     3
 72
    19
 73
    15
 74
    13
 42
0.0000000001
 43
0.0000000001
 44
0.00000001
 40
0.0
 40
0.0
 40
0.0
 40
0.0
 40
0.2679411643354427
 40
0.5361267936931007
 40
0.8065304773716909
 40
1.076465993222735
 40
1.213913376120642
 40
1.351353104837359
 40
1.491586367023271
 40
1.631807897522336
 40
1.775491562733968
 40
1.919219204712352
 40
2.065713007344663
 40
2.211936409268319
 40
2.211936409268319
 40
2.211936409268319
 40
2.211936409268319
 10
17.7606513538
 20
271.3619218415
 30
0.0
 10
17.72675711000091
 20
271.2792502617962
 30
0.0
 10
17.65893769786345
 20
271.1138316742262
 30
0.0
 10
17.5342991915744
 20
270.8751657005581
 30
0.0
 10
17.38938839223793
 20
270.6474777045549
 30
0.0
 10
17.24634476071585
 20
270.4716732132471
 30
0.0
 10
17.11723837381205
 20
270.343723494137
 30
0.0
 10
17.01112327474852
 20
270.254636473334
 30
0.0
 10
16.89631384711003
 20
270.1753348329955
 30
0.0
 10
16.77185423488014
 20
270.1076643655431
 30
0.0
 10
16.63900067973512
 20
270.0548616788811
 30
0.0
 10
16.49834988085809
 20
270.0196954149145
 30
0.0
 10
16.35302449777156
 20
270.0033432129837
 30
0.0
 10
16.25551507872759
 20
270.0099659463352
 30
0.0
 10
16.2068054069
 20
270.0132742541
 30
0.0
 11
17.7606513538
 21
271.3619218415
 31
0.0
 11
17.65521409408106
 21
271.1155979656609
 31
0.0
 11
17.53134457850444
 21
270.8777327203964
 31
0.0
 11
17.38499909219116
 21
270.6503538498242
 31
0.0
 11
17.21374690106266
 21
270.441696547648
 31
0.0
 11
17.11595446238335
 21
270.345112791236
 31
0.0
 11
17.01053747312865
 21
270.2569258454549
 31
0.0
 11
16.89499882941523
 21
270.1774513864623
 31
0.0
 11
16.77167681952186
 21
270.1107148935116
 31
0.0
 11
16.63804613132201
 21
270.0579149425658
 31
0.0
 11
16.49861843011423
 21
270.0230215161852
 31
0.0
 11
16.35292399159605
 21
270.0077386893999
 31
0.0
 11
16.2068054069
 21
270.0132742541
 31
0.0
  0
SPLINE
  5
F1
330
1F
100
AcDbEntity
  8
BEZUGSACHSEN
  6
Continuous
 62
     7
100
AcDbSpline
210
0.0
220
0.0
230
1.0
 70
     8
 71
     3
 72
    15
 73
    11
 74
     9
 42
0.0000000001
 43
0.0000000001
 44
0.00000001
 40
0.0
 40
0.0
 40
0.0
 40
0.0
 40
0.111094483135271
 40
0.2222295181604983
 40
0.3333620402237432
 40
0.4444752610525149
 40
0.5555842178312916
 40
0.6667300354115138
 40
0.7779450182000269
 40
0.8889820871512288
 40
0.8889820871512288
 40
0.8889820871512288
 40
0.8889820871512288
 10
9.3526480824
 20
301.614257837
 30
0.0
 10
9.378033441977337
 20
301.641234202675
 30
0.0
 10
9.428813427337486
 20
301.695196780982
 30
0.0
 10
9.51106619660155
 20
301.770078744386
 30
0.0
 10
9.598062848549255
 20
301.8393654533156
 30
0.0
 10
9.690367688967841
 20
301.9014606164117
 30
0.0
 10
9.787817710950986
 20
301.9552401085232
 30
0.0
 10
9.890230624824316
 20
301.9988303540982
 30
0.0
 10
9.996747123394671
 20
302.0318489099297
 30
0.0
 10
10.07008922610031
 20
302.0429220765509
 30
0.0
 10
10.1067309221
 20
302.0484542278
 30
0.0
 11
9.3526480824
 21
301.614257837
 31
0.0
 11
9.4298168595144
 21
301.6941763206053
 31
0.0
 11
9.511856759778277
 21
301.7691459863025
 31
0.0
 11
9.598953908389346
 21
301.8381715189984
 31
0.0
 11
9.691225729961921
 21
301.9000751439862
 31
0.0
 11
9.788628638027173
 21
301.9535342290597
 31
0.0
 11
9.890896861416003
 21
301.9970612695112
 31
0.0
 11
9.997388729540459
 21
302.0291276759206
 31
0.0
 11
10.1067309221
 21
302.0484542278
 31
0.0
  0
SPLINE
  5
F2
330
1F
100
AcDbEntity
  8
BEZUGSACHSEN
  6
Continuous
 62
     7
100
AcDbSpline
210
0.0
220
0.0
230
1.0
 70
     8
 71
     3
 72
    27
 73
    23
 74
    21
 42
0.0000000001
 43
0.0000000001
 44
0.00000001
 40
0.0
 40
0.0
 40
0.0
 40
0.0
 40
0.1260969825524775
 40
0.2522464959194137
 40
0.3668867952504056
 40
0.4815825893953759
 40
0.5839596006874495
 40
0.6859489161357529
 40
0.7334568410427639
 40
0.7809568848815093
 40
0.8274002264431581
 40
0.8738421607341681
 40
0.9204907319212121
 40
0.9671431399561017
 40
1.015111401852845
 40
1.063087497173064
 40
1.165500418774536
 40
1.268190478980811
 40
1.380949153910111
 40
1.493646517782444
 40
1.615655563734809
 40
1.737631867583545
 40
1.737631867583545
 40
1.737631867583545
 40
1.737631867583545
 10
8.2068054069
 20
301.0061543277
 30
0.0
 10
8.207533948376275
 20
301.048197255761
 30
0.0
 10
8.208991334832344
 20
301.1323006265705
 30
0.0
 10
8.222435896780794
 20
301.254047954133
 30
0.0
 10
8.245391330066326
 20
301.3704656705113
 30
0.0
 10
8.279357230401917
 20
301.4760411283045
 30
0.0
 10
8.325582989249432
 20
301.5721991905672
 30
0.0
 10
8.374126157800774
 20
301.6413685562378
 30
0.0
 10
8.419565483371855
 20
301.6889060378338
 30
0.0
 10
8.455471561467984
 20
301.7196013213043
 30
0.0
 10
8.494118992553076
 20
301.7461363570391
 30
0.0
 10
8.535073479752908
 20
301.7683647029688
 30
0.0
 10
8.578213105931136
 20
301.7861579198605
 30
0.0
 10
8.62339374054654
 20
301.7996913269222
 30
0.0
 10
8.670100963536171
 20
301.808888452256
 30
0.0
 10
8.73592495474051
 20
301.8158437726307
 30
0.0
 10
8.82065270674013
 20
301.813978515965
 30
0.0
 10
8.925484310224839
 20
301.7970638549781
 30
0.0
 10
9.031063552567247
 20
301.7676492221045
 30
0.0
 10
9.139221490658741
 20
301.7258975846561
 30
0.0
 10
9.246873751923747
 20
301.6751017575371
 30
0.0
 10
9.317393126737588
 20
301.6345373293042
 30
0.0
 10
9.3526480824
 20
301.614257837
 30
0.0
 11
8.2068054069
 21
301.0061543277
 31
0.0
 11
8.210936766464641
 21
301.132183613491
 31
0.0
 11
8.224703525585657
 21
301.2575796902479
 31
0.0
 11
8.247555101667798
 21
301.3699193702424
 31
0.0
 11
8.28319329103866
 21
301.4789379221173
 31
0.0
 11
8.3280930558388
 21
301.570943702164
 31
0.0
 11
8.387265484792943
 21
301.654012614022
 31
0.0
 11
8.42011798495447
 21
301.6883304834504
 31
0.0
 11
8.456255079881283
 21
301.7191584664356
 31
0.0
 11
8.494542344742719
 21
301.7454466638794
 31
0.0
 11
8.535364952679986
 21
301.7675909169011
 31
0.0
 11
8.578471096298037
 21
301.7854220575313
 31
0.0
 11
8.623150668342376
 21
301.7988452843188
 31
0.0
 11
8.670201474097512
 21
301.8081820839411
 31
0.0
 11
8.717905361371587
 21
301.8132855005532
 31
0.0
 11
8.820305002229325
 21
301.8116362391563
 31
0.0
 11
8.92176925253003
 21
301.7958168088226
 31
0.0
 11
9.030492968967218
 21
301.7659224572508
 31
0.0
 11
9.13581096126172
 21
301.7258124046102
 31
0.0
 11
9.24610364716712
 21
301.673642195391
 31
0.0
 11
9.3526480824
 21
301.614257837
 31
0.0
  0
SPLINE
  5
F3
330
1F
100
AcDbEntity
  8
BEZUGSACHSEN
  6
Continuous
 62
     7
100
AcDbSpline
210
0.0
220
0.0
230
1.0
 70
     8
 71
     3
 72
    47
 73
    43
 74
    41
 42
0.0000000001
 43
0.0000000001
 44
0.00000001
 40
0.0
 40
0.0
 40
0.0
 40
0.0
 40
0.6366022431794462
 40
1.273595002170199
 40
1.592921746393709
 40
1.912076344872784
 40
2.231392290399006
 40
2.550826842702712
 40
3.189774321146465
 40
3.8290816970077
 40
4.468337152520392
 40
5.107221744778916
 40
5.426176341264696
 40
5.745033356803731
 40
6.063356731566821
 40
6.381780214863441
 40
7.017059195641568
 40
7.65263934095595
 40
8.287532214195574
 40
8.922347946457512
 40
9.559226748541855
 40
10.1961343593406
 40
10.83451785500306
 40
11.47287689971357
 40
12.11234487363444
 40
12.75189588947699
 40
13.39354300519013
 40
14.03487957353971
 40
14.35615205769381
 40
14.67732107709854
 40
14.99840882471594
 40
15.31959604122224
 40
15.96011121027322
 40
16.6009959208689
 40
17.23809108075317
 40
17.87482555198942
 40
18.19205670332918
 40
18.50917199101604
 40
18.82571084630624
 40
19.14241581829998
 40
19.77338974998926
 40
20.40398930737662
 40
20.40398930737662
 40
20.40398930737662
 40
20.40398930737662
 10
36.7073898126
 20
286.3719218221
 30
0.0
 10
36.7133954564608
 20
286.5842016317958
 30
0.0
 10
36.72541042827072
 20
287.0088914716243
 30
0.0
 10
36.80667577352516
 20
287.5350342327323
 30
0.0
 10
36.89939537009448
 20
287.9500086088597
 30
0.0
 10
36.98468833421164
 20
288.2578325845525
 30
0.0
 10
37.08492694764239
 20
288.5611252613282
 30
0.0
 10
37.23841249680513
 20
288.9585626238672
 30
0.0
 10
37.46688444360971
 20
289.440662200751
 30
0.0
 10
37.79649940418155
 20
289.9894780735976
 30
0.0
 10
38.178726621249
 20
290.5030136129675
 30
0.0
 10
38.53758131835151
 20
290.8975163750631
 30
0.0
 10
38.84653467190748
 20
291.1903896731056
 30
0.0
 10
39.08842978088001
 20
291.3981114942093
 30
0.0
 10
39.34007303436891
 20
291.5936208913164
 30
0.0
 10
39.68736714153246
 20
291.837116093954
 30
0.0
 10
40.1431074762922
 20
292.1089981639763
 30
0.0
 10
40.71858690097672
 20
292.3803272764894
 30
0.0
 10
41.31769766613889
 20
292.5941109073032
 30
0.0
 10
41.93514806860173
 20
292.748800638675
 30
0.0
 10
42.56541863030117
 20
292.8426076223265
 30
0.0
 10
43.20301256503157
 20
292.8747343471323
 30
0.0
 10
43.84119120926424
 20
292.844304774183
 30
0.0
 10
44.47420363045804
 20
292.7516335190186
 30
0.0
 10
45.09543731489505
 20
292.5971415577912
 30
0.0
 10
45.69957306687254
 20
292.3821044252669
 30
0.0
 10
46.28005214045753
 20
292.1081810595801
 30
0.0
 10
46.73968116468795
 20
291.8330141815508
 30
0.0
 10
47.08958015335072
 20
291.5864044826999
 30
0.0
 10
47.34271178250068
 20
291.3885002903187
 30
0.0
 10
47.58571042185046
 20
291.1783217608922
 30
0.0
 10
47.89495476534455
 20
290.882802420713
 30
0.0
 10
48.25327495614245
 20
290.4853314379615
 30
0.0
 10
48.63322537448337
 20
289.9696646764354
 30
0.0
 10
48.95969840405481
 20
289.4200685199696
 30
0.0
 10
49.18506954403369
 20
288.9389629782637
 30
0.0
 10
49.3361605272257
 20
288.5429727906483
 30
0.0
 10
49.43457344480314
 20
288.2415464398546
 30
0.0
 10
49.51824022298265
 20
287.9358510719147
 30
0.0
 10
49.609059580413
 20
287.5242990541736
 30
0.0
 10
49.68857455601767
 20
287.0028738376589
 30
0.0
 10
49.70034684068843
 20
286.5821975485268
 30
0.0
 10
49.7062312363
 20
286.3719218222
 30
0.0
 11
36.7073898126
 21
286.3719218221
 31
0.0
 11
36.73863848358423
 21
287.0077566564578
 31
0.0
 11
36.83207968596901
 21
287.6378586455862
 31
0.0
 11
36.90202019298454
 21
287.9494319035124
 31
0.0
 11
36.98716153193651
 21
288.2570202812705
 31
0.0
 11
37.08738607006433
 21
288.5601996259237
 31
0.0
 11
37.20246595982066
 21
288.8581846124233
 31
0.0
 11
37.47606185409664
 21
289.4355918922916
 31
0.0
 11
37.80528136779644
 21
289.9836141843837
 31
0.0
 11
38.18690562312214
 21
290.4964596437082
 31
0.0
 11
38.61684025921928
 21
290.9690373948872
 31
0.0
 11
38.84831252027459
 21
291.1884744632721
 31
0.0
 11
39.09021492130103
 21
291.3962075245216
 31
0.0
 11
39.34158872845552
 21
291.591504682712
 31
0.0
 11
39.60231800674744
 21
291.774298988302
 31
0.0
 11
40.14785165095726
 21
292.0998330517326
 31
0.0
 11
40.72276147107598
 21
292.3708327193503
 31
0.0
 11
41.32070765882285
 21
292.5842555790665
 31
0.0
 11
41.93650019104633
 21
292.7384975032799
 31
0.0
 11
42.56643247302398
 21
292.8323054382685
 31
0.0
 11
43.20253559476164
 21
292.8643073633507
 31
0.0
 11
43.84019655378037
 21
292.8339430935991
 31
0.0
 11
44.47181408669093
 21
292.7414143840886
 31
0.0
 11
45.09238695881583
 21
292.5871140274684
 31
0.0
 11
45.69488776596963
 21
292.3725953120978
 31
0.0
 11
46.27519496235078
 21
292.098816973051
 31
0.0
 11
46.8254199503988
 21
291.7693248541316
 31
0.0
 11
47.08802725454626
 21
291.5842480784872
 31
0.0
 11
47.34104771193812
 21
291.3864345623498
 31
0.0
 11
47.58389601330242
 21
291.1763820827299
 31
0.0
 11
47.81609844870946
 21
290.9544738651306
 31
0.0
 11
48.24501450644119
 21
290.4787736473418
 31
0.0
 11
48.62512516509664
 21
289.9627803339628
 31
0.0
 11
48.95056431078685
 21
289.4150763945938
 31
0.0
 11
49.2206451689117
 21
288.8384594360025
 31
0.0
 11
49.33373561411873
 21
288.5420709163476
 31
0.0
 11
49.43217971748255
 21
288.2406229702647
 31
0.0
 11
49.51566252286767
 21
287.9352912357308
 31
0.0
 11
49.58421194630349
 21
287.6260938621453
 31
0.0
 11
49.67563902418777
 21
287.0017788840285
 31
0.0
 11
49.7062312363
 21
286.3719218222
 31
0.0
  0
SPLINE
  5
F4
330
1F
100
AcDbEntity
  8
BEZUGSACHSEN
  6
Continuous
 62
     7
100
AcDbSpline
210
0.0
220
0.0
230
1.0
 70
     8
 71
     3
 72
    47
 73
    43
 74
    41
 42
0.0000000001
 43
0.0000000001
 44
0.00000001
 40
0.0
 40
0.0
 40
0.0
 40
0.0
 40
0.6302393214806752
 40
1.260854867359819
 40
1.577476088434158
 40
1.893930800251787
 40
2.210999113892187
 40
2.528183472232521
 40
3.164887038287333
 40
3.801951183445398
 40
4.442851001662399
 40
5.08338125982073
 40
5.40452729233932
 40
5.725573838781428
 40
6.046670710052162
 40
6.367871027174189
 40
7.009090242556169
 40
7.650619763955921
 40
8.290330346487625
 40
8.929958764478343
 40
9.568647011364881
 40
10.20735923016786
 40
10.84445705818553
 40
11.48152626497132
 40
12.11643462222948
 40
12.75141965579079
 40
13.38691908736128
 40
14.02211738529129
 40
14.3405044914153
 40
14.6587915379176
 40
14.97761586869879
 40
15.29653774947974
 40
15.93537694105096
 40
16.57458694070996
 40
17.21386274996599
 40
17.85277859079989
 40
18.17219860087305
 40
18.49150024079267
 40
18.81067156636545
 40
19.13001452421256
 40
19.76719627024269
 40
20.40398968283129
 40
20.40398968283129
 40
20.40398968283129
 40
20.40398968283129
 10
49.7062190447
 20
286.3719218603
 30
0.0
 10
49.70034984292958
 20
286.1617658384046
 30
0.0
 10
49.68860793574049
 20
285.7413283409643
 30
0.0
 10
49.60916119323038
 20
285.2201648986929
 30
0.0
 10
49.51842968813333
 20
284.8087734312725
 30
0.0
 10
49.4348243058117
 20
284.5031355909903
 30
0.0
 10
49.33647236443587
 20
284.2017517448051
 30
0.0
 10
49.18545355358017
 20
283.8057785652071
 30
0.0
 10
48.96017096597828
 20
283.3246717565149
 30
0.0
 10
48.63379293123435
 20
282.7750375315043
 30
0.0
 10
48.25392586920238
 20
282.2593096688381
 30
0.0
 10
47.89567142992381
 20
281.8617842666346
 30
0.0
 10
47.58649069225781
 20
281.5662309116994
 30
0.0
 10
47.34356573622826
 20
281.3560460032659
 30
0.0
 10
47.09051683290167
 20
281.1581365389505
 30
0.0
 10
46.74073432443776
 20
280.9115131874914
 30
0.0
 10
46.28124908668545
 20
280.6363065782181
 30
0.0
 10
45.70085337972938
 20
280.3622664715059
 30
0.0
 10
45.09669907189958
 20
280.1470779941492
 30
0.0
 10
44.47528392449392
 20
279.9924161551087
 30
0.0
 10
43.84201471305127
 20
279.8996057820774
 30
0.0
 10
43.20355524861019
 20
279.8690950322693
 30
0.0
 10
42.5657222350553
 20
279.9011967746511
 30
0.0
 10
41.93529224806232
 20
279.9950098370275
 30
0.0
 10
41.31771857856738
 20
280.1497236533162
 30
0.0
 10
40.71857516713764
 20
280.3635202253729
 30
0.0
 10
40.14311794566646
 20
280.6348415937863
 30
0.0
 10
39.68743255270673
 20
280.9066864774049
 30
0.0
 10
39.34017665495671
 20
281.1501470299895
 30
0.0
 10
39.08855707365116
 20
281.3456295563196
 30
0.0
 10
38.84668202338011
 20
281.5533226150339
 30
0.0
 10
38.53774573970434
 20
281.8461601631918
 30
0.0
 10
38.17890298280983
 20
282.2406178121363
 30
0.0
 10
37.79667607755892
 20
282.7541024780932
 30
0.0
 10
37.46705163230723
 20
283.3028702568224
 30
0.0
 10
37.23856418638807
 20
283.7849336733167
 30
0.0
 10
37.08506268642115
 20
284.1823432324748
 30
0.0
 10
36.98480588350481
 20
284.4856255957465
 30
0.0
 10
36.89948939060818
 20
284.7934494674406
 30
0.0
 10
36.80672693527988
 20
285.2084903345474
 30
0.0
 10
36.72543456835169
 20
285.7347631336346
 30
0.0
 10
36.71339476879228
 20
286.1595787833508
 30
0.0
 10
36.707376704
 20
286.371921862
 30
0.0
 11
49.7062190447
 21
286.3719218603
 31
0.0
 11
49.67567946592318
 21
285.7424229036142
 31
0.0
 11
49.5843481904076
 21
285.1184561057658
 31
0.0
 11
49.51585345170217
 21
284.809332395248
 31
0.0
 11
49.43243462684124
 21
284.5040704023789
 31
0.0
 11
49.33404788299119
 21
284.2026531431695
 31
0.0
 11
49.22101725188708
 21
283.9062918879285
 31
0.0
 11
48.95103711537474
 21
283.3296618879149
 31
0.0
 11
48.62570049352139
 21
282.7819331160515
 31
0.0
 11
48.24566399872943
 21
282.2658664153075
 31
0.0
 11
47.81681350106872
 21
281.790086779055
 31
0.0
 11
47.5846763666987
 21
281.5681698462876
 31
0.0
 11
47.34189387336236
 21
281.3581042710217
 31
0.0
 11
47.08896426506403
 21
281.1602916981505
 31
0.0
 11
46.82644986922968
 21
280.9752083771866
 31
0.0
 11
46.27639168763087
 21
280.6456661507098
 31
0.0
 11
45.69625085597988
 21
280.37181081978
 31
0.0
 11
45.09364554568833
 21
280.1571099361966
 31
0.0
 11
44.47294627536704
 21
280.0026530524914
 31
0.0
 11
43.84101746144465
 21
279.909978078277
 31
0.0
 11
43.20303133426347
 21
279.8795314040319
 31
0.0
 11
42.5667363461386
 21
279.9115053082664
 31
0.0
 11
41.93661307203093
 21
280.0053233964078
 31
0.0
 11
41.32072916378948
 21
280.1595817306575
 31
0.0
 11
40.72269669397051
 21
280.3730370137711
 31
0.0
 11
40.1478609454238
 21
280.64400452053
 31
0.0
 11
39.60239425788242
 21
280.9694933382731
 31
0.0
 11
39.34169196510551
 21
281.1522627664795
 31
0.0
 11
39.09034271329718
 21
281.3475323175789
 31
0.0
 11
38.84845941494762
 21
281.5552374544379
 31
0.0
 11
38.61700358364742
 21
281.7746443007258
 31
0.0
 11
38.1870805527672
 21
282.2471712313933
 31
0.0
 11
37.8054594133094
 21
282.7599623483045
 31
0.0
 11
37.47622793913036
 21
283.3079406295437
 31
0.0
 11
37.20261363198632
 21
283.8853041741103
 31
0.0
 11
37.08752137952793
 21
284.1832687966063
 31
0.0
 11
36.987281691112
 21
284.4864280651792
 31
0.0
 11
36.90211461091893
 21
284.7940266729772
 31
0.0
 11
36.83215158346415
 21
285.105611492113
 31
0.0
 11
36.73866268650025
 21
285.7358974618272
 31
0.0
 11
36.707376704
 21
286.371921862
 31
0.0
  0
SPLINE
  5
F5
330
1F
100
AcDbEntity
  8
BEZUGSACHSEN
  6
Continuous
 62
     7
100
AcDbSpline
210
0.0
220
0.0
230
1.0
 70
     8
 71
     3
 72
    27
 73
    23
 74
    21
 42
0.0000000001
 43
0.0000000001
 44
0.00000001
 40
0.0
 40
0.0
 40
0.0
 40
0.0
 40
0.1219765139516433
 40
0.2439857714748842
 40
0.356683139830726
 40
0.469441814941378
 40
0.5721317672355591
 40
0.674544588023927
 40
0.7225206520226994
 40
0.7704888796687748
 40
0.8171412935111211
 40
0.8637898733588285
 40
0.9102318000492703
 40
0.9566751324003477
 40
1.004175175728363
 40
1.051683100100236
 40
1.153672388675725
 40
1.256049376593642
 40
1.370745138004991
 40
1.48538540178591
 40
1.611534903830645
 40
1.737631875962067
 40
1.737631875962067
 40
1.737631875962067
 40
1.737631875962067
 10
9.3526480824
 20
271.1295858461
 30
0.0
 10
9.317393064796615
 20
271.1093063208351
 30
0.0
 10
9.246873565676209
 20
271.0687418264368
 30
0.0
 10
9.139221162491118
 20
271.0179459655457
 30
0.0
 10
9.031063146626696
 20
270.9761943296791
 30
0.0
 10
8.925483925679126
 20
270.9467797445374
 30
0.0
 10
8.820652380564098
 20
270.929865157146
 30
0.0
 10
8.735924710743209
 20
270.9279999338971
 30
0.0
 10
8.670100774349482
 20
270.9349552418744
 30
0.0
 10
8.623393571132251
 20
270.9441523690145
 30
0.0
 10
8.578212953825302
 20
270.9576858140323
 30
0.0
 10
8.535073343164797
 20
270.975479072875
 30
0.0
 10
8.494118866560795
 20
270.997707430585
 30
0.0
 10
8.455471440066534
 20
271.0242424622814
 30
0.0
 10
8.419565361440249
 20
271.054937739817
 30
0.0
 10
8.37412603993816
 20
271.1024752129378
 30
0.0
 10
8.325582899871915
 20
271.1716445800128
 30
0.0
 10
8.279357190891684
 20
271.2678026346981
 30
0.0
 10
8.245391317078077
 20
271.373378067671
 30
0.0
 10
8.222435892877229
 20
271.4897957585768
 30
0.0
 10
8.208991334572104
 20
271.6115430672701
 30
0.0
 10
8.207533948291267
 20
271.695646430819
 30
0.0
 10
8.2068054069
 20
271.7376893554
 30
0.0
 11
9.3526480824
 21
271.1295858461
 31
0.0
 11
9.246103458339457
 21
271.0702013949398
 31
0.0
 11
9.135810569170788
 21
271.0180311206431
 31
0.0
 11
9.030492561321159
 21
270.9779210962487
 31
0.0
 11
8.921768832797754
 21
270.9480267879496
 31
0.0
 11
8.82030468071547
 21
270.9322074281521
 31
0.0
 11
8.717905140163946
 21
270.9305581990391
 31
0.0
 11
8.670201283956487
 21
270.9356616115986
 31
0.0
 11
8.623150513695764
 21
270.9449984141229
 31
0.0
 11
8.578470946260264
 21
270.9584216764348
 31
0.0
 11
8.535364809649783
 21
270.9762528566629
 31
0.0
 11
8.494542216821301
 21
270.9983971215972
 31
0.0
 11
8.456254960252206
 21
271.024685314846
 31
0.0
 11
8.42011786325138
 21
271.055513294613
 31
0.0
 11
8.387265362905458
 21
271.0898311631241
 31
0.0
 11
8.328092968680952
 21
271.1729000667275
 31
0.0
 11
8.283193245072077
 21
271.2649058408669
 31
0.0
 11
8.247555085474731
 21
271.3739243680366
 31
0.0
 11
8.224703522094295
 21
271.4862640143367
 31
0.0
 11
8.210936765802886
 21
271.611660080014
 31
0.0
 11
8.2068054069
 21
271.7376893554
 31
0.0
  0
SPLINE
  5
F6
330
1F
100
AcDbEntity
  8
0
  6
Continuous
 62
     7
100
AcDbSpline
210
0.0
220
0.0
230
1.0
 70
     8
 71
     3
 72
    19
 73
    15
 74
    13
 42
0.0000000001
 43
0.0000000001
 44
0.00000001
 40
0.0
 40
0.0
 40
0.0
 40
0.0
 40
0.1162460235976408
 40
0.232788171856456
 40
0.3491890046613127
 40
0.4655468551262676
 40
0.5819071370416784
 40
0.6982738489654408
 40
0.8146206073304955
 40
0.9309998278904741
 40
1.163276323527929
 40
1.39613892183838
 40
1.62901317811328
 40
1.861351539769017
 40
1.861351539769017
 40
1.861351539769017
 40
1.861351539769017
 10
77.3318054069
 20
252.8495412578
 30
0.0
 10
77.29302133605061
 20
252.8477003109116
 30
0.0
 10
77.21535439596302
 20
252.8440137275139
 30
0.0
 10
77.1017443108657
 20
252.8156082425754
 30
0.0
 10
76.993556622893
 20
252.7717543283753
 30
0.0
 10
76.89258075692497
 20
252.713157640149
 30
0.0
 10
76.79981230019912
 20
252.6424727788198
 30
0.0
 10
76.71572492121395
 20
252.5617151737216
 30
0.0
 10
76.64042127784366
 20
252.4727475349562
 30
0.0
 10
76.55177003368554
 20
252.3453880871854
 30
0.0
 10
76.4617732879465
 20
252.1726027091083
 30
0.0
 10
76.386879768791
 20
251.9516777189401
 30
0.0
 10
76.34034284351085
 20
251.7226577993625
 30
0.0
 10
76.33464903280398
 20
251.5674784065382
 30
0.0
 10
76.3318054069
 20
251.4899780884
 30
0.0
 11
77.3318054069
 21
252.8495412578
 31
0.0
 11
77.21593405532145
 21
252.8402156004171
 31
0.0
 11
77.10260953058653
 21
252.8130195636767
 31
0.0
 11
76.99473639795552
 21
252.7692869541726
 31
0.0
 11
76.8939476584422
 21
252.7111424845118
 31
0.0
 11
76.80126035339465
 21
252.6407949281189
 31
0.0
 11
76.71718498776917
 21
252.5603428023614
 31
0.0
 11
76.64188622983751
 21
252.4716485791222
 31
0.0
 11
76.57525950052222
 21
252.3762284454035
 31
0.0
 11
76.46736971441679
 21
252.1705292366551
 31
0.0
 11
76.3916115775869
 21
251.9503345627959
 31
0.0
 11
76.34665156381716
 21
251.7218416386222
 31
0.0
 11
76.3318054069
 21
251.4899780884
 31
0.0
  0
SPLINE
  5
F7
330
1F
100
AcDbEntity
  8
BEZUGSACHSEN
  6
Continuous
 62
     7
100
AcDbSpline
210
0.0
220
0.0
230
1.0
 70
     8
 71
     3
 72
    15
 73
    11
 74
     9
 42
0.0000000001
 43
0.0000000001
 44
0.00000001
 40
0.0
 40
0.0
 40
0.0
 40
0.0
 40
0.1110371613045344
 40
0.2222522336839873
 40
0.3333980191332881
 40
0.4445069474378601
 40
0.5556201065049946
 40
0.6667525642071066
 40
0.7778876033057314
 40
0.888982091575401
 40
0.888982091575401
 40
0.888982091575401
 40
0.888982091575401
 10
10.1067309221
 20
270.6953894553
 30
0.0
 10
10.07008919524016
 20
270.7009216081145
 30
0.0
 10
9.996747031725157
 20
270.711994777724
 30
0.0
 10
9.89023048172713
 20
270.7450133412459
 30
0.0
 10
9.787817573986834
 20
270.7886036287342
 30
0.0
 10
9.690367608375169
 20
270.8423831365913
 30
0.0
 10
9.598062812638059
 20
270.9044782719554
 30
0.0
 10
9.511066184499342
 20
270.9737649455797
 30
0.0
 10
9.428813429037653
 20
271.048646897195
 30
0.0
 10
9.378033442624934
 20
271.1026094786982
 30
0.0
 10
9.3526480824
 20
271.1295858461
 30
0.0
 11
10.1067309221
 21
270.6953894553
 31
0.0
 11
9.997388637051241
 21
270.7147160145097
 31
0.0
 11
9.890896683463147
 21
270.7467824478218
 31
0.0
 11
9.78862850286535
 21
270.7903095067663
 31
0.0
 11
9.69122563642644
 21
270.8437686085028
 31
0.0
 11
9.5989538696242
 21
270.9056722042713
 31
0.0
 11
9.511856766206044
 21
270.9746976903694
 31
0.0
 11
9.429816861739289
 21
271.0496673575058
 31
0.0
 11
9.3526480824
 21
271.1295858461
 31
0.0
  0
SPLINE
  5
F8
330
1F
100
AcDbEntity
  8
0
  6
Continuous
 62
     7
100
AcDbSpline
210
0.0
220
0.0
230
1.0
 70
     8
 71
     3
 72
    19
 73
    15
 74
    13
 42
0.0000000001
 43
0.0000000001
 44
0.00000001
 40
0.0
 40
0.0
 40
0.0
 40
0.0
 40
0.2323383481161058
 40
0.4652125957045368
 40
0.6980761132820997
 40
0.9303535187426641
 40
1.046733461811411
 40
1.163080940881851
 40
1.2794479974499
 40
1.395808629558246
 40
1.512165904539074
 40
1.628566140364149
 40
1.745106920511278
 40
1.861351602746266
 40
1.861351602746266
 40
1.861351602746266
 40
1.861351602746266
 10
80.0818054069
 20
251.4899780884
 30
0.0
 10
80.07896178129451
 20
251.567478402059
 30
0.0
 10
80.07326797112552
 20
251.7226577875438
 30
0.0
 10
80.02673099526947
 20
251.9516780015616
 30
0.0
 10
79.95183724946622
 20
252.1726035634475
 30
0.0
 10
79.8618399452098
 20
252.3453896276614
 30
0.0
 10
79.77318800743481
 20
252.4727495534056
 30
0.0
 10
79.69788374309063
 20
252.5617174523288
 30
0.0
 10
79.61379576924276
 20
252.6424751222621
 30
0.0
 10
79.52102703538017
 20
252.7131596886036
 30
0.0
 10
79.420051223131
 20
252.7717559127598
 30
0.0
 10
79.31186417364162
 20
252.8156091639178
 30
0.0
 10
79.1982550643204
 20
252.8440139233744
 30
0.0
 10
79.1205890295526
 20
252.84770037602
 30
0.0
 10
79.0818054069
 20
252.8495412578
 30
0.0
 11
80.0818054069
 21
251.4899780884
 31
0.0
 11
80.06695925277972
 21
251.721841625234
 31
0.0
 11
80.02199925117358
 21
251.950334542948
 31
0.0
 11
79.94624077245622
 21
252.1705300713336
 31
0.0
 11
79.83835036127357
 21
252.3762299796037
 31
0.0
 11
79.7717230374501
 21
252.4716505794174
 31
0.0
 11
79.69642358089341
 21
252.5603451549466
 31
0.0
 11
79.61234771454056
 21
252.6407972559219
 31
0.0
 11
79.51965988853942
 21
252.7111447051709
 31
0.0
 11
79.4188714536234
 21
252.7692885511749
 31
0.0
 11
79.31099872485163
 21
252.8130205679071
 31
0.0
 11
79.19767543634461
 21
252.840215893227
 31
0.0
 11
79.0818054069
 21
252.8495412578
 31
0.0
  0
SPLINE
  5
F9
330
1F
100
AcDbEntity
  8
BEZUGSACHSEN
  6
Continuous
 62
     7
100
AcDbSpline
210
0.0
220
0.0
230
1.0
 70
     8
 71
     3
 72
    11
 73
     7
 74
     5
 42
0.0000000001
 43
0.0000000001
 44
0.00000001
 40
0.0
 40
0.0
 40
0.0
 40
0.0
 40
0.5462907430762535
 40
1.09300086356383
 40
1.646070107101643
 40
2.198197048700524
 40
2.198197048700524
 40
2.198197048700524
 40
2.198197048700524
 10
17.7606513538
 20
301.3819218415
 30
0.0
 10
17.82372215563062
 20
301.2109902122721
 30
0.0
 10
17.9499121775928
 20
300.8689957327313
 30
0.0
 10
18.08954949063935
 20
300.3377216035416
 30
0.0
 10
18.18703785470989
 20
299.7942971985859
 30
0.0
 10
18.20021996923997
 20
299.4257125580095
 30
0.0
 10
18.2068054069
 20
299.2415773673
 30
0.0
 11
17.7606513538
 21
301.3819218415
 31
0.0
 11
17.94150268634478
 21
300.8664353028905
 31
0.0
 11
18.08199417105225
 21
300.3380849470013
 31
0.0
 11
18.17406082432967
 21
299.7927324742814
 31
0.0
 11
18.2068054069
 21
299.2415773673
 31
0.0
  0
SPLINE
  5
FA
330
1F
100
AcDbEntity
  8
BEZUGSACHSEN
  6
Continuous
 62
     7
100
AcDbSpline
210
0.0
220
0.0
230
1.0
 70
     8
 71
     3
 72
    11
 73
     7
 74
     5
 42
0.0000000001
 43
0.0000000001
 44
0.00000001
 40
0.0
 40
0.0
 40
0.0
 40
0.0
 40
0.9140556660003748
 40
1.828030949185914
 40
2.279806974883386
 40
2.730944124862219
 40
2.730944124862219
 40
2.730944124862219
 40
2.730944124862219
 10
9.47375833378544
 20
271.361921841685
 30
0.0
 10
9.606413040748686
 20
271.6366384393516
 30
0.0
 10
9.871710788910015
 20
272.1860474758789
 30
0.0
 10
10.08706600222524
 20
272.9187583969875
 30
0.0
 10
10.19076021588976
 20
273.516703603127
 30
0.0
 10
10.20145953340765
 20
273.8178268185873
 30
0.0
 10
10.2068054069
 20
273.9682818932
 30
0.0
 11
9.47375833378544
 21
271.361921841685
 31
0.0
 11
9.848565863560875
 21
272.1955986832555
 31
0.0
 11
10.10785722395873
 21
273.072022558271
 31
0.0
 11
10.18057419745736
 21
273.5179079910451
 31
0.0
 11
10.2068054069
 21
273.9682818932
 31
0.0
  0
SPLINE
  5
FB
330
1F
100
AcDbEntity
  8
BEZUGSACHSEN
  6
Continuous
 62
     7
100
AcDbSpline
210
0.0
220
0.0
230
1.0
 70
     8
 71
     3
 72
    11
 73
     7
 74
     5
 42
0.0000000001
 43
0.0000000001
 44
0.00000001
 40
0.0
 40
0.0
 40
0.0
 40
0.0
 40
0.824919236672755
 40
1.650116891931435
 40
2.190492152293672
 40
2.730585915378216
 40
2.730585915378216
 40
2.730585915378216
 40
2.730585915378216
 10
10.2068054069
 20
298.7755617899
 30
0.0
 10
10.18907210256183
 20
299.050752081877
 30
0.0
 10
10.1535995087159
 20
299.6012255453379
 30
0.0
 10
9.945164692080555
 20
300.3059591304907
 30
0.0
 10
9.714938261100766
 20
300.898172855571
 30
0.0
 10
9.554137678298837
 20
301.220700189016
 30
0.0
 10
9.47375833378544
 20
301.381921841315
 30
0.0
 11
10.2068054069
 21
298.7755617899
 31
0.0
 11
10.12322995278429
 21
299.5962364455962
 31
0.0
 11
9.90526851067251
 21
300.3921283854957
 31
0.0
 11
9.707333432113305
 21
300.8949475644133
 31
0.0
 11
9.47375833378544
 21
301.381921841315
 31
0.0
  0
DIMENSION
  5
106
330
1F
100
AcDbEntity
  8
1
100
AcDbDimension
  2
*D2
 10
270.432754396776
 20
302.3719218415
 30
0.0
 11
266.682754396776
 21
286.457248783522
 31
0.0
 70
    32
  1
<>
 71
     5
 42
-1.0
 53
90.0
  3
ME10_DIM_10
100
AcDbAlignedDimension
 13
258.2068054069
 23
270.3719218415
 33
0.0
 14
258.2068054069
 24
302.3719218415
 34
0.0
 50
90.0
100
AcDbRotatedDimension
  0
DIMENSION
  5
111
330
1F
100
AcDbEntity
  8
1
100
AcDbDimension
  2
*D3
 10
278.443870032589
 20
308.3719218415466
 30
0.0
 11
274.693870032589
 21
286.266507935051
 31
0.0
 70
    32
  1
<>
 71
     5
 42
-1.0
 53
90.0
  3
ME10_DIM_11
100
AcDbAlignedDimension
 13
258.2068054069
 23
264.3719218415487
 33
0.0
 14
258.2068054069
 24
308.3719218415466
 34
0.0
 50
90.0
100
AcDbRotatedDimension
  0
DIMENSION
  5
11C
330
1F
100
AcDbEntity
  8
1
100
AcDbDimension
  2
*D4
 10
288.171653304647
 20
312.8719218415
 30
0.0
 11
284.421653304647
 21
286.647989631994
 31
0.0
 70
    32
  1
<>
 71
     5
 42
-1.0
 53
90.0
  3
ME10_DIM_12
100
AcDbAlignedDimension
 13
201.0288840941
 23
259.8719218415
 33
0.0
 14
201.0288840941
 24
312.8719218415
 34
0.0
 50
90.0
100
AcDbRotatedDimension
  0
DIMENSION
  5
127
330
1F
100
AcDbEntity
  8
1
100
AcDbDimension
  2
*D5
 10
258.2068054069
 20
345.014689264343
 30
0.0
 11
173.345662524667
 21
348.764689264343
 31
0.0
 70
    32
  1
<>
 71
     5
 42
-1.0
 53
0.00013888888889
  3
ME10_DIM_13
100
AcDbAlignedDimension
 13
87.2068054069
 23
336.3718849204
 33
0.0
 14
258.2068054069
 24
307.4475313499
 34
0.0
100
AcDbRotatedDimension
  0
DIMENSION
  5
132
330
1F
100
AcDbEntity
  8
1
100
AcDbDimension
  2
*D6
 10
258.2068054069
 20
352.644323203212
 30
0.0
 11
158.658617192344
 21
356.394323203212
 31
0.0
 70
    32
  1
<>
 71
     5
 42
-1.0
 53
0.00013888888889
  3
ME10_DIM_14
100
AcDbAlignedDimension
 13
58.2068054069
 23
336.3719218415
 33
0.0
 14
258.2068054069
 24
307.4475313499
 34
0.0
100
AcDbRotatedDimension
  0
DIMENSION
  5
13D
330
1F
100
AcDbEntity
  8
1
100
AcDbDimension
  2
*D7
 10
258.2068054069
 20
360.083216293609
 30
0.0
 11
145.497498647794
 21
363.833216293609
 31
0.0
 70
    32
  1
<>
 71
     5
 42
-1.0
 53
0.00013888888889
  3
ME10_DIM_15
100
AcDbAlignedDimension
 13
8.2068054069
 23
319.9721134041
 33
0.0
 14
258.2068054069
 24
307.4475313499
 34
0.0
100
AcDbRotatedDimension
  0
INSERT
  5
144
330
1F
100
AcDbEntity
  8
1
100
AcDbBlockReference
  2
*D8
 10
0.0
 20
0.0
 30
0.0
  0
DIMENSION
  5
14F
330
1F
100
AcDbEntity
  8
1
100
AcDbDimension
  2
*D9
 10
238.5513161257673
 20
311.3976614717957
 30
0.0
 11
241.4897541184782
 21
321.1618082690058
 31
0.0
 70
    37
  1
<>
 71
     5
 42
-1.0
  3
ME10_DIM_16
100
AcDb3PointAngularDimension
 13
238.4645085000161
 23
309.925674304725
 33
0.0
 14
204.7840223727907
 24
312.8719218415
 34
0.0
 15
201.0288840941
 25
312.8719218415
 35
0.0
  0
ENDSEC
  0
SECTION
  2
OBJECTS
  0
DICTIONARY
  5
C
330
0
100
AcDbDictionary
281
     1
  3
ACAD_GROUP
350
D
  3
ACAD_LAYOUT
350
1A
  3
ACAD_MLEADERSTYLE
350
152
  3
ACAD_MLINESTYLE
350
17
  3
ACAD_PLOTSETTINGS
350
19
  3
ACAD_PLOTSTYLENAME
350
E
  3
ACAD_SCALELIST
350
4A
  3
ACAD_VISUALSTYLE
350
2A
  3
AcDbVariableDictionary
350
150
  0
DICTIONARY
  5
D
102
{ACAD_REACTORS
330
C
102
}
330
C
100
AcDbDictionary
281
     1
  0
DICTIONARY
  5
1A
102
{ACAD_REACTORS
330
C
102
}
330
C
100
AcDbDictionary
281
     1
  3
Layout1
350
1E
  3
Layout2
350
26
  3
Model
350
22
  0
DICTIONARY
  5
152
102
{ACAD_REACTORS
330
C
102
}
330
C
100
AcDbDictionary
281
     1
  0
DICTIONARY
  5
17
102
{ACAD_REACTORS
330
C
102
}
330
C
100
AcDbDictionary
281
     1
  3
Standard
350
18
  0
DICTIONARY
  5
19
102
{ACAD_REACTORS
330
C
102
}
330
C
100
AcDbDictionary
281
     1
  0
ACDBDICTIONARYWDFLT
  5
E
102
{ACAD_REACTORS
330
C
102
}
330
C
100
AcDbDictionary
281
     1
  3
Normal
350
F
100
AcDbDictionaryWithDefault
340
F
  0
DICTIONARY
  5
4A
102
{ACAD_REACTORS
330
C
102
}
330
C
100
AcDbDictionary
281
     1
  3
A0
350
4B
  3
A1
350
4C
  3
A2
350
4D
  3
A3
350
4E
  3
A4
350
4F
  3
A5
350
50
  3
A6
350
51
  3
A7
350
52
  3
A8
350
53
  3
A9
350
54
  3
B0
350
55
  3
B1
350
56
  3
B2
350
57
  3
B3
350
58
  3
B4
350
59
  3
B5
350
5A
  3
B6
350
5B
  3
B7
350
5C
  3
B8
350
5D
  3
B9
350
5E
  3
C0
350
5F
  3
C1
350
60
  3
C2
350
61
  3
C3
350
62
  3
C4
350
63
  3
C5
350
64
  3
C6
350
65
  3
C7
350
66
  3
C8
350
67
  3
C9
350
68
  3
D0
350
69
  3
D1
350
6A
  3
D2
350
6B
  0
DICTIONARY
  5
2A
102
{ACAD_REACTORS
330
C
102
}
330
C
100
AcDbDictionary
281
     1
  3
2dWireframe
350
2F
  3
3D Hidden
350
31
  3
3dWireframe
350
30
  3
Basic
350
32
  3
Brighten
350
36
  3
ColorChange
350
3A
  3
Conceptual
350
34
  3
Dim
350
35
  3
Facepattern
350
39
  3
Flat
350
2B
  3
FlatWithEdges
350
2C
  3
Gouraud
350
2D
  3
GouraudWithEdges
350
2E
  3
Linepattern
350
38
  3
Realistic
350
33
  3
Thicken
350
37
  0
DICTIONARY
  5
150
102
{ACAD_REACTORS
330
C
102
}
330
C
100
AcDbDictionary
281
     1
  3
CANNOSCALE
350
153
  0
LAYOUT
  5
1E
102
{ACAD_REACTORS
330
1A
102
}
330
1A
100
AcDbPlotSettings
  1

  2
none_device
  4

  6

 40
0.0
 41
0.0
 42
0.0
 43
0.0
 44
0.0
 45
0.0
 46
0.0
 47
0.0
 48
0.0
 49
0.0
140
0.0
141
0.0
142
1.0
143
1.0
 70
   688
 72
     0
 73
     0
 74
     5
  7

 75
    16
147
1.0
148
0.0
149
0.0
100
AcDbLayout
  1
Layout1
 70
     1
 71
     1
 10
0.0
 20
0.0
 11
12.0
 21
9.0
 12
0.0
 22
0.0
 32
0.0
 14
1.00000000000000E+20
 24
1.00000000000000E+20
 34
1.00000000000000E+20
 15
-1.00000000000000E+20
 25
-1.00000000000000E+20
 35
-1.00000000000000E+20
146
0.0
 13
0.0
 23
0.0
 33
0.0
 16
1.0
 26
0.0
 36
0.0
 17
0.0
 27
1.0
 37
0.0
 76
     0
330
1B
  0
LAYOUT
  5
26
102
{ACAD_REACTORS
330
1A
102
}
330
1A
100
AcDbPlotSettings
  1

  2
none_device
  4

  6

 40
0.0
 41
0.0
 42
0.0
 43
0.0
 44
0.0
 45
0.0
 46
0.0
 47
0.0
 48
0.0
 49
0.0
140
0.0
141
0.0
142
1.0
143
1.0
 70
   688
 72
     0
 73
     0
 74
     5
  7

 75
    16
147
1.0
148
0.0
149
0.0
100
AcDbLayout
  1
Layout2
 70
     1
 71
     2
 10
0.0
 20
0.0
 11
0.0
 21
0.0
 12
0.0
 22
0.0
 32
0.0
 14
0.0
 24
0.0
 34
0.0
 15
0.0
 25
0.0
 35
0.0
146
0.0
 13
0.0
 23
0.0
 33
0.0
 16
1.0
 26
0.0
 36
0.0
 17
0.0
 27
1.0
 37
0.0
 76
     0
330
23
  0
LAYOUT
  5
22
102
{ACAD_REACTORS
330
1A
102
}
330
1A
100
AcDbPlotSettings
  1

  2
none_device
  4

  6

 40
0.0
 41
0.0
 42
0.0
 43
0.0
 44
0.0
 45
0.0
 46
0.0
 47
0.0
 48
0.0
 49
0.0
140
0.0
141
0.0
142
1.0
143
1.0
 70
  1712
 72
     0
 73
     0
 74
     0
  7

 75
     0
147
1.0
148
0.0
149
0.0
100
AcDbLayout
  1
Model
 70
     1
 71
     0
 10
0.0
 20
0.0
 11
12.0
 21
9.0
 12
0.0
 22
0.0
 32
0.0
 14
-12.89332364530383
 24
236.3719218415
 34
0.0
 15
290.171653304647
 25
365.583216293609
 35
0.0
146
0.0
 13
0.0
 23
0.0
 33
0.0
 16
1.0
 26
0.0
 36
0.0
 17
0.0
 27
1.0
 37
0.0
 76
     0
330
1F
331
29
  0
MLINESTYLE
  5
18
102
{ACAD_REACTORS
330
17
102
}
330
17
100
AcDbMlineStyle
  2
Standard
 70
     0
  3

 62
   256
 51
90.0
 52
90.0
 71
     2
 49
0.5
 62
   256
  6
BYLAYER
 49
-0.5
 62
   256
  6
BYLAYER
  0
ACDBPLACEHOLDER
  5
F
102
{ACAD_REACTORS
330
E
102
}
330
E
  0
SCALE
  5
4B
102
{ACAD_REACTORS
330
4A
102
}
330
4A
100
AcDbScale
 70
     0
300
1:1
140
1.0
141
1.0
290
     1
  0
SCALE
  5
4C
102
{ACAD_REACTORS
330
4A
102
}
330
4A
100
AcDbScale
 70
     0
300
1:2
140
1.0
141
2.0
290
     0
  0
SCALE
  5
4D
102
{ACAD_REACTORS
330
4A
102
}
330
4A
100
AcDbScale
 70
     0
300
1:4
140
1.0
141
4.0
290
     0
  0
SCALE
  5
4E
102
{ACAD_REACTORS
330
4A
102
}
330
4A
100
AcDbScale
 70
     0
300
1:5
140
1.0
141
5.0
290
     0
  0
SCALE
  5
4F
102
{ACAD_REACTORS
330
4A
102
}
330
4A
100
AcDbScale
 70
     0
300
1:8
140
1.0
141
8.0
290
     0
  0
SCALE
  5
50
102
{ACAD_REACTORS
330
4A
102
}
330
4A
100
AcDbScale
 70
     0
300
1:10
140
1.0
141
10.0
290
     0
  0
SCALE
  5
51
102
{ACAD_REACTORS
330
4A
102
}
330
4A
100
AcDbScale
 70
     0
300
1:16
140
1.0
141
16.0
290
     0
  0
SCALE
  5
52
102
{ACAD_REACTORS
330
4A
102
}
330
4A
100
AcDbScale
 70
     0
300
1:20
140
1.0
141
20.0
290
     0
  0
SCALE
  5
53
102
{ACAD_REACTORS
330
4A
102
}
330
4A
100
AcDbScale
 70
     0
300
1:30
140
1.0
141
30.0
290
     0
  0
SCALE
  5
54
102
{ACAD_REACTORS
330
4A
102
}
330
4A
100
AcDbScale
 70
     0
300
1:40
140
1.0
141
40.0
290
     0
  0
SCALE
  5
55
102
{ACAD_REACTORS
330
4A
102
}
330
4A
100
AcDbScale
 70
     0
300
1:50
140
1.0
141
50.0
290
     0
  0
SCALE
  5
56
102
{ACAD_REACTORS
330
4A
102
}
330
4A
100
AcDbScale
 70
     0
300
1:100
140
1.0
141
100.0
290
     0
  0
SCALE
  5
57
102
{ACAD_REACTORS
330
4A
102
}
330
4A
100
AcDbScale
 70
     0
300
2:1
140
2.0
141
1.0
290
     0
  0
SCALE
  5
58
102
{ACAD_REACTORS
330
4A
102
}
330
4A
100
AcDbScale
 70
     0
300
4:1
140
4.0
141
1.0
290
     0
  0
SCALE
  5
59
102
{ACAD_REACTORS
330
4A
102
}
330
4A
100
AcDbScale
 70
     0
300
8:1
140
8.0
141
1.0
290
     0
  0
SCALE
  5
5A
102
{ACAD_REACTORS
330
4A
102
}
330
4A
100
AcDbScale
 70
     0
300
10:1
140
10.0
141
1.0
290
     0
  0
SCALE
  5
5B
102
{ACAD_REACTORS
330
4A
102
}
330
4A
100
AcDbScale
 70
     0
300
100:1
140
100.0
141
1.0
290
     0
  0
SCALE
  5
5C
102
{ACAD_REACTORS
330
4A
102
}
330
4A
100
AcDbScale
 70
     0
300
1/128" = 1'-0"
140
0.0078125
141
12.0
290
     0
  0
SCALE
  5
5D
102
{ACAD_REACTORS
330
4A
102
}
330
4A
100
AcDbScale
 70
     0
300
1/64" = 1'-0"
140
0.015625
141
12.0
290
     0
  0
SCALE
  5
5E
102
{ACAD_REACTORS
330
4A
102
}
330
4A
100
AcDbScale
 70
     0
300
1/32" = 1'-0"
140
0.03125
141
12.0
290
     0
  0
SCALE
  5
5F
102
{ACAD_REACTORS
330
4A
102
}
330
4A
100
AcDbScale
 70
     0
300
1/16" = 1'-0"
140
0.0625
141
12.0
290
     0
  0
SCALE
  5
60
102
{ACAD_REACTORS
330
4A
102
}
330
4A
100
AcDbScale
 70
     0
300
3/32" = 1'-0"
140
0.09375
141
12.0
290
     0
  0
SCALE
  5
61
102
{ACAD_REACTORS
330
4A
102
}
330
4A
100
AcDbScale
 70
     0
300
1/8" = 1'-0"
140
0.125
141
12.0
290
     0
  0
SCALE
  5
62
102
{ACAD_REACTORS
330
4A
102
}
330
4A
100
AcDbScale
 70
     0
300
3/16" = 1'-0"
140
0.1875
141
12.0
290
     0
  0
SCALE
  5
63
102
{ACAD_REACTORS
330
4A
102
}
330
4A
100
AcDbScale
 70
     0
300
1/4" = 1'-0"
140
0.25
141
12.0
290
     0
  0
SCALE
  5
64
102
{ACAD_REACTORS
330
4A
102
}
330
4A
100
AcDbScale
 70
     0
300
3/8" = 1'-0"
140
0.375
141
12.0
290
     0
  0
SCALE
  5
65
102
{ACAD_REACTORS
330
4A
102
}
330
4A
100
AcDbScale
 70
     0
300
1/2" = 1'-0"
140
0.5
141
12.0
290
     0
  0
SCALE
  5
66
102
{ACAD_REACTORS
330
4A
102
}
330
4A
100
AcDbScale
 70
     0
300
3/4" = 1'-0"
140
0.75
141
12.0
290
     0
  0
SCALE
  5
67
102
{ACAD_REACTORS
330
4A
102
}
330
4A
100
AcDbScale
 70
     0
300
1" = 1'-0"
140
1.0
141
12.0
290
     0
  0
SCALE
  5
68
102
{ACAD_REACTORS
330
4A
102
}
330
4A
100
AcDbScale
 70
     0
300
1-1/2" = 1'-0"
140
1.5
141
12.0
290
     0
  0
SCALE
  5
69
102
{ACAD_REACTORS
330
4A
102
}
330
4A
100
AcDbScale
 70
     0
300
3" = 1'-0"
140
3.0
141
12.0
290
     0
  0
SCALE
  5
6A
102
{ACAD_REACTORS
330
4A
102
}
330
4A
100
AcDbScale
 70
     0
300
6" = 1'-0"
140
6.0
141
12.0
290
     0
  0
SCALE
  5
6B
102
{ACAD_REACTORS
330
4A
102
}
330
4A
100
AcDbScale
 70
     0
300
1'-0" = 1'-0"
140
12.0
141
12.0
290
     0
  0
VISUALSTYLE
  5
2F
102
{ACAD_REACTORS
330
2A
102
}
330
2A
100
AcDbVisualStyle
  2
2dWireframe
 70
     4
 71
     0
 72
     2
 73
     0
 90
        0
 40
-0.6
 41
-30.0
 62
     5
 63
     7
 74
     1
 91
        4
 64
     7
 65
   257
 75
     1
175
     1
 42
1.0
 92
        0
 66
   257
 43
1.0
 76
     1
 77
     6
 78
     2
 67
     7
 79
     5
170
     0
171
     0
290
     0
174
     0
 93
        1
 44
0.0
173
     0
291
     0
 45
0.0
1001
ACAD
1000
AcDbSavedByObjectVersion
1070
     0
  0
VISUALSTYLE
  5
31
102
{ACAD_REACTORS
330
2A
102
}
330
2A
100
AcDbVisualStyle
  2
3D Hidden
 70
     6
 71
     1
 72
     2
 73
     2
 90
        0
 40
-0.6
 41
-30.0
 62
     5
 63
     7
 74
     2
 91
        2
 64
     7
 65
   257
 75
     2
175
     1
 42
40.0
 92
        0
 66
   257
 43
1.0
 76
     1
 77
     6
 78
     2
 67
     7
 79
     3
170
     0
171
     0
290
     0
174
     0
 93
        1
 44
0.0
173
     0
291
     0
 45
0.0
1001
ACAD
1000
AcDbSavedByObjectVersion
1070
     0
  0
VISUALSTYLE
  5
30
102
{ACAD_REACTORS
330
2A
102
}
330
2A
100
AcDbVisualStyle
  2
3dWireframe
 70
     5
 71
     0
 72
     2
 73
     0
 90
        0
 40
-0.6
 41
-30.0
 62
     5
 63
     7
 74
     1
 91
        4
 64
     7
 65
   257
 75
     1
175
     1
 42
1.0
 92
        0
 66
   257
 43
1.0
 76
     1
 77
     6
 78
     2
 67
     7
 79
     5
170
     0
171
     0
290
     0
174
     0
 93
        1
 44
0.0
173
     0
291
     0
 45
0.0
1001
ACAD
1000
AcDbSavedByObjectVersion
1070
     0
  0
VISUALSTYLE
  5
32
102
{ACAD_REACTORS
330
2A
102
}
330
2A
100
AcDbVisualStyle
  2
Basic
 70
     7
 71
     1
 72
     0
 73
     1
 90
        0
 40
-0.6
 41
-30.0
 62
     5
 63
     7
 74
     0
 91
        4
 64
     7
 65
   257
 75
     1
175
     1
 42
1.0
 92
        8
 66
     7
 43
1.0
 76
     1
 77
     6
 78
     2
 67
     7
 79
     5
170
     0
171
     0
290
     0
174
     0
 93
        1
 44
0.0
173
     0
291
     1
 45
0.0
1001
ACAD
1000
AcDbSavedByObjectVersion
1070
     0
  0
VISUALSTYLE
  5
36
102
{ACAD_REACTORS
330
2A
102
}
330
2A
100
AcDbVisualStyle
  2
Brighten
 70
    12
 71
     2
 72
     2
 73
     0
 90
        0
 40
-0.6
 41
-30.0
 62
     5
 63
     7
 74
     1
 91
        4
 64
     7
 65
   257
 75
     1
175
     1
 42
1.0
 92
        8
 66
     7
 43
1.0
 76
     1
 77
     6
 78
     2
 67
     7
 79
     5
170
     0
171
     0
290
     0
174
     0
 93
        1
 44
50.0
173
     0
291
     1
 45
0.0
1001
ACAD
1000
AcDbSavedByObjectVersion
1070
     0
  0
VISUALSTYLE
  5
3A
102
{ACAD_REACTORS
330
2A
102
}
330
2A
100
AcDbVisualStyle
  2
ColorChange
 70
    16
 71
     2
 72
     2
 73
     3
 90
        0
 40
-0.6
 41
-30.0
 62
     5
 63
     8
 74
     1
 91
        4
 64
     7
 65
   257
 75
     1
175
     1
 42
1.0
 92
        8
 66
     8
 43
1.0
 76
     1
 77
     6
 78
     2
 67
     7
 79
     5
170
     0
171
     0
290
     0
174
     0
 93
        1
 44
0.0
173
     0
291
     1
 45
0.0
1001
ACAD
1000
AcDbSavedByObjectVersion
1070
     0
  0
VISUALSTYLE
  5
34
102
{ACAD_REACTORS
330
2A
102
}
330
2A
100
AcDbVisualStyle
  2
Conceptual
 70
     9
 71
     3
 72
     2
 73
     0
 90
        0
 40
-0.6
 41
-30.0
 62
     5
 63
     7
 74
     2
 91
        2
 64
     7
 65
   257
 75
     1
175
     1
 42
40.0
 92
        8
 66
     7
 43
1.0
 76
     1
 77
     6
 78
     2
 67
     7
 79
     3
170
     0
171
     0
290
     0
174
     0
 93
        1
 44
0.0
173
     0
291
     0
 45
0.0
1001
ACAD
1000
AcDbSavedByObjectVersion
1070
     0
  0
VISUALSTYLE
  5
35
102
{ACAD_REACTORS
330
2A
102
}
330
2A
100
AcDbVisualStyle
  2
Dim
 70
    11
 71
     2
 72
     2
 73
     0
 90
        0
 40
-0.6
 41
-30.0
 62
     5
 63
     7
 74
     1
 91
        4
 64
     7
 65
   257
 75
     1
175
     1
 42
1.0
 92
        8
 66
     7
 43
1.0
 76
     1
 77
     6
 78
     2
 67
     7
 79
     5
170
     0
171
     0
290
     0
174
     0
 93
        1
 44
-50.0
173
     0
291
     1
 45
0.0
1001
ACAD
1000
AcDbSavedByObjectVersion
1070
     0
  0
VISUALSTYLE
  5
39
102
{ACAD_REACTORS
330
2A
102
}
330
2A
100
AcDbVisualStyle
  2
Facepattern
 70
    15
 71
     2
 72
     2
 73
     0
 90
        0
 40
-0.6
 41
-30.0
 62
     5
 63
     7
 74
     1
 91
        4
 64
     7
 65
   257
 75
     1
175
     1
 42
1.0
 92
        8
 66
     7
 43
1.0
 76
     1
 77
     6
 78
     2
 67
     7
 79
     5
170
     0
171
     0
290
     0
174
     0
 93
        1
 44
0.0
173
     0
291
     1
 45
0.0
1001
ACAD
1000
AcDbSavedByObjectVersion
1070
     0
  0
VISUALSTYLE
  5
2B
102
{ACAD_REACTORS
330
2A
102
}
330
2A
100
AcDbVisualStyle
  2
Flat
 70
     0
 71
     2
 72
     1
 73
     1
 90
        2
 40
-0.6
 41
30.0
 62
     5
 63
     7
 74
     0
 91
        4
 64
     7
 65
   257
 75
     1
175
     1
 42
1.0
 92
        8
 66
     7
 43
1.0
 76
     1
 77
     6
 78
     2
 67
     7
 79
     5
170
     0
171
     0
290
     0
174
     0
 93
       13
 44
0.0
173
     0
291
     1
 45
0.0
1001
ACAD
1000
AcDbSavedByObjectVersion
1070
     0
  0
VISUALSTYLE
  5
2C
102
{ACAD_REACTORS
330
2A
102
}
330
2A
100
AcDbVisualStyle
  2
FlatWithEdges
 70
     1
 71
     2
 72
     1
 73
     1
 90
        2
 40
-0.6
 41
30.0
 62
     5
 63
     7
 74
     1
 91
        4
 64
     7
 65
   257
 75
     1
175
     1
 42
1.0
 92
        0
 66
   257
 43
1.0
 76
     1
 77
     6
 78
     2
 67
     7
 79
     5
170
     0
171
     0
290
     0
174
     0
 93
       13
 44
0.0
173
     0
291
     1
 45
0.0
1001
ACAD
1000
AcDbSavedByObjectVersion
1070
     0
  0
VISUALSTYLE
  5
2D
102
{ACAD_REACTORS
330
2A
102
}
330
2A
100
AcDbVisualStyle
  2
Gouraud
 70
     2
 71
     2
 72
     2
 73
     1
 90
        2
 40
-0.6
 41
30.0
 62
     5
 63
     7
 74
     0
 91
        4
 64
     7
 65
   257
 75
     1
175
     1
 42
1.0
 92
        0
 66
     7
 43
1.0
 76
     1
 77
     6
 78
     2
 67
     7
 79
     5
170
     0
171
     0
290
     0
174
     0
 93
       13
 44
0.0
173
     0
291
     1
 45
0.0
1001
ACAD
1000
AcDbSavedByObjectVersion
1070
     0
  0
VISUALSTYLE
  5
2E
102
{ACAD_REACTORS
330
2A
102
}
330
2A
100
AcDbVisualStyle
  2
GouraudWithEdges
 70
     3
 71
     2
 72
     2
 73
     1
 90
        2
 40
-0.6
 41
30.0
 62
     5
 63
     7
 74
     1
 91
        4
 64
     7
 65
   257
 75
     1
175
     1
 42
1.0
 92
        0
 66
   257
 43
1.0
 76
     1
 77
     6
 78
     2
 67
     7
 79
     5
170
     0
171
     0
290
     0
174
     0
 93
       13
 44
0.0
173
     0
291
     1
 45
0.0
1001
ACAD
1000
AcDbSavedByObjectVersion
1070
     0
  0
VISUALSTYLE
  5
38
102
{ACAD_REACTORS
330
2A
102
}
330
2A
100
AcDbVisualStyle
  2
Linepattern
 70
    14
 71
     2
 72
     2
 73
     0
 90
        0
 40
-0.6
 41
-30.0
 62
     5
 63
     7
 74
     1
 91
        4
 64
     7
 65
   257
 75
     7
175
     7
 42
1.0
 92
        8
 66
     7
 43
1.0
 76
     1
 77
     6
 78
     2
 67
     7
 79
     5
170
     0
171
     0
290
     0
174
     0
 93
        1
 44
0.0
173
     0
291
     1
 45
0.0
1001
ACAD
1000
AcDbSavedByObjectVersion
1070
     0
  0
VISUALSTYLE
  5
33
102
{ACAD_REACTORS
330
2A
102
}
330
2A
100
AcDbVisualStyle
  2
Realistic
 70
     8
 71
     2
 72
     2
 73
     0
 90
        0
 40
-0.6
 41
-30.0
 62
     5
 63
     7
 74
     1
 91
        0
 64
     7
 65
   257
 75
     1
175
     1
 42
1.0
 92
        8
 66
     8
 43
1.0
 76
     1
 77
     6
 78
     2
 67
     7
 79
     5
170
     0
171
     0
290
     0
174
     0
 93
       13
 44
0.0
173
     0
291
     0
 45
0.0
1001
ACAD
1000
AcDbSavedByObjectVersion
1070
     0
  0
VISUALSTYLE
  5
37
102
{ACAD_REACTORS
330
2A
102
}
330
2A
100
AcDbVisualStyle
  2
Thicken
 70
    13
 71
     2
 72
     2
 73
     0
 90
        0
 40
-0.6
 41
-30.0
 62
     5
 63
     7
 74
     1
 91
        4
 64
     7
 65
   257
 75
     1
175
     1
 42
1.0
 92
       12
 66
     7
 43
1.0
 76
     1
 77
     6
 78
     2
 67
     7
 79
     5
170
     0
171
     0
290
     0
174
     0
 93
        1
 44
0.0
173
     0
291
     1
 45
0.0
1001
ACAD
1000
AcDbSavedByObjectVersion
1070
     0
  0
DICTIONARYVAR
  5
153
102
{ACAD_REACTORS
330
150
102
}
330
150
100
DictionaryVariables
280
     0
  1
1:1
  0
ENDSEC
  0
EOF
