  0
SECTION
  2
HEADER
  9
$ACADVER
  1
AC1015
  9
$ACADMAINTVER
 70
     6
  9
$DWGCODEPAGE
  3
ANSI_1252
  9
$INSBASE
 10
0.0
 20
0.0
 30
0.0
  9
$EXTMIN
 10
9.7672106290449
 20
248.1771948608
 30
0.0
  9
$EXTMAX
 10
311.945998560726
 20
377.77201601616
 30
0.0
  9
$LIMMIN
 10
0.0
 20
0.0
  9
$LIMMAX
 10
12.0
 20
9.0
  9
$ORTHOMODE
 70
     0
  9
$REGENMODE
 70
     1
  9
$FILLMODE
 70
     1
  9
$QTEXTMODE
 70
     0
  9
$MIRRTEXT
 70
     1
  9
$LTSCALE
 40
1.0
  9
$ATTMODE
 70
     1
  9
$TEXTSIZE
 40
0.2
  9
$TRACEWID
 40
0.05
  9
$TEXTSTYLE
  7
Standard
  9
$CLAYER
  8
0
  9
$CELTYPE
  6
ByLayer
  9
$CECOLOR
 62
   256
  9
$CELTSCALE
 40
1.0
  9
$DISPSILH
 70
     0
  9
$DIMSCALE
 40
1.0
  9
$DIMASZ
 40
0.18
  9
$DIMEXO
 40
0.0625
  9
$DIMDLI
 40
0.38
  9
$DIMRND
 40
0.0
  9
$DIMDLE
 40
0.0
  9
$DIMEXE
 40
0.18
  9
$DIMTP
 40
0.0
  9
$DIMTM
 40
0.0
  9
$DIMTXT
 40
0.18
  9
$DIMCEN
 40
0.09
  9
$DIMTSZ
 40
0.0
  9
$DIMTOL
 70
     0
  9
$DIMLIM
 70
     0
  9
$DIMTIH
 70
     1
  9
$DIMTOH
 70
     1
  9
$DIMSE1
 70
     0
  9
$DIMSE2
 70
     0
  9
$DIMTAD
 70
     0
  9
$DIMZIN
 70
     0
  9
$DIMBLK
  1

  9
$DIMASO
 70
     1
  9
$DIMSHO
 70
     1
  9
$DIMPOST
  1

  9
$DIMAPOST
  1

  9
$DIMALT
 70
     0
  9
$DIMALTD
 70
     2
  9
$DIMALTF
 40
25.4
  9
$DIMLFAC
 40
1.0
  9
$DIMTOFL
 70
     0
  9
$DIMTVP
 40
0.0
  9
$DIMTIX
 70
     0
  9
$DIMSOXD
 70
     0
  9
$DIMSAH
 70
     0
  9
$DIMBLK1
  1

  9
$DIMBLK2
  1

  9
$DIMSTYLE
  2
Standard
  9
$DIMCLRD
 70
     0
  9
$DIMCLRE
 70
     0
  9
$DIMCLRT
 70
     0
  9
$DIMTFAC
 40
1.0
  9
$DIMGAP
 40
0.09
  9
$DIMJUST
 70
     0
  9
$DIMSD1
 70
     0
  9
$DIMSD2
 70
     0
  9
$DIMTOLJ
 70
     1
  9
$DIMTZIN
 70
     0
  9
$DIMALTZ
 70
     0
  9
$DIMALTTZ
 70
     0
  9
$DIMUPT
 70
     0
  9
$DIMDEC
 70
     4
  9
$DIMTDEC
 70
     4
  9
$DIMALTU
 70
     2
  9
$DIMALTTD
 70
     2
  9
$DIMTXSTY
  7
Standard
  9
$DIMAUNIT
 70
     0
  9
$DIMADEC
 70
     0
  9
$DIMALTRND
 40
0.0
  9
$DIMAZIN
 70
     0
  9
$DIMDSEP
 70
    46
  9
$DIMATFIT
 70
     3
  9
$DIMFRAC
 70
     0
  9
$DIMLDRBLK
  1

  9
$DIMLUNIT
 70
     2
  9
$DIMLWD
 70
    -2
  9
$DIMLWE
 70
    -2
  9
$DIMTMOVE
 70
     0
  9
$LUNITS
 70
     2
  9
$LUPREC
 70
     4
  9
$SKETCHINC
 40
0.1
  9
$FILLETRAD
 40
0.5
  9
$AUNITS
 70
     0
  9
$AUPREC
 70
     0
  9
$MENU
  1
.
  9
$ELEVATION
 40
0.0
  9
$PELEVATION
 40
0.0
  9
$THICKNESS
 40
0.0
  9
$LIMCHECK
 70
     0
  9
$CHAMFERA
 40
0.5
  9
$CHAMFERB
 40
0.5
  9
$CHAMFERC
 40
1.0
  9
$CHAMFERD
 40
0.0
  9
$SKPOLY
 70
     0
  9
$TDCREATE
 40
2456748.728990845
  9
$TDUCREATE
 40
2456748.645657511
  9
$TDUPDATE
 40
2456748.728990857
  9
$TDUUPDATE
 40
2456748.645657523
  9
$TDINDWG
 40
0.0000000116
  9
$TDUSRTIMER
 40
0.0000000116
  9
$USRTIMER
 70
     1
  9
$ANGBASE
 50
0.0
  9
$ANGDIR
 70
     0
  9
$PDMODE
 70
     0
  9
$PDSIZE
 40
0.0
  9
$PLINEWID
 40
0.0
  9
$SPLFRAME
 70
     0
  9
$SPLINETYPE
 70
     6
  9
$SPLINESEGS
 70
     8
  9
$HANDSEED
  5
154
  9
$SURFTAB1
 70
     6
  9
$SURFTAB2
 70
     6
  9
$SURFTYPE
 70
     6
  9
$SURFU
 70
     6
  9
$SURFV
 70
     6
  9
$UCSBASE
  2

  9
$UCSNAME
  2

  9
$UCSORG
 10
0.0
 20
0.0
 30
0.0
  9
$UCSXDIR
 10
1.0
 20
0.0
 30
0.0
  9
$UCSYDIR
 10
0.0
 20
1.0
 30
0.0
  9
$UCSORTHOREF
  2

  9
$UCSORTHOVIEW
 70
     0
  9
$UCSORGTOP
 10
0.0
 20
0.0
 30
0.0
  9
$UCSORGBOTTOM
 10
0.0
 20
0.0
 30
0.0
  9
$UCSORGLEFT
 10
0.0
 20
0.0
 30
0.0
  9
$UCSORGRIGHT
 10
0.0
 20
0.0
 30
0.0
  9
$UCSORGFRONT
 10
0.0
 20
0.0
 30
0.0
  9
$UCSORGBACK
 10
0.0
 20
0.0
 30
0.0
  9
$PUCSBASE
  2

  9
$PUCSNAME
  2

  9
$PUCSORG
 10
0.0
 20
0.0
 30
0.0
  9
$PUCSXDIR
 10
1.0
 20
0.0
 30
0.0
  9
$PUCSYDIR
 10
0.0
 20
1.0
 30
0.0
  9
$PUCSORTHOREF
  2

  9
$PUCSORTHOVIEW
 70
     0
  9
$PUCSORGTOP
 10
0.0
 20
0.0
 30
0.0
  9
$PUCSORGBOTTOM
 10
0.0
 20
0.0
 30
0.0
  9
$PUCSORGLEFT
 10
0.0
 20
0.0
 30
0.0
  9
$PUCSORGRIGHT
 10
0.0
 20
0.0
 30
0.0
  9
$PUCSORGFRONT
 10
0.0
 20
0.0
 30
0.0
  9
$PUCSORGBACK
 10
0.0
 20
0.0
 30
0.0
  9
$USERI1
 70
     0
  9
$USERI2
 70
     0
  9
$USERI3
 70
     0
  9
$USERI4
 70
     0
  9
$USERI5
 70
     0
  9
$USERR1
 40
16.5
  9
$USERR2
 40
0.0
  9
$USERR3
 40
0.0
  9
$USERR4
 40
0.0
  9
$USERR5
 40
0.0
  9
$WORLDVIEW
 70
     1
  9
$SHADEDGE
 70
     3
  9
$SHADEDIF
 70
    70
  9
$TILEMODE
 70
     1
  9
$MAXACTVP
 70
    64
  9
$PINSBASE
 10
0.0
 20
0.0
 30
0.0
  9
$PLIMCHECK
 70
     0
  9
$PEXTMIN
 10
1.00000000000000E+20
 20
1.00000000000000E+20
 30
1.00000000000000E+20
  9
$PEXTMAX
 10
-1.00000000000000E+20
 20
-1.00000000000000E+20
 30
-1.00000000000000E+20
  9
$PLIMMIN
 10
0.0
 20
0.0
  9
$PLIMMAX
 10
12.0
 20
9.0
  9
$UNITMODE
 70
     0
  9
$VISRETAIN
 70
     1
  9
$PLINEGEN
 70
     0
  9
$PSLTSCALE
 70
     1
  9
$TREEDEPTH
 70
  3020
  9
$CMLSTYLE
  2
Standard
  9
$CMLJUST
 70
     0
  9
$CMLSCALE
 40
1.0
  9
$PROXYGRAPHICS
 70
     1
  9
$MEASUREMENT
 70
     1
  9
$CELWEIGHT
370
    -1
  9
$ENDCAPS
280
     0
  9
$JOINSTYLE
280
     0
  9
$LWDISPLAY
290
     0
  9
$INSUNITS
 70
     1
  9
$HYPERLINKBASE
  1

  9
$STYLESHEET
  1

  9
$XEDIT
290
     1
  9
$CEPSNTYPE
380
     0
  9
$PSTYLEMODE
290
     1
  9
$FINGERPRINTGUID
  2
{4D87B200-E5FF-401F-AB90-61C2DEE8D8D6}
  9
$VERSIONGUID
  2
{FAEB1C32-E019-11D5-929B-00C0DF256EC4}
  9
$EXTNAMES
290
     1
  9
$PSVPSCALE
 40
0.0
  9
$OLESTARTUP
290
     0
  0
ENDSEC
  0
SECTION
  2
CLASSES
  0
CLASS
  1
ACDBDICTIONARYWDFLT
  2
AcDbDictionaryWithDefault
  3
ObjectDBX Classes
 90
        0
280
     0
281
     0
  0
CLASS
  1
VISUALSTYLE
  2
AcDbVisualStyle
  3
ObjectDBX Classes
 90
     4095
280
     0
281
     0
  0
CLASS
  1
SCALE
  2
AcDbScale
  3
ObjectDBX Classes
 90
     1153
280
     0
281
     0
  0
CLASS
  1

  2
exOdDbPolyline
  3

 90
        0
280
     0
281
     1
  0
CLASS
  1

  2
exOdDbCircle
  3

 90
        0
280
     0
281
     1
  0
CLASS
  1

  2
exOdDbSpline
  3

 90
        0
280
     0
281
     1
  0
CLASS
  1
DICTIONARYVAR
  2
AcDbDictionaryVar
  3
ObjectDBX Classes
 90
        0
280
     0
281
     0
  0
CLASS
  1
ACDBPLACEHOLDER
  2
AcDbPlaceHolder
  3
ObjectDBX Classes
 90
        0
280
     0
281
     0
  0
CLASS
  1
LAYOUT
  2
AcDbLayout
  3
ObjectDBX Classes
 90
        0
280
     0
281
     0
  0
ENDSEC
  0
SECTION
  2
TABLES
  0
TABLE
  2
VPORT
  5
8
330
0
100
AcDbSymbolTable
 70
     1
  0
VPORT
  5
29
330
8
100
AcDbSymbolTableRecord
100
AcDbViewportTableRecord
  2
*Active
 70
     0
 10
0.0
 20
0.0
 11
1.0
 21
1.0
 12
160.8566045948855
 22
312.97460543848
 13
0.0
 23
0.0
 14
0.5
 24
0.5
 15
0.5
 25
0.5
 16
0.0
 26
0.0
 36
1.0
 17
0.0
 27
0.0
 37
0.0
 40
207.4007057001846
 41
1.60267857142857
 42
50.0
 43
0.0
 44
0.0
 50
0.0
 51
0.0
 71
     0
 72
   100
 73
     1
 74
     3
 75
     0
 76
     0
 77
     0
 78
     0
281
     0
 65
     1
110
0.0
120
0.0
130
0.0
111
1.0
121
0.0
131
0.0
112
0.0
122
1.0
132
0.0
 79
     0
146
0.0
  0
ENDTAB
  0
TABLE
  2
LTYPE
  5
5
330
0
100
AcDbSymbolTable
 70
     8
  0
LTYPE
  5
14
330
5
100
AcDbSymbolTableRecord
100
AcDbLinetypeTableRecord
  2
ByBlock
 70
     0
  3

 72
    65
 73
     0
 40
0.0
  0
LTYPE
  5
15
330
5
100
AcDbSymbolTableRecord
100
AcDbLinetypeTableRecord
  2
ByLayer
 70
     0
  3

 72
    65
 73
     0
 40
0.0
  0
LTYPE
  5
16
330
5
100
AcDbSymbolTableRecord
100
AcDbLinetypeTableRecord
  2
Continuous
 70
     0
  3
Solid line
 72
    65
 73
     0
 40
0.0
  0
LTYPE
  5
3B
330
5
100
AcDbSymbolTableRecord
100
AcDbLinetypeTableRecord
  2
DASHED
 70
     0
  3
Dashed
 72
    65
 73
     2
 40
15.0
 49
7.0
 74
     0
 49
-8.0
 74
     0
  0
LTYPE
  5
3C
330
5
100
AcDbSymbolTableRecord
100
AcDbLinetypeTableRecord
  2
DOTTED
 70
     0
  3
Dotted
 72
    65
 73
     2
 40
1.0
 49
0.0
 74
     0
 49
-1.0
 74
     0
  0
LTYPE
  5
3D
330
5
100
AcDbSymbolTableRecord
100
AcDbLinetypeTableRecord
  2
DOT_CENTER
 70
     0
  3
Dot_Center
 72
    65
 73
     4
 40
14.0
 49
12.0
 74
     0
 49
-1.0
 74
     0
 49
0.0
 74
     0
 49
-1.0
 74
     0
  0
LTYPE
  5
3E
330
5
100
AcDbSymbolTableRecord
100
AcDbLinetypeTableRecord
  2
LONG_DASHED
 70
     0
  3
Long_Dashed
 72
    65
 73
     2
 40
15.0
 49
10.0
 74
     0
 49
-5.0
 74
     0
  0
LTYPE
  5
3F
330
5
100
AcDbSymbolTableRecord
100
AcDbLinetypeTableRecord
  2
DASH_CENTER
 70
     0
  3
Dash_Center
 72
    65
 73
     4
 40
14.0
 49
11.0
 74
     0
 49
-1.0
 74
     0
 49
1.0
 74
     0
 49
-1.0
 74
     0
  0
LTYPE
  5
40
330
5
100
AcDbSymbolTableRecord
100
AcDbLinetypeTableRecord
  2
PHANTOM
 70
     0
  3
Phantom
 72
    65
 73
     6
 40
13.0
 49
10.0
 74
     0
 49
-1.0
 74
     0
 49
0.0
 74
     0
 49
-1.0
 74
     0
 49
0.0
 74
     0
 49
-1.0
 74
     0
  0
LTYPE
  5
41
330
5
100
AcDbSymbolTableRecord
100
AcDbLinetypeTableRecord
  2
CENTER_DASH_DASH
 70
     0
  3
Center_Dash_Dash
 72
    65
 73
     6
 40
14.0
 49
9.0
 74
     0
 49
-1.0
 74
     0
 49
1.0
 74
     0
 49
-1.0
 74
     0
 49
1.0
 74
     0
 49
-1.0
 74
     0
  0
ENDTAB
  0
TABLE
  2
LAYER
  5
2
330
0
100
AcDbSymbolTable
 70
     6
  0
LAYER
  5
10
330
2
100
AcDbSymbolTableRecord
100
AcDbLayerTableRecord
  2
0
 70
     0
 62
     7
  6
Continuous
370
    -3
390
F
  0
LAYER
  5
42
330
2
100
AcDbSymbolTableRecord
100
AcDbLayerTableRecord
  2
1
 70
     0
 62
     7
  6
Continuous
370
    -3
390
F
  0
LAYER
  5
43
330
2
100
AcDbSymbolTableRecord
100
AcDbLayerTableRecord
  2
BEZUGSACHSEN
 70
     0
 62
     7
  6
Continuous
370
    -3
390
F
  0
LAYER
  5
44
330
2
100
AcDbSymbolTableRecord
100
AcDbLayerTableRecord
  2
DEFAULT_2
 70
     0
 62
     7
  6
Continuous
370
    -3
390
F
  0
LAYER
  5
45
330
2
100
AcDbSymbolTableRecord
100
AcDbLayerTableRecord
  2
FASEN
 70
     0
 62
     7
  6
Continuous
370
    -3
390
F
  0
LAYER
  5
46
330
2
100
AcDbSymbolTableRecord
100
AcDbLayerTableRecord
  2
RUNDUNGEN
 70
     0
 62
     7
  6
Continuous
370
    -3
390
F
  0
ENDTAB
  0
TABLE
  2
STYLE
  5
3
330
0
100
AcDbSymbolTable
 70
     2
  0
STYLE
  5
11
330
3
100
AcDbSymbolTableRecord
100
AcDbTextStyleTableRecord
  2
Standard
 70
     0
 40
0.0
 41
1.0
 50
0.0
 71
     0
 42
0.2
  3
txt
  4

  0
STYLE
  5
6D
330
3
100
AcDbSymbolTableRecord
100
AcDbTextStyleTableRecord
  2
CONVERTER_11
 70
     0
 40
0.0
 41
0.72
 50
0.0
 71
     0
 42
0.2
  3
txt.shx
  4

  0
ENDTAB
  0
TABLE
  2
VIEW
  5
6
330
0
100
AcDbSymbolTable
 70
     0
  0
ENDTAB
  0
TABLE
  2
UCS
  5
7
330
0
100
AcDbSymbolTable
 70
     0
  0
ENDTAB
  0
TABLE
  2
APPID
  5
9
330
0
100
AcDbSymbolTable
 70
     1
  0
APPID
  5
12
330
9
100
AcDbSymbolTableRecord
100
AcDbRegAppTableRecord
  2
ACAD
 70
     0
  0
ENDTAB
  0
TABLE
  2
DIMSTYLE
  5
A
330
0
100
AcDbSymbolTable
 70
     8
100
AcDbDimStyleTable
  0
DIMSTYLE
105
27
330
A
100
AcDbSymbolTableRecord
100
AcDbDimStyleTableRecord
  2
Standard
 70
     0
340
11
  0
DIMSTYLE
105
105
102
{ACAD_REACTORS
330
106
102
}
330
A
100
AcDbSymbolTableRecord
100
AcDbDimStyleTableRecord
  2
ME10_DIM_10
 70
     0
  3
\U+2300<>
 41
3.5
 42
2.0
 44
2.0
 71
     1
 73
     0
 74
     0
 77
     1
 78
     8
140
3.5
146
0.7
147
2.0
172
     1
173
     1
176
     2
177
     2
178
     3
271
     2
272
     0
340
6D
  0
DIMSTYLE
105
110
102
{ACAD_REACTORS
330
111
102
}
330
A
100
AcDbSymbolTableRecord
100
AcDbDimStyleTableRecord
  2
ME10_DIM_11
 70
     0
  3
\U+2300<>
 41
3.5
 42
2.0
 44
2.0
 71
     1
 73
     0
 74
     0
 77
     1
 78
     8
140
3.5
146
0.7
147
2.0
172
     1
173
     1
176
     2
177
     2
178
     3
271
     2
272
     0
340
6D
  0
DIMSTYLE
105
11B
102
{ACAD_REACTORS
330
11C
102
}
330
A
100
AcDbSymbolTableRecord
100
AcDbDimStyleTableRecord
  2
ME10_DIM_12
 70
     0
  3
\U+2300<>
 41
3.5
 42
2.0
 44
2.0
 71
     1
 73
     0
 74
     0
 77
     1
 78
     8
140
3.5
146
0.7
147
2.0
172
     1
173
     1
176
     2
177
     2
178
     3
271
     2
272
     0
340
6D
  0
DIMSTYLE
105
126
102
{ACAD_REACTORS
330
127
102
}
330
A
100
AcDbSymbolTableRecord
100
AcDbDimStyleTableRecord
  2
ME10_DIM_13
 70
     0
  3
<>
 41
3.5
 42
2.0
 44
2.0
 71
     1
 73
     0
 74
     0
 77
     1
 78
     8
140
3.5
146
0.7
147
2.0
172
     1
173
     1
176
     2
177
     2
178
     3
271
     2
272
     0
340
6D
  0
DIMSTYLE
105
131
102
{ACAD_REACTORS
330
132
102
}
330
A
100
AcDbSymbolTableRecord
100
AcDbDimStyleTableRecord
  2
ME10_DIM_14
 70
     0
  3
<>
 41
3.5
 42
2.0
 44
2.0
 71
     1
 73
     0
 74
     0
 77
     1
 78
     8
140
3.5
146
0.7
147
2.0
172
     1
173
     1
176
     2
177
     2
178
     3
271
     2
272
     0
340
6D
  0
DIMSTYLE
105
13C
102
{ACAD_REACTORS
330
13D
102
}
330
A
100
AcDbSymbolTableRecord
100
AcDbDimStyleTableRecord
  2
ME10_DIM_15
 70
     0
  3
<>
 41
3.5
 42
2.0
 44
2.0
 71
     1
 73
     0
 74
     0
 77
     1
 78
     8
140
3.5
146
0.7
147
2.0
172
     1
173
     1
176
     2
177
     2
178
     3
271
     2
272
     0
340
6D
  0
DIMSTYLE
105
14E
102
{ACAD_REACTORS
330
14F
102
}
330
A
100
AcDbSymbolTableRecord
100
AcDbDimStyleTableRecord
  2
ME10_DIM_16
 70
     0
  3
<>
 41
3.5
 42
2.0
 44
2.0
 71
     1
 73
     0
 74
     0
 77
     1
 78
     8
140
3.5
146
0.7
147
2.0
172
     1
173
     1
176
     2
177
     2
178
     3
271
     2
272
     0
340
6D
  0
ENDTAB
  0
TABLE
  2
BLOCK_RECORD
  5
1
330
0
100
AcDbSymbolTable
 70
    10
  0
BLOCK_RECORD
  5
1F
330
1
100
AcDbSymbolTableRecord
100
AcDbBlockTableRecord
  2
*Model_Space
340
22
  0
BLOCK_RECORD
  5
1B
330
1
100
AcDbSymbolTableRecord
100
AcDbBlockTableRecord
  2
*Paper_Space
340
1E
  0
BLOCK_RECORD
  5
23
330
1
100
AcDbSymbolTableRecord
100
AcDbBlockTableRecord
  2
*Paper_Space0
340
26
  0
BLOCK_RECORD
  5
47
330
1
100
AcDbSymbolTableRecord
100
AcDbBlockTableRecord
  2
Urheberrecht_DE-EN
340
0
102
{BLKREFS
331
6C
102
}
  0
BLOCK_RECORD
  5
FC
330
1
100
AcDbSymbolTableRecord
100
AcDbBlockTableRecord
  2
*D2
340
0
  0
BLOCK_RECORD
  5
107
330
1
100
AcDbSymbolTableRecord
100
AcDbBlockTableRecord
  2
*D3
340
0
  0
BLOCK_RECORD
  5
112
330
1
100
AcDbSymbolTableRecord
100
AcDbBlockTableRecord
  2
*D4
340
0
  0
BLOCK_RECORD
  5
11D
330
1
100
AcDbSymbolTableRecord
100
AcDbBlockTableRecord
  2
*D5
340
0
  0
BLOCK_RECORD
  5
128
330
1
100
AcDbSymbolTableRecord
100
AcDbBlockTableRecord
  2
*D6
340
0
  0
BLOCK_RECORD
  5
133
330
1
100
AcDbSymbolTableRecord
100
AcDbBlockTableRecord
  2
*D7
340
0
  0
BLOCK_RECORD
  5
13E
330
1
100
AcDbSymbolTableRecord
100
AcDbBlockTableRecord
  2
*D8
340
0
102
{BLKREFS
331
144
102
}
  0
BLOCK_RECORD
  5
145
330
1
100
AcDbSymbolTableRecord
100
AcDbBlockTableRecord
  2
*D9
340
0
  0
ENDTAB
  0
ENDSEC
  0
SECTION
  2
BLOCKS
  0
BLOCK
  5
20
330
1F
100
AcDbEntity
  8
0
100
AcDbBlockBegin
  2
*Model_Space
 70
     0
 10
0.0
 20
0.0
 30
0.0
  3
*Model_Space
  1

  0
ENDBLK
  5
21
330
1F
100
AcDbEntity
  8
0
100
AcDbBlockEnd
  0
BLOCK
  5
1C
330
1B
100
AcDbEntity
 67
     1
  8
0
100
AcDbBlockBegin
  2
*Paper_Space
 70
     0
 10
0.0
 20
0.0
 30
0.0
  3
*Paper_Space
  1

  0
ENDBLK
  5
1D
330
1B
100
AcDbEntity
 67
     1
  8
0
100
AcDbBlockEnd
  0
BLOCK
  5
24
330
23
100
AcDbEntity
  8
0
100
AcDbBlockBegin
  2
*Paper_Space0
 70
     0
 10
0.0
 20
0.0
 30
0.0
  3
*Paper_Space0
  1

  0
ENDBLK
  5
25
330
23
100
AcDbEntity
  8
0
100
AcDbBlockEnd
  0
BLOCK
  5
48
330
47
100
AcDbEntity
  8
0
100
AcDbBlockBegin
  2
Urheberrecht_DE-EN
 70
     0
 10
23.7672106290449
 20
312.533707674991
 30
0.0
  3
Urheberrecht_DE-EN
  1

  0
MTEXT
  5
6E
330
47
100
AcDbEntity
  8
1
 62
     1
100
AcDbMText
 10
23.7672106290449
 20
312.533707674991
 30
0.0
 40
2.0
 41
0.0
 71
     7
 72
     1
  1
We own the copyright of this document. It \Pdetermined and may neither be copied or \Pmade accessible to outsiders without our\Ppermission.
  7
CONVERTER_11
 11
0.0
 21
1.0
 31
0.0
 73
     1
 44
0.90036014405762
  0
MTEXT
  5
6F
330
47
100
AcDbEntity
  8
1
 62
     1
100
AcDbMText
 10
23.7672106290449
 20
256.2443207576848
 30
0.0
 40
2.0
 41
0.0
 71
     7
 72
     1
  1
F\U+00fcr diese Unterlage behalten wir das Ur-\Pheberrecht. Sie darf nur f\U+00fcr den von uns \Pbestimmten Zweck benutzt und ohne unsere \PZustimmung weder vervielf\U+00e4ltigt noch\PDritten zug\U+00e4nglich gemacht werden.
  7
CONVERTER_11
 11
0.0
 21
1.0
 31
0.0
 73
     1
 44
0.90036014405762
  0
ENDBLK
  5
49
330
47
100
AcDbEntity
  8
0
100
AcDbBlockEnd
  0
BLOCK
  5
103
330
FC
100
AcDbEntity
  8
0
100
AcDbBlockBegin
  2
*D2
 70
     1
 10
0.0
 20
0.0
 30
0.0
  3
*D2
  1

  0
LINE
  5
FD
330
FC
100
AcDbEntity
  8
1
  6
Continuous
 62
     2
100
AcDbLine
 10
293.195053992087
 20
310.6771948608
 30
0.0
 11
293.195053992087
 21
285.6771948608
 31
0.0
  0
LINE
  5
FE
330
FC
100
AcDbEntity
  8
1
  6
Continuous
 62
     2
100
AcDbLine
 10
283.0124464668
 20
310.6771948608
 30
0.0
 11
295.195053992087
 21
310.6771948608
 31
0.0
  0
LINE
  5
FF
330
FC
100
AcDbEntity
  8
1
  6
Continuous
 62
     2
100
AcDbLine
 10
283.0124464668
 20
285.6771948608
 30
0.0
 11
295.195053992087
 21
285.6771948608
 31
0.0
  0
SOLID
  5
100
330
FC
100
AcDbEntity
  8
1
 62
     2
100
AcDbTrace
 10
293.6558377336429
 20
307.1771948608
 30
0.0
 11
292.7342702505312
 21
307.1771948608
 31
0.0
 12
293.195053992087
 22
310.6771948608
 32
0.0
 13
293.195053992087
 23
310.6771948608
 33
0.0
  0
SOLID
  5
101
330
FC
100
AcDbEntity
  8
1
 62
     2
100
AcDbTrace
 10
292.7342702505312
 20
289.1771948608
 30
0.0
 11
293.6558377336429
 21
289.1771948608
 31
0.0
 12
293.195053992087
 22
285.6771948608
 32
0.0
 13
293.195053992087
 23
285.6771948608
 33
0.0
  0
MTEXT
  5
102
330
FC
100
AcDbEntity
  8
1
 62
     3
100
AcDbMText
 10
291.195053992087
 20
288.945949198959
 30
0.0
 40
3.5
 41
0.0
 71
     7
 72
     1
  1
\C3;%%c\C3;\C3;25\C2;\H2.45;\S^ ;\C3;
  7
CONVERTER_11
 11
0.0
 21
1.0
 31
0.0
 73
     1
 44
0.60024009603842
  0
ENDBLK
  5
104
330
FC
100
AcDbEntity
  8
0
100
AcDbBlockEnd
  0
BLOCK
  5
10E
330
107
100
AcDbEntity
  8
0
100
AcDbBlockBegin
  2
*D3
 70
     1
 10
0.0
 20
0.0
 30
0.0
  3
*D3
  1

  0
LINE
  5
108
330
107
100
AcDbEntity
  8
1
  6
Continuous
 62
     2
100
AcDbLine
 10
301.267798362515
 20
320.1771948608466
 30
0.0
 11
301.267798362515
 21
276.1771948607559
 31
0.0
  0
LINE
  5
109
330
107
100
AcDbEntity
  8
1
  6
Continuous
 62
     2
100
AcDbLine
 10
283.0124464668
 20
320.1771948608466
 30
0.0
 11
303.267798362515
 21
320.1771948608466
 31
0.0
  0
LINE
  5
10A
330
107
100
AcDbEntity
  8
1
  6
Continuous
 62
     2
100
AcDbLine
 10
283.0124464668
 20
276.1771948607559
 30
0.0
 11
303.267798362515
 21
276.1771948607559
 31
0.0
  0
SOLID
  5
10B
330
107
100
AcDbEntity
  8
1
 62
     2
100
AcDbTrace
 10
301.7285821040709
 20
316.6771948608466
 30
0.0
 11
300.8070146209591
 21
316.6771948608466
 31
0.0
 12
301.267798362515
 22
320.1771948608466
 32
0.0
 13
301.267798362515
 23
320.1771948608466
 33
0.0
  0
SOLID
  5
10C
330
107
100
AcDbEntity
  8
1
 62
     2
100
AcDbTrace
 10
300.8070146209591
 20
279.6771948607559
 30
0.0
 11
301.7285821040709
 21
279.6771948607559
 31
0.0
 12
301.267798362515
 22
276.1771948607559
 32
0.0
 13
301.267798362515
 23
276.1771948607559
 33
0.0
  0
MTEXT
  5
10D
330
107
100
AcDbEntity
  8
1
 62
     3
100
AcDbMText
 10
299.267798362515
 20
289.753223636002
 30
0.0
 40
3.5
 41
0.0
 71
     7
 72
     1
  1
\C3;%%c\C3;\C3;44\C2;\H2.45;\S^ ;\C3;
  7
CONVERTER_11
 11
0.0
 21
1.0
 31
0.0
 73
     1
 44
0.60024009603842
  0
ENDBLK
  5
10F
330
107
100
AcDbEntity
  8
0
100
AcDbBlockEnd
  0
BLOCK
  5
119
330
112
100
AcDbEntity
  8
0
100
AcDbBlockBegin
  2
*D4
 70
     1
 10
0.0
 20
0.0
 30
0.0
  3
*D4
  1

  0
LINE
  5
113
330
112
100
AcDbEntity
  8
1
  6
Continuous
 62
     2
100
AcDbLine
 10
309.945998560726
 20
324.6771948608
 30
0.0
 11
309.945998560726
 21
271.6771948608
 31
0.0
  0
LINE
  5
114
330
112
100
AcDbEntity
  8
1
  6
Continuous
 62
     2
100
AcDbLine
 10
225.834525154
 20
324.6771948608
 30
0.0
 11
311.945998560726
 21
324.6771948608
 31
0.0
  0
LINE
  5
115
330
112
100
AcDbEntity
  8
1
  6
Continuous
 62
     2
100
AcDbLine
 10
225.834525154
 20
271.6771948608
 30
0.0
 11
311.945998560726
 21
271.6771948608
 31
0.0
  0
SOLID
  5
116
330
112
100
AcDbEntity
  8
1
 62
     2
100
AcDbTrace
 10
310.4067823022819
 20
321.1771948608
 30
0.0
 11
309.4852148191702
 21
321.1771948608
 31
0.0
 12
309.945998560726
 22
324.6771948608
 32
0.0
 13
309.945998560726
 23
324.6771948608
 33
0.0
  0
SOLID
  5
117
330
112
100
AcDbEntity
  8
1
 62
     2
100
AcDbTrace
 10
309.4852148191702
 20
275.1771948608
 30
0.0
 11
310.4067823022819
 21
275.1771948608
 31
0.0
 12
309.945998560726
 22
271.6771948608
 32
0.0
 13
309.945998560726
 23
271.6771948608
 33
0.0
  0
MTEXT
  5
118
330
112
100
AcDbEntity
  8
1
 62
     3
100
AcDbMText
 10
307.945998560726
 20
289.955042245263
 30
0.0
 40
3.5
 41
0.0
 71
     7
 72
     1
  1
\C3;%%c\C3;\C3;53\C2;\H2.45;\S^ ;\C3;
  7
CONVERTER_11
 11
0.0
 21
1.0
 31
0.0
 73
     1
 44
0.60024009603842
  0
ENDBLK
  5
11A
330
112
100
AcDbEntity
  8
0
100
AcDbBlockEnd
  0
BLOCK
  5
124
330
11D
100
AcDbEntity
  8
0
100
AcDbBlockBegin
  2
*D5
 70
     1
 10
0.0
 20
0.0
 30
0.0
  3
*D5
  1

  0
LINE
  5
11E
330
11D
100
AcDbEntity
  8
1
  6
Continuous
 62
     2
100
AcDbLine
 10
281.0124464668
 20
357.337438930868
 30
0.0
 11
110.0124464668
 21
357.337438930868
 31
0.0
  0
LINE
  5
11F
330
11D
100
AcDbEntity
  8
1
  6
Continuous
 62
     2
100
AcDbLine
 10
281.0124464668
 20
321.2528043692
 30
0.0
 11
281.0124464668
 21
359.337438930868
 31
0.0
  0
LINE
  5
120
330
11D
100
AcDbEntity
  8
1
  6
Continuous
 62
     2
100
AcDbLine
 10
110.0124464668
 20
350.1771579397
 30
0.0
 11
110.0124464668
 21
359.337438930868
 31
0.0
  0
SOLID
  5
121
330
11D
100
AcDbEntity
  8
1
 62
     2
100
AcDbTrace
 10
277.5124464668
 20
356.8766551893121
 30
0.0
 11
277.5124464668
 21
357.7982226724239
 31
0.0
 12
281.0124464668
 22
357.337438930868
 32
0.0
 13
281.0124464668
 23
357.337438930868
 33
0.0
  0
SOLID
  5
122
330
11D
100
AcDbEntity
  8
1
 62
     2
100
AcDbTrace
 10
113.5124464668
 20
357.7982226724239
 30
0.0
 11
113.5124464668
 21
356.8766551893121
 31
0.0
 12
110.0124464668
 22
357.337438930868
 32
0.0
 13
110.0124464668
 23
357.337438930868
 33
0.0
  0
MTEXT
  5
123
330
11D
100
AcDbEntity
  8
1
 62
     3
100
AcDbMText
 10
195.214851811773
 20
359.337438930868
 30
0.0
 40
3.5
 41
0.0
 71
     7
 72
     1
  1
\C3;\C3;\C3;171\C2;\H2.45;\S^ ;\C3;
  7
CONVERTER_11
 11
0.9999999999970619
 21
2.424068405545306E-6
 31
0.0
 73
     1
 44
0.60024009603842
  0
ENDBLK
  5
125
330
11D
100
AcDbEntity
  8
0
100
AcDbBlockEnd
  0
BLOCK
  5
12F
330
128
100
AcDbEntity
  8
0
100
AcDbBlockBegin
  2
*D6
 70
     1
 10
0.0
 20
0.0
 30
0.0
  3
*D6
  1

  0
LINE
  5
129
330
128
100
AcDbEntity
  8
1
  6
Continuous
 62
     2
100
AcDbLine
 10
281.0124464668
 20
364.804727473514
 30
0.0
 11
81.0124464668
 21
364.804727473514
 31
0.0
  0
LINE
  5
12A
330
128
100
AcDbEntity
  8
1
  6
Continuous
 62
     2
100
AcDbLine
 10
281.0124464668
 20
321.2528043692
 30
0.0
 11
281.0124464668
 21
366.804727473514
 31
0.0
  0
LINE
  5
12B
330
128
100
AcDbEntity
  8
1
  6
Continuous
 62
     2
100
AcDbLine
 10
81.0124464668
 20
350.1771948608
 30
0.0
 11
81.0124464668
 21
366.804727473514
 31
0.0
  0
SOLID
  5
12C
330
128
100
AcDbEntity
  8
1
 62
     2
100
AcDbTrace
 10
277.5124464668
 20
364.3439437319581
 30
0.0
 11
277.5124464668
 21
365.2655112150699
 31
0.0
 12
281.0124464668
 22
364.804727473514
 32
0.0
 13
281.0124464668
 23
364.804727473514
 33
0.0
  0
SOLID
  5
12D
330
128
100
AcDbEntity
  8
1
 62
     2
100
AcDbTrace
 10
84.5124464668
 20
365.2655112150699
 30
0.0
 11
84.5124464668
 21
364.3439437319581
 31
0.0
 12
81.0124464668
 22
364.804727473514
 32
0.0
 13
81.0124464668
 23
364.804727473514
 33
0.0
  0
MTEXT
  5
12E
330
128
100
AcDbEntity
  8
1
 62
     3
100
AcDbMText
 10
177.623907243135
 20
366.804727473514
 30
0.0
 40
3.5
 41
0.0
 71
     7
 72
     1
  1
\C3;\C3;\C3;200\C2;\H2.45;\S^ ;\C3;
  7
CONVERTER_11
 11
0.9999999999970619
 21
2.424068405545306E-6
 31
0.0
 73
     1
 44
0.60024009603842
  0
ENDBLK
  5
130
330
128
100
AcDbEntity
  8
0
100
AcDbBlockEnd
  0
BLOCK
  5
13A
330
133
100
AcDbEntity
  8
0
100
AcDbBlockBegin
  2
*D7
 70
     1
 10
0.0
 20
0.0
 30
0.0
  3
*D7
  1

  0
LINE
  5
134
330
133
100
AcDbEntity
  8
1
  6
Continuous
 62
     2
100
AcDbLine
 10
281.0124464668
 20
372.27201601616
 30
0.0
 11
31.01244646680001
 21
372.27201601616
 31
0.0
  0
LINE
  5
135
330
133
100
AcDbEntity
  8
1
  6
Continuous
 62
     2
100
AcDbLine
 10
281.0124464668
 20
321.2528043692
 30
0.0
 11
281.0124464668
 21
374.27201601616
 31
0.0
  0
LINE
  5
136
330
133
100
AcDbEntity
  8
1
  6
Continuous
 62
     2
100
AcDbLine
 10
31.01244646680001
 20
333.7773864234
 30
0.0
 11
31.01244646680001
 21
374.27201601616
 31
0.0
  0
SOLID
  5
137
330
133
100
AcDbEntity
  8
1
 62
     2
100
AcDbTrace
 10
277.5124464668
 20
371.8112322746042
 30
0.0
 11
277.5124464668
 21
372.7327997577159
 31
0.0
 12
281.0124464668
 22
372.27201601616
 32
0.0
 13
281.0124464668
 23
372.27201601616
 33
0.0
  0
SOLID
  5
138
330
133
100
AcDbEntity
  8
1
 62
     2
100
AcDbTrace
 10
34.51244646680001
 20
372.7327997577159
 30
0.0
 11
34.51244646680001
 21
371.8112322746042
 31
0.0
 12
31.01244646680001
 22
372.27201601616
 32
0.0
 13
31.01244646680001
 23
372.27201601616
 33
0.0
  0
MTEXT
  5
139
330
133
100
AcDbEntity
  8
1
 62
     3
100
AcDbMText
 10
164.505697641189
 20
374.27201601616
 30
0.0
 40
3.5
 41
0.0
 71
     7
 72
     1
  1
\C3;\C3;\C3;250\C2;\H2.45;\S^ ;\C3;
  7
CONVERTER_11
 11
0.9999999999970619
 21
2.424068405545306E-6
 31
0.0
 73
     1
 44
0.60024009603842
  0
ENDBLK
  5
13B
330
133
100
AcDbEntity
  8
0
100
AcDbBlockEnd
  0
BLOCK
  5
142
330
13E
100
AcDbEntity
  8
0
100
AcDbBlockBegin
  2
*D8
 70
     1
 10
0.0
 20
0.0
 30
0.0
  3
*D8
  1

  0
LINE
  5
13F
330
13E
100
AcDbEntity
  8
1
  6
Continuous
 62
     2
100
AcDbLine
 10
125.1331548947878
 20
339.9988797720076
 30
0.0
 11
113.3439613675578
 21
330.9042994203342
 31
0.0
  0
SOLID
  5
140
330
13E
100
AcDbEntity
  8
1
 62
     2
100
AcDbTrace
 10
115.8337430250863
 20
333.4069597956782
 30
0.0
 11
116.3966419409478
 21
332.6772808001939
 31
0.0
 12
113.3439613675578
 22
330.9042994203342
 32
0.0
 13
113.3439613675578
 23
330.9042994203342
 33
0.0
  0
MTEXT
  5
141
330
13E
100
AcDbEntity
  8
1
 62
     3
100
AcDbMText
 10
116.7063420645355
 20
336.0241061276479
 30
0.0
 40
3.5
 41
0.0
 71
     7
 72
     1
  1
\C3; R\C3;\C3;16\C2;\H2.45;\S^ ;\C3;
  7
CONVERTER_11
 11
0.7917803187026371
 21
0.6108059650291167
 31
0.0
 73
     1
 44
0.60024009603842
  0
ENDBLK
  5
143
330
13E
100
AcDbEntity
  8
0
100
AcDbBlockEnd
  0
BLOCK
  5
14C
330
145
100
AcDbEntity
  8
0
100
AcDbBlockBegin
  2
*D9
 70
     1
 10
0.0
 20
0.0
 30
0.0
  3
*D9
  1

  0
LINE
  5
146
330
145
100
AcDbEntity
  8
1
  6
Continuous
 62
     2
100
AcDbLine
 10
258.0437509045652
 20
324.6771948608001
 30
0.0
 11
260.0437509045652
 21
324.6771948608001
 31
0.0
  0
LINE
  5
147
330
145
100
AcDbEntity
  8
1
  6
Continuous
 62
     2
100
AcDbLine
 10
225.834525154
 20
324.6771948608001
 30
0.0
 11
258.0437509045652
 21
324.6771948608001
 31
0.0
  0
ARC
  5
148
330
145
100
AcDbEntity
  8
1
  6
Continuous
 62
     2
100
AcDbCircle
 10
223.834525154
 20
324.6771948608001
 30
0.0
 40
34.20922575056523
100
AcDbArc
 50
346.706967248071
 51
16.05528669012067
  0
SOLID
  5
149
330
145
100
AcDbEntity
  8
1
 62
     2
100
AcDbTrace
 10
257.9425459456027
 20
318.4629711399311
 30
0.0
 11
257.0287184244275
 21
318.582159593532
 31
0.0
 12
257.9382952783293
 22
321.9931699428755
 32
0.0
 13
257.9382952783293
 23
321.9931699428755
 33
0.0
  0
SOLID
  5
14A
330
145
100
AcDbEntity
  8
1
 62
     2
100
AcDbTrace
 10
257.4046027600746
 20
328.1490547810556
 30
0.0
 11
258.3249646742672
 21
328.1961777354688
 31
0.0
 12
258.0437509045652
 22
324.6771948608001
 32
0.0
 13
258.0437509045652
 23
324.6771948608001
 33
0.0
  0
MTEXT
  5
14B
330
145
100
AcDbEntity
  8
1
 62
     3
100
AcDbMText
 10
258.7968521362059
 20
334.7390011819688
 30
0.0
 40
3.5
 41
0.0
 71
     7
 72
     1
  1
\C3;\C3;\C3;4.5%%d\C2;\H2.45;\S^ ;\C3;
  7
CONVERTER_11
 11
0.1818809435291644
 21
-0.9833205593197678
 31
0.0
 73
     1
 44
0.60024009603842
  0
ENDBLK
  5
14D
330
145
100
AcDbEntity
  8
0
100
AcDbBlockEnd
  0
ENDSEC
  0
SECTION
  2
ENTITIES
  0
INSERT
  5
6C
330
1F
100
AcDbEntity
  8
0
100
AcDbBlockReference
  2
Urheberrecht_DE-EN
 10
23.7672106290449
 20
312.533707674991
 30
0.0
  0
LINE
  5
70
330
1F
100
AcDbEntity
  8
BEZUGSACHSEN
  6
Continuous
 62
     7
100
AcDbLine
 10
31.0124464668
 20
264.5770032979
 30
0.0
 11
31.0124464668
 21
286.1671948608
 31
0.0
  0
LINE
  5
71
330
1F
100
AcDbEntity
  8
BEZUGSACHSEN
  6
Continuous
 62
     7
100
AcDbLine
 10
31.0124464668
 20
310.1871948608
 30
0.0
 11
31.0124464668
 21
331.7773864234
 31
0.0
  0
LINE
  5
72
330
1F
100
AcDbEntity
  8
BEZUGSACHSEN
  6
Continuous
 62
     9
100
AcDbLine
 10
32.9123719821
 20
333.7748811291
 30
0.0
 11
32.9123719821
 21
313.8537272471
 31
0.0
  0
LINE
  5
73
330
1F
100
AcDbEntity
  8
BEZUGSACHSEN
  6
Continuous
 62
     9
100
AcDbLine
 10
32.9123719821
 20
282.5006624746
 30
0.0
 11
32.9123719821
 21
262.5795085925
 31
0.0
  0
LINE
  5
74
330
1F
100
AcDbEntity
  8
BEZUGSACHSEN
  6
Continuous
 62
     7
100
AcDbLine
 10
33.0124464668
 20
285.7735549124
 30
0.0
 11
33.0124464668
 21
288.1671948608
 31
0.0
  0
LINE
  5
75
330
1F
100
AcDbEntity
  8
BEZUGSACHSEN
  6
Continuous
 62
     7
100
AcDbLine
 10
33.0124464668
 20
308.1871948608
 30
0.0
 11
33.0124464668
 21
310.5808348092
 31
0.0
  0
LINE
  5
76
330
1F
100
AcDbEntity
  8
BEZUGSACHSEN
  6
Continuous
 62
     9
100
AcDbLine
 10
39.0124464668
 20
281.8185472734
 30
0.0
 11
39.0124464668
 21
288.1671948608
 31
0.0
  0
LINE
  5
77
330
1F
100
AcDbEntity
  8
BEZUGSACHSEN
  6
Continuous
 62
     9
100
AcDbLine
 10
39.0124464668
 20
308.1871948608
 30
0.0
 11
39.0124464668
 21
314.5358424483
 31
0.0
  0
LINE
  5
78
330
1F
100
AcDbEntity
  8
BEZUGSACHSEN
  6
Continuous
 62
     7
100
AcDbLine
 10
41.0124464668
 20
311.0468503866
 30
0.0
 11
41.0124464668
 21
285.307539335
 31
0.0
  0
LINE
  5
79
330
1F
100
AcDbEntity
  8
BEZUGSACHSEN
  6
Continuous
 62
     7
100
AcDbLine
 10
32.2793993938
 20
283.1671948608
 30
0.0
 11
32.1582891424
 21
282.9348588654
 31
0.0
  0
LINE
  5
7A
330
1F
100
AcDbEntity
  8
BEZUGSACHSEN
  6
Continuous
 62
     7
100
AcDbLine
 10
32.1582891424
 20
313.4195308563
 30
0.0
 11
32.2793993938
 21
313.1871948608
 31
0.0
  0
LWPOLYLINE
  5
7B
330
1F
100
AcDbEntity
  8
BEZUGSACHSEN
  6
DOT_CENTER
 62
     7
100
AcDbPolyline
 90
        2
 70
     0
 43
0.25
 10
66.0124464668
 20
298.1771948608
 10
66.0124464668
 20
289.1771948608
  0
LWPOLYLINE
  5
7C
330
1F
100
AcDbEntity
  8
BEZUGSACHSEN
  6
DOT_CENTER
 62
     7
100
AcDbPolyline
 90
        2
 70
     0
 43
0.25
 10
66.0124464668
 20
298.1771948608
 10
66.0124464668
 20
307.1771948608
  0
LINE
  5
7D
330
1F
100
AcDbEntity
  8
BEZUGSACHSEN
  6
Continuous
 62
     7
100
AcDbLine
 10
31.0124464668
 20
286.1671948608
 30
0.0
 11
33.0124464668
 21
288.1671948608
 31
0.0
  0
LINE
  5
7E
330
1F
100
AcDbEntity
  8
BEZUGSACHSEN
  6
Continuous
 62
     7
100
AcDbLine
 10
33.0124464668
 20
308.1871948608
 30
0.0
 11
31.0124464668
 21
310.1871948608
 31
0.0
  0
LINE
  5
7F
330
1F
100
AcDbEntity
  8
BEZUGSACHSEN
  6
Continuous
 62
     7
100
AcDbLine
 10
78.5124464668
 20
336.0594448608
 30
0.0
 11
78.5124464668
 21
260.2949448608
 31
0.0
  0
LINE
  5
80
330
1F
100
AcDbEntity
  8
BEZUGSACHSEN
  6
Continuous
 62
     9
100
AcDbLine
 10
79.1316900808
 20
260.4608706871
 30
0.0
 11
79.1316900808
 21
335.8935190345
 31
0.0
  0
LINE
  5
81
330
1F
100
AcDbEntity
  8
BEZUGSACHSEN
  6
Continuous
 62
     9
100
AcDbLine
 10
79.3905091259
 20
260.4949448608
 30
0.0
 11
79.3905091259
 21
335.8594448608
 31
0.0
  0
LINE
  5
82
330
1F
100
AcDbEntity
  8
BEZUGSACHSEN
  6
Continuous
 62
     9
100
AcDbLine
 10
80.3118751781
 20
260.4949448608
 30
0.0
 11
80.3118751781
 21
335.8594448608
 31
0.0
  0
LINE
  5
83
330
1F
100
AcDbEntity
  8
BEZUGSACHSEN
  6
Continuous
 62
     7
100
AcDbLine
 10
81.0124464668
 20
348.1771948608
 30
0.0
 11
81.0124464668
 21
248.1771948608
 31
0.0
  0
LWPOLYLINE
  5
84
330
1F
100
AcDbEntity
  8
BEZUGSACHSEN
  6
DOT_CENTER
 62
     7
100
AcDbPolyline
 90
        2
 70
     0
 43
0.25
 10
88.0124464668
 20
340.3265667161
 10
88.0124464668
 20
351.1771948608
  0
LINE
  5
85
330
1F
100
AcDbEntity
  8
FASEN
  6
Continuous
 62
     9
100
AcDbLine
 10
93.9843203887
 20
266.2771948608
 30
0.0
 11
93.9843203887
 21
266.6771948608
 31
0.0
  0
LINE
  5
86
330
1F
100
AcDbEntity
  8
BEZUGSACHSEN
  6
Continuous
 62
     7
100
AcDbLine
 10
102.8874464668
 20
345.799790125
 30
0.0
 11
104.260041731
 21
348.1771948608
 31
0.0
  0
LINE
  5
87
330
1F
100
AcDbEntity
  8
BEZUGSACHSEN
  6
Continuous
 62
     7
100
AcDbLine
 10
102.8874464668
 20
250.5545995966
 30
0.0
 11
104.260041731
 21
248.1771948608
 31
0.0
  0
LINE
  5
88
330
1F
100
AcDbEntity
  8
FASEN
  6
Continuous
 62
     9
100
AcDbLine
 10
96.0124464668
 20
288.5771948608
 30
0.0
 11
96.0124464668
 21
288.1771948608
 31
0.0
  0
LINE
  5
89
330
1F
100
AcDbEntity
  8
FASEN
  6
Continuous
 62
     9
100
AcDbLine
 10
96.0124464668
 20
307.7771948608
 30
0.0
 11
96.0124464668
 21
308.1771948608
 31
0.0
  0
LINE
  5
8A
330
1F
100
AcDbEntity
  8
0
  6
Continuous
 62
     7
100
AcDbLine
 10
97.7648512026
 20
348.1771948608
 30
0.0
 11
97.7648512026
 21
308.1771948608
 31
0.0
  0
LINE
  5
8B
330
1F
100
AcDbEntity
  8
0
  6
Continuous
 62
     7
100
AcDbLine
 10
97.7648512026
 20
288.1771948608
 30
0.0
 11
97.7648512026
 21
266.6771948608
 31
0.0
  0
LINE
  5
8C
330
1F
100
AcDbEntity
  8
0
  6
Continuous
 62
     7
100
AcDbLine
 10
97.7648512026
 20
259.3474382301
 30
0.0
 11
97.7648512026
 21
248.1771948608
 31
0.0
  0
LINE
  5
8D
330
1F
100
AcDbEntity
  8
0
  6
Continuous
 62
     7
100
AcDbLine
 10
99.1374464668
 20
345.7997566985
 30
0.0
 11
99.1374464668
 21
308.1771948608
 31
0.0
  0
LINE
  5
8E
330
1F
100
AcDbEntity
  8
0
  6
Continuous
 62
     7
100
AcDbLine
 10
99.1374464668
 20
288.1771948608
 30
0.0
 11
99.1374464668
 21
266.6771948608
 31
0.0
  0
LINE
  5
8F
330
1F
100
AcDbEntity
  8
0
  6
Continuous
 62
     7
100
AcDbLine
 10
99.1374464668
 20
250.5546371306
 30
0.0
 11
99.1374464668
 21
263.2952511076
 31
0.0
  0
LINE
  5
90
330
1F
100
AcDbEntity
  8
0
  6
Continuous
 62
     9
100
AcDbLine
 10
100.1374464668
 20
252.1771948608
 30
0.0
 11
100.1374464668
 21
264.6548142771
 31
0.0
  0
LINE
  5
91
330
1F
100
AcDbEntity
  8
0
  6
Continuous
 62
     9
100
AcDbLine
 10
100.1374464668
 20
266.6771948608
 30
0.0
 11
100.1374464668
 21
288.1771948608
 31
0.0
  0
LINE
  5
92
330
1F
100
AcDbEntity
  8
0
  6
Continuous
 62
     9
100
AcDbLine
 10
100.1374464668
 20
308.1771948608
 30
0.0
 11
100.1374464668
 21
344.1771948608
 31
0.0
  0
LINE
  5
93
330
1F
100
AcDbEntity
  8
0
  6
Continuous
 62
     9
100
AcDbLine
 10
101.8874464668
 20
252.1771948608
 30
0.0
 11
101.8874464668
 21
264.6548142771
 31
0.0
  0
LINE
  5
94
330
1F
100
AcDbEntity
  8
0
  6
Continuous
 62
     9
100
AcDbLine
 10
101.8874464668
 20
266.6771948608
 30
0.0
 11
101.8874464668
 21
288.1771948608
 31
0.0
  0
LINE
  5
95
330
1F
100
AcDbEntity
  8
0
  6
Continuous
 62
     9
100
AcDbLine
 10
101.8874464668
 20
308.1771948608
 30
0.0
 11
101.8874464668
 21
344.1771948608
 31
0.0
  0
LINE
  5
96
330
1F
100
AcDbEntity
  8
0
  6
Continuous
 62
     7
100
AcDbLine
 10
102.8874464668
 20
250.5546371306
 30
0.0
 11
102.8874464668
 21
263.2952511076
 31
0.0
  0
LINE
  5
97
330
1F
100
AcDbEntity
  8
0
  6
Continuous
 62
     7
100
AcDbLine
 10
102.8874464668
 20
266.6771948608
 30
0.0
 11
102.8874464668
 21
288.1771948608
 31
0.0
  0
LINE
  5
98
330
1F
100
AcDbEntity
  8
0
  6
Continuous
 62
     7
100
AcDbLine
 10
102.8874464668
 20
308.1771948608
 30
0.0
 11
102.8874464668
 21
345.7997566985
 31
0.0
  0
LINE
  5
99
330
1F
100
AcDbEntity
  8
0
  6
Continuous
 62
     7
100
AcDbLine
 10
104.260041731
 20
348.1771948608
 30
0.0
 11
104.260041731
 21
308.1771948608
 31
0.0
  0
LINE
  5
9A
330
1F
100
AcDbEntity
  8
0
  6
Continuous
 62
     7
100
AcDbLine
 10
104.260041731
 20
288.1771948608
 30
0.0
 11
104.260041731
 21
266.6771948608
 31
0.0
  0
LINE
  5
9B
330
1F
100
AcDbEntity
  8
0
  6
Continuous
 62
     7
100
AcDbLine
 10
104.260041731
 20
259.3474382301
 30
0.0
 11
104.260041731
 21
248.1771948608
 31
0.0
  0
LINE
  5
9C
330
1F
100
AcDbEntity
  8
0
  6
Continuous
 62
     7
100
AcDbLine
 10
110.0124464668
 20
348.1771579397
 30
0.0
 11
110.0124464668
 21
308.1771948608
 31
0.0
  0
LINE
  5
9D
330
1F
100
AcDbEntity
  8
0
  6
Continuous
 62
     7
100
AcDbLine
 10
110.0124464668
 20
288.1771948608
 30
0.0
 11
110.0124464668
 21
266.6771948608
 31
0.0
  0
LINE
  5
9E
330
1F
100
AcDbEntity
  8
0
  6
Continuous
 62
     7
100
AcDbLine
 10
110.0124464668
 20
259.3474382301
 30
0.0
 11
110.0124464668
 21
248.1771967286
 31
0.0
  0
LINE
  5
9F
330
1F
100
AcDbEntity
  8
FASEN
  6
Continuous
 62
     7
100
AcDbLine
 10
110.0124464668
 20
259.3474382301
 30
0.0
 11
110.0124464668
 21
266.6771948608
 31
0.0
  0
LINE
  5
A0
330
1F
100
AcDbEntity
  8
FASEN
  6
Continuous
 62
     7
100
AcDbLine
 10
110.0124464668
 20
288.1771948608
 30
0.0
 11
110.0124464668
 21
308.1771948608
 31
0.0
  0
LINE
  5
A1
330
1F
100
AcDbEntity
  8
BEZUGSACHSEN
  6
Continuous
 62
     9
100
AcDbLine
 10
31.0124464668
 20
284.7310108918
 30
0.0
 11
33.0124464668
 21
285.7735549124
 31
0.0
  0
LINE
  5
A2
330
1F
100
AcDbEntity
  8
BEZUGSACHSEN
  6
Continuous
 62
     7
100
AcDbLine
 10
97.7648512026
 20
248.1771948608
 30
0.0
 11
81.0124464668
 21
248.1771948608
 31
0.0
  0
LINE
  5
A3
330
1F
100
AcDbEntity
  8
BEZUGSACHSEN
  6
Continuous
 62
     7
100
AcDbLine
 10
104.260041731
 20
248.1771948608
 30
0.0
 11
110.0124464668
 21
248.1771948608
 31
0.0
  0
LINE
  5
A4
330
1F
100
AcDbEntity
  8
BEZUGSACHSEN
  6
Continuous
 62
     7
100
AcDbLine
 10
100.1374464668
 20
252.1771948608
 30
0.0
 11
101.8874464668
 21
252.1771948608
 31
0.0
  0
LINE
  5
A5
330
1F
100
AcDbEntity
  8
BEZUGSACHSEN
  6
Continuous
 62
     9
100
AcDbLine
 10
33.0124464668
 20
310.5808348092
 30
0.0
 11
31.0124464668
 21
311.6233788298
 31
0.0
  0
LINE
  5
A6
330
1F
100
AcDbEntity
  8
FASEN
  6
Continuous
 62
     7
100
AcDbLine
 10
86.4139324312
 20
259.3474382301
 30
0.0
 11
97.7648512026
 21
259.3474382301
 31
0.0
  0
LINE
  5
A7
330
1F
100
AcDbEntity
  8
0
  6
Continuous
 62
     7
100
AcDbLine
 10
104.260041731
 20
259.3474382301
 30
0.0
 11
110.0124464668
 21
259.3474382301
 31
0.0
  0
LINE
  5
A8
330
1F
100
AcDbEntity
  8
BEZUGSACHSEN
  6
Continuous
 62
     7
100
AcDbLine
 10
80.3118751781
 20
260.4949448608
 30
0.0
 11
79.3905091259
 21
260.4949448608
 31
0.0
  0
LINE
  5
A9
330
1F
100
AcDbEntity
  8
BEZUGSACHSEN
  6
Continuous
 62
     7
100
AcDbLine
 10
78.5124464668
 20
260.2949448608
 30
0.0
 11
32.9123719821
 21
262.5795085925
 31
0.0
  0
LINE
  5
AA
330
1F
100
AcDbEntity
  8
RUNDUNGEN
  6
Continuous
 62
     9
100
AcDbLine
 10
126.0124464668
 20
324.6771948608
 30
0.0
 11
126.0124464668
 21
271.6771948608
 31
0.0
  0
LINE
  5
AB
330
1F
100
AcDbEntity
  8
RUNDUNGEN
  6
Continuous
 62
     7
100
AcDbLine
 10
280.0909055625
 20
276.1046680187
 30
0.0
 11
223.834525154
 21
271.6771948608
 31
0.0
  0
LINE
  5
AC
330
1F
100
AcDbEntity
  8
0
  6
Continuous
 62
     7
100
AcDbLine
 10
223.834525154
 20
271.6771948608
 30
0.0
 11
280.0909055625
 21
276.1046680187
 31
0.0
  0
LINE
  5
AD
330
1F
100
AcDbEntity
  8
0
  6
Continuous
 62
     7
100
AcDbLine
 10
100.1374464668
 20
264.6548142771
 30
0.0
 11
101.8874464668
 21
264.6548142771
 31
0.0
  0
LINE
  5
AE
330
1F
100
AcDbEntity
  8
FASEN
  6
Continuous
 62
     7
100
AcDbLine
 10
93.9843203887
 20
266.2771948608
 30
0.0
 11
110.0124464668
 21
266.2771948608
 31
0.0
  0
LINE
  5
AF
330
1F
100
AcDbEntity
  8
0
  6
Continuous
 62
     7
100
AcDbLine
 10
93.9843203887
 20
266.6771948608
 30
0.0
 11
110.0124464668
 21
266.6771948608
 31
0.0
  0
LINE
  5
B0
330
1F
100
AcDbEntity
  8
RUNDUNGEN
  6
Continuous
 62
     7
100
AcDbLine
 10
223.834525154
 20
271.6771948608
 30
0.0
 11
126.0124464668
 21
271.6771948608
 31
0.0
  0
LINE
  5
B1
330
1F
100
AcDbEntity
  8
0
  6
Continuous
 62
     7
100
AcDbLine
 10
126.0124464668
 20
271.6771948608
 30
0.0
 11
223.834525154
 21
271.6771948608
 31
0.0
  0
LINE
  5
B2
330
1F
100
AcDbEntity
  8
BEZUGSACHSEN
  6
Continuous
 62
     7
100
AcDbLine
 10
97.7648512026
 20
248.1771948608
 30
0.0
 11
99.1374464668
 21
250.5545995966
 31
0.0
  0
LINE
  5
B3
330
1F
100
AcDbEntity
  8
BEZUGSACHSEN
  6
Continuous
 62
     7
100
AcDbLine
 10
97.7648512026
 20
348.1771948608
 30
0.0
 11
99.1374464668
 21
345.799790125
 31
0.0
  0
LINE
  5
B4
330
1F
100
AcDbEntity
  8
BEZUGSACHSEN
  6
Continuous
 62
     7
100
AcDbLine
 10
79.1316900808
 20
260.4608706871
 30
0.0
 11
78.5124464668
 21
260.2949448608
 31
0.0
  0
LINE
  5
B5
330
1F
100
AcDbEntity
  8
BEZUGSACHSEN
  6
Continuous
 62
     9
100
AcDbLine
 10
40.5662924137
 20
283.1671948608
 30
0.0
 11
32.2793993938
 21
283.1671948608
 31
0.0
  0
LWPOLYLINE
  5
B6
330
1F
100
AcDbEntity
  8
DEFAULT_2
  6
DASHED
 62
     8
100
AcDbPolyline
 90
        2
 70
     0
 43
0.35
 10
281.0124464668
 20
285.6771948608
 10
223.0124464668
 20
285.6771948608
  0
LINE
  5
B7
330
1F
100
AcDbEntity
  8
BEZUGSACHSEN
  6
Continuous
 62
     7
100
AcDbLine
 10
39.0124464668
 20
288.1671948608
 30
0.0
 11
33.0124464668
 21
288.1671948608
 31
0.0
  0
LINE
  5
B8
330
1F
100
AcDbEntity
  8
0
  6
Continuous
 62
     7
100
AcDbLine
 10
96.0124464668
 20
288.1771948608
 30
0.0
 11
110.0124464668
 21
288.1771948608
 31
0.0
  0
LINE
  5
B9
330
1F
100
AcDbEntity
  8
FASEN
  6
Continuous
 62
     7
100
AcDbLine
 10
110.0124464668
 20
288.5771948608
 30
0.0
 11
96.0124464668
 21
288.5771948608
 31
0.0
  0
LWPOLYLINE
  5
BA
330
1F
100
AcDbEntity
  8
BEZUGSACHSEN
  6
DOT_CENTER
 62
     7
100
AcDbPolyline
 90
        2
 70
     0
 43
0.25
 10
284.0124464668
 20
298.1771948608
 10
28.0124464668
 20
298.1771948608
  0
LINE
  5
BB
330
1F
100
AcDbEntity
  8
FASEN
  6
Continuous
 62
     7
100
AcDbLine
 10
96.0124464668
 20
307.7771948608
 30
0.0
 11
110.0124464668
 21
307.7771948608
 31
0.0
  0
LINE
  5
BC
330
1F
100
AcDbEntity
  8
0
  6
Continuous
 62
     7
100
AcDbLine
 10
96.0124464668
 20
308.1771948608
 30
0.0
 11
110.0124464668
 21
308.1771948608
 31
0.0
  0
LINE
  5
BD
330
1F
100
AcDbEntity
  8
BEZUGSACHSEN
  6
Continuous
 62
     7
100
AcDbLine
 10
39.0124464668
 20
308.1871948608
 30
0.0
 11
33.0124464668
 21
308.1871948608
 31
0.0
  0
LWPOLYLINE
  5
BE
330
1F
100
AcDbEntity
  8
DEFAULT_2
  6
DASHED
 62
     8
100
AcDbPolyline
 90
        2
 70
     0
 43
0.35
 10
281.0124464668
 20
310.6771948608
 10
223.0124464668
 20
310.6771948608
  0
LINE
  5
BF
330
1F
100
AcDbEntity
  8
BEZUGSACHSEN
  6
Continuous
 62
     9
100
AcDbLine
 10
32.2793993938
 20
313.1871948608
 30
0.0
 11
40.5662924137
 21
313.1871948608
 31
0.0
  0
LINE
  5
C0
330
1F
100
AcDbEntity
  8
BEZUGSACHSEN
  6
Continuous
 62
     7
100
AcDbLine
 10
79.1316900808
 20
335.8935190345
 30
0.0
 11
78.5124464668
 21
336.0594448608
 31
0.0
  0
LINE
  5
C1
330
1F
100
AcDbEntity
  8
RUNDUNGEN
  6
Continuous
 62
     7
100
AcDbLine
 10
223.834525154
 20
324.6771948608
 30
0.0
 11
126.0124464668
 21
324.6771948608
 31
0.0
  0
LINE
  5
C2
330
1F
100
AcDbEntity
  8
RUNDUNGEN
  6
Continuous
 62
     7
100
AcDbLine
 10
280.0909055625
 20
320.2497217029
 30
0.0
 11
223.834525154
 21
324.6771948608
 31
0.0
  0
LINE
  5
C3
330
1F
100
AcDbEntity
  8
0
  6
Continuous
 62
     7
100
AcDbLine
 10
223.834525154
 20
324.6771948608
 30
0.0
 11
280.0909055625
 21
320.2497217029
 31
0.0
  0
LINE
  5
C4
330
1F
100
AcDbEntity
  8
BEZUGSACHSEN
  6
Continuous
 62
     7
100
AcDbLine
 10
78.5124464668
 20
336.0594448608
 30
0.0
 11
32.9123719821
 21
333.7748811291
 31
0.0
  0
LINE
  5
C5
330
1F
100
AcDbEntity
  8
BEZUGSACHSEN
  6
Continuous
 62
     7
100
AcDbLine
 10
80.3118751781
 20
335.8594448608
 30
0.0
 11
79.3905091259
 21
335.8594448608
 31
0.0
  0
LINE
  5
C6
330
1F
100
AcDbEntity
  8
BEZUGSACHSEN
  6
Continuous
 62
     7
100
AcDbLine
 10
100.1374464668
 20
344.1771948608
 30
0.0
 11
101.8874464668
 21
344.1771948608
 31
0.0
  0
LINE
  5
C7
330
1F
100
AcDbEntity
  8
BEZUGSACHSEN
  6
Continuous
 62
     7
100
AcDbLine
 10
97.7648512026
 20
348.1771948608
 30
0.0
 11
93.0124464668
 21
348.1771948608
 31
0.0
  0
LINE
  5
C8
330
1F
100
AcDbEntity
  8
BEZUGSACHSEN
  6
Continuous
 62
     7
100
AcDbLine
 10
83.0124464668
 20
348.1771948608
 30
0.0
 11
81.0124464668
 21
348.1771948608
 31
0.0
  0
LINE
  5
C9
330
1F
100
AcDbEntity
  8
BEZUGSACHSEN
  6
Continuous
 62
     7
100
AcDbLine
 10
104.260041731
 20
348.1771948608
 30
0.0
 11
110.0124464668
 21
348.1771948608
 31
0.0
  0
LWPOLYLINE
  5
CA
330
1F
100
AcDbEntity
  8
DEFAULT_2
  6
DASHED
 62
     8
100
AcDbPolyline
 90
        2
 70
     0
 43
0.35
 10
223.0124464668
 20
310.6771948608
 10
223.0124464668
 20
285.6771948608
  0
LINE
  5
CB
330
1F
100
AcDbEntity
  8
0
  6
Continuous
 62
     7
100
AcDbLine
 10
223.834525154
 20
324.6771948608
 30
0.0
 11
223.834525154
 21
271.6771948608
 31
0.0
  0
LINE
  5
CC
330
1F
100
AcDbEntity
  8
RUNDUNGEN
  6
Continuous
 62
     9
100
AcDbLine
 10
280.0909055625
 20
276.1046680187
 30
0.0
 11
280.0909055625
 21
320.2497217029
 31
0.0
  0
LINE
  5
CD
330
1F
100
AcDbEntity
  8
RUNDUNGEN
  6
Continuous
 62
     7
100
AcDbLine
 10
281.0124464668
 20
277.1015853525
 30
0.0
 11
281.0124464668
 21
319.2528043692
 31
0.0
  0
LWPOLYLINE
  5
CE
330
1F
100
AcDbEntity
  8
1
  6
Continuous
 62
     7
100
AcDbPolyline
 90
        2
 70
     0
 43
0.25
 10
281.0124464668
 20
319.2528043692
 10
281.0124464668
 20
320.1771948608466
  0
LWPOLYLINE
  5
CF
330
1F
100
AcDbEntity
  8
1
  6
Continuous
 62
     7
100
AcDbPolyline
 90
        2
 70
     0
 43
0.25
 10
280.0909055625
 20
320.2497217029
 10
281.0124464667949
 20
320.1771948608466
  0
LWPOLYLINE
  5
D0
330
1F
100
AcDbEntity
  8
1
  6
Continuous
 62
     7
100
AcDbPolyline
 90
        2
 70
     0
 43
0.25
 10
280.0909055625
 20
276.1046680187
 10
281.0124464668
 20
276.177194860756
  0
LWPOLYLINE
  5
D1
330
1F
100
AcDbEntity
  8
1
  6
Continuous
 62
     7
100
AcDbPolyline
 90
        2
 70
     0
 43
0.25
 10
281.0124464668
 20
277.1015853525
 10
281.0124464668
 20
276.177194860756
  0
ARC
  5
D2
330
1F
100
AcDbEntity
  8
FASEN
  6
Continuous
 62
     7
100
AcDbCircle
 10
98.9131004897
 20
273.7084581308
 30
0.0
 40
19.03859487300018
100
AcDbArc
 50
227.4837701983004
 51
228.9651953373997
  0
ARC
  5
D3
330
1F
100
AcDbEntity
  8
FASEN
  6
Continuous
 62
     7
100
AcDbCircle
 10
93.9843203887
 20
258.6771948608
 30
0.0
 40
8.0
100
AcDbArc
 50
90.0
 51
172.8323734889971
  0
ARC
  5
D4
330
1F
100
AcDbEntity
  8
FASEN
  6
Continuous
 62
     7
100
AcDbCircle
 10
93.9843203887
 20
258.6771948608
 30
0.0
 40
7.599982194900008
100
AcDbArc
 50
90.0
 51
174.9405171273017
  0
ARC
  5
D5
330
1F
100
AcDbEntity
  8
BEZUGSACHSEN
  6
Continuous
 62
     7
100
AcDbCircle
 10
39.0124464668
 20
290.1671948608
 30
0.0
 40
2.0
100
AcDbArc
 50
270.0
 51
359.9999999999137
  0
ARC
  5
D6
330
1F
100
AcDbEntity
  8
BEZUGSACHSEN
  6
Continuous
 62
     7
100
AcDbCircle
 10
33.0124464668
 20
264.5770032977
 30
0.0
 40
2.0
100
AcDbArc
 50
179.9999999942711
 51
267.1318795135584
  0
ARC
  5
D7
330
1F
100
AcDbEntity
  8
BEZUGSACHSEN
  6
Continuous
 62
     7
100
AcDbCircle
 10
100.1374464668
 20
251.1771948608
 30
0.0
 40
1.0
100
AcDbArc
 50
90.0
 51
180.0
  0
ARC
  5
D8
330
1F
100
AcDbEntity
  8
BEZUGSACHSEN
  6
Continuous
 62
     7
100
AcDbCircle
 10
79.3905091259
 20
259.4949448608
 30
0.0
 40
1.0
100
AcDbArc
 50
90.0
 51
104.9999999996981
  0
ARC
  5
D9
330
1F
100
AcDbEntity
  8
BEZUGSACHSEN
  6
Continuous
 62
     7
100
AcDbCircle
 10
80.3118751781
 20
259.4949448608
 30
0.0
 40
0.9999999999998127
100
AcDbArc
 50
45.49026120128689
 51
90.0
  0
ARC
  5
DA
330
1F
100
AcDbEntity
  8
0
  6
Continuous
 62
     7
100
AcDbCircle
 10
-143.5853334157
 20
367.6116624512
 30
0.0
 40
264.5204223901892
100
AcDbArc
 50
335.840076470599
 51
336.5770705490999
  0
ARC
  5
DB
330
1F
100
AcDbEntity
  8
BEZUGSACHSEN
  6
Continuous
 62
     7
100
AcDbCircle
 10
88.0276544779
 20
398.2299646276
 30
0.0
 40
50.30340021035248
100
AcDbArc
 50
264.2781515101899
 51
269.9826780126
  0
ARC
  5
DC
330
1F
100
AcDbEntity
  8
BEZUGSACHSEN
  6
Continuous
 62
     7
100
AcDbCircle
 10
87.9972384657
 20
398.2299644269
 30
0.0
 40
50.30340000959737
100
AcDbArc
 50
270.0173219760581
 51
275.7218485012679
  0
ARC
  5
DD
330
1F
100
AcDbEntity
  8
0
  6
Continuous
 62
     7
100
AcDbCircle
 10
96.0124464668
 20
298.1771948608
 30
0.0
 40
10.0
100
AcDbArc
 50
90.0
 51
270.0
  0
ARC
  5
DE
330
1F
100
AcDbEntity
  8
FASEN
  6
Continuous
 62
     7
100
AcDbCircle
 10
96.0124464668
 20
298.1771948608
 30
0.0
 40
9.599999195900011
100
AcDbArc
 50
90.0
 51
270.0
  0
ARC
  5
DF
330
1F
100
AcDbEntity
  8
BEZUGSACHSEN
  6
Continuous
 62
     7
100
AcDbCircle
 10
39.0124464668
 20
306.1871948608
 30
0.0
 40
2.0
100
AcDbArc
 50
0.0
 51
90.0
  0
ARC
  5
E0
330
1F
100
AcDbEntity
  8
BEZUGSACHSEN
  6
Continuous
 62
     7
100
AcDbCircle
 10
33.0124464668
 20
331.7773864239
 30
0.0
 40
1.999999999947485
100
AcDbArc
 50
92.86812048644158
 51
180.0000000143238
  0
ARC
  5
E1
330
1F
100
AcDbEntity
  8
BEZUGSACHSEN
  6
Continuous
 62
     7
100
AcDbCircle
 10
100.1374464668
 20
345.1771948608
 30
0.0
 40
1.0
100
AcDbArc
 50
180.0
 51
270.0
  0
ARC
  5
E2
330
1F
100
AcDbEntity
  8
BEZUGSACHSEN
  6
Continuous
 62
     7
100
AcDbCircle
 10
79.3905091259
 20
336.8594448608
 30
0.0
 40
1.000000000009914
100
AcDbArc
 50
255.0000000003019
 51
270.0
  0
ARC
  5
E3
330
1F
100
AcDbEntity
  8
BEZUGSACHSEN
  6
Continuous
 62
     7
100
AcDbCircle
 10
80.3118751781
 20
336.8594448608
 30
0.0
 40
1.0
100
AcDbArc
 50
270.0
 51
314.5097387987131
  0
ARC
  5
E4
330
1F
100
AcDbEntity
  8
BEZUGSACHSEN
  6
Continuous
 62
     7
100
AcDbCircle
 10
217.342493065
 20
-1307.8655644292
 30
0.0
 40
1632.172763697999
100
AcDbArc
 50
96.2726189838
 51
96.48809068979999
  0
ARC
  5
E5
330
1F
100
AcDbEntity
  8
RUNDUNGEN
  6
Continuous
 62
     7
100
AcDbCircle
 10
126.0124464668
 20
255.6771948608
 30
0.0
 40
16.0
100
AcDbArc
 50
90.0
 51
180.0
  0
ARC
  5
E6
330
1F
100
AcDbEntity
  8
RUNDUNGEN
  6
Continuous
 62
     7
100
AcDbCircle
 10
280.0124464668
 20
277.1015853525
 30
0.0
 40
1.000000000064494
100
AcDbArc
 50
274.4999999981087
 51
0.0
  0
ARC
  5
E7
330
1F
100
AcDbEntity
  8
BEZUGSACHSEN
  6
Continuous
 62
     7
100
AcDbCircle
 10
101.8874464668
 20
251.1771948608
 30
0.0
 40
1.0
100
AcDbArc
 50
0.0
 51
90.0
  0
ARC
  5
E8
330
1F
100
AcDbEntity
  8
BEZUGSACHSEN
  6
Continuous
 62
     7
100
AcDbCircle
 10
217.3424930703
 20
1904.219954198
 30
0.0
 40
1632.1727637455
100
AcDbArc
 50
263.5119093102
 51
263.7273810162
  0
ARC
  5
E9
330
1F
100
AcDbEntity
  8
0
  6
Continuous
 62
     7
100
AcDbCircle
 10
345.6102263493
 20
367.6116624512
 30
0.0
 40
264.5204223902
100
AcDbArc
 50
203.4229294508999
 51
204.1599235294009
  0
ARC
  5
EA
330
1F
100
AcDbEntity
  8
RUNDUNGEN
  6
Continuous
 62
     7
100
AcDbCircle
 10
126.0124464668
 20
340.6771948608
 30
0.0
 40
16.0
100
AcDbArc
 50
180.0
 51
270.0
  0
ARC
  5
EB
330
1F
100
AcDbEntity
  8
BEZUGSACHSEN
  6
Continuous
 62
     7
100
AcDbCircle
 10
101.8874464668
 20
345.1771948608
 30
0.0
 40
1.0
100
AcDbArc
 50
270.0
 51
0.0
  0
ARC
  5
EC
330
1F
100
AcDbEntity
  8
RUNDUNGEN
  6
Continuous
 62
     7
100
AcDbCircle
 10
280.0124464668
 20
319.2528043692
 30
0.0
 40
1.0
100
AcDbArc
 50
0.0
 51
85.50000000144155
  0
CIRCLE
  5
ED
330
1F
100
AcDbEntity
  8
BEZUGSACHSEN
  6
Continuous
 62
     7
100
AcDbCircle
 10
66.0124464668
 20
298.1771948608
 30
0.0
 40
6.0
  0
SPLINE
  5
EE
330
1F
100
AcDbEntity
  8
BEZUGSACHSEN
  6
Continuous
 62
     7
100
AcDbSpline
210
0.0
220
0.0
230
1.0
 70
     8
 71
     3
 72
    19
 73
    15
 74
    13
 42
0.0000000001
 43
0.0000000001
 44
0.00000001
 40
0.0
 40
0.0
 40
0.0
 40
0.0
 40
0.1462385987747072
 40
0.2927479274788156
 40
0.43647907061944
 40
0.5801659236534871
 40
0.7203799973126662
 40
0.8606059383104049
 40
0.9980411884181564
 40
1.135484020431555
 40
1.405415631079864
 40
1.675815514106986
 40
1.94399742955821
 40
2.21193483478731
 40
2.21193483478731
 40
2.21193483478731
 40
2.21193483478731
 10
39.0124464668
 20
314.5358424483
 30
0.0
 10
39.06116127213876
 20
314.5391505256109
 30
0.0
 10
39.15868106800624
 20
314.5457728044402
 30
0.0
 10
39.30401732831676
 20
314.529413491688
 30
0.0
 10
39.44467426544933
 20
314.4942417256188
 30
0.0
 10
39.57752639891577
 20
314.4414360389927
 30
0.0
 10
39.70198086199245
 20
314.3737642512472
 30
0.0
 10
39.81678341916037
 20
314.294464049852
 30
0.0
 10
39.92289335693232
 20
314.2053794102843
 30
0.0
 10
40.05199582209347
 20
314.0774318747264
 30
0.0
 10
40.19503567196828
 20
313.9016295858044
 30
0.0
 10
40.33994327365179
 20
313.6739441198993
 30
0.0
 10
40.46458002209624
 20
313.4352815004129
 30
0.0
 10
40.53239859326696
 20
313.2698652599745
 30
0.0
 10
40.5662924137
 20
313.1871948608
 30
0.0
 11
39.0124464668
 21
314.5358424483
 31
0.0
 11
39.15858032861905
 21
314.5413761813474
 31
0.0
 11
39.30428968946569
 21
314.526086787671
 31
0.0
 11
39.44371977102496
 21
314.4911884515375
 31
0.0
 11
39.57735210796896
 21
314.4383839985272
 31
0.0
 11
39.70066589880042
 21
314.3716479854393
 31
0.0
 11
39.81619701013013
 21
314.2921754943268
 31
0.0
 11
39.92160955989299
 21
314.2039902216069
 31
0.0
 11
40.01939806356049
 21
314.1074089572627
 31
0.0
 11
40.19064645942176
 21
313.8987535922655
 31
0.0
 11
40.33698887995232
 21
313.6713772683125
 31
0.0
 11
40.46085650575909
 21
313.4335152262544
 31
0.0
 11
40.5662924137
 21
313.1871948608
 31
0.0
  0
SPLINE
  5
EF
330
1F
100
AcDbEntity
  8
BEZUGSACHSEN
  6
Continuous
 62
     7
100
AcDbSpline
210
0.0
220
0.0
230
1.0
 70
     8
 71
     3
 72
    11
 73
     7
 74
     5
 42
0.0000000001
 43
0.0000000001
 44
0.00000001
 40
0.0
 40
0.0
 40
0.0
 40
0.0
 40
0.552126940619433
 40
1.105196183264977
 40
1.651906304669145
 40
2.198197048716906
 40
2.198197048716906
 40
2.198197048716906
 40
2.198197048716906
 10
41.0124464668
 20
285.307539335
 30
0.0
 10
41.00586102917094
 20
285.1234041446173
 30
0.0
 10
40.99267891470176
 20
284.7548195046658
 30
0.0
 10
40.89519055090432
 20
284.2113950999907
 30
0.0
 10
40.7555532378809
 20
283.6801209704435
 30
0.0
 10
40.6293632156621
 20
283.3381264903252
 30
0.0
 10
40.5662924137
 20
283.1671948608
 30
0.0
 11
41.0124464668
 21
285.307539335
 31
0.0
 11
40.9797018843732
 21
284.7563842289913
 31
0.0
 11
40.88763523142983
 21
284.2110317571198
 31
0.0
 11
40.74714374659641
 21
283.6826814003157
 31
0.0
 11
40.5662924137
 21
283.1671948608
 31
0.0
  0
SPLINE
  5
F0
330
1F
100
AcDbEntity
  8
BEZUGSACHSEN
  6
Continuous
 62
     7
100
AcDbSpline
210
0.0
220
0.0
230
1.0
 70
     8
 71
     3
 72
    19
 73
    15
 74
    13
 42
0.0000000001
 43
0.0000000001
 44
0.00000001
 40
0.0
 40
0.0
 40
0.0
 40
0.0
 40
0.2679411643110737
 40
0.5361267936765234
 40
0.8065304773480878
 40
1.076465993197523
 40
1.213913376111641
 40
1.351353104847396
 40
1.491586367042097
 40
1.631807897536915
 40
1.775491562731563
 40
1.919219204701192
 40
2.065713007362081
 40
2.211936409312908
 40
2.211936409312908
 40
2.211936409312908
 40
2.211936409312908
 10
40.5662924137
 20
283.1671948608
 30
0.0
 10
40.53239816992776
 20
283.0845232810933
 30
0.0
 10
40.46457875783996
 20
282.9191046935078
 30
0.0
 10
40.33994025151051
 20
282.6804387198681
 30
0.0
 10
40.19502945219783
 20
282.4527507238529
 30
0.0
 10
40.05198582067842
 20
282.2769462325365
 30
0.0
 10
39.922879433749
 20
282.1489965134361
 30
0.0
 10
39.81676433466269
 20
282.0599094926375
 30
0.0
 10
39.70195490701544
 20
281.980607852299
 30
0.0
 10
39.57749529479862
 20
281.9129373848337
 30
0.0
 10
39.44464173968147
 20
281.8601346981305
 30
0.0
 10
39.30399094080562
 20
281.8249684341412
 30
0.0
 10
39.15866555769669
 20
281.8086162322624
 30
0.0
 10
39.0611561386358
 20
281.8152389656282
 30
0.0
 10
39.0124464668
 20
281.8185472734
 30
0.0
 11
40.5662924137
 21
283.1671948608
 31
0.0
 11
40.46085515404299
 21
282.9208709849609
 31
0.0
 11
40.33698563844938
 21
282.6830057396964
 31
0.0
 11
40.19064015214909
 21
282.4556268691242
 31
0.0
 11
40.01938796102313
 21
282.246969566948
 31
0.0
 11
39.92159552232114
 21
282.150385810536
 31
0.0
 11
39.81617853304157
 21
282.0621988647549
 31
0.0
 11
39.70063988931885
 21
281.9827244057603
 31
0.0
 11
39.57731787943798
 21
281.9159879127955
 31
0.0
 11
39.44368719126829
 21
281.8631879618195
 31
0.0
 11
39.30425949007252
 21
281.8282945354269
 31
0.0
 11
39.15856505152225
 21
281.8130117086737
 31
0.0
 11
39.0124464668
 21
281.8185472734
 31
0.0
  0
SPLINE
  5
F1
330
1F
100
AcDbEntity
  8
BEZUGSACHSEN
  6
Continuous
 62
     7
100
AcDbSpline
210
0.0
220
0.0
230
1.0
 70
     8
 71
     3
 72
    15
 73
    11
 74
     9
 42
0.0000000001
 43
0.0000000001
 44
0.00000001
 40
0.0
 40
0.0
 40
0.0
 40
0.0
 40
0.111094483114265
 40
0.2222295180950256
 40
0.3333620401233814
 40
0.4444752609511988
 40
0.5555842177654832
 40
0.6667300353684782
 40
0.7779450181422337
 40
0.888982087154322
 40
0.888982087154322
 40
0.888982087154322
 40
0.888982087154322
 10
32.1582891424
 20
313.4195308563
 30
0.0
 10
32.1836745019685
 20
313.4465072219735
 30
0.0
 10
32.23445448730563
 20
313.500469800272
 30
0.0
 10
32.31670725652354
 20
313.5753517636775
 30
0.0
 10
32.40370390846319
 20
313.644638472576
 30
0.0
 10
32.49600874889781
 20
313.7067336356471
 30
0.0
 10
32.59345877089556
 20
313.7605131277696
 30
0.0
 10
32.6958716847698
 20
313.8041033733778
 30
0.0
 10
32.8023881833561
 20
313.8371219292405
 30
0.0
 10
32.87573028607913
 20
313.8481950958533
 30
0.0
 10
32.9123719821
 20
313.8537272471
 30
0.0
 11
32.1582891424
 21
313.4195308563
 31
0.0
 11
32.23545791948628
 21
313.4994493399032
 31
0.0
 11
32.31749781970327
 21
313.5744190055858
 31
0.0
 11
32.40459496829455
 21
313.6434445382505
 31
0.0
 11
32.4968667898786
 21
313.7053481632195
 31
0.0
 11
32.59426969797406
 21
313.7588072483118
 31
0.0
 11
32.69653792137434
 21
313.8023342887946
 31
0.0
 11
32.803029789479
 21
313.8344006952185
 31
0.0
 11
32.9123719821
 21
313.8537272471
 31
0.0
  0
SPLINE
  5
F2
330
1F
100
AcDbEntity
  8
BEZUGSACHSEN
  6
Continuous
 62
     7
100
AcDbSpline
210
0.0
220
0.0
230
1.0
 70
     8
 71
     3
 72
    47
 73
    43
 74
    41
 42
0.0000000001
 43
0.0000000001
 44
0.00000001
 40
0.0
 40
0.0
 40
0.0
 40
0.0
 40
0.636602243146122
 40
1.273595002082999
 40
1.592921746302664
 40
1.912076344797331
 40
2.231392290350268
 40
2.550826842673646
 40
3.189774321099367
 40
3.829081696919388
 40
4.468337152431062
 40
5.107221744709001
 40
5.426176341200105
 40
5.745033356746876
 40
6.0633567315257
 40
6.381780214838728
 40
7.017059195631775
 40
7.652639340947933
 40
8.287532214185584
 40
8.922347946433447
 40
9.55922674848689
 40
10.19613435926683
 40
10.83451785494588
 40
11.47287689967293
 40
12.11234487357627
 40
12.75189588939524
 40
13.39354300511183
 40
14.0348795734772
 40
14.35615205763375
 40
14.67732107703228
 40
14.99840882463356
 40
15.31959604112406
 40
15.96011121017867
 40
16.60099592079881
 40
17.23809108068228
 40
17.8748255518919
 40
18.19205670321815
 40
18.50917199089655
 40
18.82571084618419
 40
19.14241581817977
 40
19.77338974988725
 40
20.40398930735949
 40
20.40398930735949
 40
20.40398930735949
 40
20.40398930735949
 10
59.5130308725
 20
298.1771948414
 30
0.0
 10
59.51903651638629
 20
298.3894746510833
 30
0.0
 10
59.53105148824699
 20
298.8141644908798
 30
0.0
 10
59.61231683345924
 20
299.3403072519621
 30
0.0
 10
59.70503643005962
 20
299.7552816280693
 30
0.0
 10
59.79032939420395
 20
300.0631056037675
 30
0.0
 10
59.89056800764133
 20
300.3663982805624
 30
0.0
 10
60.04405355678919
 20
300.7638356431169
 30
0.0
 10
60.27252550356319
 20
301.2459352200012
 30
0.0
 10
60.60214046412447
 20
301.7947510928321
 30
0.0
 10
60.98436768121613
 20
302.3082866321753
 30
0.0
 10
61.34322237834166
 20
302.70278939426
 30
0.0
 10
61.65217573190833
 20
302.9956626923064
 30
0.0
 10
61.89407084088354
 20
303.2033845134216
 30
0.0
 10
62.14571409436915
 20
303.3988939105542
 30
0.0
 10
62.49300820152606
 20
303.6423891132289
 30
0.0
 10
62.94874853628647
 20
303.9142711832735
 30
0.0
 10
63.52422796097562
 20
304.185600295789
 30
0.0
 10
64.12333872613317
 20
304.3993839266011
 30
0.0
 10
64.74078912857965
 20
304.5540736579733
 30
0.0
 10
65.37105969025723
 20
304.6478806416275
 30
0.0
 10
66.00865362497677
 20
304.6800073664323
 30
0.0
 10
66.64683226921403
 20
304.6495777934822
 30
0.0
 10
67.27984469041377
 20
304.5569065383226
 30
0.0
 10
67.90107837484233
 20
304.4024145770926
 30
0.0
 10
68.50521412679947
 20
304.1873774445461
 30
0.0
 10
69.08569320036301
 20
303.9134540788169
 30
0.0
 10
69.54532222458435
 20
303.6382872007598
 30
0.0
 10
69.89522121324724
 20
303.3916775019024
 30
0.0
 10
70.14835284239649
 20
303.1937733095316
 30
0.0
 10
70.39135148175059
 20
302.9835947801298
 30
0.0
 10
70.70059582525536
 20
302.6880754399749
 30
0.0
 10
71.05891601604898
 20
302.2906044572124
 30
0.0
 10
71.4388664343902
 20
301.7749376956774
 30
0.0
 10
71.76533946400869
 20
301.2253415392419
 30
0.0
 10
71.99071060400628
 20
300.7442359975574
 30
0.0
 10
72.141801587164
 20
300.3482458099458
 30
0.0
 10
72.24021450471326
 20
300.0468194591518
 30
0.0
 10
72.32388128288343
 20
299.7411240912126
 30
0.0
 10
72.4147006403239
 20
299.3295720734687
 30
0.0
 10
72.49421561599902
 20
298.8081468569267
 30
0.0
 10
72.50598790061532
 20
298.3874705677567
 30
0.0
 10
72.5118722962
 20
298.1771948414
 30
0.0
 11
59.5130308725
 21
298.1771948414
 31
0.0
 11
59.54427954353981
 21
298.8130296757217
 31
0.0
 11
59.63772074591341
 21
299.4431316647973
 31
0.0
 11
59.70766125294784
 21
299.7547049227154
 31
0.0
 11
59.79280259192398
 21
300.0622933004829
 31
0.0
 11
59.89302713006194
 21
300.3654726451609
 31
0.0
 11
60.00810701981399
 21
300.6634576316832
 31
0.0
 11
60.2817029140583
 21
301.2408649115466
 31
0.0
 11
60.61092242773645
 21
301.7888872036036
 31
0.0
 11
60.99254668308382
 21
302.3017326629108
 31
0.0
 11
61.42248131921262
 21
302.7743104140872
 31
0.0
 11
61.65395358027376
 21
302.9937474824737
 31
0.0
 11
61.89585598130102
 21
303.2014805437341
 31
0.0
 11
62.14722978845552
 21
303.3967777019501
 31
0.0
 11
62.40795906674743
 21
303.5795720075687
 31
0.0
 11
62.95349271095726
 21
303.9051060710284
 31
0.0
 11
63.52840253107598
 21
304.1761057386503
 31
0.0
 11
64.12634871882078
 21
304.3895285983664
 31
0.0
 11
64.74214125102974
 21
304.5437705225799
 31
0.0
 11
65.37207353297615
 21
304.6375784575685
 31
0.0
 11
66.00817665469498
 21
304.6695803826507
 31
0.0
 11
66.64583761373031
 21
304.6392161128991
 31
0.0
 11
67.2774551466576
 21
304.5466874033887
 31
0.0
 11
67.89802801876381
 21
304.3923870467659
 31
0.0
 11
68.50052882588638
 21
304.1778683313779
 31
0.0
 11
69.08083602225287
 21
303.9040899922919
 31
0.0
 11
69.63106101029881
 21
303.5745978733383
 31
0.0
 11
69.89366831444626
 21
303.3895210976896
 31
0.0
 11
70.14668877183811
 21
303.1917075815624
 31
0.0
 11
70.38953707320243
 21
302.9816551019671
 31
0.0
 11
70.62173950860945
 21
302.7597468843906
 31
0.0
 11
71.0506555663437
 21
302.2840466665992
 31
0.0
 11
71.43076622501678
 21
301.7680533532028
 31
0.0
 11
71.75620537074197
 21
301.2203494138555
 31
0.0
 11
72.02628622887164
 21
300.6437324552959
 31
0.0
 11
72.13937667405584
 21
300.3473439356467
 31
0.0
 11
72.237820777395
 21
300.0458959895647
 31
0.0
 11
72.32130358277064
 21
299.7405642550308
 31
0.0
 11
72.38985300621466
 21
299.4313668814453
 31
0.0
 11
72.4812800841392
 21
298.807051903316
 31
0.0
 11
72.5118722962
 21
298.1771948414
 31
0.0
  0
SPLINE
  5
F3
330
1F
100
AcDbEntity
  8
BEZUGSACHSEN
  6
Continuous
 62
     7
100
AcDbSpline
210
0.0
220
0.0
230
1.0
 70
     8
 71
     3
 72
    27
 73
    23
 74
    21
 42
0.0000000001
 43
0.0000000001
 44
0.00000001
 40
0.0
 40
0.0
 40
0.0
 40
0.0
 40
0.1260969825525566
 40
0.2522464959213913
 40
0.3668867952585356
 40
0.4815825894074187
 40
0.5839596006898303
 40
0.6859489161382626
 40
0.733456841059727
 40
0.7809568849069648
 40
0.8274002264583068
 40
0.8738421607348273
 40
0.9204907319149814
 40
0.967143139939476
 40
1.015111401812801
 40
1.06308749711059
 40
1.165500418713434
 40
1.268190478947745
 40
1.380949153890757
 40
1.493646517764742
 40
1.615655563717111
 40
1.737631867565844
 40
1.737631867565844
 40
1.737631867565844
 40
1.737631867565844
 10
31.0124464668
 20
312.811427347
 30
0.0
 10
31.01317500827628
 20
312.853470275061
 30
0.0
 10
31.01463239473236
 20
312.9375736458712
 30
0.0
 10
31.02807695669519
 20
313.0593209734357
 30
0.0
 10
31.05103239001998
 20
313.1757386898108
 30
0.0
 10
31.08499829037134
 20
313.2813141475966
 30
0.0
 10
31.13122404918783
 20
313.3774722098708
 30
0.0
 10
31.17976721773789
 20
313.4466415755486
 30
0.0
 10
31.22520654333408
 20
313.4941790571314
 30
0.0
 10
31.26111262145069
 20
313.5248743405851
 30
0.0
 10
31.29976005255127
 20
313.5514093762881
 30
0.0
 10
31.34071453975723
 20
313.5736377221833
 30
0.0
 10
31.38385416592943
 20
313.5914309390598
 30
0.0
 10
31.42903480053072
 20
313.6049643461205
 30
0.0
 10
31.47574202350079
 20
313.6141614714564
 30
0.0
 10
31.54156601468934
 20
313.6211167918383
 30
0.0
 10
31.62629376669055
 20
313.6192515352004
 30
0.0
 10
31.73112537019841
 20
313.6023368742638
 30
0.0
 10
31.83670461256186
 20
313.5729222414068
 30
0.0
 10
31.94486255065827
 20
313.5311706039562
 30
0.0
 10
32.05251481192374
 20
313.4803747768372
 30
0.0
 10
32.12303418673759
 20
313.4398103486042
 30
0.0
 10
32.1582891424
 20
313.4195308563
 30
0.0
 11
31.0124464668
 21
312.811427347
 31
0.0
 11
31.01657782636705
 21
312.937456632791
 31
0.0
 11
31.03034458550495
 21
313.0628527095479
 31
0.0
 11
31.05319616161824
 21
313.1751923895424
 31
0.0
 11
31.08883435100169
 21
313.2842109414173
 31
0.0
 11
31.1337341157798
 21
313.3762167214639
 31
0.0
 11
31.19290654473416
 21
313.459285633322
 31
0.0
 11
31.22575904491879
 21
313.4936035027483
 31
0.0
 11
31.26189613986957
 21
313.5244314857185
 31
0.0
 11
31.30018340474125
 21
313.5507196831291
 31
0.0
 11
31.34100601267998
 21
313.5728639361178
 31
0.0
 11
31.38411215629657
 21
313.5906950767334
 31
0.0
 11
31.42879172833071
 21
313.6041183035188
 31
0.0
 11
31.47584253406182
 21
313.6134551031418
 31
0.0
 11
31.5235464213128
 21
313.618558519759
 31
0.0
 11
31.62594606217244
 21
313.616909258395
 31
0.0
 11
31.72741031250758
 21
313.6010898281001
 31
0.0
 11
31.83613402896441
 21
313.571195476548
 31
0.0
 11
31.94145202126172
 21
313.5310854239102
 31
0.0
 11
32.05174470716712
 21
313.478915214691
 31
0.0
 11
32.1582891424
 21
313.4195308563
 31
0.0
  0
SPLINE
  5
F4
330
1F
100
AcDbEntity
  8
BEZUGSACHSEN
  6
Continuous
 62
     7
100
AcDbSpline
210
0.0
220
0.0
230
1.0
 70
     8
 71
     3
 72
    47
 73
    43
 74
    41
 42
0.0000000001
 43
0.0000000001
 44
0.00000001
 40
0.0
 40
0.0
 40
0.0
 40
0.0
 40
0.6302393213906591
 40
1.260854867258942
 40
1.577476088330746
 40
1.893930800152477
 40
2.21099911381292
 40
2.528183472174043
 40
3.164887038224425
 40
3.801951183352482
 40
4.442851001555303
 40
5.083381259711733
 40
5.404527292231389
 40
5.725573838680708
 40
6.046670709967165
 40
6.367871027105721
 40
7.009090242503382
 40
7.650619763911875
 40
8.290330346461838
 40
8.929958764462654
 40
9.568647011328785
 40
10.20735923010113
 40
10.84445705810261
 40
11.48152626488145
 40
12.11643462213671
 40
12.75141965570318
 40
13.38691908729035
 40
14.02211738523784
 40
14.34050449136524
 40
14.65879153786807
 40
14.97761586864926
 40
15.2965377494302
 40
15.93537694099957
 40
16.57458694064458
 40
17.21386274987054
 40
17.85277859069996
 40
18.1721986007949
 40
18.49150024074149
 40
18.81067156633119
 40
19.13001452418393
 40
19.76719627021064
 40
20.40398968279769
 40
20.40398968279769
 40
20.40398968279769
 40
20.40398968279769
 10
72.5118601046
 20
298.1771948795
 30
0.0
 10
72.50599090285453
 20
297.9670388576332
 30
0.0
 10
72.4942489957146
 20
297.5466013602236
 30
0.0
 10
72.41480225316042
 20
297.0254379179924
 30
0.0
 10
72.32407074809538
 20
296.6140464505694
 30
0.0
 10
72.2404653657996
 20
296.3084086102724
 30
0.0
 10
72.14211342443562
 20
296.0070247640674
 30
0.0
 10
71.99109461358766
 20
295.6110515844533
 30
0.0
 10
71.76581202598476
 20
295.1299447757657
 30
0.0
 10
71.43943399122907
 20
294.580310550781
 30
0.0
 10
71.05956692919838
 20
294.0645826881334
 30
0.0
 10
70.70131248992313
 20
293.667057285934
 30
0.0
 10
70.39213175225548
 20
293.3715039309972
 30
0.0
 10
70.14920679622465
 20
293.1613190225534
 30
0.0
 10
69.89615789290134
 20
292.963409558213
 30
0.0
 10
69.5463753844441
 20
292.7167862067164
 30
0.0
 10
69.0868901466886
 20
292.4415795974194
 30
0.0
 10
68.50649443971122
 20
292.1675394907162
 30
0.0
 10
67.90234013185298
 20
291.9523510134006
 30
0.0
 10
67.28092498443573
 20
291.7976891743997
 30
0.0
 10
66.64765577300653
 20
291.7048788013774
 30
0.0
 10
66.0091963085892
 20
291.6743680515567
 30
0.0
 10
65.37136329505098
 20
291.7064697939016
 30
0.0
 10
64.74093330806065
 20
291.8002828562402
 30
0.0
 10
64.12335963856353
 20
291.9549966725174
 30
0.0
 10
63.52421622713182
 20
292.1687932445903
 30
0.0
 10
62.94875900566593
 20
292.4401146130468
 30
0.0
 10
62.4930736127105
 20
292.7119594966955
 30
0.0
 10
62.14581771495789
 20
292.9554200492887
 30
0.0
 10
61.89419813365127
 20
293.1509025756194
 30
0.0
 10
61.65232308338009
 20
293.3585956343339
 30
0.0
 10
61.34338679970482
 20
293.6514331824914
 30
0.0
 10
60.98454404281378
 20
294.0458908314318
 30
0.0
 10
60.6023171375643
 20
294.5593754973699
 30
0.0
 10
60.27269269230068
 20
295.1081432760732
 30
0.0
 10
60.04420524638034
 20
295.5902066925631
 30
0.0
 10
59.89070374642037
 20
295.9876162517398
 30
0.0
 10
59.79044694349706
 20
296.2908986150319
 30
0.0
 10
59.7051304505721
 20
296.5987224867349
 30
0.0
 10
59.61236799521226
 20
297.0137633538419
 30
0.0
 10
59.53107562832265
 20
297.5400361529366
 30
0.0
 10
59.5190358287826
 20
297.9648518026512
 30
0.0
 10
59.513017764
 20
298.1771948813
 30
0.0
 11
72.5118601046
 21
298.1771948795
 31
0.0
 11
72.48132052587877
 21
297.5476959229016
 31
0.0
 11
72.38998925035196
 21
296.9237291250658
 31
0.0
 11
72.32149451166543
 21
296.6146054145465
 31
0.0
 11
72.23807568682868
 21
296.3093434216665
 31
0.0
 11
72.13968894298961
 21
296.0079261624324
 31
0.0
 11
72.02665831188708
 21
295.7115649071686
 31
0.0
 11
71.75667817537474
 21
295.1349349071599
 31
0.0
 11
71.43134155352139
 21
294.5872061353314
 31
0.0
 11
71.05130505872943
 21
294.071139434605
 31
0.0
 11
70.62245456106871
 21
293.595359798355
 31
0.0
 11
70.39031742669869
 21
293.3734428655861
 31
0.0
 11
70.14753493336235
 21
293.1633772903091
 31
0.0
 11
69.89460532506402
 21
292.9655647174125
 31
0.0
 11
69.63209092922969
 21
292.7804813964199
 31
0.0
 11
69.08203274762877
 21
292.4509391699161
 31
0.0
 11
68.50189191596316
 21
292.1770838389967
 31
0.0
 11
67.89928660564036
 21
291.9623829554467
 31
0.0
 11
67.27858733530037
 21
291.8079260717748
 31
0.0
 11
66.64665852139679
 21
291.7152510975728
 31
0.0
 11
66.00867239424687
 21
291.6848044233152
 31
0.0
 11
65.37237740613654
 21
291.7167783275164
 31
0.0
 11
64.74225413203094
 21
291.8105964156244
 31
0.0
 11
64.12637022378948
 21
291.9648547498622
 31
0.0
 11
63.52833775397051
 21
292.1783100329911
 31
0.0
 11
62.9535020054238
 21
292.4492775397891
 31
0.0
 11
62.40803531788242
 21
292.7747663575664
 31
0.0
 11
62.14733302510551
 21
292.9575357857786
 31
0.0
 11
61.89598377329718
 21
293.1528053368789
 31
0.0
 11
61.65410047494761
 21
293.3605104737379
 31
0.0
 11
61.42264464364742
 21
293.5799173200257
 31
0.0
 11
60.9927216127672
 21
294.0524442506908
 31
0.0
 11
60.61110047330939
 21
294.5652353675845
 31
0.0
 11
60.28186899913036
 21
295.1132136487886
 31
0.0
 11
60.00825469198632
 21
295.6905771933504
 31
0.0
 11
59.89316243952636
 21
295.9885418158691
 31
0.0
 11
59.79292275109947
 21
296.2917010844668
 31
0.0
 11
59.70775567088224
 21
296.5992996922756
 31
0.0
 11
59.63779264340855
 21
296.910884511413
 31
0.0
 11
59.54430374646833
 21
297.5411704811272
 31
0.0
 11
59.513017764
 21
298.1771948813
 31
0.0
  0
SPLINE
  5
F5
330
1F
100
AcDbEntity
  8
BEZUGSACHSEN
  6
Continuous
 62
     7
100
AcDbSpline
210
0.0
220
0.0
230
1.0
 70
     8
 71
     3
 72
    27
 73
    23
 74
    21
 42
0.0000000001
 43
0.0000000001
 44
0.00000001
 40
0.0
 40
0.0
 40
0.0
 40
0.0
 40
0.1219765139930686
 40
0.2439857715146421
 40
0.356683139861039
 40
0.4694418149819205
 40
0.5721317673125464
 40
0.674544588133755
 40
0.7225206521373668
 40
0.7704888797812047
 40
0.817141293612596
 40
0.8637898734397749
 40
0.9102318001106614
 40
0.9566751324546328
 40
1.004175175783675
 40
1.051683100154891
 40
1.153672388730743
 40
1.256049376664433
 40
1.370745138089489
 40
1.485385401876683
 40
1.611534903914172
 40
1.737631875959119
 40
1.737631875959119
 40
1.737631875959119
 40
1.737631875959119
 10
32.1582891424
 20
282.9348588654
 30
0.0
 10
32.12303412479984
 20
282.9145793401011
 30
0.0
 10
32.05251462569835
 20
282.874014845642
 30
0.0
 10
31.9448622224943
 20
282.823218984762
 30
0.0
 10
31.8367042066175
 20
282.7814673489282
 30
0.0
 10
31.73112498564697
 20
282.7520527638229
 30
0.0
 10
31.62629344050366
 20
282.7351381764469
 30
0.0
 10
31.54156577065836
 20
282.7332729531964
 30
0.0
 10
31.47574183425284
 20
282.7402282611739
 30
0.0
 10
31.42903463103656
 20
282.7494253883007
 30
0.0
 10
31.38385401373026
 20
282.76295883328
 30
0.0
 10
31.34071440307684
 20
282.7807520920997
 30
0.0
 10
31.29975992650461
 20
282.8029804498383
 30
0.0
 10
31.26111250004163
 20
282.8295154815624
 30
0.0
 10
31.22520642140547
 20
282.8602107590804
 30
0.0
 10
31.17976709986524
 20
282.9077482321659
 30
0.0
 10
31.1312239598046
 20
282.9769175992585
 30
0.0
 10
31.08499825087659
 20
283.0730756539785
 30
0.0
 10
31.05103237707858
 20
283.1786510869671
 30
0.0
 10
31.02807695286171
 20
283.2950687778725
 30
0.0
 10
31.01463239449755
 20
283.4168160865302
 30
0.0
 10
31.0131750081996
 20
283.5009194500479
 30
0.0
 10
31.0124464668
 20
283.5429623746
 30
0.0
 11
32.1582891424
 21
282.9348588654
 31
0.0
 11
32.05174451833946
 21
282.8754744141547
 31
0.0
 11
31.94145162917078
 21
282.8233041398619
 31
0.0
 11
31.83613362131836
 21
282.7831941155014
 31
0.0
 11
31.72740989277531
 21
282.7532998072352
 31
0.0
 11
31.62594574065416
 21
282.7374804474503
 31
0.0
 11
31.52354620006977
 21
282.7358312183391
 31
0.0
 11
31.47584234385721
 21
282.7409346308964
 31
0.0
 11
31.42879157359577
 21
282.7502714334056
 31
0.0
 11
31.38411200616235
 21
282.7636946956864
 31
0.0
 11
31.34100586956642
 21
282.7815258758959
 31
0.0
 11
31.30018327676956
 21
282.8036701408475
 31
0.0
 11
31.2618960202234
 21
282.8299583341171
 31
0.0
 11
31.22575892321357
 21
282.8607863138752
 31
0.0
 11
31.19290642284668
 21
282.8951041823653
 31
0.0
 11
31.13373402862371
 21
282.9781730859702
 31
0.0
 11
31.0888343050491
 21
283.0701788601439
 31
0.0
 11
31.05319614546903
 21
283.1791973873337
 31
0.0
 11
31.03034458207164
 21
283.2915370336367
 31
0.0
 11
31.01657782573221
 21
283.4169330993014
 31
0.0
 11
31.0124464668
 21
283.5429623746
 31
0.0
  0
SPLINE
  5
F6
330
1F
100
AcDbEntity
  8
BEZUGSACHSEN
  6
Continuous
 62
     7
100
AcDbSpline
210
0.0
220
0.0
230
1.0
 70
     8
 71
     3
 72
    15
 73
    11
 74
     9
 42
0.0000000001
 43
0.0000000001
 44
0.00000001
 40
0.0
 40
0.0
 40
0.0
 40
0.0
 40
0.1110371613646939
 40
0.2222522337209926
 40
0.3333980191658654
 40
0.444506947468082
 40
0.555620106515889
 40
0.6667525642228932
 40
0.7778876033678033
 40
0.8889820916149855
 40
0.8889820916149855
 40
0.8889820916149855
 40
0.8889820916149855
 10
32.9123719821
 20
282.5006624746
 30
0.0
 10
32.87573025521928
 20
282.506194627412
 30
0.0
 10
32.80238809169005
 20
282.5172677970126
 30
0.0
 10
32.69587154168218
 20
282.5502863605377
 30
0.0
 10
32.59345863393666
 20
282.593876647985
 30
0.0
 10
32.49600866830951
 20
282.6476561557979
 30
0.0
 10
32.40370387257737
 20
282.7097512911621
 30
0.0
 10
32.31670724444974
 20
282.7790379648166
 30
0.0
 10
32.2344544889839
 20
282.8539199164427
 30
0.0
 10
32.18367450260179
 20
282.9078824979864
 30
0.0
 10
32.1582891424
 20
282.9348588654
 30
0.0
 11
32.9123719821
 21
282.5006624746
 31
0.0
 11
32.80302969698977
 21
282.5199890338076
 31
0.0
 11
32.69653774342148
 21
282.5520554671051
 31
0.0
 11
32.59426956281432
 21
282.5955825260163
 31
0.0
 11
32.49686669635978
 21
282.6490416277194
 31
0.0
 11
32.40459492957315
 21
282.7109452234765
 31
0.0
 11
32.31749782616438
 21
282.7799707095944
 31
0.0
 11
32.23545792167783
 21
282.8549403767777
 31
0.0
 11
32.1582891424
 21
282.9348588654
 31
0.0
  0
SPLINE
  5
F7
330
1F
100
AcDbEntity
  8
0
  6
Continuous
 62
     7
100
AcDbSpline
210
0.0
220
0.0
230
1.0
 70
     8
 71
     3
 72
    19
 73
    15
 74
    13
 42
0.0000000001
 43
0.0000000001
 44
0.00000001
 40
0.0
 40
0.0
 40
0.0
 40
0.0
 40
0.1162460235697769
 40
0.2327881717864078
 40
0.3491890045835087
 40
0.4655468550624027
 40
0.5819071369857117
 40
0.6982738489033631
 40
0.8146206072489703
 40
0.9309998277854361
 40
1.163276323398513
 40
1.396138921712177
 40
1.629013178008396
 40
1.861351539753206
 40
1.861351539753206
 40
1.861351539753206
 40
1.861351539753206
 10
100.1374464668
 20
264.6548142771
 30
0.0
 10
100.0986623959597
 20
264.6529733302121
 30
0.0
 10
100.0209954558951
 20
264.6492867468157
 30
0.0
 10
99.90738537082795
 20
264.6208812618573
 30
0.0
 10
99.79919768288329
 20
264.5770273476199
 30
0.0
 10
99.69822181692837
 20
264.5184306593635
 30
0.0
 10
99.60545336020449
 20
264.4477457980243
 30
0.0
 10
99.52136598121874
 20
264.3669881929363
 30
0.0
 10
99.4460623378448
 20
264.2780205541953
 30
0.0
 10
99.35741109368007
 20
264.1506611064564
 30
0.0
 10
99.26741434794107
 20
263.9778757283948
 30
0.0
 10
99.19252082877095
 20
263.7569507382337
 30
0.0
 10
99.14598390342817
 20
263.5279308186296
 30
0.0
 10
99.14029009271005
 20
263.3727514257681
 30
0.0
 10
99.1374464668
 20
263.2952511076
 30
0.0
 11
100.1374464668
 21
264.6548142771
 31
0.0
 11
100.0215751152496
 21
264.645488619715
 31
0.0
 11
99.90825059056152
 21
264.6182925829601
 31
0.0
 11
99.8003774579524
 21
264.5745599734227
 31
0.0
 11
99.69958871844221
 21
264.5164155037285
 31
0.0
 11
99.60690141339465
 21
264.4460679473225
 31
0.0
 11
99.52282604776917
 21
264.3656158215739
 31
0.0
 11
99.4475272898375
 21
264.2769215983602
 31
0.0
 11
99.3809005605222
 21
264.1815014646702
 31
0.0
 11
99.27301077441366
 21
263.9758022559509
 31
0.0
 11
99.19725263756192
 21
263.7556075820958
 31
0.0
 11
99.15229262374531
 21
263.5271146579097
 31
0.0
 11
99.1374464668
 21
263.2952511076
 31
0.0
  0
SPLINE
  5
F8
330
1F
100
AcDbEntity
  8
0
  6
Continuous
 62
     7
100
AcDbSpline
210
0.0
220
0.0
230
1.0
 70
     8
 71
     3
 72
    19
 73
    15
 74
    13
 42
0.0000000001
 43
0.0000000001
 44
0.00000001
 40
0.0
 40
0.0
 40
0.0
 40
0.0
 40
0.2323383481439967
 40
0.4652125957750638
 40
0.6980761133579831
 40
0.9303535187932058
 40
1.046733461851996
 40
1.163080940920655
 40
1.279447997487987
 40
1.395808629590267
 40
1.512165904568482
 40
1.628566140412669
 40
1.745106920605365
 40
1.861351602868386
 40
1.861351602868386
 40
1.861351602868386
 40
1.861351602868386
 10
102.8874464668
 20
263.2952511076
 30
0.0
 10
102.884602841194
 20
263.3727514212682
 30
0.0
 10
102.8789090310239
 20
263.5279308067762
 30
0.0
 10
102.8323720551894
 20
263.7569510208224
 30
0.0
 10
102.7574783094333
 20
263.9778765827326
 30
0.0
 10
102.6674810051814
 20
264.1506626469425
 30
0.0
 10
102.5788290673695
 20
264.2780225726467
 30
0.0
 10
102.5035248030121
 20
264.366990471551
 30
0.0
 10
102.4194368291952
 20
264.44774814151
 30
0.0
 10
102.3266680953666
 20
264.518432707892
 30
0.0
 10
102.2256922831212
 20
264.5770289320652
 30
0.0
 10
102.1175052336082
 20
264.620882183222
 30
0.0
 10
102.0038961242539
 20
264.6492869426723
 30
0.0
 10
101.9262300894618
 20
264.6529733953194
 30
0.0
 10
101.8874464668
 20
264.6548142771
 30
0.0
 11
102.8874464668
 21
263.2952511076
 31
0.0
 11
102.8726003126822
 21
263.5271146444621
 31
0.0
 11
102.8276403110936
 21
263.755607562223
 31
0.0
 11
102.7518818324112
 21
263.9758030906263
 31
0.0
 11
102.6439914212336
 21
264.1815029988704
 31
0.0
 11
102.5773640973894
 21
264.2769235986575
 31
0.0
 11
102.5020646408226
 21
264.3656181741758
 31
0.0
 11
102.4179887744921
 21
264.4460702751734
 31
0.0
 11
102.3253009485228
 21
264.5164177244542
 31
0.0
 11
102.2245125136182
 21
264.5745615704728
 31
0.0
 11
102.1166397848266
 21
264.6182935872071
 31
0.0
 11
102.0033164962727
 21
264.645488912527
 31
0.0
 11
101.8874464668
 21
264.6548142771
 31
0.0
  0
SPLINE
  5
F9
330
1F
100
AcDbEntity
  8
BEZUGSACHSEN
  6
Continuous
 62
     7
100
AcDbSpline
210
0.0
220
0.0
230
1.0
 70
     8
 71
     3
 72
    11
 73
     7
 74
     5
 42
0.0000000001
 43
0.0000000001
 44
0.00000001
 40
0.0
 40
0.0
 40
0.0
 40
0.0
 40
0.5462907431276932
 40
1.093000863637199
 40
1.646070107142582
 40
2.198197048714763
 40
2.198197048714763
 40
2.198197048714763
 40
2.198197048714763
 10
40.5662924137
 20
313.1871948608
 30
0.0
 10
40.62936321556568
 20
313.0162632315663
 30
0.0
 10
40.75555323759459
 20
312.6742687520228
 30
0.0
 10
40.89519055061329
 20
312.1429946228085
 30
0.0
 10
40.99267891463332
 20
311.5995702178577
 30
0.0
 10
41.00586102914778
 20
311.2309855773009
 30
0.0
 10
41.0124464668
 20
311.0468503866
 30
0.0
 11
40.5662924137
 21
313.1871948608
 31
0.0
 11
40.74714374632919
 21
312.6717083221656
 31
0.0
 11
40.88763523102751
 21
312.1433579662513
 31
0.0
 11
40.97970188425793
 21
311.5980054935563
 31
0.0
 11
41.0124464668
 21
311.0468503866
 31
0.0
  0
SPLINE
  5
FA
330
1F
100
AcDbEntity
  8
BEZUGSACHSEN
  6
Continuous
 62
     7
100
AcDbSpline
210
0.0
220
0.0
230
1.0
 70
     8
 71
     3
 72
    11
 73
     7
 74
     5
 42
0.0000000001
 43
0.0000000001
 44
0.00000001
 40
0.0
 40
0.0
 40
0.0
 40
0.0
 40
0.914055666000336
 40
1.828030949185932
 40
2.279806974871118
 40
2.730944124762559
 40
2.730944124762559
 40
2.730944124762559
 40
2.730944124762559
 10
32.2793993936854
 20
283.167194860985
 30
0.0
 10
32.41205410064878
 20
283.4419114586515
 30
0.0
 10
32.67735184881037
 20
283.9913204951788
 30
0.0
 10
32.89270706212298
 20
284.7240314162837
 30
0.0
 10
32.9964012757854
 20
285.3219766223898
 30
0.0
 10
33.0071005933065
 20
285.6230998378165
 30
0.0
 10
33.0124464668
 20
285.7735549124
 30
0.0
 11
32.2793993936854
 21
283.167194860985
 31
0.0
 11
32.65420692346087
 21
284.0008717025555
 31
0.0
 11
32.91349828385873
 21
284.877295577571
 31
0.0
 11
32.98621525735737
 21
285.3231810103327
 31
0.0
 11
33.0124464668
 21
285.7735549124
 31
0.0
  0
SPLINE
  5
FB
330
1F
100
AcDbEntity
  8
BEZUGSACHSEN
  6
Continuous
 62
     7
100
AcDbSpline
210
0.0
220
0.0
230
1.0
 70
     8
 71
     3
 72
    11
 73
     7
 74
     5
 42
0.0000000001
 43
0.0000000001
 44
0.00000001
 40
0.0
 40
0.0
 40
0.0
 40
0.0
 40
0.8249192366724755
 40
1.650116891930991
 40
2.190492152293427
 40
2.730585915378245
 40
2.730585915378245
 40
2.730585915378245
 40
2.730585915378245
 10
33.0124464668
 20
310.5808348092
 30
0.0
 10
32.99471316246181
 20
310.8560251011768
 30
0.0
 10
32.95924056861586
 20
311.4064985646376
 30
0.0
 10
32.75080575198043
 20
312.1112321497906
 30
0.0
 10
32.52057932100077
 20
312.7034458748708
 30
0.0
 10
32.35977873819882
 20
313.0259732083159
 30
0.0
 10
32.2793993936854
 20
313.187194860615
 30
0.0
 11
33.0124464668
 21
310.5808348092
 31
0.0
 11
32.92887101268426
 21
311.4015094648959
 31
0.0
 11
32.71090957057248
 21
312.1974014047952
 31
0.0
 11
32.51297449201331
 21
312.700220583713
 31
0.0
 11
32.2793993936854
 21
313.187194860615
 31
0.0
  0
DIMENSION
  5
106
330
1F
100
AcDbEntity
  8
1
100
AcDbDimension
  2
*D2
 10
293.195053992087
 20
310.6771948608
 30
0.0
 11
289.445053992087
 21
297.800949198959
 31
0.0
 70
    32
  1
<>
 71
     5
 42
-1.0
 53
90.0
  3
ME10_DIM_10
100
AcDbAlignedDimension
 13
281.0124464668
 23
285.6771948608
 33
0.0
 14
281.0124464668
 24
310.6771948608
 34
0.0
 50
90.0
100
AcDbRotatedDimension
  0
DIMENSION
  5
111
330
1F
100
AcDbEntity
  8
1
100
AcDbDimension
  2
*D3
 10
301.267798362515
 20
320.1771948608466
 30
0.0
 11
297.517798362515
 21
298.608223636002
 31
0.0
 70
    32
  1
<>
 71
     5
 42
-1.0
 53
90.0
  3
ME10_DIM_11
100
AcDbAlignedDimension
 13
281.0124464668
 23
276.177194860756
 33
0.0
 14
281.0124464668
 24
320.1771948608466
 34
0.0
 50
90.0
100
AcDbRotatedDimension
  0
DIMENSION
  5
11C
330
1F
100
AcDbEntity
  8
1
100
AcDbDimension
  2
*D4
 10
309.945998560726
 20
324.6771948608
 30
0.0
 11
306.195998560726
 21
298.810042245263
 31
0.0
 70
    32
  1
<>
 71
     5
 42
-1.0
 53
90.0
  3
ME10_DIM_12
100
AcDbAlignedDimension
 13
223.834525154
 23
271.6771948608
 33
0.0
 14
223.834525154
 24
324.6771948608
 34
0.0
 50
90.0
100
AcDbRotatedDimension
  0
DIMENSION
  5
127
330
1F
100
AcDbEntity
  8
1
100
AcDbDimension
  2
*D5
 10
281.0124464668
 20
357.337438930868
 30
0.0
 11
197.734851811773
 21
361.087438930868
 31
0.0
 70
    32
  1
<>
 71
     5
 42
-1.0
 53
0.00013888888889
  3
ME10_DIM_13
100
AcDbAlignedDimension
 13
110.0124464668
 23
348.1771579397
 33
0.0
 14
281.0124464668
 24
319.2528043692
 34
0.0
100
AcDbRotatedDimension
  0
DIMENSION
  5
132
330
1F
100
AcDbEntity
  8
1
100
AcDbDimension
  2
*D6
 10
281.0124464668
 20
364.804727473514
 30
0.0
 11
180.983907243135
 21
368.554727473514
 31
0.0
 70
    32
  1
<>
 71
     5
 42
-1.0
 53
0.00013888888889
  3
ME10_DIM_14
100
AcDbAlignedDimension
 13
81.0124464668
 23
348.1771948608
 33
0.0
 14
281.0124464668
 24
319.2528043692
 34
0.0
100
AcDbRotatedDimension
  0
DIMENSION
  5
13D
330
1F
100
AcDbEntity
  8
1
100
AcDbDimension
  2
*D7
 10
281.0124464668
 20
372.27201601616
 30
0.0
 11
167.865697641189
 21
376.02201601616
 31
0.0
 70
    32
  1
<>
 71
     5
 42
-1.0
 53
0.00013888888889
  3
ME10_DIM_15
100
AcDbAlignedDimension
 13
31.0124464668
 23
331.7773864234
 33
0.0
 14
281.0124464668
 24
319.2528043692
 34
0.0
100
AcDbRotatedDimension
  0
INSERT
  5
144
330
1F
100
AcDbEntity
  8
1
100
AcDbBlockReference
  2
*D8
 10
0.0
 20
0.0
 30
0.0
  0
DIMENSION
  5
14F
330
1F
100
AcDbEntity
  8
1
100
AcDbDimension
  2
*D9
 10
258.0173768312789
 20
323.3341469605797
 30
0.0
 11
261.1606122503911
 21
331.5812546559494
 31
0.0
 70
    37
  1
<>
 71
     5
 42
-1.0
  3
ME10_DIM_16
100
AcDb3PointAngularDimension
 13
257.9382952783293
 23
321.9931699428754
 33
0.0
 14
227.2554477290565
 24
324.6771948608001
 34
0.0
 15
223.834525154
 25
324.6771948608001
 35
0.0
  0
ENDSEC
  0
SECTION
  2
OBJECTS
  0
DICTIONARY
  5
C
330
0
100
AcDbDictionary
281
     1
  3
ACAD_GROUP
350
D
  3
ACAD_LAYOUT
350
1A
  3
ACAD_MLEADERSTYLE
350
152
  3
ACAD_MLINESTYLE
350
17
  3
ACAD_PLOTSETTINGS
350
19
  3
ACAD_PLOTSTYLENAME
350
E
  3
ACAD_SCALELIST
350
4A
  3
ACAD_VISUALSTYLE
350
2A
  3
AcDbVariableDictionary
350
150
  0
DICTIONARY
  5
D
102
{ACAD_REACTORS
330
C
102
}
330
C
100
AcDbDictionary
281
     1
  0
DICTIONARY
  5
1A
102
{ACAD_REACTORS
330
C
102
}
330
C
100
AcDbDictionary
281
     1
  3
Layout1
350
1E
  3
Layout2
350
26
  3
Model
350
22
  0
DICTIONARY
  5
152
102
{ACAD_REACTORS
330
C
102
}
330
C
100
AcDbDictionary
281
     1
  0
DICTIONARY
  5
17
102
{ACAD_REACTORS
330
C
102
}
330
C
100
AcDbDictionary
281
     1
  3
Standard
350
18
  0
DICTIONARY
  5
19
102
{ACAD_REACTORS
330
C
102
}
330
C
100
AcDbDictionary
281
     1
  0
ACDBDICTIONARYWDFLT
  5
E
102
{ACAD_REACTORS
330
C
102
}
330
C
100
AcDbDictionary
281
     1
  3
Normal
350
F
100
AcDbDictionaryWithDefault
340
F
  0
DICTIONARY
  5
4A
102
{ACAD_REACTORS
330
C
102
}
330
C
100
AcDbDictionary
281
     1
  3
A0
350
4B
  3
A1
350
4C
  3
A2
350
4D
  3
A3
350
4E
  3
A4
350
4F
  3
A5
350
50
  3
A6
350
51
  3
A7
350
52
  3
A8
350
53
  3
A9
350
54
  3
B0
350
55
  3
B1
350
56
  3
B2
350
57
  3
B3
350
58
  3
B4
350
59
  3
B5
350
5A
  3
B6
350
5B
  3
B7
350
5C
  3
B8
350
5D
  3
B9
350
5E
  3
C0
350
5F
  3
C1
350
60
  3
C2
350
61
  3
C3
350
62
  3
C4
350
63
  3
C5
350
64
  3
C6
350
65
  3
C7
350
66
  3
C8
350
67
  3
C9
350
68
  3
D0
350
69
  3
D1
350
6A
  3
D2
350
6B
  0
DICTIONARY
  5
2A
102
{ACAD_REACTORS
330
C
102
}
330
C
100
AcDbDictionary
281
     1
  3
2dWireframe
350
2F
  3
3D Hidden
350
31
  3
3dWireframe
350
30
  3
Basic
350
32
  3
Brighten
350
36
  3
ColorChange
350
3A
  3
Conceptual
350
34
  3
Dim
350
35
  3
Facepattern
350
39
  3
Flat
350
2B
  3
FlatWithEdges
350
2C
  3
Gouraud
350
2D
  3
GouraudWithEdges
350
2E
  3
Linepattern
350
38
  3
Realistic
350
33
  3
Thicken
350
37
  0
DICTIONARY
  5
150
102
{ACAD_REACTORS
330
C
102
}
330
C
100
AcDbDictionary
281
     1
  3
CANNOSCALE
350
153
  0
LAYOUT
  5
1E
102
{ACAD_REACTORS
330
1A
102
}
330
1A
100
AcDbPlotSettings
  1

  2
none_device
  4

  6

 40
0.0
 41
0.0
 42
0.0
 43
0.0
 44
0.0
 45
0.0
 46
0.0
 47
0.0
 48
0.0
 49
0.0
140
0.0
141
0.0
142
1.0
143
1.0
 70
   688
 72
     0
 73
     0
 74
     5
  7

 75
    16
147
1.0
148
0.0
149
0.0
100
AcDbLayout
  1
Layout1
 70
     1
 71
     1
 10
0.0
 20
0.0
 11
12.0
 21
9.0
 12
0.0
 22
0.0
 32
0.0
 14
1.00000000000000E+20
 24
1.00000000000000E+20
 34
1.00000000000000E+20
 15
-1.00000000000000E+20
 25
-1.00000000000000E+20
 35
-1.00000000000000E+20
146
0.0
 13
0.0
 23
0.0
 33
0.0
 16
1.0
 26
0.0
 36
0.0
 17
0.0
 27
1.0
 37
0.0
 76
     0
330
1B
  0
LAYOUT
  5
26
102
{ACAD_REACTORS
330
1A
102
}
330
1A
100
AcDbPlotSettings
  1

  2
none_device
  4

  6

 40
0.0
 41
0.0
 42
0.0
 43
0.0
 44
0.0
 45
0.0
 46
0.0
 47
0.0
 48
0.0
 49
0.0
140
0.0
141
0.0
142
1.0
143
1.0
 70
   688
 72
     0
 73
     0
 74
     5
  7

 75
    16
147
1.0
148
0.0
149
0.0
100
AcDbLayout
  1
Layout2
 70
     1
 71
     2
 10
0.0
 20
0.0
 11
0.0
 21
0.0
 12
0.0
 22
0.0
 32
0.0
 14
0.0
 24
0.0
 34
0.0
 15
0.0
 25
0.0
 35
0.0
146
0.0
 13
0.0
 23
0.0
 33
0.0
 16
1.0
 26
0.0
 36
0.0
 17
0.0
 27
1.0
 37
0.0
 76
     0
330
23
  0
LAYOUT
  5
22
102
{ACAD_REACTORS
330
1A
102
}
330
1A
100
AcDbPlotSettings
  1

  2
none_device
  4

  6

 40
0.0
 41
0.0
 42
0.0
 43
0.0
 44
0.0
 45
0.0
 46
0.0
 47
0.0
 48
0.0
 49
0.0
140
0.0
141
0.0
142
1.0
143
1.0
 70
  1712
 72
     0
 73
     0
 74
     0
  7

 75
     0
147
1.0
148
0.0
149
0.0
100
AcDbLayout
  1
Model
 70
     1
 71
     0
 10
0.0
 20
0.0
 11
12.0
 21
9.0
 12
0.0
 22
0.0
 32
0.0
 14
9.7672106290449
 24
248.1771948608
 34
0.0
 15
311.945998560726
 25
377.77201601616
 35
0.0
146
0.0
 13
0.0
 23
0.0
 33
0.0
 16
1.0
 26
0.0
 36
0.0
 17
0.0
 27
1.0
 37
0.0
 76
     0
330
1F
331
29
  0
MLINESTYLE
  5
18
102
{ACAD_REACTORS
330
17
102
}
330
17
100
AcDbMlineStyle
  2
Standard
 70
     0
  3

 62
   256
 51
90.0
 52
90.0
 71
     2
 49
0.5
 62
   256
  6
BYLAYER
 49
-0.5
 62
   256
  6
BYLAYER
  0
ACDBPLACEHOLDER
  5
F
102
{ACAD_REACTORS
330
E
102
}
330
E
  0
SCALE
  5
4B
102
{ACAD_REACTORS
330
4A
102
}
330
4A
100
AcDbScale
 70
     0
300
1:1
140
1.0
141
1.0
290
     1
  0
SCALE
  5
4C
102
{ACAD_REACTORS
330
4A
102
}
330
4A
100
AcDbScale
 70
     0
300
1:2
140
1.0
141
2.0
290
     0
  0
SCALE
  5
4D
102
{ACAD_REACTORS
330
4A
102
}
330
4A
100
AcDbScale
 70
     0
300
1:4
140
1.0
141
4.0
290
     0
  0
SCALE
  5
4E
102
{ACAD_REACTORS
330
4A
102
}
330
4A
100
AcDbScale
 70
     0
300
1:5
140
1.0
141
5.0
290
     0
  0
SCALE
  5
4F
102
{ACAD_REACTORS
330
4A
102
}
330
4A
100
AcDbScale
 70
     0
300
1:8
140
1.0
141
8.0
290
     0
  0
SCALE
  5
50
102
{ACAD_REACTORS
330
4A
102
}
330
4A
100
AcDbScale
 70
     0
300
1:10
140
1.0
141
10.0
290
     0
  0
SCALE
  5
51
102
{ACAD_REACTORS
330
4A
102
}
330
4A
100
AcDbScale
 70
     0
300
1:16
140
1.0
141
16.0
290
     0
  0
SCALE
  5
52
102
{ACAD_REACTORS
330
4A
102
}
330
4A
100
AcDbScale
 70
     0
300
1:20
140
1.0
141
20.0
290
     0
  0
SCALE
  5
53
102
{ACAD_REACTORS
330
4A
102
}
330
4A
100
AcDbScale
 70
     0
300
1:30
140
1.0
141
30.0
290
     0
  0
SCALE
  5
54
102
{ACAD_REACTORS
330
4A
102
}
330
4A
100
AcDbScale
 70
     0
300
1:40
140
1.0
141
40.0
290
     0
  0
SCALE
  5
55
102
{ACAD_REACTORS
330
4A
102
}
330
4A
100
AcDbScale
 70
     0
300
1:50
140
1.0
141
50.0
290
     0
  0
SCALE
  5
56
102
{ACAD_REACTORS
330
4A
102
}
330
4A
100
AcDbScale
 70
     0
300
1:100
140
1.0
141
100.0
290
     0
  0
SCALE
  5
57
102
{ACAD_REACTORS
330
4A
102
}
330
4A
100
AcDbScale
 70
     0
300
2:1
140
2.0
141
1.0
290
     0
  0
SCALE
  5
58
102
{ACAD_REACTORS
330
4A
102
}
330
4A
100
AcDbScale
 70
     0
300
4:1
140
4.0
141
1.0
290
     0
  0
SCALE
  5
59
102
{ACAD_REACTORS
330
4A
102
}
330
4A
100
AcDbScale
 70
     0
300
8:1
140
8.0
141
1.0
290
     0
  0
SCALE
  5
5A
102
{ACAD_REACTORS
330
4A
102
}
330
4A
100
AcDbScale
 70
     0
300
10:1
140
10.0
141
1.0
290
     0
  0
SCALE
  5
5B
102
{ACAD_REACTORS
330
4A
102
}
330
4A
100
AcDbScale
 70
     0
300
100:1
140
100.0
141
1.0
290
     0
  0
SCALE
  5
5C
102
{ACAD_REACTORS
330
4A
102
}
330
4A
100
AcDbScale
 70
     0
300
1/128" = 1'-0"
140
0.0078125
141
12.0
290
     0
  0
SCALE
  5
5D
102
{ACAD_REACTORS
330
4A
102
}
330
4A
100
AcDbScale
 70
     0
300
1/64" = 1'-0"
140
0.015625
141
12.0
290
     0
  0
SCALE
  5
5E
102
{ACAD_REACTORS
330
4A
102
}
330
4A
100
AcDbScale
 70
     0
300
1/32" = 1'-0"
140
0.03125
141
12.0
290
     0
  0
SCALE
  5
5F
102
{ACAD_REACTORS
330
4A
102
}
330
4A
100
AcDbScale
 70
     0
300
1/16" = 1'-0"
140
0.0625
141
12.0
290
     0
  0
SCALE
  5
60
102
{ACAD_REACTORS
330
4A
102
}
330
4A
100
AcDbScale
 70
     0
300
3/32" = 1'-0"
140
0.09375
141
12.0
290
     0
  0
SCALE
  5
61
102
{ACAD_REACTORS
330
4A
102
}
330
4A
100
AcDbScale
 70
     0
300
1/8" = 1'-0"
140
0.125
141
12.0
290
     0
  0
SCALE
  5
62
102
{ACAD_REACTORS
330
4A
102
}
330
4A
100
AcDbScale
 70
     0
300
3/16" = 1'-0"
140
0.1875
141
12.0
290
     0
  0
SCALE
  5
63
102
{ACAD_REACTORS
330
4A
102
}
330
4A
100
AcDbScale
 70
     0
300
1/4" = 1'-0"
140
0.25
141
12.0
290
     0
  0
SCALE
  5
64
102
{ACAD_REACTORS
330
4A
102
}
330
4A
100
AcDbScale
 70
     0
300
3/8" = 1'-0"
140
0.375
141
12.0
290
     0
  0
SCALE
  5
65
102
{ACAD_REACTORS
330
4A
102
}
330
4A
100
AcDbScale
 70
     0
300
1/2" = 1'-0"
140
0.5
141
12.0
290
     0
  0
SCALE
  5
66
102
{ACAD_REACTORS
330
4A
102
}
330
4A
100
AcDbScale
 70
     0
300
3/4" = 1'-0"
140
0.75
141
12.0
290
     0
  0
SCALE
  5
67
102
{ACAD_REACTORS
330
4A
102
}
330
4A
100
AcDbScale
 70
     0
300
1" = 1'-0"
140
1.0
141
12.0
290
     0
  0
SCALE
  5
68
102
{ACAD_REACTORS
330
4A
102
}
330
4A
100
AcDbScale
 70
     0
300
1-1/2" = 1'-0"
140
1.5
141
12.0
290
     0
  0
SCALE
  5
69
102
{ACAD_REACTORS
330
4A
102
}
330
4A
100
AcDbScale
 70
     0
300
3" = 1'-0"
140
3.0
141
12.0
290
     0
  0
SCALE
  5
6A
102
{ACAD_REACTORS
330
4A
102
}
330
4A
100
AcDbScale
 70
     0
300
6" = 1'-0"
140
6.0
141
12.0
290
     0
  0
SCALE
  5
6B
102
{ACAD_REACTORS
330
4A
102
}
330
4A
100
AcDbScale
 70
     0
300
1'-0" = 1'-0"
140
12.0
141
12.0
290
     0
  0
VISUALSTYLE
  5
2F
102
{ACAD_REACTORS
330
2A
102
}
330
2A
100
AcDbVisualStyle
  2
2dWireframe
 70
     4
 71
     0
 72
     2
 73
     0
 90
        0
 40
-0.6
 41
-30.0
 62
     5
 63
     7
 74
     1
 91
        4
 64
     7
 65
   257
 75
     1
175
     1
 42
1.0
 92
        0
 66
   257
 43
1.0
 76
     1
 77
     6
 78
     2
 67
     7
 79
     5
170
     0
171
     0
290
     0
174
     0
 93
        1
 44
0.0
173
     0
291
     0
 45
0.0
1001
ACAD
1000
AcDbSavedByObjectVersion
1070
     0
  0
VISUALSTYLE
  5
31
102
{ACAD_REACTORS
330
2A
102
}
330
2A
100
AcDbVisualStyle
  2
3D Hidden
 70
     6
 71
     1
 72
     2
 73
     2
 90
        0
 40
-0.6
 41
-30.0
 62
     5
 63
     7
 74
     2
 91
        2
 64
     7
 65
   257
 75
     2
175
     1
 42
40.0
 92
        0
 66
   257
 43
1.0
 76
     1
 77
     6
 78
     2
 67
     7
 79
     3
170
     0
171
     0
290
     0
174
     0
 93
        1
 44
0.0
173
     0
291
     0
 45
0.0
1001
ACAD
1000
AcDbSavedByObjectVersion
1070
     0
  0
VISUALSTYLE
  5
30
102
{ACAD_REACTORS
330
2A
102
}
330
2A
100
AcDbVisualStyle
  2
3dWireframe
 70
     5
 71
     0
 72
     2
 73
     0
 90
        0
 40
-0.6
 41
-30.0
 62
     5
 63
     7
 74
     1
 91
        4
 64
     7
 65
   257
 75
     1
175
     1
 42
1.0
 92
        0
 66
   257
 43
1.0
 76
     1
 77
     6
 78
     2
 67
     7
 79
     5
170
     0
171
     0
290
     0
174
     0
 93
        1
 44
0.0
173
     0
291
     0
 45
0.0
1001
ACAD
1000
AcDbSavedByObjectVersion
1070
     0
  0
VISUALSTYLE
  5
32
102
{ACAD_REACTORS
330
2A
102
}
330
2A
100
AcDbVisualStyle
  2
Basic
 70
     7
 71
     1
 72
     0
 73
     1
 90
        0
 40
-0.6
 41
-30.0
 62
     5
 63
     7
 74
     0
 91
        4
 64
     7
 65
   257
 75
     1
175
     1
 42
1.0
 92
        8
 66
     7
 43
1.0
 76
     1
 77
     6
 78
     2
 67
     7
 79
     5
170
     0
171
     0
290
     0
174
     0
 93
        1
 44
0.0
173
     0
291
     1
 45
0.0
1001
ACAD
1000
AcDbSavedByObjectVersion
1070
     0
  0
VISUALSTYLE
  5
36
102
{ACAD_REACTORS
330
2A
102
}
330
2A
100
AcDbVisualStyle
  2
Brighten
 70
    12
 71
     2
 72
     2
 73
     0
 90
        0
 40
-0.6
 41
-30.0
 62
     5
 63
     7
 74
     1
 91
        4
 64
     7
 65
   257
 75
     1
175
     1
 42
1.0
 92
        8
 66
     7
 43
1.0
 76
     1
 77
     6
 78
     2
 67
     7
 79
     5
170
     0
171
     0
290
     0
174
     0
 93
        1
 44
50.0
173
     0
291
     1
 45
0.0
1001
ACAD
1000
AcDbSavedByObjectVersion
1070
     0
  0
VISUALSTYLE
  5
3A
102
{ACAD_REACTORS
330
2A
102
}
330
2A
100
AcDbVisualStyle
  2
ColorChange
 70
    16
 71
     2
 72
     2
 73
     3
 90
        0
 40
-0.6
 41
-30.0
 62
     5
 63
     8
 74
     1
 91
        4
 64
     7
 65
   257
 75
     1
175
     1
 42
1.0
 92
        8
 66
     8
 43
1.0
 76
     1
 77
     6
 78
     2
 67
     7
 79
     5
170
     0
171
     0
290
     0
174
     0
 93
        1
 44
0.0
173
     0
291
     1
 45
0.0
1001
ACAD
1000
AcDbSavedByObjectVersion
1070
     0
  0
VISUALSTYLE
  5
34
102
{ACAD_REACTORS
330
2A
102
}
330
2A
100
AcDbVisualStyle
  2
Conceptual
 70
     9
 71
     3
 72
     2
 73
     0
 90
        0
 40
-0.6
 41
-30.0
 62
     5
 63
     7
 74
     2
 91
        2
 64
     7
 65
   257
 75
     1
175
     1
 42
40.0
 92
        8
 66
     7
 43
1.0
 76
     1
 77
     6
 78
     2
 67
     7
 79
     3
170
     0
171
     0
290
     0
174
     0
 93
        1
 44
0.0
173
     0
291
     0
 45
0.0
1001
ACAD
1000
AcDbSavedByObjectVersion
1070
     0
  0
VISUALSTYLE
  5
35
102
{ACAD_REACTORS
330
2A
102
}
330
2A
100
AcDbVisualStyle
  2
Dim
 70
    11
 71
     2
 72
     2
 73
     0
 90
        0
 40
-0.6
 41
-30.0
 62
     5
 63
     7
 74
     1
 91
        4
 64
     7
 65
   257
 75
     1
175
     1
 42
1.0
 92
        8
 66
     7
 43
1.0
 76
     1
 77
     6
 78
     2
 67
     7
 79
     5
170
     0
171
     0
290
     0
174
     0
 93
        1
 44
-50.0
173
     0
291
     1
 45
0.0
1001
ACAD
1000
AcDbSavedByObjectVersion
1070
     0
  0
VISUALSTYLE
  5
39
102
{ACAD_REACTORS
330
2A
102
}
330
2A
100
AcDbVisualStyle
  2
Facepattern
 70
    15
 71
     2
 72
     2
 73
     0
 90
        0
 40
-0.6
 41
-30.0
 62
     5
 63
     7
 74
     1
 91
        4
 64
     7
 65
   257
 75
     1
175
     1
 42
1.0
 92
        8
 66
     7
 43
1.0
 76
     1
 77
     6
 78
     2
 67
     7
 79
     5
170
     0
171
     0
290
     0
174
     0
 93
        1
 44
0.0
173
     0
291
     1
 45
0.0
1001
ACAD
1000
AcDbSavedByObjectVersion
1070
     0
  0
VISUALSTYLE
  5
2B
102
{ACAD_REACTORS
330
2A
102
}
330
2A
100
AcDbVisualStyle
  2
Flat
 70
     0
 71
     2
 72
     1
 73
     1
 90
        2
 40
-0.6
 41
30.0
 62
     5
 63
     7
 74
     0
 91
        4
 64
     7
 65
   257
 75
     1
175
     1
 42
1.0
 92
        8
 66
     7
 43
1.0
 76
     1
 77
     6
 78
     2
 67
     7
 79
     5
170
     0
171
     0
290
     0
174
     0
 93
       13
 44
0.0
173
     0
291
     1
 45
0.0
1001
ACAD
1000
AcDbSavedByObjectVersion
1070
     0
  0
VISUALSTYLE
  5
2C
102
{ACAD_REACTORS
330
2A
102
}
330
2A
100
AcDbVisualStyle
  2
FlatWithEdges
 70
     1
 71
     2
 72
     1
 73
     1
 90
        2
 40
-0.6
 41
30.0
 62
     5
 63
     7
 74
     1
 91
        4
 64
     7
 65
   257
 75
     1
175
     1
 42
1.0
 92
        0
 66
   257
 43
1.0
 76
     1
 77
     6
 78
     2
 67
     7
 79
     5
170
     0
171
     0
290
     0
174
     0
 93
       13
 44
0.0
173
     0
291
     1
 45
0.0
1001
ACAD
1000
AcDbSavedByObjectVersion
1070
     0
  0
VISUALSTYLE
  5
2D
102
{ACAD_REACTORS
330
2A
102
}
330
2A
100
AcDbVisualStyle
  2
Gouraud
 70
     2
 71
     2
 72
     2
 73
     1
 90
        2
 40
-0.6
 41
30.0
 62
     5
 63
     7
 74
     0
 91
        4
 64
     7
 65
   257
 75
     1
175
     1
 42
1.0
 92
        0
 66
     7
 43
1.0
 76
     1
 77
     6
 78
     2
 67
     7
 79
     5
170
     0
171
     0
290
     0
174
     0
 93
       13
 44
0.0
173
     0
291
     1
 45
0.0
1001
ACAD
1000
AcDbSavedByObjectVersion
1070
     0
  0
VISUALSTYLE
  5
2E
102
{ACAD_REACTORS
330
2A
102
}
330
2A
100
AcDbVisualStyle
  2
GouraudWithEdges
 70
     3
 71
     2
 72
     2
 73
     1
 90
        2
 40
-0.6
 41
30.0
 62
     5
 63
     7
 74
     1
 91
        4
 64
     7
 65
   257
 75
     1
175
     1
 42
1.0
 92
        0
 66
   257
 43
1.0
 76
     1
 77
     6
 78
     2
 67
     7
 79
     5
170
     0
171
     0
290
     0
174
     0
 93
       13
 44
0.0
173
     0
291
     1
 45
0.0
1001
ACAD
1000
AcDbSavedByObjectVersion
1070
     0
  0
VISUALSTYLE
  5
38
102
{ACAD_REACTORS
330
2A
102
}
330
2A
100
AcDbVisualStyle
  2
Linepattern
 70
    14
 71
     2
 72
     2
 73
     0
 90
        0
 40
-0.6
 41
-30.0
 62
     5
 63
     7
 74
     1
 91
        4
 64
     7
 65
   257
 75
     7
175
     7
 42
1.0
 92
        8
 66
     7
 43
1.0
 76
     1
 77
     6
 78
     2
 67
     7
 79
     5
170
     0
171
     0
290
     0
174
     0
 93
        1
 44
0.0
173
     0
291
     1
 45
0.0
1001
ACAD
1000
AcDbSavedByObjectVersion
1070
     0
  0
VISUALSTYLE
  5
33
102
{ACAD_REACTORS
330
2A
102
}
330
2A
100
AcDbVisualStyle
  2
Realistic
 70
     8
 71
     2
 72
     2
 73
     0
 90
        0
 40
-0.6
 41
-30.0
 62
     5
 63
     7
 74
     1
 91
        0
 64
     7
 65
   257
 75
     1
175
     1
 42
1.0
 92
        8
 66
     8
 43
1.0
 76
     1
 77
     6
 78
     2
 67
     7
 79
     5
170
     0
171
     0
290
     0
174
     0
 93
       13
 44
0.0
173
     0
291
     0
 45
0.0
1001
ACAD
1000
AcDbSavedByObjectVersion
1070
     0
  0
VISUALSTYLE
  5
37
102
{ACAD_REACTORS
330
2A
102
}
330
2A
100
AcDbVisualStyle
  2
Thicken
 70
    13
 71
     2
 72
     2
 73
     0
 90
        0
 40
-0.6
 41
-30.0
 62
     5
 63
     7
 74
     1
 91
        4
 64
     7
 65
   257
 75
     1
175
     1
 42
1.0
 92
       12
 66
     7
 43
1.0
 76
     1
 77
     6
 78
     2
 67
     7
 79
     5
170
     0
171
     0
290
     0
174
     0
 93
        1
 44
0.0
173
     0
291
     1
 45
0.0
1001
ACAD
1000
AcDbSavedByObjectVersion
1070
     0
  0
DICTIONARYVAR
  5
153
102
{ACAD_REACTORS
330
150
102
}
330
150
100
DictionaryVariables
280
     0
  1
1:1
  0
ENDSEC
  0
EOF
