  0
SECTION
  2
HEADER
  9
$ACADVER
  1
AC1015
  9
$ACADMAINTVER
 70
     6
  9
$DWGCODEPAGE
  3
ANSI_1252
  9
$INSBASE
 10
0.0
 20
0.0
 30
0.0
  9
$EXTMIN
 10
-1.7174746239883
 20
241.4696533726
 30
0.0
  9
$EXTMAX
 10
301.860189892995
 20
371.527485393137
 30
0.0
  9
$LIMMIN
 10
0.0
 20
0.0
  9
$LIMMAX
 10
12.0
 20
9.0
  9
$ORTHOMODE
 70
     0
  9
$REGENMODE
 70
     1
  9
$FILLMODE
 70
     1
  9
$QTEXTMODE
 70
     0
  9
$MIRRTEXT
 70
     1
  9
$LTSCALE
 40
1.0
  9
$ATTMODE
 70
     1
  9
$TEXTSIZE
 40
0.2
  9
$TRACEWID
 40
0.05
  9
$TEXTSTYLE
  7
Standard
  9
$CLAYER
  8
0
  9
$CELTYPE
  6
ByLayer
  9
$CECOLOR
 62
   256
  9
$CELTSCALE
 40
1.0
  9
$DISPSILH
 70
     0
  9
$DIMSCALE
 40
1.0
  9
$DIMASZ
 40
0.18
  9
$DIMEXO
 40
0.0625
  9
$DIMDLI
 40
0.38
  9
$DIMRND
 40
0.0
  9
$DIMDLE
 40
0.0
  9
$DIMEXE
 40
0.18
  9
$DIMTP
 40
0.0
  9
$DIMTM
 40
0.0
  9
$DIMTXT
 40
0.18
  9
$DIMCEN
 40
0.09
  9
$DIMTSZ
 40
0.0
  9
$DIMTOL
 70
     0
  9
$DIMLIM
 70
     0
  9
$DIMTIH
 70
     1
  9
$DIMTOH
 70
     1
  9
$DIMSE1
 70
     0
  9
$DIMSE2
 70
     0
  9
$DIMTAD
 70
     0
  9
$DIMZIN
 70
     0
  9
$DIMBLK
  1

  9
$DIMASO
 70
     1
  9
$DIMSHO
 70
     1
  9
$DIMPOST
  1

  9
$DIMAPOST
  1

  9
$DIMALT
 70
     0
  9
$DIMALTD
 70
     2
  9
$DIMALTF
 40
25.4
  9
$DIMLFAC
 40
1.0
  9
$DIMTOFL
 70
     0
  9
$DIMTVP
 40
0.0
  9
$DIMTIX
 70
     0
  9
$DIMSOXD
 70
     0
  9
$DIMSAH
 70
     0
  9
$DIMBLK1
  1

  9
$DIMBLK2
  1

  9
$DIMSTYLE
  2
Standard
  9
$DIMCLRD
 70
     0
  9
$DIMCLRE
 70
     0
  9
$DIMCLRT
 70
     0
  9
$DIMTFAC
 40
1.0
  9
$DIMGAP
 40
0.09
  9
$DIMJUST
 70
     0
  9
$DIMSD1
 70
     0
  9
$DIMSD2
 70
     0
  9
$DIMTOLJ
 70
     1
  9
$DIMTZIN
 70
     0
  9
$DIMALTZ
 70
     0
  9
$DIMALTTZ
 70
     0
  9
$DIMUPT
 70
     0
  9
$DIMDEC
 70
     4
  9
$DIMTDEC
 70
     4
  9
$DIMALTU
 70
     2
  9
$DIMALTTD
 70
     2
  9
$DIMTXSTY
  7
Standard
  9
$DIMAUNIT
 70
     0
  9
$DIMADEC
 70
     0
  9
$DIMALTRND
 40
0.0
  9
$DIMAZIN
 70
     0
  9
$DIMDSEP
 70
    46
  9
$DIMATFIT
 70
     3
  9
$DIMFRAC
 70
     0
  9
$DIMLDRBLK
  1

  9
$DIMLUNIT
 70
     2
  9
$DIMLWD
 70
    -2
  9
$DIMLWE
 70
    -2
  9
$DIMTMOVE
 70
     0
  9
$LUNITS
 70
     2
  9
$LUPREC
 70
     4
  9
$SKETCHINC
 40
0.1
  9
$FILLETRAD
 40
0.5
  9
$AUNITS
 70
     0
  9
$AUPREC
 70
     0
  9
$MENU
  1
.
  9
$ELEVATION
 40
0.0
  9
$PELEVATION
 40
0.0
  9
$THICKNESS
 40
0.0
  9
$LIMCHECK
 70
     0
  9
$CHAMFERA
 40
0.5
  9
$CHAMFERB
 40
0.5
  9
$CHAMFERC
 40
1.0
  9
$CHAMFERD
 40
0.0
  9
$SKPOLY
 70
     0
  9
$TDCREATE
 40
2456748.72908162
  9
$TDUCREATE
 40
2456748.645748287
  9
$TDUPDATE
 40
2456748.729081632
  9
$TDUUPDATE
 40
2456748.645748299
  9
$TDINDWG
 40
0.0000000116
  9
$TDUSRTIMER
 40
0.0000000116
  9
$USRTIMER
 70
     1
  9
$ANGBASE
 50
0.0
  9
$ANGDIR
 70
     0
  9
$PDMODE
 70
     0
  9
$PDSIZE
 40
0.0
  9
$PLINEWID
 40
0.0
  9
$SPLFRAME
 70
     0
  9
$SPLINETYPE
 70
     6
  9
$SPLINESEGS
 70
     8
  9
$HANDSEED
  5
158
  9
$SURFTAB1
 70
     6
  9
$SURFTAB2
 70
     6
  9
$SURFTYPE
 70
     6
  9
$SURFU
 70
     6
  9
$SURFV
 70
     6
  9
$UCSBASE
  2

  9
$UCSNAME
  2

  9
$UCSORG
 10
0.0
 20
0.0
 30
0.0
  9
$UCSXDIR
 10
1.0
 20
0.0
 30
0.0
  9
$UCSYDIR
 10
0.0
 20
1.0
 30
0.0
  9
$UCSORTHOREF
  2

  9
$UCSORTHOVIEW
 70
     0
  9
$UCSORGTOP
 10
0.0
 20
0.0
 30
0.0
  9
$UCSORGBOTTOM
 10
0.0
 20
0.0
 30
0.0
  9
$UCSORGLEFT
 10
0.0
 20
0.0
 30
0.0
  9
$UCSORGRIGHT
 10
0.0
 20
0.0
 30
0.0
  9
$UCSORGFRONT
 10
0.0
 20
0.0
 30
0.0
  9
$UCSORGBACK
 10
0.0
 20
0.0
 30
0.0
  9
$PUCSBASE
  2

  9
$PUCSNAME
  2

  9
$PUCSORG
 10
0.0
 20
0.0
 30
0.0
  9
$PUCSXDIR
 10
1.0
 20
0.0
 30
0.0
  9
$PUCSYDIR
 10
0.0
 20
1.0
 30
0.0
  9
$PUCSORTHOREF
  2

  9
$PUCSORTHOVIEW
 70
     0
  9
$PUCSORGTOP
 10
0.0
 20
0.0
 30
0.0
  9
$PUCSORGBOTTOM
 10
0.0
 20
0.0
 30
0.0
  9
$PUCSORGLEFT
 10
0.0
 20
0.0
 30
0.0
  9
$PUCSORGRIGHT
 10
0.0
 20
0.0
 30
0.0
  9
$PUCSORGFRONT
 10
0.0
 20
0.0
 30
0.0
  9
$PUCSORGBACK
 10
0.0
 20
0.0
 30
0.0
  9
$USERI1
 70
     0
  9
$USERI2
 70
     0
  9
$USERI3
 70
     0
  9
$USERI4
 70
     0
  9
$USERI5
 70
     0
  9
$USERR1
 40
16.5
  9
$USERR2
 40
0.0
  9
$USERR3
 40
0.0
  9
$USERR4
 40
0.0
  9
$USERR5
 40
0.0
  9
$WORLDVIEW
 70
     1
  9
$SHADEDGE
 70
     3
  9
$SHADEDIF
 70
    70
  9
$TILEMODE
 70
     1
  9
$MAXACTVP
 70
    64
  9
$PINSBASE
 10
0.0
 20
0.0
 30
0.0
  9
$PLIMCHECK
 70
     0
  9
$PEXTMIN
 10
1.00000000000000E+20
 20
1.00000000000000E+20
 30
1.00000000000000E+20
  9
$PEXTMAX
 10
-1.00000000000000E+20
 20
-1.00000000000000E+20
 30
-1.00000000000000E+20
  9
$PLIMMIN
 10
0.0
 20
0.0
  9
$PLIMMAX
 10
12.0
 20
9.0
  9
$UNITMODE
 70
     0
  9
$VISRETAIN
 70
     1
  9
$PLINEGEN
 70
     0
  9
$PSLTSCALE
 70
     1
  9
$TREEDEPTH
 70
  3020
  9
$CMLSTYLE
  2
Standard
  9
$CMLJUST
 70
     0
  9
$CMLSCALE
 40
1.0
  9
$PROXYGRAPHICS
 70
     1
  9
$MEASUREMENT
 70
     1
  9
$CELWEIGHT
370
    -1
  9
$ENDCAPS
280
     0
  9
$JOINSTYLE
280
     0
  9
$LWDISPLAY
290
     0
  9
$INSUNITS
 70
     1
  9
$HYPERLINKBASE
  1

  9
$STYLESHEET
  1

  9
$XEDIT
290
     1
  9
$CEPSNTYPE
380
     0
  9
$PSTYLEMODE
290
     1
  9
$FINGERPRINTGUID
  2
{3A72F5A3-BE2B-4597-85AC-FD9CD4C5831D}
  9
$VERSIONGUID
  2
{FAEB1C32-E019-11D5-929B-00C0DF256EC4}
  9
$EXTNAMES
290
     1
  9
$PSVPSCALE
 40
0.0
  9
$OLESTARTUP
290
     0
  0
ENDSEC
  0
SECTION
  2
CLASSES
  0
CLASS
  1
ACDBDICTIONARYWDFLT
  2
AcDbDictionaryWithDefault
  3
ObjectDBX Classes
 90
        0
280
     0
281
     0
  0
CLASS
  1
VISUALSTYLE
  2
AcDbVisualStyle
  3
ObjectDBX Classes
 90
     4095
280
     0
281
     0
  0
CLASS
  1
SCALE
  2
AcDbScale
  3
ObjectDBX Classes
 90
     1153
280
     0
281
     0
  0
CLASS
  1

  2
exOdDbPolyline
  3

 90
        0
280
     0
281
     1
  0
CLASS
  1

  2
exOdDbCircle
  3

 90
        0
280
     0
281
     1
  0
CLASS
  1

  2
exOdDbSpline
  3

 90
        0
280
     0
281
     1
  0
CLASS
  1
DICTIONARYVAR
  2
AcDbDictionaryVar
  3
ObjectDBX Classes
 90
        0
280
     0
281
     0
  0
CLASS
  1
ACDBPLACEHOLDER
  2
AcDbPlaceHolder
  3
ObjectDBX Classes
 90
        0
280
     0
281
     0
  0
CLASS
  1
LAYOUT
  2
AcDbLayout
  3
ObjectDBX Classes
 90
        0
280
     0
281
     0
  0
ENDSEC
  0
SECTION
  2
TABLES
  0
TABLE
  2
VPORT
  5
8
330
0
100
AcDbSymbolTable
 70
     1
  0
VPORT
  5
29
330
8
100
AcDbSymbolTableRecord
100
AcDbViewportTableRecord
  2
*Active
 70
     0
 10
0.0
 20
0.0
 11
1.0
 21
1.0
 12
150.0713576345033
 22
306.4985693828685
 13
0.0
 23
0.0
 14
0.5
 24
0.5
 15
0.5
 25
0.5
 16
0.0
 26
0.0
 36
1.0
 17
0.0
 27
0.0
 37
0.0
 40
208.360826008314
 41
1.60267857142857
 42
50.0
 43
0.0
 44
0.0
 50
0.0
 51
0.0
 71
     0
 72
   100
 73
     1
 74
     3
 75
     0
 76
     0
 77
     0
 78
     0
281
     0
 65
     1
110
0.0
120
0.0
130
0.0
111
1.0
121
0.0
131
0.0
112
0.0
122
1.0
132
0.0
 79
     0
146
0.0
  0
ENDTAB
  0
TABLE
  2
LTYPE
  5
5
330
0
100
AcDbSymbolTable
 70
     8
  0
LTYPE
  5
14
330
5
100
AcDbSymbolTableRecord
100
AcDbLinetypeTableRecord
  2
ByBlock
 70
     0
  3

 72
    65
 73
     0
 40
0.0
  0
LTYPE
  5
15
330
5
100
AcDbSymbolTableRecord
100
AcDbLinetypeTableRecord
  2
ByLayer
 70
     0
  3

 72
    65
 73
     0
 40
0.0
  0
LTYPE
  5
16
330
5
100
AcDbSymbolTableRecord
100
AcDbLinetypeTableRecord
  2
Continuous
 70
     0
  3
Solid line
 72
    65
 73
     0
 40
0.0
  0
LTYPE
  5
3B
330
5
100
AcDbSymbolTableRecord
100
AcDbLinetypeTableRecord
  2
DASHED
 70
     0
  3
Dashed
 72
    65
 73
     2
 40
15.0
 49
7.0
 74
     0
 49
-8.0
 74
     0
  0
LTYPE
  5
3C
330
5
100
AcDbSymbolTableRecord
100
AcDbLinetypeTableRecord
  2
DOTTED
 70
     0
  3
Dotted
 72
    65
 73
     2
 40
1.0
 49
0.0
 74
     0
 49
-1.0
 74
     0
  0
LTYPE
  5
3D
330
5
100
AcDbSymbolTableRecord
100
AcDbLinetypeTableRecord
  2
DOT_CENTER
 70
     0
  3
Dot_Center
 72
    65
 73
     4
 40
14.0
 49
12.0
 74
     0
 49
-1.0
 74
     0
 49
0.0
 74
     0
 49
-1.0
 74
     0
  0
LTYPE
  5
3E
330
5
100
AcDbSymbolTableRecord
100
AcDbLinetypeTableRecord
  2
LONG_DASHED
 70
     0
  3
Long_Dashed
 72
    65
 73
     2
 40
15.0
 49
10.0
 74
     0
 49
-5.0
 74
     0
  0
LTYPE
  5
3F
330
5
100
AcDbSymbolTableRecord
100
AcDbLinetypeTableRecord
  2
DASH_CENTER
 70
     0
  3
Dash_Center
 72
    65
 73
     4
 40
14.0
 49
11.0
 74
     0
 49
-1.0
 74
     0
 49
1.0
 74
     0
 49
-1.0
 74
     0
  0
LTYPE
  5
40
330
5
100
AcDbSymbolTableRecord
100
AcDbLinetypeTableRecord
  2
PHANTOM
 70
     0
  3
Phantom
 72
    65
 73
     6
 40
13.0
 49
10.0
 74
     0
 49
-1.0
 74
     0
 49
0.0
 74
     0
 49
-1.0
 74
     0
 49
0.0
 74
     0
 49
-1.0
 74
     0
  0
LTYPE
  5
41
330
5
100
AcDbSymbolTableRecord
100
AcDbLinetypeTableRecord
  2
CENTER_DASH_DASH
 70
     0
  3
Center_Dash_Dash
 72
    65
 73
     6
 40
14.0
 49
9.0
 74
     0
 49
-1.0
 74
     0
 49
1.0
 74
     0
 49
-1.0
 74
     0
 49
1.0
 74
     0
 49
-1.0
 74
     0
  0
ENDTAB
  0
TABLE
  2
LAYER
  5
2
330
0
100
AcDbSymbolTable
 70
     6
  0
LAYER
  5
10
330
2
100
AcDbSymbolTableRecord
100
AcDbLayerTableRecord
  2
0
 70
     0
 62
     7
  6
Continuous
370
    -3
390
F
  0
LAYER
  5
42
330
2
100
AcDbSymbolTableRecord
100
AcDbLayerTableRecord
  2
1
 70
     0
 62
     7
  6
Continuous
370
    -3
390
F
  0
LAYER
  5
43
330
2
100
AcDbSymbolTableRecord
100
AcDbLayerTableRecord
  2
BEZUGSACHSEN
 70
     0
 62
     7
  6
Continuous
370
    -3
390
F
  0
LAYER
  5
44
330
2
100
AcDbSymbolTableRecord
100
AcDbLayerTableRecord
  2
DEFAULT_2
 70
     0
 62
     7
  6
Continuous
370
    -3
390
F
  0
LAYER
  5
45
330
2
100
AcDbSymbolTableRecord
100
AcDbLayerTableRecord
  2
FASEN
 70
     0
 62
     7
  6
Continuous
370
    -3
390
F
  0
LAYER
  5
46
330
2
100
AcDbSymbolTableRecord
100
AcDbLayerTableRecord
  2
RUNDUNGEN
 70
     0
 62
     7
  6
Continuous
370
    -3
390
F
  0
ENDTAB
  0
TABLE
  2
STYLE
  5
3
330
0
100
AcDbSymbolTable
 70
     2
  0
STYLE
  5
11
330
3
100
AcDbSymbolTableRecord
100
AcDbTextStyleTableRecord
  2
Standard
 70
     0
 40
0.0
 41
1.0
 50
0.0
 71
     0
 42
0.2
  3
txt
  4

  0
STYLE
  5
6D
330
3
100
AcDbSymbolTableRecord
100
AcDbTextStyleTableRecord
  2
CONVERTER_11
 70
     0
 40
0.0
 41
0.72
 50
0.0
 71
     0
 42
0.2
  3
txt.shx
  4

  0
ENDTAB
  0
TABLE
  2
VIEW
  5
6
330
0
100
AcDbSymbolTable
 70
     0
  0
ENDTAB
  0
TABLE
  2
UCS
  5
7
330
0
100
AcDbSymbolTable
 70
     0
  0
ENDTAB
  0
TABLE
  2
APPID
  5
9
330
0
100
AcDbSymbolTable
 70
     1
  0
APPID
  5
12
330
9
100
AcDbSymbolTableRecord
100
AcDbRegAppTableRecord
  2
ACAD
 70
     0
  0
ENDTAB
  0
TABLE
  2
DIMSTYLE
  5
A
330
0
100
AcDbSymbolTable
 70
     8
100
AcDbDimStyleTable
  0
DIMSTYLE
105
27
330
A
100
AcDbSymbolTableRecord
100
AcDbDimStyleTableRecord
  2
Standard
 70
     0
340
11
  0
DIMSTYLE
105
109
102
{ACAD_REACTORS
330
10A
102
}
330
A
100
AcDbSymbolTableRecord
100
AcDbDimStyleTableRecord
  2
ME10_DIM_10
 70
     0
  3
\U+2300<>
 41
3.5
 42
2.0
 44
2.0
 71
     1
 73
     0
 74
     0
 77
     1
 78
     8
140
3.5
146
0.7
147
2.0
172
     1
173
     1
176
     2
177
     2
178
     3
271
     2
272
     0
340
6D
  0
DIMSTYLE
105
114
102
{ACAD_REACTORS
330
115
102
}
330
A
100
AcDbSymbolTableRecord
100
AcDbDimStyleTableRecord
  2
ME10_DIM_11
 70
     0
  3
\U+2300<>
 41
3.5
 42
2.0
 44
2.0
 71
     1
 73
     0
 74
     0
 77
     1
 78
     8
140
3.5
146
0.7
147
2.0
172
     1
173
     1
176
     2
177
     2
178
     3
271
     2
272
     0
340
6D
  0
DIMSTYLE
105
11F
102
{ACAD_REACTORS
330
120
102
}
330
A
100
AcDbSymbolTableRecord
100
AcDbDimStyleTableRecord
  2
ME10_DIM_12
 70
     0
  3
\U+2300<>
 41
3.5
 42
2.0
 44
2.0
 71
     1
 73
     0
 74
     0
 77
     1
 78
     8
140
3.5
146
0.7
147
2.0
172
     1
173
     1
176
     2
177
     2
178
     3
271
     2
272
     0
340
6D
  0
DIMSTYLE
105
12A
102
{ACAD_REACTORS
330
12B
102
}
330
A
100
AcDbSymbolTableRecord
100
AcDbDimStyleTableRecord
  2
ME10_DIM_13
 70
     0
  3
<>
 41
3.5
 42
2.0
 44
2.0
 71
     1
 73
     0
 74
     0
 77
     1
 78
     8
140
3.5
146
0.7
147
2.0
172
     1
173
     1
176
     2
177
     2
178
     3
271
     2
272
     0
340
6D
  0
DIMSTYLE
105
135
102
{ACAD_REACTORS
330
136
102
}
330
A
100
AcDbSymbolTableRecord
100
AcDbDimStyleTableRecord
  2
ME10_DIM_14
 70
     0
  3
<>
 41
3.5
 42
2.0
 44
2.0
 71
     1
 73
     0
 74
     0
 77
     1
 78
     8
140
3.5
146
0.7
147
2.0
172
     1
173
     1
176
     2
177
     2
178
     3
271
     2
272
     0
340
6D
  0
DIMSTYLE
105
140
102
{ACAD_REACTORS
330
141
102
}
330
A
100
AcDbSymbolTableRecord
100
AcDbDimStyleTableRecord
  2
ME10_DIM_15
 70
     0
  3
<>
 41
3.5
 42
2.0
 44
2.0
 71
     1
 73
     0
 74
     0
 77
     1
 78
     8
140
3.5
146
0.7
147
2.0
172
     1
173
     1
176
     2
177
     2
178
     3
271
     2
272
     0
340
6D
  0
DIMSTYLE
105
152
102
{ACAD_REACTORS
330
153
102
}
330
A
100
AcDbSymbolTableRecord
100
AcDbDimStyleTableRecord
  2
ME10_DIM_16
 70
     0
  3
<>
 41
3.5
 42
2.0
 44
2.0
 71
     1
 73
     0
 74
     0
 77
     1
 78
     8
140
3.5
146
0.7
147
2.0
172
     1
173
     1
176
     2
177
     2
178
     3
271
     2
272
     0
340
6D
  0
ENDTAB
  0
TABLE
  2
BLOCK_RECORD
  5
1
330
0
100
AcDbSymbolTable
 70
    10
  0
BLOCK_RECORD
  5
1F
330
1
100
AcDbSymbolTableRecord
100
AcDbBlockTableRecord
  2
*Model_Space
340
22
  0
BLOCK_RECORD
  5
1B
330
1
100
AcDbSymbolTableRecord
100
AcDbBlockTableRecord
  2
*Paper_Space
340
1E
  0
BLOCK_RECORD
  5
23
330
1
100
AcDbSymbolTableRecord
100
AcDbBlockTableRecord
  2
*Paper_Space0
340
26
  0
BLOCK_RECORD
  5
47
330
1
100
AcDbSymbolTableRecord
100
AcDbBlockTableRecord
  2
Urheberrecht_DE-EN
340
0
102
{BLKREFS
331
6C
102
}
  0
BLOCK_RECORD
  5
100
330
1
100
AcDbSymbolTableRecord
100
AcDbBlockTableRecord
  2
*D2
340
0
  0
BLOCK_RECORD
  5
10B
330
1
100
AcDbSymbolTableRecord
100
AcDbBlockTableRecord
  2
*D3
340
0
  0
BLOCK_RECORD
  5
116
330
1
100
AcDbSymbolTableRecord
100
AcDbBlockTableRecord
  2
*D4
340
0
  0
BLOCK_RECORD
  5
121
330
1
100
AcDbSymbolTableRecord
100
AcDbBlockTableRecord
  2
*D5
340
0
  0
BLOCK_RECORD
  5
12C
330
1
100
AcDbSymbolTableRecord
100
AcDbBlockTableRecord
  2
*D6
340
0
  0
BLOCK_RECORD
  5
137
330
1
100
AcDbSymbolTableRecord
100
AcDbBlockTableRecord
  2
*D7
340
0
  0
BLOCK_RECORD
  5
142
330
1
100
AcDbSymbolTableRecord
100
AcDbBlockTableRecord
  2
*D8
340
0
102
{BLKREFS
331
148
102
}
  0
BLOCK_RECORD
  5
149
330
1
100
AcDbSymbolTableRecord
100
AcDbBlockTableRecord
  2
*D9
340
0
  0
ENDTAB
  0
ENDSEC
  0
SECTION
  2
BLOCKS
  0
BLOCK
  5
20
330
1F
100
AcDbEntity
  8
0
100
AcDbBlockBegin
  2
*Model_Space
 70
     0
 10
0.0
 20
0.0
 30
0.0
  3
*Model_Space
  1

  0
ENDBLK
  5
21
330
1F
100
AcDbEntity
  8
0
100
AcDbBlockEnd
  0
BLOCK
  5
1C
330
1B
100
AcDbEntity
 67
     1
  8
0
100
AcDbBlockBegin
  2
*Paper_Space
 70
     0
 10
0.0
 20
0.0
 30
0.0
  3
*Paper_Space
  1

  0
ENDBLK
  5
1D
330
1B
100
AcDbEntity
 67
     1
  8
0
100
AcDbBlockEnd
  0
BLOCK
  5
24
330
23
100
AcDbEntity
  8
0
100
AcDbBlockBegin
  2
*Paper_Space0
 70
     0
 10
0.0
 20
0.0
 30
0.0
  3
*Paper_Space0
  1

  0
ENDBLK
  5
25
330
23
100
AcDbEntity
  8
0
100
AcDbBlockEnd
  0
BLOCK
  5
48
330
47
100
AcDbEntity
  8
0
100
AcDbBlockBegin
  2
Urheberrecht_DE-EN
 70
     0
 10
12.2825253760117
 20
303.227569306872
 30
0.0
  3
Urheberrecht_DE-EN
  1

  0
MTEXT
  5
6E
330
47
100
AcDbEntity
  8
1
 62
     1
100
AcDbMText
 10
12.2825253760117
 20
303.227569306872
 30
0.0
 40
2.0
 41
0.0
 71
     7
 72
     1
  1
We own the copyright of this document. It \Pdetermined and may neither be copied or \Pmade accessible to outsiders without our\Ppermission.
  7
CONVERTER_11
 11
0.0
 21
1.0
 31
0.0
 73
     1
 44
0.90036014405762
  0
MTEXT
  5
6F
330
47
100
AcDbEntity
  8
1
 62
     1
100
AcDbMText
 10
12.2825253760117
 20
246.9381823895658
 30
0.0
 40
2.0
 41
0.0
 71
     7
 72
     1
  1
F\U+00fcr diese Unterlage behalten wir das Ur-\Pheberrecht. Sie darf nur f\U+00fcr den von uns \Pbestimmten Zweck benutzt und ohne unsere \PZustimmung weder vervielf\U+00e4ltigt noch\PDritten zug\U+00e4nglich gemacht werden.
  7
CONVERTER_11
 11
0.0
 21
1.0
 31
0.0
 73
     1
 44
0.90036014405762
  0
ENDBLK
  5
49
330
47
100
AcDbEntity
  8
0
100
AcDbBlockEnd
  0
BLOCK
  5
107
330
100
100
AcDbEntity
  8
0
100
AcDbBlockBegin
  2
*D2
 70
     1
 10
0.0
 20
0.0
 30
0.0
  3
*D2
  1

  0
LINE
  5
101
330
100
100
AcDbEntity
  8
1
  6
Continuous
 62
     2
100
AcDbLine
 10
282.628505601032
 20
301.4696533726
 30
0.0
 11
282.628505601032
 21
281.4696533726
 31
0.0
  0
LINE
  5
102
330
100
100
AcDbEntity
  8
1
  6
Continuous
 62
     2
100
AcDbLine
 10
272.5486817452
 20
301.4696533726
 30
0.0
 11
284.628505601032
 21
301.4696533726
 31
0.0
  0
LINE
  5
103
330
100
100
AcDbEntity
  8
1
  6
Continuous
 62
     2
100
AcDbLine
 10
272.5486817452
 20
281.4696533726
 30
0.0
 11
284.628505601032
 21
281.4696533726
 31
0.0
  0
SOLID
  5
104
330
100
100
AcDbEntity
  8
1
 62
     2
100
AcDbTrace
 10
283.0892893425878
 20
297.9696533726
 30
0.0
 11
282.1677218594761
 21
297.9696533726
 31
0.0
 12
282.628505601032
 22
301.4696533726
 32
0.0
 13
282.628505601032
 23
301.4696533726
 33
0.0
  0
SOLID
  5
105
330
100
100
AcDbEntity
  8
1
 62
     2
100
AcDbTrace
 10
282.1677218594761
 20
284.9696533726
 30
0.0
 11
283.0892893425878
 21
284.9696533726
 31
0.0
 12
282.628505601032
 22
281.4696533726
 32
0.0
 13
282.628505601032
 23
281.4696533726
 33
0.0
  0
MTEXT
  5
106
330
100
100
AcDbEntity
  8
1
 62
     3
100
AcDbMText
 10
280.628505601032
 20
282.501853461297
 30
0.0
 40
3.5
 41
0.0
 71
     7
 72
     1
  1
\C3;%%c\C3;\C3;20\C2;\H2.45;\S^ ;\C3;
  7
CONVERTER_11
 11
0.0
 21
1.0
 31
0.0
 73
     1
 44
0.60024009603842
  0
ENDBLK
  5
108
330
100
100
AcDbEntity
  8
0
100
AcDbBlockEnd
  0
BLOCK
  5
112
330
10B
100
AcDbEntity
  8
0
100
AcDbBlockBegin
  2
*D3
 70
     1
 10
0.0
 20
0.0
 30
0.0
  3
*D3
  1

  0
LINE
  5
10C
330
10B
100
AcDbEntity
  8
1
  6
Continuous
 62
     2
100
AcDbLine
 10
291.244347747013
 20
307.9696533726528
 30
0.0
 11
291.244347747013
 21
274.9696533725486
 31
0.0
  0
LINE
  5
10D
330
10B
100
AcDbEntity
  8
1
  6
Continuous
 62
     2
100
AcDbLine
 10
272.5486817452094
 20
307.9696533726528
 30
0.0
 11
293.244347747013
 21
307.9696533726528
 31
0.0
  0
LINE
  5
10E
330
10B
100
AcDbEntity
  8
1
  6
Continuous
 62
     2
100
AcDbLine
 10
272.5486817452
 20
274.9696533725486
 30
0.0
 11
293.244347747013
 21
274.9696533725486
 31
0.0
  0
SOLID
  5
10F
330
10B
100
AcDbEntity
  8
1
 62
     2
100
AcDbTrace
 10
291.7051314885689
 20
304.4696533726528
 30
0.0
 11
290.7835640054572
 21
304.4696533726528
 31
0.0
 12
291.244347747013
 22
307.9696533726528
 32
0.0
 13
291.244347747013
 23
307.9696533726528
 33
0.0
  0
SOLID
  5
110
330
10B
100
AcDbEntity
  8
1
 62
     2
100
AcDbTrace
 10
290.7835640054572
 20
278.4696533725486
 30
0.0
 11
291.7051314885689
 21
278.4696533725486
 31
0.0
 12
291.244347747013
 22
274.9696533725486
 32
0.0
 13
291.244347747013
 23
274.9696533725486
 33
0.0
  0
MTEXT
  5
111
330
10B
100
AcDbEntity
  8
1
 62
     3
100
AcDbMText
 10
289.244347747013
 20
282.501853461297
 30
0.0
 40
3.5
 41
0.0
 71
     7
 72
     1
  1
\C3;%%c\C3;\C3;33\C2;\H2.45;\S^ ;\C3;
  7
CONVERTER_11
 11
0.0
 21
1.0
 31
0.0
 73
     1
 44
0.60024009603842
  0
ENDBLK
  5
113
330
10B
100
AcDbEntity
  8
0
100
AcDbBlockEnd
  0
BLOCK
  5
11D
330
116
100
AcDbEntity
  8
0
100
AcDbBlockBegin
  2
*D4
 70
     1
 10
0.0
 20
0.0
 30
0.0
  3
*D4
  1

  0
LINE
  5
117
330
116
100
AcDbEntity
  8
1
  6
Continuous
 62
     2
100
AcDbLine
 10
299.860189892995
 20
312.4696533726
 30
0.0
 11
299.860189892995
 21
270.4696533726
 31
0.0
  0
LINE
  5
118
330
116
100
AcDbEntity
  8
1
  6
Continuous
 62
     2
100
AcDbLine
 10
215.3707604324
 20
312.4696533726
 30
0.0
 11
301.860189892995
 21
312.4696533726
 31
0.0
  0
LINE
  5
119
330
116
100
AcDbEntity
  8
1
  6
Continuous
 62
     2
100
AcDbLine
 10
215.3707604324
 20
270.4696533726
 30
0.0
 11
301.860189892995
 21
270.4696533726
 31
0.0
  0
SOLID
  5
11A
330
116
100
AcDbEntity
  8
1
 62
     2
100
AcDbTrace
 10
300.3209736345509
 20
308.9696533726
 30
0.0
 11
299.3994061514391
 21
308.9696533726
 31
0.0
 12
299.860189892995
 22
312.4696533726
 32
0.0
 13
299.860189892995
 23
312.4696533726
 33
0.0
  0
SOLID
  5
11B
330
116
100
AcDbEntity
  8
1
 62
     2
100
AcDbTrace
 10
299.3994061514391
 20
273.9696533726
 30
0.0
 11
300.3209736345509
 21
273.9696533726
 31
0.0
 12
299.860189892995
 22
270.4696533726
 32
0.0
 13
299.860189892995
 23
270.4696533726
 33
0.0
  0
MTEXT
  5
11C
330
116
100
AcDbEntity
  8
1
 62
     3
100
AcDbMText
 10
297.860189892995
 20
283.076242937696
 30
0.0
 40
3.5
 41
0.0
 71
     7
 72
     1
  1
\C3;%%c\C3;\C3;42\C2;\H2.45;\S^ ;\C3;
  7
CONVERTER_11
 11
0.0
 21
1.0
 31
0.0
 73
     1
 44
0.60024009603842
  0
ENDBLK
  5
11E
330
116
100
AcDbEntity
  8
0
100
AcDbBlockEnd
  0
BLOCK
  5
128
330
121
100
AcDbEntity
  8
0
100
AcDbBlockBegin
  2
*D5
 70
     1
 10
0.0
 20
0.0
 30
0.0
  3
*D5
  1

  0
LINE
  5
122
330
121
100
AcDbEntity
  8
1
  6
Continuous
 62
     2
100
AcDbLine
 10
270.5486817452
 20
351.284822165569
 30
0.0
 11
99.5486817452
 21
351.284822165569
 31
0.0
  0
LINE
  5
123
330
121
100
AcDbEntity
  8
1
  6
Continuous
 62
     2
100
AcDbLine
 10
270.5486817452
 20
309.0452628809
 30
0.0
 11
270.5486817452
 21
353.284822165569
 31
0.0
  0
LINE
  5
124
330
121
100
AcDbEntity
  8
1
  6
Continuous
 62
     2
100
AcDbLine
 10
99.5486817452
 20
343.4696164515
 30
0.0
 11
99.5486817452
 21
353.284822165569
 31
0.0
  0
SOLID
  5
125
330
121
100
AcDbEntity
  8
1
 62
     2
100
AcDbTrace
 10
267.0486817452
 20
350.8240384240131
 30
0.0
 11
267.0486817452
 21
351.7456059071249
 31
0.0
 12
270.5486817452
 22
351.284822165569
 32
0.0
 13
270.5486817452
 23
351.284822165569
 33
0.0
  0
SOLID
  5
126
330
121
100
AcDbEntity
  8
1
 62
     2
100
AcDbTrace
 10
103.0486817452
 20
351.7456059071249
 30
0.0
 11
103.0486817452
 21
350.8240384240131
 31
0.0
 12
99.5486817452
 22
351.284822165569
 32
0.0
 13
99.5486817452
 23
351.284822165569
 33
0.0
  0
MTEXT
  5
127
330
121
100
AcDbEntity
  8
1
 62
     3
100
AcDbMText
 10
184.376926201237
 20
353.284822165569
 30
0.0
 40
3.5
 41
0.0
 71
     7
 72
     1
  1
\C3;\C3;\C3;171\C2;\H2.45;\S^ ;\C3;
  7
CONVERTER_11
 11
0.9999999999970619
 21
2.424068405545306E-6
 31
0.0
 73
     1
 44
0.60024009603842
  0
ENDBLK
  5
129
330
121
100
AcDbEntity
  8
0
100
AcDbBlockEnd
  0
BLOCK
  5
133
330
12C
100
AcDbEntity
  8
0
100
AcDbBlockBegin
  2
*D6
 70
     1
 10
0.0
 20
0.0
 30
0.0
  3
*D6
  1

  0
LINE
  5
12D
330
12C
100
AcDbEntity
  8
1
  6
Continuous
 62
     2
100
AcDbLine
 10
270.5486817452
 20
358.560422199953
 30
0.0
 11
70.54868174519999
 21
358.560422199953
 31
0.0
  0
LINE
  5
12E
330
12C
100
AcDbEntity
  8
1
  6
Continuous
 62
     2
100
AcDbLine
 10
270.5486817452
 20
309.0452628809
 30
0.0
 11
270.5486817452
 21
360.560422199953
 31
0.0
  0
LINE
  5
12F
330
12C
100
AcDbEntity
  8
1
  6
Continuous
 62
     2
100
AcDbLine
 10
70.54868174519999
 20
343.4696533726
 30
0.0
 11
70.54868174519999
 21
360.560422199953
 31
0.0
  0
SOLID
  5
130
330
12C
100
AcDbEntity
  8
1
 62
     2
100
AcDbTrace
 10
267.0486817452
 20
358.0996384583971
 30
0.0
 11
267.0486817452
 21
359.0212059415089
 31
0.0
 12
270.5486817452
 22
358.560422199953
 32
0.0
 13
270.5486817452
 23
358.560422199953
 33
0.0
  0
SOLID
  5
131
330
12C
100
AcDbEntity
  8
1
 62
     2
100
AcDbTrace
 10
74.04868174519999
 20
359.0212059415089
 30
0.0
 11
74.04868174519999
 21
358.0996384583971
 31
0.0
 12
70.54868174519999
 22
358.560422199953
 32
0.0
 13
70.54868174519999
 23
358.560422199953
 33
0.0
  0
MTEXT
  5
132
330
12C
100
AcDbEntity
  8
1
 62
     3
100
AcDbMText
 10
168.41133665607
 20
360.560422199953
 30
0.0
 40
3.5
 41
0.0
 71
     7
 72
     1
  1
\C3;\C3;\C3;200\C2;\H2.45;\S^ ;\C3;
  7
CONVERTER_11
 11
0.9999999999970619
 21
2.424068405545306E-6
 31
0.0
 73
     1
 44
0.60024009603842
  0
ENDBLK
  5
134
330
12C
100
AcDbEntity
  8
0
100
AcDbBlockEnd
  0
BLOCK
  5
13E
330
137
100
AcDbEntity
  8
0
100
AcDbBlockBegin
  2
*D7
 70
     1
 10
0.0
 20
0.0
 30
0.0
  3
*D7
  1

  0
LINE
  5
138
330
137
100
AcDbEntity
  8
1
  6
Continuous
 62
     2
100
AcDbLine
 10
270.5486817452
 20
366.027485393137
 30
0.0
 11
20.54868174519999
 21
366.027485393137
 31
0.0
  0
LINE
  5
139
330
137
100
AcDbEntity
  8
1
  6
Continuous
 62
     2
100
AcDbLine
 10
270.5486817452
 20
309.0452628809
 30
0.0
 11
270.5486817452
 21
368.027485393137
 31
0.0
  0
LINE
  5
13A
330
137
100
AcDbEntity
  8
1
  6
Continuous
 62
     2
100
AcDbLine
 10
20.54868174519999
 20
327.0698449352
 30
0.0
 11
20.54868174519999
 21
368.027485393137
 31
0.0
  0
SOLID
  5
13B
330
137
100
AcDbEntity
  8
1
 62
     2
100
AcDbTrace
 10
267.0486817452
 20
365.5667016515811
 30
0.0
 11
267.0486817452
 21
366.4882691346929
 31
0.0
 12
270.5486817452
 22
366.027485393137
 32
0.0
 13
270.5486817452
 23
366.027485393137
 33
0.0
  0
SOLID
  5
13C
330
137
100
AcDbEntity
  8
1
 62
     2
100
AcDbTrace
 10
24.04868174519999
 20
366.4882691346929
 30
0.0
 11
24.04868174519999
 21
365.5667016515811
 31
0.0
 12
20.54868174519999
 22
366.027485393137
 32
0.0
 13
20.54868174519999
 23
366.027485393137
 33
0.0
  0
MTEXT
  5
13D
330
137
100
AcDbEntity
  8
1
 62
     3
100
AcDbMText
 10
156.157694492896
 20
368.027485393137
 30
0.0
 40
3.5
 41
0.0
 71
     7
 72
     1
  1
\C3;\C3;\C3;250\C2;\H2.45;\S^ ;\C3;
  7
CONVERTER_11
 11
0.9999999999970619
 21
2.424068405545306E-6
 31
0.0
 73
     1
 44
0.60024009603842
  0
ENDBLK
  5
13F
330
137
100
AcDbEntity
  8
0
100
AcDbBlockEnd
  0
BLOCK
  5
146
330
142
100
AcDbEntity
  8
0
100
AcDbBlockBegin
  2
*D8
 70
     1
 10
0.0
 20
0.0
 30
0.0
  3
*D8
  1

  0
LINE
  5
143
330
142
100
AcDbEntity
  8
1
  6
Continuous
 62
     2
100
AcDbLine
 10
116.2183602631268
 20
331.2782407119865
 30
0.0
 11
104.598981674401
 21
320.5333413885388
 31
0.0
  0
SOLID
  5
144
330
142
100
AcDbEntity
  8
1
 62
     2
100
AcDbTrace
 10
106.8558192417664
 20
323.2479326747199
 30
0.0
 11
107.4815072909917
 21
322.5713226755433
 31
0.0
 12
104.598981674401
 22
320.5333413885388
 32
0.0
 13
104.598981674401
 23
320.5333413885388
 33
0.0
  0
MTEXT
  5
145
330
142
100
AcDbEntity
  8
1
 62
     3
100
AcDbMText
 10
108.1793102459309
 20
326.5682858479752
 30
0.0
 40
3.5
 41
0.0
 71
     7
 72
     1
  1
\C3; R\C3;\C3;19\C2;\H2.45;\S^ ;\C3;
  7
CONVERTER_11
 11
0.734194740565137
 21
0.6789389390265455
 31
0.0
 73
     1
 44
0.60024009603842
  0
ENDBLK
  5
147
330
142
100
AcDbEntity
  8
0
100
AcDbBlockEnd
  0
BLOCK
  5
150
330
149
100
AcDbEntity
  8
0
100
AcDbBlockBegin
  2
*D9
 70
     1
 10
0.0
 20
0.0
 30
0.0
  3
*D9
  1

  0
LINE
  5
14A
330
149
100
AcDbEntity
  8
1
  6
Continuous
 62
     2
100
AcDbLine
 10
249.6349128683397
 20
312.4696533726
 30
0.0
 11
251.6349128683397
 21
312.4696533726
 31
0.0
  0
LINE
  5
14B
330
149
100
AcDbEntity
  8
1
  6
Continuous
 62
     2
100
AcDbLine
 10
215.3707604324001
 20
312.4696533726
 30
0.0
 11
249.6349128683397
 21
312.4696533726
 31
0.0
  0
ARC
  5
14C
330
149
100
AcDbEntity
  8
1
  6
Continuous
 62
     2
100
AcDbCircle
 10
213.3707604324001
 20
312.4696533726
 30
0.0
 40
36.26415243593968
100
AcDbArc
 50
347.2052289316793
 51
14.92189215222271
  0
SOLID
  5
14D
330
149
100
AcDbEntity
  8
1
 62
     2
100
AcDbTrace
 10
249.5376064547675
 20
306.094229115771
 30
0.0
 11
248.6234372736655
 21
306.210768097456
 31
0.0
 12
249.52312258893
 22
309.6244007651547
 32
0.0
 13
249.52312258893
 23
309.6244007651547
 33
0.0
  0
SOLID
  5
14E
330
149
100
AcDbEntity
  8
1
 62
     2
100
AcDbTrace
 10
249.0058315149006
 20
315.9433514463015
 30
0.0
 11
249.9263261606259
 21
315.9878062899078
 31
0.0
 12
249.6349128683397
 22
312.4696533726
 32
0.0
 13
249.6349128683397
 23
312.4696533726
 33
0.0
  0
MTEXT
  5
14F
330
149
100
AcDbEntity
  8
1
 62
     3
100
AcDbMText
 10
250.5020071991353
 20
322.3647077023469
 30
0.0
 40
3.5
 41
0.0
 71
     7
 72
     1
  1
\C3;\C3;\C3;4.5%%d\C2;\H2.45;\S^ ;\C3;
  7
CONVERTER_11
 11
0.1675199399453872
 21
-0.9858686878690761
 31
0.0
 73
     1
 44
0.60024009603842
  0
ENDBLK
  5
151
330
149
100
AcDbEntity
  8
0
100
AcDbBlockEnd
  0
ENDSEC
  0
SECTION
  2
ENTITIES
  0
INSERT
  5
6C
330
1F
100
AcDbEntity
  8
0
100
AcDbBlockReference
  2
Urheberrecht_DE-EN
 10
12.2825253760117
 20
303.227569306872
 30
0.0
  0
LINE
  5
70
330
1F
100
AcDbEntity
  8
BEZUGSACHSEN
  6
Continuous
 62
     7
100
AcDbLine
 10
20.5486817452
 20
257.8694618096
 30
0.0
 11
20.5486817452
 21
279.4596533726
 31
0.0
  0
LINE
  5
71
330
1F
100
AcDbEntity
  8
BEZUGSACHSEN
  6
Continuous
 62
     7
100
AcDbLine
 10
20.5486817452
 20
303.4796533726
 30
0.0
 11
20.5486817452
 21
325.0698449352
 31
0.0
  0
LINE
  5
72
330
1F
100
AcDbEntity
  8
BEZUGSACHSEN
  6
Continuous
 62
     9
100
AcDbLine
 10
22.4486072604
 20
327.0673396409
 30
0.0
 11
22.4486072604
 21
307.1461857588
 31
0.0
  0
LINE
  5
73
330
1F
100
AcDbEntity
  8
BEZUGSACHSEN
  6
Continuous
 62
     9
100
AcDbLine
 10
22.4486072604
 20
275.7931209863
 30
0.0
 11
22.4486072604
 21
255.8719671043
 31
0.0
  0
LINE
  5
74
330
1F
100
AcDbEntity
  8
BEZUGSACHSEN
  6
Continuous
 62
     7
100
AcDbLine
 10
22.5486817452
 20
279.0660134242
 30
0.0
 11
22.5486817452
 21
281.4596533726
 31
0.0
  0
LINE
  5
75
330
1F
100
AcDbEntity
  8
BEZUGSACHSEN
  6
Continuous
 62
     7
100
AcDbLine
 10
22.5486817452
 20
301.4796533726
 30
0.0
 11
22.5486817452
 21
303.873293321
 31
0.0
  0
LINE
  5
76
330
1F
100
AcDbEntity
  8
BEZUGSACHSEN
  6
Continuous
 62
     9
100
AcDbLine
 10
28.5486817452
 20
275.1110057852
 30
0.0
 11
28.5486817452
 21
281.4596533726
 31
0.0
  0
LINE
  5
77
330
1F
100
AcDbEntity
  8
BEZUGSACHSEN
  6
Continuous
 62
     9
100
AcDbLine
 10
28.5486817452
 20
301.4796533726
 30
0.0
 11
28.5486817452
 21
307.82830096
 31
0.0
  0
LINE
  5
78
330
1F
100
AcDbEntity
  8
BEZUGSACHSEN
  6
Continuous
 62
     7
100
AcDbLine
 10
30.5486817452
 20
304.3393088984
 30
0.0
 11
30.5486817452
 21
278.5999978468
 31
0.0
  0
LINE
  5
79
330
1F
100
AcDbEntity
  8
BEZUGSACHSEN
  6
Continuous
 62
     7
100
AcDbLine
 10
21.8156346722
 20
276.4596533726
 30
0.0
 11
21.6945244208
 21
276.2273173771
 31
0.0
  0
LINE
  5
7A
330
1F
100
AcDbEntity
  8
BEZUGSACHSEN
  6
Continuous
 62
     7
100
AcDbLine
 10
21.6945244208
 20
306.711989368
 30
0.0
 11
21.8156346722
 21
306.4796533726
 31
0.0
  0
LWPOLYLINE
  5
7B
330
1F
100
AcDbEntity
  8
BEZUGSACHSEN
  6
DOT_CENTER
 62
     7
100
AcDbPolyline
 90
        2
 70
     0
 43
0.25
 10
55.5486817452
 20
291.4696533726
 10
55.5486817452
 20
282.4696533726
  0
LWPOLYLINE
  5
7C
330
1F
100
AcDbEntity
  8
BEZUGSACHSEN
  6
DOT_CENTER
 62
     7
100
AcDbPolyline
 90
        2
 70
     0
 43
0.25
 10
55.5486817452
 20
291.4696533726
 10
55.5486817452
 20
300.4696533726
  0
LINE
  5
7D
330
1F
100
AcDbEntity
  8
BEZUGSACHSEN
  6
Continuous
 62
     7
100
AcDbLine
 10
20.5486817452
 20
279.4596533726
 30
0.0
 11
22.5486817452
 21
281.4596533726
 31
0.0
  0
LINE
  5
7E
330
1F
100
AcDbEntity
  8
BEZUGSACHSEN
  6
Continuous
 62
     7
100
AcDbLine
 10
22.5486817452
 20
301.4796533726
 30
0.0
 11
20.5486817452
 21
303.4796533726
 31
0.0
  0
LINE
  5
7F
330
1F
100
AcDbEntity
  8
BEZUGSACHSEN
  6
Continuous
 62
     7
100
AcDbLine
 10
68.0486817452
 20
329.3519033726
 30
0.0
 11
68.0486817452
 21
253.5874033726
 31
0.0
  0
LINE
  5
80
330
1F
100
AcDbEntity
  8
BEZUGSACHSEN
  6
Continuous
 62
     9
100
AcDbLine
 10
68.6679253592
 20
253.7533291989
 30
0.0
 11
68.6679253592
 21
329.1859775463
 31
0.0
  0
LINE
  5
81
330
1F
100
AcDbEntity
  8
BEZUGSACHSEN
  6
Continuous
 62
     9
100
AcDbLine
 10
68.9267444043
 20
253.7874033726
 30
0.0
 11
68.9267444043
 21
329.1519033726
 31
0.0
  0
LINE
  5
82
330
1F
100
AcDbEntity
  8
BEZUGSACHSEN
  6
Continuous
 62
     9
100
AcDbLine
 10
69.8481104565
 20
253.7874033726
 30
0.0
 11
69.8481104565
 21
329.1519033726
 31
0.0
  0
LINE
  5
83
330
1F
100
AcDbEntity
  8
BEZUGSACHSEN
  6
Continuous
 62
     7
100
AcDbLine
 10
70.5486817452
 20
341.4696533726
 30
0.0
 11
70.5486817452
 21
241.4696533726
 31
0.0
  0
LWPOLYLINE
  5
84
330
1F
100
AcDbEntity
  8
BEZUGSACHSEN
  6
DOT_CENTER
 62
     7
100
AcDbPolyline
 90
        2
 70
     0
 43
0.25
 10
77.5486817452
 20
333.6190252279
 10
77.5486817452
 20
344.4696533726
  0
LINE
  5
85
330
1F
100
AcDbEntity
  8
FASEN
  6
Continuous
 62
     9
100
AcDbLine
 10
83.520555667
 20
259.5696533726
 30
0.0
 11
83.520555667
 21
259.9696533726
 31
0.0
  0
LINE
  5
86
330
1F
100
AcDbEntity
  8
BEZUGSACHSEN
  6
Continuous
 62
     7
100
AcDbLine
 10
92.4236817452
 20
339.0922486368
 30
0.0
 11
93.7962770094
 21
341.4696533726
 31
0.0
  0
LINE
  5
87
330
1F
100
AcDbEntity
  8
BEZUGSACHSEN
  6
Continuous
 62
     7
100
AcDbLine
 10
92.4236817452
 20
243.8470581084
 30
0.0
 11
93.7962770094
 21
241.4696533726
 31
0.0
  0
LINE
  5
88
330
1F
100
AcDbEntity
  8
FASEN
  6
Continuous
 62
     9
100
AcDbLine
 10
85.5486817452
 20
281.8696533726
 30
0.0
 11
85.5486817452
 21
281.4696533726
 31
0.0
  0
LINE
  5
89
330
1F
100
AcDbEntity
  8
FASEN
  6
Continuous
 62
     9
100
AcDbLine
 10
85.5486817452
 20
301.0696533726
 30
0.0
 11
85.5486817452
 21
301.4696533726
 31
0.0
  0
LINE
  5
8A
330
1F
100
AcDbEntity
  8
0
  6
Continuous
 62
     7
100
AcDbLine
 10
87.301086481
 20
341.4696533726
 30
0.0
 11
87.301086481
 21
301.4696533726
 31
0.0
  0
LINE
  5
8B
330
1F
100
AcDbEntity
  8
0
  6
Continuous
 62
     7
100
AcDbLine
 10
87.301086481
 20
281.4696533726
 30
0.0
 11
87.301086481
 21
259.9696533726
 31
0.0
  0
LINE
  5
8C
330
1F
100
AcDbEntity
  8
0
  6
Continuous
 62
     7
100
AcDbLine
 10
87.301086481
 20
252.6398967419
 30
0.0
 11
87.301086481
 21
241.4696533726
 31
0.0
  0
LINE
  5
8D
330
1F
100
AcDbEntity
  8
0
  6
Continuous
 62
     7
100
AcDbLine
 10
88.6736817452
 20
339.0922152103
 30
0.0
 11
88.6736817452
 21
301.4696533726
 31
0.0
  0
LINE
  5
8E
330
1F
100
AcDbEntity
  8
0
  6
Continuous
 62
     7
100
AcDbLine
 10
88.6736817452
 20
281.4696533726
 30
0.0
 11
88.6736817452
 21
259.9696533726
 31
0.0
  0
LINE
  5
8F
330
1F
100
AcDbEntity
  8
0
  6
Continuous
 62
     7
100
AcDbLine
 10
88.6736817452
 20
243.8470956424
 30
0.0
 11
88.6736817452
 21
256.5877096194
 31
0.0
  0
LINE
  5
90
330
1F
100
AcDbEntity
  8
0
  6
Continuous
 62
     9
100
AcDbLine
 10
89.6736817452
 20
245.4696533726
 30
0.0
 11
89.6736817452
 21
257.9472727889
 31
0.0
  0
LINE
  5
91
330
1F
100
AcDbEntity
  8
0
  6
Continuous
 62
     9
100
AcDbLine
 10
89.6736817452
 20
259.9696533726
 30
0.0
 11
89.6736817452
 21
281.4696533726
 31
0.0
  0
LINE
  5
92
330
1F
100
AcDbEntity
  8
0
  6
Continuous
 62
     9
100
AcDbLine
 10
89.6736817452
 20
301.4696533726
 30
0.0
 11
89.6736817452
 21
337.4696533726
 31
0.0
  0
LINE
  5
93
330
1F
100
AcDbEntity
  8
0
  6
Continuous
 62
     9
100
AcDbLine
 10
91.4236817452
 20
245.4696533726
 30
0.0
 11
91.4236817452
 21
257.9472727889
 31
0.0
  0
LINE
  5
94
330
1F
100
AcDbEntity
  8
0
  6
Continuous
 62
     9
100
AcDbLine
 10
91.4236817452
 20
259.9696533726
 30
0.0
 11
91.4236817452
 21
281.4696533726
 31
0.0
  0
LINE
  5
95
330
1F
100
AcDbEntity
  8
0
  6
Continuous
 62
     9
100
AcDbLine
 10
91.4236817452
 20
301.4696533726
 30
0.0
 11
91.4236817452
 21
337.4696533726
 31
0.0
  0
LINE
  5
96
330
1F
100
AcDbEntity
  8
0
  6
Continuous
 62
     7
100
AcDbLine
 10
92.4236817452
 20
243.8470956424
 30
0.0
 11
92.4236817452
 21
256.5877096194
 31
0.0
  0
LINE
  5
97
330
1F
100
AcDbEntity
  8
0
  6
Continuous
 62
     7
100
AcDbLine
 10
92.4236817452
 20
259.9696533726
 30
0.0
 11
92.4236817452
 21
281.4696533726
 31
0.0
  0
LINE
  5
98
330
1F
100
AcDbEntity
  8
0
  6
Continuous
 62
     7
100
AcDbLine
 10
92.4236817452
 20
301.4696533726
 30
0.0
 11
92.4236817452
 21
339.0922152103
 31
0.0
  0
LINE
  5
99
330
1F
100
AcDbEntity
  8
0
  6
Continuous
 62
     7
100
AcDbLine
 10
93.7962770094
 20
341.4696533726
 30
0.0
 11
93.7962770094
 21
301.4696533726
 31
0.0
  0
LINE
  5
9A
330
1F
100
AcDbEntity
  8
0
  6
Continuous
 62
     7
100
AcDbLine
 10
93.7962770094
 20
281.4696533726
 30
0.0
 11
93.7962770094
 21
259.9696533726
 31
0.0
  0
LINE
  5
9B
330
1F
100
AcDbEntity
  8
0
  6
Continuous
 62
     7
100
AcDbLine
 10
93.7962770094
 20
252.6398967419
 30
0.0
 11
93.7962770094
 21
241.4696533726
 31
0.0
  0
LINE
  5
9C
330
1F
100
AcDbEntity
  8
0
  6
Continuous
 62
     7
100
AcDbLine
 10
99.5486817452
 20
341.4696164515
 30
0.0
 11
99.5486817452
 21
301.4696533726
 31
0.0
  0
LINE
  5
9D
330
1F
100
AcDbEntity
  8
0
  6
Continuous
 62
     7
100
AcDbLine
 10
99.5486817452
 20
281.4696533726
 30
0.0
 11
99.5486817452
 21
259.9696533726
 31
0.0
  0
LINE
  5
9E
330
1F
100
AcDbEntity
  8
0
  6
Continuous
 62
     7
100
AcDbLine
 10
99.5486817452
 20
252.6398967419
 30
0.0
 11
99.5486817452
 21
241.4696552404
 31
0.0
  0
LINE
  5
9F
330
1F
100
AcDbEntity
  8
FASEN
  6
Continuous
 62
     7
100
AcDbLine
 10
99.5486817452
 20
252.6398967419
 30
0.0
 11
99.5486817452
 21
259.9696533726
 31
0.0
  0
LINE
  5
A0
330
1F
100
AcDbEntity
  8
FASEN
  6
Continuous
 62
     7
100
AcDbLine
 10
99.5486817452
 20
281.4696533726
 30
0.0
 11
99.5486817452
 21
301.4696533726
 31
0.0
  0
LINE
  5
A1
330
1F
100
AcDbEntity
  8
BEZUGSACHSEN
  6
Continuous
 62
     9
100
AcDbLine
 10
20.5486817452
 20
278.0234694036
 30
0.0
 11
22.5486817452
 21
279.0660134242
 31
0.0
  0
LINE
  5
A2
330
1F
100
AcDbEntity
  8
BEZUGSACHSEN
  6
Continuous
 62
     7
100
AcDbLine
 10
87.301086481
 20
241.4696533726
 30
0.0
 11
70.5486817452
 21
241.4696533726
 31
0.0
  0
LINE
  5
A3
330
1F
100
AcDbEntity
  8
BEZUGSACHSEN
  6
Continuous
 62
     7
100
AcDbLine
 10
93.7962770094
 20
241.4696533726
 30
0.0
 11
99.5486817452
 21
241.4696533726
 31
0.0
  0
LINE
  5
A4
330
1F
100
AcDbEntity
  8
BEZUGSACHSEN
  6
Continuous
 62
     7
100
AcDbLine
 10
89.6736817452
 20
245.4696533726
 30
0.0
 11
91.4236817452
 21
245.4696533726
 31
0.0
  0
LINE
  5
A5
330
1F
100
AcDbEntity
  8
BEZUGSACHSEN
  6
Continuous
 62
     9
100
AcDbLine
 10
22.5486817452
 20
303.873293321
 30
0.0
 11
20.5486817452
 21
304.9158373416
 31
0.0
  0
LINE
  5
A6
330
1F
100
AcDbEntity
  8
FASEN
  6
Continuous
 62
     7
100
AcDbLine
 10
75.9501677096
 20
252.6398967419
 30
0.0
 11
87.301086481
 21
252.6398967419
 31
0.0
  0
LINE
  5
A7
330
1F
100
AcDbEntity
  8
0
  6
Continuous
 62
     7
100
AcDbLine
 10
93.7962770094
 20
252.6398967419
 30
0.0
 11
99.5486817452
 21
252.6398967419
 31
0.0
  0
LINE
  5
A8
330
1F
100
AcDbEntity
  8
BEZUGSACHSEN
  6
Continuous
 62
     7
100
AcDbLine
 10
69.8481104565
 20
253.7874033726
 30
0.0
 11
68.9267444043
 21
253.7874033726
 31
0.0
  0
LINE
  5
A9
330
1F
100
AcDbEntity
  8
BEZUGSACHSEN
  6
Continuous
 62
     7
100
AcDbLine
 10
68.0486817452
 20
253.5874033726
 30
0.0
 11
22.4486072604
 21
255.8719671043
 31
0.0
  0
LINE
  5
AA
330
1F
100
AcDbEntity
  8
RUNDUNGEN
  6
Continuous
 62
     9
100
AcDbLine
 10
116.4822164884
 20
314.5458912883
 30
0.0
 11
116.4822164884
 21
268.3934154568
 31
0.0
  0
LINE
  5
AB
330
1F
100
AcDbEntity
  8
RUNDUNGEN
  6
Continuous
 62
     7
100
AcDbLine
 10
269.6271408409
 20
274.8971265305
 30
0.0
 11
213.3707604324
 21
270.4696533726
 31
0.0
  0
LINE
  5
AC
330
1F
100
AcDbEntity
  8
0
  6
Continuous
 62
     7
100
AcDbLine
 10
213.3707604324
 20
270.4696533726
 30
0.0
 11
269.6271408409
 21
274.8971265305
 31
0.0
  0
LINE
  5
AD
330
1F
100
AcDbEntity
  8
0
  6
Continuous
 62
     7
100
AcDbLine
 10
89.6736817452
 20
257.9472727889
 30
0.0
 11
91.4236817452
 21
257.9472727889
 31
0.0
  0
LINE
  5
AE
330
1F
100
AcDbEntity
  8
FASEN
  6
Continuous
 62
     7
100
AcDbLine
 10
83.520555667
 20
259.5696533726
 30
0.0
 11
99.5486817452
 21
259.5696533726
 31
0.0
  0
LINE
  5
AF
330
1F
100
AcDbEntity
  8
0
  6
Continuous
 62
     7
100
AcDbLine
 10
83.520555667
 20
259.9696533726
 30
0.0
 11
99.5486817452
 21
259.9696533726
 31
0.0
  0
LINE
  5
B0
330
1F
100
AcDbEntity
  8
BEZUGSACHSEN
  6
Continuous
 62
     7
100
AcDbLine
 10
87.301086481
 20
241.4696533726
 30
0.0
 11
88.6736817452
 21
243.8470581084
 31
0.0
  0
LINE
  5
B1
330
1F
100
AcDbEntity
  8
0
  6
Continuous
 62
     7
100
AcDbLine
 10
213.3707604324
 20
270.4696533726
 30
0.0
 11
154.5486817452
 21
270.4696533726
 31
0.0
  0
LINE
  5
B2
330
1F
100
AcDbEntity
  8
BEZUGSACHSEN
  6
Continuous
 62
     7
100
AcDbLine
 10
87.301086481
 20
341.4696533726
 30
0.0
 11
88.6736817452
 21
339.0922486368
 31
0.0
  0
LINE
  5
B3
330
1F
100
AcDbEntity
  8
BEZUGSACHSEN
  6
Continuous
 62
     7
100
AcDbLine
 10
68.6679253592
 20
253.7533291989
 30
0.0
 11
68.0486817452
 21
253.5874033726
 31
0.0
  0
LINE
  5
B4
330
1F
100
AcDbEntity
  8
BEZUGSACHSEN
  6
Continuous
 62
     9
100
AcDbLine
 10
30.1025276921
 20
276.4596533726
 30
0.0
 11
21.8156346722
 21
276.4596533726
 31
0.0
  0
LINE
  5
B5
330
1F
100
AcDbEntity
  8
BEZUGSACHSEN
  6
Continuous
 62
     7
100
AcDbLine
 10
28.5486817452
 20
281.4596533726
 30
0.0
 11
22.5486817452
 21
281.4596533726
 31
0.0
  0
LWPOLYLINE
  5
B6
330
1F
100
AcDbEntity
  8
DEFAULT_2
  6
DASHED
 62
     8
100
AcDbPolyline
 90
        2
 70
     0
 43
0.35
 10
270.5486817452
 20
281.4696533726
 10
218.5486817452
 20
281.4696533726
  0
LINE
  5
B7
330
1F
100
AcDbEntity
  8
0
  6
Continuous
 62
     7
100
AcDbLine
 10
85.5486817452
 20
281.4696533726
 30
0.0
 11
99.5486817452
 21
281.4696533726
 31
0.0
  0
LINE
  5
B8
330
1F
100
AcDbEntity
  8
FASEN
  6
Continuous
 62
     7
100
AcDbLine
 10
99.5486817452
 20
281.8696533726
 30
0.0
 11
85.5486817452
 21
281.8696533726
 31
0.0
  0
LWPOLYLINE
  5
B9
330
1F
100
AcDbEntity
  8
BEZUGSACHSEN
  6
DOT_CENTER
 62
     7
100
AcDbPolyline
 90
        2
 70
     0
 43
0.25
 10
273.5486817452
 20
291.4696533726
 10
17.5486817452
 20
291.4696533726
  0
LINE
  5
BA
330
1F
100
AcDbEntity
  8
0
  6
Continuous
 62
     9
100
AcDbLine
 10
154.5486817452
 20
312.4696533726
 30
0.0
 11
154.5486817452
 21
270.4696533726
 31
0.0
  0
LINE
  5
BB
330
1F
100
AcDbEntity
  8
FASEN
  6
Continuous
 62
     7
100
AcDbLine
 10
85.5486817452
 20
301.0696533726
 30
0.0
 11
99.5486817452
 21
301.0696533726
 31
0.0
  0
LWPOLYLINE
  5
BC
330
1F
100
AcDbEntity
  8
DEFAULT_2
  6
DASHED
 62
     8
100
AcDbPolyline
 90
        2
 70
     0
 43
0.35
 10
270.5486817452
 20
301.4696533726
 10
218.5486817452
 20
301.4696533726
  0
LINE
  5
BD
330
1F
100
AcDbEntity
  8
0
  6
Continuous
 62
     7
100
AcDbLine
 10
85.5486817452
 20
301.4696533726
 30
0.0
 11
99.5486817452
 21
301.4696533726
 31
0.0
  0
LINE
  5
BE
330
1F
100
AcDbEntity
  8
BEZUGSACHSEN
  6
Continuous
 62
     7
100
AcDbLine
 10
28.5486817452
 20
301.4796533726
 30
0.0
 11
22.5486817452
 21
301.4796533726
 31
0.0
  0
LINE
  5
BF
330
1F
100
AcDbEntity
  8
BEZUGSACHSEN
  6
Continuous
 62
     9
100
AcDbLine
 10
21.8156346722
 20
306.4796533726
 30
0.0
 11
30.1025276921
 21
306.4796533726
 31
0.0
  0
LINE
  5
C0
330
1F
100
AcDbEntity
  8
BEZUGSACHSEN
  6
Continuous
 62
     7
100
AcDbLine
 10
68.6679253592
 20
329.1859775463
 30
0.0
 11
68.0486817452
 21
329.3519033726
 31
0.0
  0
LINE
  5
C1
330
1F
100
AcDbEntity
  8
0
  6
Continuous
 62
     7
100
AcDbLine
 10
213.3707604324
 20
312.4696533726
 30
0.0
 11
154.5486817452
 21
312.4696533726
 31
0.0
  0
LINE
  5
C2
330
1F
100
AcDbEntity
  8
RUNDUNGEN
  6
Continuous
 62
     7
100
AcDbLine
 10
269.6271408409
 20
308.0421802147
 30
0.0
 11
213.3707604324
 21
312.4696533726
 31
0.0
  0
LINE
  5
C3
330
1F
100
AcDbEntity
  8
0
  6
Continuous
 62
     7
100
AcDbLine
 10
213.3707604324
 20
312.4696533726
 30
0.0
 11
269.6271408409
 21
308.0421802147
 31
0.0
  0
LINE
  5
C4
330
1F
100
AcDbEntity
  8
BEZUGSACHSEN
  6
Continuous
 62
     7
100
AcDbLine
 10
68.0486817452
 20
329.3519033726
 30
0.0
 11
22.4486072604
 21
327.0673396409
 31
0.0
  0
LINE
  5
C5
330
1F
100
AcDbEntity
  8
BEZUGSACHSEN
  6
Continuous
 62
     7
100
AcDbLine
 10
69.8481104565
 20
329.1519033726
 30
0.0
 11
68.9267444043
 21
329.1519033726
 31
0.0
  0
LINE
  5
C6
330
1F
100
AcDbEntity
  8
BEZUGSACHSEN
  6
Continuous
 62
     7
100
AcDbLine
 10
89.6736817452
 20
337.4696533726
 30
0.0
 11
91.4236817452
 21
337.4696533726
 31
0.0
  0
LINE
  5
C7
330
1F
100
AcDbEntity
  8
BEZUGSACHSEN
  6
Continuous
 62
     7
100
AcDbLine
 10
87.301086481
 20
341.4696533726
 30
0.0
 11
82.5486817452
 21
341.4696533726
 31
0.0
  0
LINE
  5
C8
330
1F
100
AcDbEntity
  8
BEZUGSACHSEN
  6
Continuous
 62
     7
100
AcDbLine
 10
72.5486817452
 20
341.4696533726
 30
0.0
 11
70.5486817452
 21
341.4696533726
 31
0.0
  0
LINE
  5
C9
330
1F
100
AcDbEntity
  8
BEZUGSACHSEN
  6
Continuous
 62
     7
100
AcDbLine
 10
93.7962770094
 20
341.4696533726
 30
0.0
 11
99.5486817452
 21
341.4696533726
 31
0.0
  0
LINE
  5
CA
330
1F
100
AcDbEntity
  8
0
  6
Continuous
 62
     7
100
AcDbLine
 10
213.3707604324
 20
312.4696533726
 30
0.0
 11
213.3707604324
 21
270.4696533726
 31
0.0
  0
LWPOLYLINE
  5
CB
330
1F
100
AcDbEntity
  8
DEFAULT_2
  6
DASHED
 62
     8
100
AcDbPolyline
 90
        2
 70
     0
 43
0.35
 10
218.5486817452
 20
301.4696533726
 10
218.5486817452
 20
281.4696533726
  0
LINE
  5
CC
330
1F
100
AcDbEntity
  8
RUNDUNGEN
  6
Continuous
 62
     9
100
AcDbLine
 10
269.6271408409
 20
274.8971265305
 30
0.0
 11
269.6271408409
 21
308.0421802147
 31
0.0
  0
LINE
  5
CD
330
1F
100
AcDbEntity
  8
RUNDUNGEN
  6
Continuous
 62
     7
100
AcDbLine
 10
270.5486817452
 20
307.0452628809
 30
0.0
 11
270.5486817452
 21
275.8940438642
 31
0.0
  0
LWPOLYLINE
  5
CE
330
1F
100
AcDbEntity
  8
1
  6
Continuous
 62
     7
100
AcDbPolyline
 90
        2
 70
     0
 43
0.25
 10
270.5486817452
 20
307.0452628809
 10
270.5486817452
 20
307.9696533726528
  0
LWPOLYLINE
  5
CF
330
1F
100
AcDbEntity
  8
1
  6
Continuous
 62
     7
100
AcDbPolyline
 90
        2
 70
     0
 43
0.25
 10
269.6271408409
 20
308.0421802147
 10
270.5486817452094
 20
307.9696533726528
  0
LWPOLYLINE
  5
D0
330
1F
100
AcDbEntity
  8
1
  6
Continuous
 62
     7
100
AcDbPolyline
 90
        2
 70
     0
 43
0.25
 10
269.6271408409
 20
274.8971265305
 10
270.5486817452
 20
274.9696533725486
  0
LWPOLYLINE
  5
D1
330
1F
100
AcDbEntity
  8
1
  6
Continuous
 62
     7
100
AcDbPolyline
 90
        2
 70
     0
 43
0.25
 10
270.5486817452
 20
275.8940438642
 10
270.5486817452
 20
274.9696533725486
  0
ARC
  5
D2
330
1F
100
AcDbEntity
  8
FASEN
  6
Continuous
 62
     7
100
AcDbCircle
 10
88.4493357681
 20
267.0009166426
 30
0.0
 40
19.03859487310037
100
AcDbArc
 50
227.4837701983009
 51
228.9651953373019
  0
ARC
  5
D3
330
1F
100
AcDbEntity
  8
FASEN
  6
Continuous
 62
     7
100
AcDbCircle
 10
83.520555667
 20
251.9696533726
 30
0.0
 40
8.000000000000028
100
AcDbArc
 50
90.0
 51
172.8323734889969
  0
ARC
  5
D4
330
1F
100
AcDbEntity
  8
FASEN
  6
Continuous
 62
     7
100
AcDbCircle
 10
83.520555667
 20
251.9696533726
 30
0.0
 40
7.59998219489998
100
AcDbArc
 50
90.0
 51
174.9405171273015
  0
ARC
  5
D5
330
1F
100
AcDbEntity
  8
BEZUGSACHSEN
  6
Continuous
 62
     7
100
AcDbCircle
 10
28.5486817452
 20
283.4596533726
 30
0.0
 40
2.0
100
AcDbArc
 50
270.0
 51
359.9999999999153
  0
ARC
  5
D6
330
1F
100
AcDbEntity
  8
BEZUGSACHSEN
  6
Continuous
 62
     7
100
AcDbCircle
 10
22.5486817452
 20
257.8694618095
 30
0.0
 40
2.0
100
AcDbArc
 50
179.9999999971356
 51
267.1318795106973
  0
ARC
  5
D7
330
1F
100
AcDbEntity
  8
BEZUGSACHSEN
  6
Continuous
 62
     7
100
AcDbCircle
 10
89.6736817452
 20
244.4696533726
 30
0.0
 40
1.0
100
AcDbArc
 50
90.0
 51
180.0
  0
ARC
  5
D8
330
1F
100
AcDbEntity
  8
BEZUGSACHSEN
  6
Continuous
 62
     7
100
AcDbCircle
 10
68.9267444043
 20
252.7874033726
 30
0.0
 40
1.0
100
AcDbArc
 50
90.0
 51
104.9999999996985
  0
ARC
  5
D9
330
1F
100
AcDbEntity
  8
BEZUGSACHSEN
  6
Continuous
 62
     7
100
AcDbCircle
 10
69.8481104565
 20
252.7874033726
 30
0.0
 40
0.9999999999998127
100
AcDbArc
 50
45.49026120128689
 51
90.0
  0
ARC
  5
DA
330
1F
100
AcDbEntity
  8
0
  6
Continuous
 62
     7
100
AcDbCircle
 10
-154.0490981373
 20
360.904120963
 30
0.0
 40
264.5204223901892
100
AcDbArc
 50
335.840076470599
 51
336.5770705490999
  0
ARC
  5
DB
330
1F
100
AcDbEntity
  8
BEZUGSACHSEN
  6
Continuous
 62
     7
100
AcDbCircle
 10
77.5638897563
 20
391.5224231395
 30
0.0
 40
50.30340021045197
100
AcDbArc
 50
264.2781515102013
 51
269.9826780125999
  0
ARC
  5
DC
330
1F
100
AcDbEntity
  8
BEZUGSACHSEN
  6
Continuous
 62
     7
100
AcDbCircle
 10
77.5334737441
 20
391.5224229387
 30
0.0
 40
50.30340000959742
100
AcDbArc
 50
270.017321976058
 51
275.7218485012679
  0
ARC
  5
DD
330
1F
100
AcDbEntity
  8
0
  6
Continuous
 62
     7
100
AcDbCircle
 10
85.5486817452
 20
291.4696533726
 30
0.0
 40
10.0
100
AcDbArc
 50
90.0
 51
270.0
  0
ARC
  5
DE
330
1F
100
AcDbEntity
  8
FASEN
  6
Continuous
 62
     7
100
AcDbCircle
 10
85.5486817452
 20
291.4696533726
 30
0.0
 40
9.599999195899954
100
AcDbArc
 50
90.0
 51
270.0
  0
ARC
  5
DF
330
1F
100
AcDbEntity
  8
BEZUGSACHSEN
  6
Continuous
 62
     7
100
AcDbCircle
 10
28.5486817452
 20
299.4796533726
 30
0.0
 40
2.0
100
AcDbArc
 50
0.0
 51
90.0
  0
ARC
  5
E0
330
1F
100
AcDbEntity
  8
BEZUGSACHSEN
  6
Continuous
 62
     7
100
AcDbCircle
 10
22.5486817452
 20
325.0698449357
 30
0.0
 40
1.999999999952488
100
AcDbArc
 50
92.86812048930274
 51
180.0000000143238
  0
ARC
  5
E1
330
1F
100
AcDbEntity
  8
BEZUGSACHSEN
  6
Continuous
 62
     7
100
AcDbCircle
 10
89.6736817452
 20
338.4696533726
 30
0.0
 40
1.0
100
AcDbArc
 50
180.0
 51
270.0
  0
ARC
  5
E2
330
1F
100
AcDbEntity
  8
BEZUGSACHSEN
  6
Continuous
 62
     7
100
AcDbCircle
 10
68.9267444043
 20
330.1519033726
 30
0.0
 40
1.000000000009859
100
AcDbArc
 50
255.000000000301
 51
270.0
  0
ARC
  5
E3
330
1F
100
AcDbEntity
  8
BEZUGSACHSEN
  6
Continuous
 62
     7
100
AcDbCircle
 10
69.8481104565
 20
330.1519033726
 30
0.0
 40
1.0
100
AcDbArc
 50
270.0
 51
314.5097387987131
  0
ARC
  5
E4
330
1F
100
AcDbEntity
  8
BEZUGSACHSEN
  6
Continuous
 62
     7
100
AcDbCircle
 10
206.8787283434
 20
-1314.5731059174
 30
0.0
 40
1632.172763698
100
AcDbArc
 50
96.2726189838
 51
96.48809068979999
  0
ARC
  5
E5
330
1F
100
AcDbEntity
  8
0
  6
Continuous
 62
     7
100
AcDbCircle
 10
154.5486817452
 20
-79.5303466274
 30
0.0
 40
350.0
100
AcDbArc
 50
90.0
 51
96.24391656287679
  0
ARC
  5
E6
330
1F
100
AcDbEntity
  8
RUNDUNGEN
  6
Continuous
 62
     7
100
AcDbCircle
 10
154.5486817452
 20
-79.5303466274
 30
0.0
 40
350.0
100
AcDbArc
 50
90.0
 51
96.24391656287679
  0
ARC
  5
E7
330
1F
100
AcDbEntity
  8
RUNDUNGEN
  6
Continuous
 62
     7
100
AcDbCircle
 10
118.5486817452
 20
249.5061255151
 30
0.0
 40
18.99999999998434
100
AcDbArc
 50
96.24391656288812
 51
180.0
  0
ARC
  5
E8
330
1F
100
AcDbEntity
  8
RUNDUNGEN
  6
Continuous
 62
     7
100
AcDbCircle
 10
269.5486817452
 20
275.8940438642
 30
0.0
 40
0.9999999999648148
100
AcDbArc
 50
274.4999999985582
 51
0.0
  0
ARC
  5
E9
330
1F
100
AcDbEntity
  8
BEZUGSACHSEN
  6
Continuous
 62
     7
100
AcDbCircle
 10
91.4236817452
 20
244.4696533726
 30
0.0
 40
1.0
100
AcDbArc
 50
0.0
 51
90.0
  0
ARC
  5
EA
330
1F
100
AcDbEntity
  8
BEZUGSACHSEN
  6
Continuous
 62
     7
100
AcDbCircle
 10
206.8787283487
 20
1897.5124127098
 30
0.0
 40
1632.1727637455
100
AcDbArc
 50
263.5119093102
 51
263.7273810162
  0
ARC
  5
EB
330
1F
100
AcDbEntity
  8
0
  6
Continuous
 62
     7
100
AcDbCircle
 10
154.5486817452
 20
662.4696533726
 30
0.0
 40
350.0000000000567
100
AcDbArc
 50
263.756083437125
 51
270.0
  0
ARC
  5
EC
330
1F
100
AcDbEntity
  8
RUNDUNGEN
  6
Continuous
 62
     7
100
AcDbCircle
 10
154.5486817452
 20
662.4696533726
 30
0.0
 40
350.0000000000567
100
AcDbArc
 50
263.756083437125
 51
270.0
  0
ARC
  5
ED
330
1F
100
AcDbEntity
  8
0
  6
Continuous
 62
     7
100
AcDbCircle
 10
335.1464616284
 20
360.9041209633
 30
0.0
 40
264.5204223909001
100
AcDbArc
 50
203.4229294509001
 51
204.1599235293982
  0
ARC
  5
EE
330
1F
100
AcDbEntity
  8
RUNDUNGEN
  6
Continuous
 62
     7
100
AcDbCircle
 10
118.5486817452
 20
333.4331812301
 30
0.0
 40
19.0
100
AcDbArc
 50
180.0
 51
263.7560834371446
  0
ARC
  5
EF
330
1F
100
AcDbEntity
  8
BEZUGSACHSEN
  6
Continuous
 62
     7
100
AcDbCircle
 10
91.4236817452
 20
338.4696533726
 30
0.0
 40
1.0
100
AcDbArc
 50
270.0
 51
0.0
  0
ARC
  5
F0
330
1F
100
AcDbEntity
  8
RUNDUNGEN
  6
Continuous
 62
     7
100
AcDbCircle
 10
269.5486817452
 20
307.0452628809
 30
0.0
 40
1.0
100
AcDbArc
 50
0.0
 51
85.50000000189128
  0
CIRCLE
  5
F1
330
1F
100
AcDbEntity
  8
BEZUGSACHSEN
  6
Continuous
 62
     7
100
AcDbCircle
 10
55.5486817452
 20
291.4696533726
 30
0.0
 40
6.0
  0
SPLINE
  5
F2
330
1F
100
AcDbEntity
  8
BEZUGSACHSEN
  6
Continuous
 62
     7
100
AcDbSpline
210
0.0
220
0.0
230
1.0
 70
     8
 71
     3
 72
    19
 73
    15
 74
    13
 42
0.0000000001
 43
0.0000000001
 44
0.00000001
 40
0.0
 40
0.0
 40
0.0
 40
0.0
 40
0.267941164334416
 40
0.5361267936840339
 40
0.8065304773471665
 40
1.076465993216706
 40
1.213913376149486
 40
1.35135310489271
 40
1.491586367076699
 40
1.631807897568766
 40
1.775491562785923
 40
1.919219204766691
 40
2.065713007395659
 40
2.211936409320309
 40
2.211936409320309
 40
2.211936409320309
 40
2.211936409320309
 10
30.1025276921
 20
276.4596533726
 30
0.0
 10
30.06863344830106
 20
276.3769817928964
 30
0.0
 10
30.00081403616477
 20
276.2115632053294
 30
0.0
 10
29.87617552989209
 20
275.9728972316627
 30
0.0
 10
29.73126473058858
 20
275.7452092356409
 30
0.0
 10
29.58822109907293
 20
275.5694047443102
 30
0.0
 10
29.45911471215309
 20
275.4414550251784
 30
0.0
 10
29.35299961307109
 20
275.3523680043656
 30
0.0
 10
29.23819018541208
 20
275.2730663640456
 30
0.0
 10
29.11373057317308
 20
275.2053958966147
 30
0.0
 10
28.9808770180373
 20
275.1525932099332
 30
0.0
 10
28.84022621916144
 20
275.1174269459454
 30
0.0
 10
28.69490083606867
 20
275.1010747440615
 30
0.0
 10
28.5973914170271
 20
275.1076974774279
 30
0.0
 10
28.5486817452
 20
275.1110057852
 30
0.0
 11
30.1025276921
 21
276.4596533726
 31
0.0
 11
29.99709043238354
 21
276.2133294967609
 31
0.0
 11
29.87322091682421
 21
275.9754642514964
 31
0.0
 11
29.72687543054594
 21
275.7480853809201
 31
0.0
 11
29.55562323942313
 21
275.5394280787153
 31
0.0
 11
29.45783080072113
 21
275.4428443222767
 31
0.0
 11
29.35241381144158
 21
275.354657376484
 31
0.0
 11
29.23687516771684
 21
275.2751829175112
 31
0.0
 11
29.11355315782187
 21
275.2084464245782
 31
0.0
 11
28.979922469622
 21
275.1556464736174
 31
0.0
 11
28.84049476841422
 21
275.1207530472269
 31
0.0
 11
28.69480032989605
 21
275.1054702204736
 31
0.0
 11
28.5486817452
 21
275.1110057852
 31
0.0
  0
SPLINE
  5
F3
330
1F
100
AcDbEntity
  8
BEZUGSACHSEN
  6
Continuous
 62
     7
100
AcDbSpline
210
0.0
220
0.0
230
1.0
 70
     8
 71
     3
 72
    27
 73
    23
 74
    21
 42
0.0000000001
 43
0.0000000001
 44
0.00000001
 40
0.0
 40
0.0
 40
0.0
 40
0.0
 40
0.1219765139516433
 40
0.2439857714748842
 40
0.3566831398333827
 40
0.4694418149629515
 40
0.5721317672948524
 40
0.6745445881155904
 40
0.7225206521221919
 40
0.7704888797708573
 40
0.8171412936045874
 40
0.8637898734267688
 40
0.9102318000825855
 40
0.9566751324135583
 40
1.004175175749491
 40
1.051683100142891
 40
1.153672388761963
 40
1.256049376711191
 40
1.370745138132336
 40
1.485385401913321
 40
1.611534903949024
 40
1.737631875993893
 40
1.737631875993893
 40
1.737631875993893
 40
1.737631875993893
 10
21.6945244208
 20
276.2273173771
 30
0.0
 10
21.65926940319662
 20
276.2070378518351
 30
0.0
 10
21.5887499040762
 20
276.1664733574369
 30
0.0
 10
21.48109750089034
 20
276.1156774965454
 30
0.0
 10
21.3729394850191
 20
276.073925860676
 30
0.0
 10
21.26736026405064
 20
276.0445112755351
 30
0.0
 10
21.16252871890492
 20
276.0275966881466
 30
0.0
 10
21.07780104905557
 20
276.0257314649186
 30
0.0
 10
21.01197711265178
 20
276.032686772938
 30
0.0
 10
20.96526990943774
 20
276.0418839000916
 30
0.0
 10
20.92008929213369
 20
276.0554173450789
 30
0.0
 10
20.87694968148194
 20
276.0732106038849
 30
0.0
 10
20.83599520490384
 20
276.0954389615888
 30
0.0
 10
20.79734777843286
 20
276.1219739932906
 30
0.0
 10
20.76144169979984
 20
276.1526692708218
 30
0.0
 10
20.7160023782616
 20
276.200206743942
 30
0.0
 10
20.66745923817487
 20
276.2693761110455
 30
0.0
 10
20.6212335292076
 20
276.365534165769
 30
0.0
 10
20.58726765542499
 20
276.4711095987663
 30
0.0
 10
20.56431223124729
 20
276.5875272896753
 30
0.0
 10
20.55086767289755
 20
276.7092745983308
 30
0.0
 10
20.5494102865996
 20
276.793377961848
 30
0.0
 10
20.5486817452
 20
276.8354208864
 30
0.0
 11
21.6945244208
 21
276.2273173771
 31
0.0
 11
21.58797979673946
 21
276.1679329259399
 31
0.0
 11
21.47768690757079
 21
276.1157626516431
 31
0.0
 11
21.37236889971836
 21
276.0756526272486
 31
0.0
 11
21.26364517117531
 21
276.0457583189497
 31
0.0
 11
21.16218101905416
 21
276.0299389591565
 31
0.0
 11
21.05978147846977
 21
276.0282897300744
 31
0.0
 11
21.01207762225721
 21
276.0333931426599
 31
0.0
 11
20.96502685199577
 21
276.0427299451939
 31
0.0
 11
20.92034728456235
 21
276.0561532074828
 31
0.0
 11
20.87724114796642
 21
276.0739843876793
 31
0.0
 11
20.83641855516955
 21
276.0961286525992
 31
0.0
 11
20.7981312986234
 21
276.1224168458459
 31
0.0
 11
20.76199420161285
 21
276.1532448256137
 31
0.0
 11
20.72914170124096
 21
276.1875626941298
 31
0.0
 11
20.66996930698714
 21
276.2706315977658
 31
0.0
 11
20.62506958338608
 21
276.3626373719439
 31
0.0
 11
20.58943142381859
 21
276.4716558991336
 31
0.0
 11
20.56657986045235
 21
276.5839955454367
 31
0.0
 11
20.5528131041298
 21
276.7093916111015
 31
0.0
 11
20.5486817452
 21
276.8354208864
 31
0.0
  0
SPLINE
  5
F4
330
1F
100
AcDbEntity
  8
BEZUGSACHSEN
  6
Continuous
 62
     7
100
AcDbSpline
210
0.0
220
0.0
230
1.0
 70
     8
 71
     3
 72
    15
 73
    11
 74
     9
 42
0.0000000001
 43
0.0000000001
 44
0.00000001
 40
0.0
 40
0.0
 40
0.0
 40
0.0
 40
0.1110371613194032
 40
0.222252233698266
 40
0.3333980191325873
 40
0.4445069474083552
 40
0.5556201064440395
 40
0.6667525641494121
 40
0.7778876032858452
 40
0.8889820914701335
 40
0.8889820914701335
 40
0.8889820914701335
 40
0.8889820914701335
 10
22.4486072604
 20
275.7931209863
 30
0.0
 10
22.41196553354123
 20
275.7986531391497
 30
0.0
 10
22.33862337003348
 20
275.8097263088291
 30
0.0
 10
22.23210682003363
 20
275.842744872329
 30
0.0
 10
22.12969391229326
 20
275.8863351597815
 30
0.0
 10
22.03224394668961
 20
275.9401146676022
 30
0.0
 10
21.93993915097349
 20
276.0022098029655
 30
0.0
 10
21.8529425228507
 20
276.0714964766146
 30
0.0
 10
21.77068976740673
 20
276.146378428227
 30
0.0
 10
21.71990978100524
 20
276.2003410097188
 30
0.0
 10
21.6945244208
 20
276.2273173771
 30
0.0
 11
22.4486072604
 21
275.7931209863
 31
0.0
 11
22.33926497535124
 21
275.8124475455951
 31
0.0
 11
22.23277302176315
 21
275.8445139789051
 31
0.0
 11
22.13050484116743
 21
275.8880410378163
 31
0.0
 11
22.03310197474309
 21
275.9415001395195
 31
0.0
 11
21.94083020797106
 21
276.0034037352765
 31
0.0
 11
21.85373310456438
 21
276.0724292213944
 31
0.0
 11
21.77169320007783
 21
276.1473988885651
 31
0.0
 11
21.6945244208
 21
276.2273173771
 31
0.0
  0
SPLINE
  5
F5
330
1F
100
AcDbEntity
  8
BEZUGSACHSEN
  6
Continuous
 62
     7
100
AcDbSpline
210
0.0
220
0.0
230
1.0
 70
     8
 71
     3
 72
    27
 73
    23
 74
    21
 42
0.0000000001
 43
0.0000000001
 44
0.00000001
 40
0.0
 40
0.0
 40
0.0
 40
0.0
 40
0.1260969825525345
 40
0.2522464959194702
 40
0.3668867952476209
 40
0.4815825893734112
 40
0.5839596006346806
 40
0.6859489160817771
 40
0.7334568410039821
 40
0.7809568848485209
 40
0.827400226397234
 40
0.8738421606731456
 40
0.9204907318546555
 40
0.9671431398889253
 40
1.015111401786514
 40
1.063087497112333
 40
1.165500418746147
 40
1.268190478984819
 40
1.380949153925825
 40
1.493646517788141
 40
1.615655563729009
 40
1.737631867642937
 40
1.737631867642937
 40
1.737631867642937
 40
1.737631867642937
 10
20.5486817452
 20
306.1038858588
 30
0.0
 10
20.54941028667627
 20
306.145928786861
 30
0.0
 10
20.55086767313234
 20
306.2300321576706
 30
0.0
 10
20.56431223508073
 20
306.3517794852322
 30
0.0
 10
20.58726766836457
 20
306.4681972016033
 30
0.0
 10
20.621233568698
 20
306.5737726593791
 30
0.0
 10
20.66745932755637
 20
306.6699307216184
 30
0.0
 10
20.71600249611112
 20
306.7391000872771
 30
0.0
 10
20.76144182166842
 20
306.7866375688943
 30
0.0
 10
20.79734789975958
 20
306.8173328523764
 30
0.0
 10
20.83599533085226
 20
306.8438678880887
 30
0.0
 10
20.87694981805784
 20
306.8660962339838
 30
0.0
 10
20.92008944423335
 20
306.8838894508613
 30
0.0
 10
20.96527007884701
 20
306.8974228579223
 30
0.0
 10
21.01197730183856
 20
306.9066199832564
 30
0.0
 10
21.07780129305498
 20
306.9135753036373
 30
0.0
 10
21.16252904507726
 20
306.9117100470022
 30
0.0
 10
21.26736064859642
 20
306.8947953860645
 30
0.0
 10
21.37293989095671
 20
306.8653807532077
 30
0.0
 10
21.48109782904003
 20
306.8236291157415
 30
0.0
 10
21.58875009028014
 20
306.7728332885383
 30
0.0
 10
21.65926946511566
 20
306.7322688603087
 30
0.0
 10
21.6945244208
 20
306.711989368
 30
0.0
 11
20.5486817452
 21
306.1038858588
 31
0.0
 11
20.55281310476465
 21
306.2299151445911
 31
0.0
 11
20.56657986388566
 21
306.355311221348
 31
0.0
 11
20.5894314399678
 21
306.4676509013395
 31
0.0
 11
20.62506962933866
 21
306.5766694531943
 31
0.0
 11
20.6699693941388
 21
306.6686752332067
 31
0.0
 11
20.72914182309294
 21
306.7517441450632
 31
0.0
 11
20.76199432325447
 21
306.7860620145127
 31
0.0
 11
20.79813141818128
 21
306.8168899975068
 31
0.0
 11
20.83641868304272
 21
306.8431781949277
 31
0.0
 11
20.87724129097998
 21
306.8653224479178
 31
0.0
 11
20.92034743459804
 21
306.8831535885334
 31
0.0
 11
20.96502700664238
 21
306.8965768153188
 31
0.0
 11
21.01207781239824
 21
306.9059136149418
 31
0.0
 11
21.0597816996774
 21
306.911017031559
 31
0.0
 11
21.16218134056802
 21
306.9093677701949
 31
0.0
 11
21.26364559090758
 21
306.8935483399001
 31
0.0
 11
21.37236930736153
 21
306.8636539883452
 31
0.0
 11
21.47768729963867
 21
306.8235439356872
 31
0.0
 11
21.58797998550874
 21
306.7713737264201
 31
0.0
 11
21.6945244208
 21
306.711989368
 31
0.0
  0
SPLINE
  5
F6
330
1F
100
AcDbEntity
  8
BEZUGSACHSEN
  6
Continuous
 62
     7
100
AcDbSpline
210
0.0
220
0.0
230
1.0
 70
     8
 71
     3
 72
    15
 73
    11
 74
     9
 42
0.0000000001
 43
0.0000000001
 44
0.00000001
 40
0.0
 40
0.0
 40
0.0
 40
0.0
 40
0.1110944831359915
 40
0.2222295181505723
 40
0.333362040195998
 40
0.4444752610264374
 40
0.5555842178392206
 40
0.6667300354336674
 40
0.7779450181819468
 40
0.888982087102977
 40
0.888982087102977
 40
0.888982087102977
 40
0.888982087102977
 10
21.6945244208
 20
306.711989368
 30
0.0
 10
21.7199097803412
 20
306.73896573371
 30
0.0
 10
21.77068976562647
 20
306.7929283120843
 30
0.0
 10
21.85294253489988
 20
306.867810275469
 30
0.0
 10
21.9399391868565
 20
306.9370969843721
 30
0.0
 10
22.03224402729676
 20
306.9991921474463
 30
0.0
 10
22.12969404929215
 20
307.0529716395677
 30
0.0
 10
22.23210696316329
 20
307.0965618851573
 30
0.0
 10
22.33862346172535
 20
307.129580440954
 30
0.0
 10
22.41196556440944
 20
307.1406536075589
 30
0.0
 10
22.4486072604
 20
307.1461857588
 30
0.0
 11
21.6945244208
 21
306.711989368
 31
0.0
 11
21.7716931978269
 21
306.7919078516907
 31
0.0
 11
21.85373309807828
 21
306.8668775173858
 31
0.0
 11
21.94083024669143
 21
306.9359030500505
 31
0.0
 11
22.0331020682786
 21
306.9978066750194
 31
0.0
 11
22.13050497637406
 21
307.0512657601086
 31
0.0
 11
22.23277319977434
 21
307.0947928005696
 31
0.0
 11
22.3392650678665
 21
307.1268592069467
 31
0.0
 11
22.4486072604
 21
307.1461857588
 31
0.0
  0
SPLINE
  5
F7
330
1F
100
AcDbEntity
  8
BEZUGSACHSEN
  6
Continuous
 62
     7
100
AcDbSpline
210
0.0
220
0.0
230
1.0
 70
     8
 71
     3
 72
    47
 73
    43
 74
    41
 42
0.0000000001
 43
0.0000000001
 44
0.00000001
 40
0.0
 40
0.0
 40
0.0
 40
0.0
 40
0.6366022432335553
 40
1.273595002182745
 40
1.59292174640207
 40
1.912076344893824
 40
2.231392290439004
 40
2.550826842754217
 40
3.189774321180961
 40
3.829081697010085
 40
4.468337152511266
 40
5.107221744787513
 40
5.426176341294039
 40
5.745033356851251
 40
6.063356731618459
 40
6.381780214909336
 40
7.017059195679191
 40
7.652639341004777
 40
8.287532214273812
 40
8.92234794655398
 40
9.55922674861984
 40
10.19613435938736
 40
10.8345178550352
 40
11.47287689974363
 40
12.11234487366508
 40
12.7518958895135
 40
13.39354300524337
 40
14.0348795736105
 40
14.35615205776705
 40
14.67732107716555
 40
14.99840882476678
 40
15.31959604125737
 40
15.96011121031387
 40
16.60099592094821
 40
17.23809108086529
 40
17.8748255521058
 40
18.19205670343604
 40
18.50917199110471
 40
18.82571084636736
 40
19.1424158183328
 40
19.77338975000576
 40
20.40398930747636
 40
20.40398930747636
 40
20.40398930747636
 40
20.40398930747636
 10
49.0492661509
 20
291.4696533531
 30
0.0
 10
49.05527179478528
 20
291.6819331628125
 30
0.0
 10
49.06728676664326
 20
292.1066230026423
 30
0.0
 10
49.14855211185812
 20
292.6327657637582
 30
0.0
 10
49.24127170845937
 20
293.0477401398679
 30
0.0
 10
49.3265646725938
 20
293.3555641155648
 30
0.0
 10
49.42680328600368
 20
293.6588567923621
 30
0.0
 10
49.58028883511951
 20
294.056294154924
 30
0.0
 10
49.80876078190587
 20
294.5383937318051
 30
0.0
 10
50.13837574248774
 20
295.087209604622
 30
0.0
 10
50.52060295955805
 20
295.6007451439789
 30
0.0
 10
50.8794576566797
 20
295.9952479060702
 30
0.0
 10
51.18841101026925
 20
296.2881212041049
 30
0.0
 10
51.43030611925533
 20
296.4958430252137
 30
0.0
 10
51.6819493727272
 20
296.6913524223511
 30
0.0
 10
52.02924347985484
 20
296.9348476250344
 30
0.0
 10
52.48498381460106
 20
297.2067296950812
 30
0.0
 10
53.06046323929869
 20
297.478058807593
 30
0.0
 10
53.65957400448372
 20
297.6918424384011
 30
0.0
 10
54.27702440695667
 20
297.846532169771
 30
0.0
 10
54.90729496864481
 20
297.9403391534262
 30
0.0
 10
55.54488890335388
 20
297.9724658782325
 30
0.0
 10
56.18306754757051
 20
297.9420363052823
 30
0.0
 10
56.81607996875884
 20
297.8493650501184
 30
0.0
 10
57.43731365319744
 20
297.6948730888907
 30
0.0
 10
58.04144940517812
 20
297.4798359563497
 30
0.0
 10
58.62192847875805
 20
297.2059125906196
 30
0.0
 10
59.08155750298387
 20
296.9307457125601
 30
0.0
 10
59.43145649164722
 20
296.6841360137025
 30
0.0
 10
59.68458812079649
 20
296.4862318213317
 30
0.0
 10
59.92758676015065
 20
296.2760532919299
 30
0.0
 10
60.23683110365575
 20
295.9805339517744
 30
0.0
 10
60.59515129445296
 20
295.5830629690078
 30
0.0
 10
60.97510171279623
 20
295.067396207453
 30
0.0
 10
61.30157474240783
 20
294.5178000509828
 30
0.0
 10
61.52694588240285
 20
294.0366945092723
 30
0.0
 10
61.67803686556169
 20
293.6407043216522
 30
0.0
 10
61.77644978311102
 20
293.339277970869
 30
0.0
 10
61.86011656128261
 20
293.0335826029529
 30
0.0
 10
61.95093591871651
 20
292.622030585237
 30
0.0
 10
62.03045089432211
 20
292.1006053687092
 30
0.0
 10
62.04222317898959
 20
291.6799290795545
 30
0.0
 10
62.0481075746
 20
291.4696533532
 30
0.0
 11
49.0492661509
 21
291.4696533531
 31
0.0
 11
49.08051482193981
 21
292.1054881875093
 31
0.0
 11
49.17395602431341
 21
292.7355901765973
 31
0.0
 11
49.24389653134628
 21
293.0471634345154
 31
0.0
 11
49.3290378703115
 21
293.3547518122829
 31
0.0
 11
49.42926240842474
 21
293.6579311569609
 31
0.0
 11
49.54434229815399
 21
293.9559161434833
 31
0.0
 11
49.8179381924008
 21
294.5333234233466
 31
0.0
 11
50.14715770609644
 21
295.0813457154037
 31
0.0
 11
50.52878196142631
 21
295.5941911747108
 31
0.0
 11
50.95871659755266
 21
296.0667689258872
 31
0.0
 11
51.19018885863505
 21
296.2862059942736
 31
0.0
 11
51.43209125967602
 21
296.4939390555342
 31
0.0
 11
51.68346506681586
 21
296.6892362137501
 31
0.0
 11
51.94419434508067
 21
296.8720305193687
 31
0.0
 11
52.4897279892635
 21
297.1975645828284
 31
0.0
 11
53.06463780939264
 21
297.4685642504503
 31
0.0
 11
53.66258399717074
 21
297.6819871101665
 31
0.0
 11
54.27837652941302
 21
297.8362290343799
 31
0.0
 11
54.90830881137198
 21
297.9300369693685
 31
0.0
 11
55.54441193307837
 21
297.9620388944507
 31
0.0
 11
56.18207289208246
 21
297.9316746246992
 31
0.0
 11
56.81369042499093
 21
297.8391459151886
 31
0.0
 11
57.43426329711582
 21
297.684845558566
 31
0.0
 11
58.03676410426963
 21
297.4703268431779
 31
0.0
 11
58.61707130065078
 21
297.1965485040919
 31
0.0
 11
59.1672962886988
 21
296.8670563851384
 31
0.0
 11
59.42990359284626
 21
296.6819796094896
 31
0.0
 11
59.68292405023811
 21
296.4841660933624
 31
0.0
 11
59.92577235160243
 21
296.2741136137672
 31
0.0
 11
60.15797478700946
 21
296.0522053961906
 31
0.0
 11
60.5868908447437
 21
295.5765051783967
 31
0.0
 11
60.96700150341679
 21
295.0605118649827
 31
0.0
 11
61.29244064914197
 21
294.5128079255962
 31
0.0
 11
61.56252150727164
 21
293.9361909670025
 31
0.0
 11
61.67561195245585
 21
293.6398024473491
 31
0.0
 11
61.774056055795
 21
293.3383545012773
 31
0.0
 11
61.85753886116923
 21
293.033022766769
 31
0.0
 11
61.92608828460348
 21
292.7238253932121
 31
0.0
 11
62.01751536248777
 21
292.0995104151118
 31
0.0
 11
62.0481075746
 21
291.4696533532
 31
0.0
  0
SPLINE
  5
F8
330
1F
100
AcDbEntity
  8
0
  6
Continuous
 62
     7
100
AcDbSpline
210
0.0
220
0.0
230
1.0
 70
     8
 71
     3
 72
    19
 73
    15
 74
    13
 42
0.0000000001
 43
0.0000000001
 44
0.00000001
 40
0.0
 40
0.0
 40
0.0
 40
0.0
 40
0.1162460235718655
 40
0.2327881717960441
 40
0.3491890045907669
 40
0.465546855067195
 40
0.5819071370082168
 40
0.6982738489485014
 40
0.8146206073030023
 40
0.9309998278373122
 40
1.163276323437346
 40
1.396138921758865
 40
1.629013178085447
 40
1.861351539770874
 40
1.861351539770874
 40
1.861351539770874
 40
1.861351539770874
 10
89.6736817452
 20
257.9472727889
 30
0.0
 10
89.63489767435905
 20
257.9454318420047
 30
0.0
 10
89.55723073429127
 20
257.9417452585934
 30
0.0
 10
89.44362064923389
 20
257.9133397735893
 30
0.0
 10
89.33543296128359
 20
257.8694858593708
 30
0.0
 10
89.23445709530606
 20
257.8108891711444
 30
0.0
 10
89.14168863855295
 20
257.7402043098225
 30
0.0
 10
89.0576012595366
 20
257.6594467047419
 30
0.0
 10
88.98229761614809
 20
257.5704790659998
 30
0.0
 10
88.89364637198838
 20
257.4431196182592
 30
0.0
 10
88.8036496262761
 20
257.270334240185
 30
0.0
 10
88.72875610715307
 20
257.0494092499994
 30
0.0
 10
88.6822191818347
 20
256.8203893303993
 30
0.0
 10
88.67652537111184
 20
256.665209937548
 30
0.0
 10
88.6736817452
 20
256.5877096194
 30
0.0
 11
89.6736817452
 21
257.9472727889
 31
0.0
 11
89.55781039364958
 21
257.937947131489
 31
0.0
 11
89.44448586896152
 21
257.9107510947017
 31
0.0
 11
89.3366127363503
 21
257.8670184851758
 31
0.0
 11
89.23582399682556
 21
257.8088740155118
 31
0.0
 11
89.14313669174467
 21
257.7385264591204
 31
0.0
 11
89.05906132608585
 21
257.6580743333739
 31
0.0
 11
88.98376256814043
 21
257.5693801101602
 31
0.0
 11
88.91713583882891
 21
257.4739599764702
 31
0.0
 11
88.80924605275452
 21
257.2682607677477
 31
0.0
 11
88.73348791594191
 21
257.0480660938709
 31
0.0
 11
88.68852790214281
 21
256.8195731696504
 31
0.0
 11
88.6736817452
 21
256.5877096194
 31
0.0
  0
SPLINE
  5
F9
330
1F
100
AcDbEntity
  8
0
  6
Continuous
 62
     7
100
AcDbSpline
210
0.0
220
0.0
230
1.0
 70
     8
 71
     3
 72
    19
 73
    15
 74
    13
 42
0.0000000001
 43
0.0000000001
 44
0.00000001
 40
0.0
 40
0.0
 40
0.0
 40
0.0
 40
0.2323383481415016
 40
0.4652125957553876
 40
0.69807611330525
 40
0.9303535187359422
 40
1.046733461813452
 40
1.163080940900979
 40
1.279447997475867
 40
1.395808629579063
 40
1.512165904557266
 40
1.628566140401501
 40
1.745106920594183
 40
1.861351602857204
 40
1.861351602857204
 40
1.861351602857204
 40
1.861351602857204
 10
92.4236817452
 20
256.5877096194
 30
0.0
 10
92.42083811959412
 20
256.6652099330673
 30
0.0
 10
92.41514430942442
 20
256.8203893185689
 30
0.0
 10
92.36860733359238
 20
257.049409532598
 30
0.0
 10
92.2937135878284
 20
257.2703350944867
 30
0.0
 10
92.2037162835715
 20
257.4431211586852
 30
0.0
 10
92.11506434576943
 20
257.570481084409
 30
0.0
 10
92.03976008141636
 20
257.6594489833371
 30
0.0
 10
91.95567210759776
 20
257.740206653308
 30
0.0
 10
91.86290337376688
 20
257.8108912196919
 30
0.0
 10
91.76192756152122
 20
257.8694874438651
 30
0.0
 10
91.6537405120082
 20
257.913340695022
 30
0.0
 10
91.54013140265388
 20
257.9417454544724
 30
0.0
 10
91.46246536786182
 20
257.9454319071194
 30
0.0
 10
91.4236817452
 20
257.9472727889
 30
0.0
 11
92.4236817452
 21
256.5877096194
 31
0.0
 11
92.40883559108222
 21
256.8195731562596
 31
0.0
 11
92.36387558949359
 21
257.048066074003
 31
0.0
 11
92.28811711081123
 21
257.2682616023714
 31
0.0
 11
92.18022669963361
 21
257.4739615106104
 31
0.0
 11
92.11359937578942
 21
257.5693821104203
 31
0.0
 11
92.0382999192226
 21
257.6580766859634
 31
0.0
 11
91.95422405289213
 21
257.7385287869719
 31
0.0
 11
91.86153622692278
 21
257.8088762362542
 31
0.0
 11
91.76074779201818
 21
257.8670200822728
 31
0.0
 11
91.6528750632266
 21
257.9107520990071
 31
0.0
 11
91.53955177467273
 21
257.937947424327
 31
0.0
 11
91.4236817452
 21
257.9472727889
 31
0.0
  0
SPLINE
  5
FA
330
1F
100
AcDbEntity
  8
BEZUGSACHSEN
  6
Continuous
 62
     7
100
AcDbSpline
210
0.0
220
0.0
230
1.0
 70
     8
 71
     3
 72
    11
 73
     7
 74
     5
 42
0.0000000001
 43
0.0000000001
 44
0.00000001
 40
0.0
 40
0.0
 40
0.0
 40
0.0
 40
0.5462907431223438
 40
1.09300086364633
 40
1.646070107189994
 40
2.198197048704424
 40
2.198197048704424
 40
2.198197048704424
 40
2.198197048704424
 10
30.1025276921
 20
306.4796533726
 30
0.0
 10
30.1655984939589
 20
306.3087217433655
 30
0.0
 10
30.29178851597655
 20
305.9667272638144
 30
0.0
 10
30.43142582895169
 20
305.4354531345729
 30
0.0
 10
30.52891419300548
 20
304.8920287296313
 30
0.0
 10
30.54209630753887
 20
304.5234440890814
 30
0.0
 10
30.5486817452
 20
304.3393088984
 30
0.0
 11
30.1025276921
 21
306.4796533726
 31
0.0
 11
30.28337902470429
 21
305.9641668339626
 31
0.0
 11
30.4238705093775
 21
305.4358164780266
 31
0.0
 11
30.51593716263283
 21
304.890464005297
 31
0.0
 11
30.5486817452
 21
304.3393088984
 31
0.0
  0
SPLINE
  5
FB
330
1F
100
AcDbEntity
  8
BEZUGSACHSEN
  6
Continuous
 62
     7
100
AcDbSpline
210
0.0
220
0.0
230
1.0
 70
     8
 71
     3
 72
    19
 73
    15
 74
    13
 42
0.0000000001
 43
0.0000000001
 44
0.00000001
 40
0.0
 40
0.0
 40
0.0
 40
0.0
 40
0.1462385987780126
 40
0.292747927480836
 40
0.4364790706193339
 40
0.5801659236393693
 40
0.72037999727135
 40
0.8606059382574924
 40
0.9980411883900606
 40
1.135484020438417
 40
1.405415631100462
 40
1.67581551410031
 40
1.943997429536156
 40
2.211934834763008
 40
2.211934834763008
 40
2.211934834763008
 40
2.211934834763008
 10
28.5486817452
 20
307.82830096
 30
0.0
 10
28.59739655053832
 20
307.8316090373465
 30
0.0
 10
28.69491634640339
 20
307.8382313162471
 30
0.0
 10
28.84025260671714
 20
307.8218720034861
 30
0.0
 10
28.98090954384334
 20
307.7867002374211
 30
0.0
 10
29.11376167729563
 20
307.7338945507962
 30
0.0
 10
29.23821614034874
 20
307.6662227630434
 30
0.0
 10
29.35301869749827
 20
307.5869225616299
 30
0.0
 10
29.45912863527391
 20
307.4978379220425
 30
0.0
 10
29.58823110045586
 20
307.3698903864713
 30
0.0
 10
29.73127095035696
 20
307.1940880975621
 30
0.0
 10
29.87617855205606
 20
306.9664026316776
 30
0.0
 10
30.00081530049887
 20
306.7277400122067
 30
0.0
 10
30.06863387166728
 20
306.5623237717739
 30
0.0
 10
30.1025276921
 20
306.4796533726
 30
0.0
 11
28.5486817452
 21
307.82830096
 31
0.0
 11
28.69481560701904
 21
307.8338346931349
 31
0.0
 11
28.8405249678657
 21
307.8185452994709
 31
0.0
 11
28.9799550494228
 21
307.7836469633376
 31
0.0
 11
29.11358738635172
 21
307.7308425103272
 31
0.0
 11
29.23690117715136
 21
307.6641064972376
 31
0.0
 11
29.35243228845921
 21
307.5846340061138
 31
0.0
 11
29.45784483823365
 21
307.4964487333692
 31
0.0
 11
29.55563334192783
 21
307.3998674690022
 31
0.0
 11
29.72688173781767
 21
307.1912121040106
 31
0.0
 11
29.87322415835233
 21
306.9638357800928
 31
0.0
 11
29.9970917841591
 21
306.7259737380519
 31
0.0
 11
30.1025276921
 21
306.4796533726
 31
0.0
  0
SPLINE
  5
FC
330
1F
100
AcDbEntity
  8
BEZUGSACHSEN
  6
Continuous
 62
     7
100
AcDbSpline
210
0.0
220
0.0
230
1.0
 70
     8
 71
     3
 72
    47
 73
    43
 74
    41
 42
0.0000000001
 43
0.0000000001
 44
0.00000001
 40
0.0
 40
0.0
 40
0.0
 40
0.0
 40
0.6302393214461299
 40
1.260854867303391
 40
1.577476088392119
 40
1.893930800226681
 40
2.210999113873398
 40
2.528183472209243
 40
3.164887038236378
 40
3.8019511833846
 40
4.442851001638848
 40
5.083381259822083
 40
5.404527292329095
 40
5.725573838754594
 40
6.046670710014801
 40
6.367871027133799
 40
7.009090242534056
 40
7.650619763961001
 40
8.290330346496683
 40
8.929958764471115
 40
9.568647011329452
 40
10.20735923011525
 40
10.84445705815098
 40
11.48152626496738
 40
12.11643462224022
 40
12.75141965580937
 40
13.38691908739282
 40
14.02211738531535
 40
14.34050449141838
 40
14.65879153789433
 40
14.97761586865111
 40
15.29653774941521
 40
15.93537694098827
 40
16.57458694066132
 40
17.21386274990229
 40
17.85277859073397
 40
18.17219860082891
 40
18.49150024077544
 40
18.81067156636557
 40
19.13001452422045
 40
19.7671962702407
 40
20.40398968273778
 40
20.40398968273778
 40
20.40398968273778
 40
20.40398968273778
 10
62.048095383
 20
291.4696533913
 30
0.0
 10
62.04222618125578
 20
291.2594973694146
 30
0.0
 10
62.03048427411898
 20
290.8390598719899
 30
0.0
 10
61.95103753155642
 20
290.3178964297393
 30
0.0
 10
61.86030602649562
 20
289.9065049623092
 30
0.0
 10
61.77670064420387
 20
289.6008671220054
 30
0.0
 10
61.67834870283769
 20
289.2994832758102
 30
0.0
 10
61.5273298919831
 20
288.9035100962205
 30
0.0
 10
61.30204730437465
 20
288.4224032875466
 30
0.0
 10
60.9756692696042
 20
287.8727690625517
 30
0.0
 10
60.59580220754579
 20
287.3570411998839
 30
0.0
 10
60.23754776824522
 20
286.9595157976768
 30
0.0
 10
59.92836703055963
 20
286.6639624427634
 30
0.0
 10
59.685442074535
 20
286.4537775343447
 30
0.0
 10
59.43239317123633
 20
286.255868070011
 30
0.0
 10
59.08261066280198
 20
286.0092447185066
 30
0.0
 10
58.6231254250408
 20
285.7340381092162
 30
0.0
 10
58.04272971805656
 20
285.4599980025237
 30
0.0
 10
57.43857541020899
 20
285.2448095252018
 30
0.0
 10
56.81716026281291
 20
285.090147686185
 30
0.0
 10
56.1838910513963
 20
284.9973373131263
 30
0.0
 10
55.54543158696549
 20
284.9668265632818
 30
0.0
 10
54.90759857339889
 20
284.9989283056522
 30
0.0
 10
54.27716858638412
 20
285.0927413680258
 30
0.0
 10
53.65959491687068
 20
285.2474551843147
 30
0.0
 10
53.06045150543387
 20
285.4612517563896
 30
0.0
 10
52.48499428397555
 20
285.7325731248419
 30
0.0
 10
52.02930889103953
 20
286.0044180084901
 30
0.0
 10
51.68205299332119
 20
286.247878561088
 30
0.0
 10
51.43043341204089
 20
286.4433610874109
 30
0.0
 10
51.18855836177735
 20
286.6510541460989
 30
0.0
 10
50.8796220780937
 20
286.9438916942297
 30
0.0
 10
50.52077932120619
 20
287.3383493431821
 30
0.0
 10
50.13855241596904
 20
287.8518340091482
 30
0.0
 10
49.80892797070358
 20
288.4006017878673
 30
0.0
 10
49.58044052478061
 20
288.8826652043623
 30
0.0
 10
49.42693902482035
 20
289.2800747635399
 30
0.0
 10
49.32668222189707
 20
289.583357126832
 30
0.0
 10
49.24136572897154
 20
289.8911809985358
 30
0.0
 10
49.14860327360356
 20
290.3062218656386
 30
0.0
 10
49.06731090664871
 20
290.8324946646941
 30
0.0
 10
49.05527110715769
 20
291.2573103143797
 30
0.0
 10
49.0492530424
 20
291.469653393
 30
0.0
 11
62.048095383
 21
291.4696533913
 31
0.0
 11
62.01755580427877
 21
290.8401544346461
 31
0.0
 11
61.92622452875194
 21
290.2161876368215
 31
0.0
 11
61.85772979006543
 21
289.9070639262848
 31
0.0
 11
61.77431096522868
 21
289.6018019333915
 31
0.0
 11
61.67592422138961
 21
289.3003846741718
 31
0.0
 11
61.56289359028707
 21
289.0040234189351
 31
0.0
 11
61.29291345377226
 21
288.4273934189532
 31
0.0
 11
60.96757683190152
 21
287.8796646471116
 31
0.0
 11
60.58754033707038
 21
287.3635979463501
 31
0.0
 11
60.15868983937543
 21
286.887818310095
 31
0.0
 11
59.92655270500111
 21
286.6659013773488
 31
0.0
 11
59.68377021167488
 21
286.4558358020966
 31
0.0
 11
59.43084060340124
 21
286.2580232292109
 31
0.0
 11
59.16832620758972
 21
286.07293990822
 31
0.0
 11
58.61826802598581
 21
285.7433976817161
 31
0.0
 11
58.03812719429982
 21
285.4695423507967
 31
0.0
 11
57.43552188399291
 21
285.2548414672446
 31
0.0
 11
56.81482261368375
 21
285.1003845835581
 31
0.0
 11
56.18289379979262
 21
285.0077096093248
 31
0.0
 11
55.54490767263013
 21
284.9772629350485
 31
0.0
 11
54.90861268448644
 21
285.0092368392685
 31
0.0
 11
54.27848941034753
 21
285.1030549274078
 31
0.0
 11
53.66260550209156
 21
285.25731326166
 31
0.0
 11
53.06457303227052
 21
285.470768544791
 31
0.0
 11
52.48973728372795
 21
285.7417360515892
 31
0.0
 11
51.94427059621565
 21
286.0672248693664
 31
0.0
 11
51.6835683034674
 21
286.2499942975771
 31
0.0
 11
51.43221905168463
 21
286.4452638486665
 31
0.0
 11
51.19033575334605
 21
286.6529689855008
 31
0.0
 11
50.95887992204742
 21
286.8723758317658
 31
0.0
 11
50.5289568911672
 21
287.3449027624359
 31
0.0
 11
50.1473357517094
 21
287.8576938793645
 31
0.0
 11
49.81810427753036
 21
288.4056721605862
 31
0.0
 11
49.54448997038632
 21
288.9830357051504
 31
0.0
 11
49.42939771792636
 21
289.2810003276691
 31
0.0
 11
49.32915802949947
 21
289.5841595962667
 31
0.0
 11
49.24399094928084
 21
289.8917582040756
 31
0.0
 11
49.17402792179739
 21
290.203343023213
 31
0.0
 11
49.0805390248169
 21
290.8336289929147
 31
0.0
 11
49.0492530424
 21
291.469653393
 31
0.0
  0
SPLINE
  5
FD
330
1F
100
AcDbEntity
  8
BEZUGSACHSEN
  6
Continuous
 62
     7
100
AcDbSpline
210
0.0
220
0.0
230
1.0
 70
     8
 71
     3
 72
    11
 73
     7
 74
     5
 42
0.0000000001
 43
0.0000000001
 44
0.00000001
 40
0.0
 40
0.0
 40
0.0
 40
0.0
 40
0.5521269407036403
 40
1.105196183339711
 40
1.65190630469867
 40
2.198197048720091
 40
2.198197048720091
 40
2.198197048720091
 40
2.198197048720091
 10
30.5486817452
 20
278.5999978468
 30
0.0
 10
30.54209630757224
 20
278.4158626563891
 30
0.0
 10
30.5289141931068
 20
278.0472780164125
 30
0.0
 10
30.43142582930956
 20
277.503853611727
 30
0.0
 10
30.29178851627704
 20
276.9725794822099
 30
0.0
 10
30.16559849406153
 20
276.6305850021159
 30
0.0
 10
30.1025276921
 20
276.4596533726
 30
0.0
 11
30.5486817452
 21
278.5999978468
 31
0.0
 11
30.5159371627732
 21
278.048842740707
 31
0.0
 11
30.42387050982982
 21
277.5034902688451
 31
0.0
 11
30.2833790249964
 21
276.9751399120877
 31
0.0
 11
30.1025276921
 21
276.4596533726
 31
0.0
  0
SPLINE
  5
FE
330
1F
100
AcDbEntity
  8
BEZUGSACHSEN
  6
Continuous
 62
     7
100
AcDbSpline
210
0.0
220
0.0
230
1.0
 70
     8
 71
     3
 72
    11
 73
     7
 74
     5
 42
0.0000000001
 43
0.0000000001
 44
0.00000001
 40
0.0
 40
0.0
 40
0.0
 40
0.0
 40
0.9140556660002944
 40
1.828030949185896
 40
2.279806974871077
 40
2.730944124762518
 40
2.730944124762518
 40
2.730944124762518
 40
2.730944124762518
 10
21.8156346720854
 20
276.459653372785
 30
0.0
 10
21.94828937904879
 20
276.7343699704516
 30
0.0
 10
22.21358712721042
 20
277.2837790069788
 30
0.0
 10
22.42894234052304
 20
278.0164899280837
 30
0.0
 10
22.5326365541854
 20
278.6144351341897
 30
0.0
 10
22.54333587170649
 20
278.9155583496164
 30
0.0
 10
22.5486817452
 20
279.0660134242
 30
0.0
 11
21.8156346720854
 21
276.459653372785
 31
0.0
 11
22.19044220186089
 21
277.2933302143554
 31
0.0
 11
22.44973356225877
 21
278.1697540893709
 31
0.0
 11
22.52245053575738
 21
278.6156395221327
 31
0.0
 11
22.5486817452
 21
279.0660134242
 31
0.0
  0
SPLINE
  5
FF
330
1F
100
AcDbEntity
  8
BEZUGSACHSEN
  6
Continuous
 62
     7
100
AcDbSpline
210
0.0
220
0.0
230
1.0
 70
     8
 71
     3
 72
    11
 73
     7
 74
     5
 42
0.0000000001
 43
0.0000000001
 44
0.00000001
 40
0.0
 40
0.0
 40
0.0
 40
0.0
 40
0.8249192366724748
 40
1.650116891930993
 40
2.190492152293428
 40
2.730585915378195
 40
2.730585915378195
 40
2.730585915378195
 40
2.730585915378195
 10
22.5486817452
 20
303.873293321
 30
0.0
 10
22.53094844086182
 20
304.148483612977
 30
0.0
 10
22.49547584701588
 20
304.6989570764378
 30
0.0
 10
22.28704103038041
 20
305.4036906615905
 30
0.0
 10
22.05681459940079
 20
305.9959043866708
 30
0.0
 10
21.89601401659882
 20
306.318431720116
 30
0.0
 10
21.8156346720854
 20
306.479653372415
 30
0.0
 11
22.5486817452
 21
303.873293321
 31
0.0
 11
22.46510629108427
 21
304.6939679766959
 31
0.0
 11
22.24714484897248
 21
305.4898599165953
 31
0.0
 11
22.04920977041331
 21
305.992679095513
 31
0.0
 11
21.8156346720854
 21
306.479653372415
 31
0.0
  0
DIMENSION
  5
10A
330
1F
100
AcDbEntity
  8
1
100
AcDbDimension
  2
*D2
 10
282.628505601032
 20
301.4696533726
 30
0.0
 11
278.878505601032
 21
291.356853461297
 31
0.0
 70
    32
  1
<>
 71
     5
 42
-1.0
 53
90.0
  3
ME10_DIM_10
100
AcDbAlignedDimension
 13
270.5486817452
 23
281.4696533726
 33
0.0
 14
270.5486817452
 24
301.4696533726
 34
0.0
 50
90.0
100
AcDbRotatedDimension
  0
DIMENSION
  5
115
330
1F
100
AcDbEntity
  8
1
100
AcDbDimension
  2
*D3
 10
291.244347747013
 20
307.9696533726528
 30
0.0
 11
287.494347747013
 21
291.356853461297
 31
0.0
 70
    32
  1
<>
 71
     5
 42
-1.0
 53
90.0
  3
ME10_DIM_11
100
AcDbAlignedDimension
 13
270.5486817452
 23
274.9696533725486
 33
0.0
 14
270.5486817452094
 24
307.9696533726528
 34
0.0
 50
90.0
100
AcDbRotatedDimension
  0
DIMENSION
  5
120
330
1F
100
AcDbEntity
  8
1
100
AcDbDimension
  2
*D4
 10
299.860189892995
 20
312.4696533726
 30
0.0
 11
296.110189892995
 21
291.931242937696
 31
0.0
 70
    32
  1
<>
 71
     5
 42
-1.0
 53
90.0
  3
ME10_DIM_12
100
AcDbAlignedDimension
 13
213.3707604324
 23
270.4696533726
 33
0.0
 14
213.3707604324
 24
312.4696533726
 34
0.0
 50
90.0
100
AcDbRotatedDimension
  0
DIMENSION
  5
12B
330
1F
100
AcDbEntity
  8
1
100
AcDbDimension
  2
*D5
 10
270.5486817452
 20
351.284822165569
 30
0.0
 11
186.896926201237
 21
355.034822165569
 31
0.0
 70
    32
  1
<>
 71
     5
 42
-1.0
 53
0.00013888888889
  3
ME10_DIM_13
100
AcDbAlignedDimension
 13
99.5486817452
 23
341.4696164515
 33
0.0
 14
270.5486817452
 24
307.0452628809
 34
0.0
100
AcDbRotatedDimension
  0
DIMENSION
  5
136
330
1F
100
AcDbEntity
  8
1
100
AcDbDimension
  2
*D6
 10
270.5486817452
 20
358.560422199953
 30
0.0
 11
171.77133665607
 21
362.310422199953
 31
0.0
 70
    32
  1
<>
 71
     5
 42
-1.0
 53
0.00013888888889
  3
ME10_DIM_14
100
AcDbAlignedDimension
 13
70.5486817452
 23
341.4696533726
 33
0.0
 14
270.5486817452
 24
307.0452628809
 34
0.0
100
AcDbRotatedDimension
  0
DIMENSION
  5
141
330
1F
100
AcDbEntity
  8
1
100
AcDbDimension
  2
*D7
 10
270.5486817452
 20
366.027485393137
 30
0.0
 11
159.517694492896
 21
369.777485393137
 31
0.0
 70
    32
  1
<>
 71
     5
 42
-1.0
 53
0.00013888888889
  3
ME10_DIM_15
100
AcDbAlignedDimension
 13
20.5486817452
 23
325.0698449352
 33
0.0
 14
270.5486817452
 24
307.0452628809
 34
0.0
100
AcDbRotatedDimension
  0
INSERT
  5
148
330
1F
100
AcDbEntity
  8
1
100
AcDbBlockReference
  2
*D8
 10
0.0
 20
0.0
 30
0.0
  0
DIMENSION
  5
153
330
1F
100
AcDbEntity
  8
1
100
AcDbDimension
  2
*D9
 10
249.606954521051
 20
311.0459294293139
 30
0.0
 11
252.8194603906131
 21
319.1728217856342
 31
0.0
 70
    37
  1
<>
 71
     5
 42
-1.0
  3
ME10_DIM_16
100
AcDb3PointAngularDimension
 13
249.52312258893
 23
309.6244007651547
 33
0.0
 14
216.997175675994
 24
312.4696533726
 34
0.0
 15
213.3707604324001
 25
312.4696533726
 35
0.0
  0
ENDSEC
  0
SECTION
  2
OBJECTS
  0
DICTIONARY
  5
C
330
0
100
AcDbDictionary
281
     1
  3
ACAD_GROUP
350
D
  3
ACAD_LAYOUT
350
1A
  3
ACAD_MLEADERSTYLE
350
156
  3
ACAD_MLINESTYLE
350
17
  3
ACAD_PLOTSETTINGS
350
19
  3
ACAD_PLOTSTYLENAME
350
E
  3
ACAD_SCALELIST
350
4A
  3
ACAD_VISUALSTYLE
350
2A
  3
AcDbVariableDictionary
350
154
  0
DICTIONARY
  5
D
102
{ACAD_REACTORS
330
C
102
}
330
C
100
AcDbDictionary
281
     1
  0
DICTIONARY
  5
1A
102
{ACAD_REACTORS
330
C
102
}
330
C
100
AcDbDictionary
281
     1
  3
Layout1
350
1E
  3
Layout2
350
26
  3
Model
350
22
  0
DICTIONARY
  5
156
102
{ACAD_REACTORS
330
C
102
}
330
C
100
AcDbDictionary
281
     1
  0
DICTIONARY
  5
17
102
{ACAD_REACTORS
330
C
102
}
330
C
100
AcDbDictionary
281
     1
  3
Standard
350
18
  0
DICTIONARY
  5
19
102
{ACAD_REACTORS
330
C
102
}
330
C
100
AcDbDictionary
281
     1
  0
ACDBDICTIONARYWDFLT
  5
E
102
{ACAD_REACTORS
330
C
102
}
330
C
100
AcDbDictionary
281
     1
  3
Normal
350
F
100
AcDbDictionaryWithDefault
340
F
  0
DICTIONARY
  5
4A
102
{ACAD_REACTORS
330
C
102
}
330
C
100
AcDbDictionary
281
     1
  3
A0
350
4B
  3
A1
350
4C
  3
A2
350
4D
  3
A3
350
4E
  3
A4
350
4F
  3
A5
350
50
  3
A6
350
51
  3
A7
350
52
  3
A8
350
53
  3
A9
350
54
  3
B0
350
55
  3
B1
350
56
  3
B2
350
57
  3
B3
350
58
  3
B4
350
59
  3
B5
350
5A
  3
B6
350
5B
  3
B7
350
5C
  3
B8
350
5D
  3
B9
350
5E
  3
C0
350
5F
  3
C1
350
60
  3
C2
350
61
  3
C3
350
62
  3
C4
350
63
  3
C5
350
64
  3
C6
350
65
  3
C7
350
66
  3
C8
350
67
  3
C9
350
68
  3
D0
350
69
  3
D1
350
6A
  3
D2
350
6B
  0
DICTIONARY
  5
2A
102
{ACAD_REACTORS
330
C
102
}
330
C
100
AcDbDictionary
281
     1
  3
2dWireframe
350
2F
  3
3D Hidden
350
31
  3
3dWireframe
350
30
  3
Basic
350
32
  3
Brighten
350
36
  3
ColorChange
350
3A
  3
Conceptual
350
34
  3
Dim
350
35
  3
Facepattern
350
39
  3
Flat
350
2B
  3
FlatWithEdges
350
2C
  3
Gouraud
350
2D
  3
GouraudWithEdges
350
2E
  3
Linepattern
350
38
  3
Realistic
350
33
  3
Thicken
350
37
  0
DICTIONARY
  5
154
102
{ACAD_REACTORS
330
C
102
}
330
C
100
AcDbDictionary
281
     1
  3
CANNOSCALE
350
157
  0
LAYOUT
  5
1E
102
{ACAD_REACTORS
330
1A
102
}
330
1A
100
AcDbPlotSettings
  1

  2
none_device
  4

  6

 40
0.0
 41
0.0
 42
0.0
 43
0.0
 44
0.0
 45
0.0
 46
0.0
 47
0.0
 48
0.0
 49
0.0
140
0.0
141
0.0
142
1.0
143
1.0
 70
   688
 72
     0
 73
     0
 74
     5
  7

 75
    16
147
1.0
148
0.0
149
0.0
100
AcDbLayout
  1
Layout1
 70
     1
 71
     1
 10
0.0
 20
0.0
 11
12.0
 21
9.0
 12
0.0
 22
0.0
 32
0.0
 14
1.00000000000000E+20
 24
1.00000000000000E+20
 34
1.00000000000000E+20
 15
-1.00000000000000E+20
 25
-1.00000000000000E+20
 35
-1.00000000000000E+20
146
0.0
 13
0.0
 23
0.0
 33
0.0
 16
1.0
 26
0.0
 36
0.0
 17
0.0
 27
1.0
 37
0.0
 76
     0
330
1B
  0
LAYOUT
  5
26
102
{ACAD_REACTORS
330
1A
102
}
330
1A
100
AcDbPlotSettings
  1

  2
none_device
  4

  6

 40
0.0
 41
0.0
 42
0.0
 43
0.0
 44
0.0
 45
0.0
 46
0.0
 47
0.0
 48
0.0
 49
0.0
140
0.0
141
0.0
142
1.0
143
1.0
 70
   688
 72
     0
 73
     0
 74
     5
  7

 75
    16
147
1.0
148
0.0
149
0.0
100
AcDbLayout
  1
Layout2
 70
     1
 71
     2
 10
0.0
 20
0.0
 11
0.0
 21
0.0
 12
0.0
 22
0.0
 32
0.0
 14
0.0
 24
0.0
 34
0.0
 15
0.0
 25
0.0
 35
0.0
146
0.0
 13
0.0
 23
0.0
 33
0.0
 16
1.0
 26
0.0
 36
0.0
 17
0.0
 27
1.0
 37
0.0
 76
     0
330
23
  0
LAYOUT
  5
22
102
{ACAD_REACTORS
330
1A
102
}
330
1A
100
AcDbPlotSettings
  1

  2
none_device
  4

  6

 40
0.0
 41
0.0
 42
0.0
 43
0.0
 44
0.0
 45
0.0
 46
0.0
 47
0.0
 48
0.0
 49
0.0
140
0.0
141
0.0
142
1.0
143
1.0
 70
  1712
 72
     0
 73
     0
 74
     0
  7

 75
     0
147
1.0
148
0.0
149
0.0
100
AcDbLayout
  1
Model
 70
     1
 71
     0
 10
0.0
 20
0.0
 11
12.0
 21
9.0
 12
0.0
 22
0.0
 32
0.0
 14
-1.7174746239883
 24
241.4696533726
 34
0.0
 15
301.860189892995
 25
371.527485393137
 35
0.0
146
0.0
 13
0.0
 23
0.0
 33
0.0
 16
1.0
 26
0.0
 36
0.0
 17
0.0
 27
1.0
 37
0.0
 76
     0
330
1F
331
29
  0
MLINESTYLE
  5
18
102
{ACAD_REACTORS
330
17
102
}
330
17
100
AcDbMlineStyle
  2
Standard
 70
     0
  3

 62
   256
 51
90.0
 52
90.0
 71
     2
 49
0.5
 62
   256
  6
BYLAYER
 49
-0.5
 62
   256
  6
BYLAYER
  0
ACDBPLACEHOLDER
  5
F
102
{ACAD_REACTORS
330
E
102
}
330
E
  0
SCALE
  5
4B
102
{ACAD_REACTORS
330
4A
102
}
330
4A
100
AcDbScale
 70
     0
300
1:1
140
1.0
141
1.0
290
     1
  0
SCALE
  5
4C
102
{ACAD_REACTORS
330
4A
102
}
330
4A
100
AcDbScale
 70
     0
300
1:2
140
1.0
141
2.0
290
     0
  0
SCALE
  5
4D
102
{ACAD_REACTORS
330
4A
102
}
330
4A
100
AcDbScale
 70
     0
300
1:4
140
1.0
141
4.0
290
     0
  0
SCALE
  5
4E
102
{ACAD_REACTORS
330
4A
102
}
330
4A
100
AcDbScale
 70
     0
300
1:5
140
1.0
141
5.0
290
     0
  0
SCALE
  5
4F
102
{ACAD_REACTORS
330
4A
102
}
330
4A
100
AcDbScale
 70
     0
300
1:8
140
1.0
141
8.0
290
     0
  0
SCALE
  5
50
102
{ACAD_REACTORS
330
4A
102
}
330
4A
100
AcDbScale
 70
     0
300
1:10
140
1.0
141
10.0
290
     0
  0
SCALE
  5
51
102
{ACAD_REACTORS
330
4A
102
}
330
4A
100
AcDbScale
 70
     0
300
1:16
140
1.0
141
16.0
290
     0
  0
SCALE
  5
52
102
{ACAD_REACTORS
330
4A
102
}
330
4A
100
AcDbScale
 70
     0
300
1:20
140
1.0
141
20.0
290
     0
  0
SCALE
  5
53
102
{ACAD_REACTORS
330
4A
102
}
330
4A
100
AcDbScale
 70
     0
300
1:30
140
1.0
141
30.0
290
     0
  0
SCALE
  5
54
102
{ACAD_REACTORS
330
4A
102
}
330
4A
100
AcDbScale
 70
     0
300
1:40
140
1.0
141
40.0
290
     0
  0
SCALE
  5
55
102
{ACAD_REACTORS
330
4A
102
}
330
4A
100
AcDbScale
 70
     0
300
1:50
140
1.0
141
50.0
290
     0
  0
SCALE
  5
56
102
{ACAD_REACTORS
330
4A
102
}
330
4A
100
AcDbScale
 70
     0
300
1:100
140
1.0
141
100.0
290
     0
  0
SCALE
  5
57
102
{ACAD_REACTORS
330
4A
102
}
330
4A
100
AcDbScale
 70
     0
300
2:1
140
2.0
141
1.0
290
     0
  0
SCALE
  5
58
102
{ACAD_REACTORS
330
4A
102
}
330
4A
100
AcDbScale
 70
     0
300
4:1
140
4.0
141
1.0
290
     0
  0
SCALE
  5
59
102
{ACAD_REACTORS
330
4A
102
}
330
4A
100
AcDbScale
 70
     0
300
8:1
140
8.0
141
1.0
290
     0
  0
SCALE
  5
5A
102
{ACAD_REACTORS
330
4A
102
}
330
4A
100
AcDbScale
 70
     0
300
10:1
140
10.0
141
1.0
290
     0
  0
SCALE
  5
5B
102
{ACAD_REACTORS
330
4A
102
}
330
4A
100
AcDbScale
 70
     0
300
100:1
140
100.0
141
1.0
290
     0
  0
SCALE
  5
5C
102
{ACAD_REACTORS
330
4A
102
}
330
4A
100
AcDbScale
 70
     0
300
1/128" = 1'-0"
140
0.0078125
141
12.0
290
     0
  0
SCALE
  5
5D
102
{ACAD_REACTORS
330
4A
102
}
330
4A
100
AcDbScale
 70
     0
300
1/64" = 1'-0"
140
0.015625
141
12.0
290
     0
  0
SCALE
  5
5E
102
{ACAD_REACTORS
330
4A
102
}
330
4A
100
AcDbScale
 70
     0
300
1/32" = 1'-0"
140
0.03125
141
12.0
290
     0
  0
SCALE
  5
5F
102
{ACAD_REACTORS
330
4A
102
}
330
4A
100
AcDbScale
 70
     0
300
1/16" = 1'-0"
140
0.0625
141
12.0
290
     0
  0
SCALE
  5
60
102
{ACAD_REACTORS
330
4A
102
}
330
4A
100
AcDbScale
 70
     0
300
3/32" = 1'-0"
140
0.09375
141
12.0
290
     0
  0
SCALE
  5
61
102
{ACAD_REACTORS
330
4A
102
}
330
4A
100
AcDbScale
 70
     0
300
1/8" = 1'-0"
140
0.125
141
12.0
290
     0
  0
SCALE
  5
62
102
{ACAD_REACTORS
330
4A
102
}
330
4A
100
AcDbScale
 70
     0
300
3/16" = 1'-0"
140
0.1875
141
12.0
290
     0
  0
SCALE
  5
63
102
{ACAD_REACTORS
330
4A
102
}
330
4A
100
AcDbScale
 70
     0
300
1/4" = 1'-0"
140
0.25
141
12.0
290
     0
  0
SCALE
  5
64
102
{ACAD_REACTORS
330
4A
102
}
330
4A
100
AcDbScale
 70
     0
300
3/8" = 1'-0"
140
0.375
141
12.0
290
     0
  0
SCALE
  5
65
102
{ACAD_REACTORS
330
4A
102
}
330
4A
100
AcDbScale
 70
     0
300
1/2" = 1'-0"
140
0.5
141
12.0
290
     0
  0
SCALE
  5
66
102
{ACAD_REACTORS
330
4A
102
}
330
4A
100
AcDbScale
 70
     0
300
3/4" = 1'-0"
140
0.75
141
12.0
290
     0
  0
SCALE
  5
67
102
{ACAD_REACTORS
330
4A
102
}
330
4A
100
AcDbScale
 70
     0
300
1" = 1'-0"
140
1.0
141
12.0
290
     0
  0
SCALE
  5
68
102
{ACAD_REACTORS
330
4A
102
}
330
4A
100
AcDbScale
 70
     0
300
1-1/2" = 1'-0"
140
1.5
141
12.0
290
     0
  0
SCALE
  5
69
102
{ACAD_REACTORS
330
4A
102
}
330
4A
100
AcDbScale
 70
     0
300
3" = 1'-0"
140
3.0
141
12.0
290
     0
  0
SCALE
  5
6A
102
{ACAD_REACTORS
330
4A
102
}
330
4A
100
AcDbScale
 70
     0
300
6" = 1'-0"
140
6.0
141
12.0
290
     0
  0
SCALE
  5
6B
102
{ACAD_REACTORS
330
4A
102
}
330
4A
100
AcDbScale
 70
     0
300
1'-0" = 1'-0"
140
12.0
141
12.0
290
     0
  0
VISUALSTYLE
  5
2F
102
{ACAD_REACTORS
330
2A
102
}
330
2A
100
AcDbVisualStyle
  2
2dWireframe
 70
     4
 71
     0
 72
     2
 73
     0
 90
        0
 40
-0.6
 41
-30.0
 62
     5
 63
     7
 74
     1
 91
        4
 64
     7
 65
   257
 75
     1
175
     1
 42
1.0
 92
        0
 66
   257
 43
1.0
 76
     1
 77
     6
 78
     2
 67
     7
 79
     5
170
     0
171
     0
290
     0
174
     0
 93
        1
 44
0.0
173
     0
291
     0
 45
0.0
1001
ACAD
1000
AcDbSavedByObjectVersion
1070
     0
  0
VISUALSTYLE
  5
31
102
{ACAD_REACTORS
330
2A
102
}
330
2A
100
AcDbVisualStyle
  2
3D Hidden
 70
     6
 71
     1
 72
     2
 73
     2
 90
        0
 40
-0.6
 41
-30.0
 62
     5
 63
     7
 74
     2
 91
        2
 64
     7
 65
   257
 75
     2
175
     1
 42
40.0
 92
        0
 66
   257
 43
1.0
 76
     1
 77
     6
 78
     2
 67
     7
 79
     3
170
     0
171
     0
290
     0
174
     0
 93
        1
 44
0.0
173
     0
291
     0
 45
0.0
1001
ACAD
1000
AcDbSavedByObjectVersion
1070
     0
  0
VISUALSTYLE
  5
30
102
{ACAD_REACTORS
330
2A
102
}
330
2A
100
AcDbVisualStyle
  2
3dWireframe
 70
     5
 71
     0
 72
     2
 73
     0
 90
        0
 40
-0.6
 41
-30.0
 62
     5
 63
     7
 74
     1
 91
        4
 64
     7
 65
   257
 75
     1
175
     1
 42
1.0
 92
        0
 66
   257
 43
1.0
 76
     1
 77
     6
 78
     2
 67
     7
 79
     5
170
     0
171
     0
290
     0
174
     0
 93
        1
 44
0.0
173
     0
291
     0
 45
0.0
1001
ACAD
1000
AcDbSavedByObjectVersion
1070
     0
  0
VISUALSTYLE
  5
32
102
{ACAD_REACTORS
330
2A
102
}
330
2A
100
AcDbVisualStyle
  2
Basic
 70
     7
 71
     1
 72
     0
 73
     1
 90
        0
 40
-0.6
 41
-30.0
 62
     5
 63
     7
 74
     0
 91
        4
 64
     7
 65
   257
 75
     1
175
     1
 42
1.0
 92
        8
 66
     7
 43
1.0
 76
     1
 77
     6
 78
     2
 67
     7
 79
     5
170
     0
171
     0
290
     0
174
     0
 93
        1
 44
0.0
173
     0
291
     1
 45
0.0
1001
ACAD
1000
AcDbSavedByObjectVersion
1070
     0
  0
VISUALSTYLE
  5
36
102
{ACAD_REACTORS
330
2A
102
}
330
2A
100
AcDbVisualStyle
  2
Brighten
 70
    12
 71
     2
 72
     2
 73
     0
 90
        0
 40
-0.6
 41
-30.0
 62
     5
 63
     7
 74
     1
 91
        4
 64
     7
 65
   257
 75
     1
175
     1
 42
1.0
 92
        8
 66
     7
 43
1.0
 76
     1
 77
     6
 78
     2
 67
     7
 79
     5
170
     0
171
     0
290
     0
174
     0
 93
        1
 44
50.0
173
     0
291
     1
 45
0.0
1001
ACAD
1000
AcDbSavedByObjectVersion
1070
     0
  0
VISUALSTYLE
  5
3A
102
{ACAD_REACTORS
330
2A
102
}
330
2A
100
AcDbVisualStyle
  2
ColorChange
 70
    16
 71
     2
 72
     2
 73
     3
 90
        0
 40
-0.6
 41
-30.0
 62
     5
 63
     8
 74
     1
 91
        4
 64
     7
 65
   257
 75
     1
175
     1
 42
1.0
 92
        8
 66
     8
 43
1.0
 76
     1
 77
     6
 78
     2
 67
     7
 79
     5
170
     0
171
     0
290
     0
174
     0
 93
        1
 44
0.0
173
     0
291
     1
 45
0.0
1001
ACAD
1000
AcDbSavedByObjectVersion
1070
     0
  0
VISUALSTYLE
  5
34
102
{ACAD_REACTORS
330
2A
102
}
330
2A
100
AcDbVisualStyle
  2
Conceptual
 70
     9
 71
     3
 72
     2
 73
     0
 90
        0
 40
-0.6
 41
-30.0
 62
     5
 63
     7
 74
     2
 91
        2
 64
     7
 65
   257
 75
     1
175
     1
 42
40.0
 92
        8
 66
     7
 43
1.0
 76
     1
 77
     6
 78
     2
 67
     7
 79
     3
170
     0
171
     0
290
     0
174
     0
 93
        1
 44
0.0
173
     0
291
     0
 45
0.0
1001
ACAD
1000
AcDbSavedByObjectVersion
1070
     0
  0
VISUALSTYLE
  5
35
102
{ACAD_REACTORS
330
2A
102
}
330
2A
100
AcDbVisualStyle
  2
Dim
 70
    11
 71
     2
 72
     2
 73
     0
 90
        0
 40
-0.6
 41
-30.0
 62
     5
 63
     7
 74
     1
 91
        4
 64
     7
 65
   257
 75
     1
175
     1
 42
1.0
 92
        8
 66
     7
 43
1.0
 76
     1
 77
     6
 78
     2
 67
     7
 79
     5
170
     0
171
     0
290
     0
174
     0
 93
        1
 44
-50.0
173
     0
291
     1
 45
0.0
1001
ACAD
1000
AcDbSavedByObjectVersion
1070
     0
  0
VISUALSTYLE
  5
39
102
{ACAD_REACTORS
330
2A
102
}
330
2A
100
AcDbVisualStyle
  2
Facepattern
 70
    15
 71
     2
 72
     2
 73
     0
 90
        0
 40
-0.6
 41
-30.0
 62
     5
 63
     7
 74
     1
 91
        4
 64
     7
 65
   257
 75
     1
175
     1
 42
1.0
 92
        8
 66
     7
 43
1.0
 76
     1
 77
     6
 78
     2
 67
     7
 79
     5
170
     0
171
     0
290
     0
174
     0
 93
        1
 44
0.0
173
     0
291
     1
 45
0.0
1001
ACAD
1000
AcDbSavedByObjectVersion
1070
     0
  0
VISUALSTYLE
  5
2B
102
{ACAD_REACTORS
330
2A
102
}
330
2A
100
AcDbVisualStyle
  2
Flat
 70
     0
 71
     2
 72
     1
 73
     1
 90
        2
 40
-0.6
 41
30.0
 62
     5
 63
     7
 74
     0
 91
        4
 64
     7
 65
   257
 75
     1
175
     1
 42
1.0
 92
        8
 66
     7
 43
1.0
 76
     1
 77
     6
 78
     2
 67
     7
 79
     5
170
     0
171
     0
290
     0
174
     0
 93
       13
 44
0.0
173
     0
291
     1
 45
0.0
1001
ACAD
1000
AcDbSavedByObjectVersion
1070
     0
  0
VISUALSTYLE
  5
2C
102
{ACAD_REACTORS
330
2A
102
}
330
2A
100
AcDbVisualStyle
  2
FlatWithEdges
 70
     1
 71
     2
 72
     1
 73
     1
 90
        2
 40
-0.6
 41
30.0
 62
     5
 63
     7
 74
     1
 91
        4
 64
     7
 65
   257
 75
     1
175
     1
 42
1.0
 92
        0
 66
   257
 43
1.0
 76
     1
 77
     6
 78
     2
 67
     7
 79
     5
170
     0
171
     0
290
     0
174
     0
 93
       13
 44
0.0
173
     0
291
     1
 45
0.0
1001
ACAD
1000
AcDbSavedByObjectVersion
1070
     0
  0
VISUALSTYLE
  5
2D
102
{ACAD_REACTORS
330
2A
102
}
330
2A
100
AcDbVisualStyle
  2
Gouraud
 70
     2
 71
     2
 72
     2
 73
     1
 90
        2
 40
-0.6
 41
30.0
 62
     5
 63
     7
 74
     0
 91
        4
 64
     7
 65
   257
 75
     1
175
     1
 42
1.0
 92
        0
 66
     7
 43
1.0
 76
     1
 77
     6
 78
     2
 67
     7
 79
     5
170
     0
171
     0
290
     0
174
     0
 93
       13
 44
0.0
173
     0
291
     1
 45
0.0
1001
ACAD
1000
AcDbSavedByObjectVersion
1070
     0
  0
VISUALSTYLE
  5
2E
102
{ACAD_REACTORS
330
2A
102
}
330
2A
100
AcDbVisualStyle
  2
GouraudWithEdges
 70
     3
 71
     2
 72
     2
 73
     1
 90
        2
 40
-0.6
 41
30.0
 62
     5
 63
     7
 74
     1
 91
        4
 64
     7
 65
   257
 75
     1
175
     1
 42
1.0
 92
        0
 66
   257
 43
1.0
 76
     1
 77
     6
 78
     2
 67
     7
 79
     5
170
     0
171
     0
290
     0
174
     0
 93
       13
 44
0.0
173
     0
291
     1
 45
0.0
1001
ACAD
1000
AcDbSavedByObjectVersion
1070
     0
  0
VISUALSTYLE
  5
38
102
{ACAD_REACTORS
330
2A
102
}
330
2A
100
AcDbVisualStyle
  2
Linepattern
 70
    14
 71
     2
 72
     2
 73
     0
 90
        0
 40
-0.6
 41
-30.0
 62
     5
 63
     7
 74
     1
 91
        4
 64
     7
 65
   257
 75
     7
175
     7
 42
1.0
 92
        8
 66
     7
 43
1.0
 76
     1
 77
     6
 78
     2
 67
     7
 79
     5
170
     0
171
     0
290
     0
174
     0
 93
        1
 44
0.0
173
     0
291
     1
 45
0.0
1001
ACAD
1000
AcDbSavedByObjectVersion
1070
     0
  0
VISUALSTYLE
  5
33
102
{ACAD_REACTORS
330
2A
102
}
330
2A
100
AcDbVisualStyle
  2
Realistic
 70
     8
 71
     2
 72
     2
 73
     0
 90
        0
 40
-0.6
 41
-30.0
 62
     5
 63
     7
 74
     1
 91
        0
 64
     7
 65
   257
 75
     1
175
     1
 42
1.0
 92
        8
 66
     8
 43
1.0
 76
     1
 77
     6
 78
     2
 67
     7
 79
     5
170
     0
171
     0
290
     0
174
     0
 93
       13
 44
0.0
173
     0
291
     0
 45
0.0
1001
ACAD
1000
AcDbSavedByObjectVersion
1070
     0
  0
VISUALSTYLE
  5
37
102
{ACAD_REACTORS
330
2A
102
}
330
2A
100
AcDbVisualStyle
  2
Thicken
 70
    13
 71
     2
 72
     2
 73
     0
 90
        0
 40
-0.6
 41
-30.0
 62
     5
 63
     7
 74
     1
 91
        4
 64
     7
 65
   257
 75
     1
175
     1
 42
1.0
 92
       12
 66
     7
 43
1.0
 76
     1
 77
     6
 78
     2
 67
     7
 79
     5
170
     0
171
     0
290
     0
174
     0
 93
        1
 44
0.0
173
     0
291
     1
 45
0.0
1001
ACAD
1000
AcDbSavedByObjectVersion
1070
     0
  0
DICTIONARYVAR
  5
157
102
{ACAD_REACTORS
330
154
102
}
330
154
100
DictionaryVariables
280
     0
  1
1:1
  0
ENDSEC
  0
EOF
